  0
SECTION
  2
HEADER
  9
$ACADVER
  1
AC1021
  9
$ACADMAINTVER
 70
    25
  9
$DWGCODEPAGE
  3
ANSI_932
  9
$LASTSAVEDBY
  1
howeNelson
  9
$INSBASE
 10
0.0
 20
0.0
 30
0.0
  9
$EXTMIN
 10
0.0
 20
0.0
 30
-0.000000006806772
  9
$EXTMAX
 10
2100.0
 20
2970.0
 30
1352.227712631226
  9
$LIMMIN
 10
0.0
 20
0.0
  9
$LIMMAX
 10
2100.0
 20
2970.0
  9
$ORTHOMODE
 70
     0
  9
$REGENMODE
 70
     1
  9
$FILLMODE
 70
     1
  9
$QTEXTMODE
 70
     0
  9
$MIRRTEXT
 70
     1
  9
$LTSCALE
 40
5.0
  9
$ATTMODE
 70
     1
  9
$TEXTSIZE
 40
2.5
  9
$TRACEWID
 40
1.0
  9
$TEXTSTYLE
  7
ＭＳ ゴシック
  9
$CLAYER
  8
DIM
  9
$CELTYPE
  6
ByLayer
  9
$CECOLOR
 62
   256
  9
$CELTSCALE
 40
1.0
  9
$DISPSILH
 70
     0
  9
$DIMSCALE
 40
1.0
  9
$DIMASZ
 40
10.0
  9
$DIMEXO
 40
30.0
  9
$DIMDLI
 40
0.9999999999999999
  9
$DIMRND
 40
0.0
  9
$DIMDLE
 40
0.0
  9
$DIMEXE
 40
0.0
  9
$DIMTP
 40
0.0
  9
$DIMTM
 40
0.0
  9
$DIMTXT
 40
24.0
  9
$DIMCEN
 40
0.0
  9
$DIMTSZ
 40
0.0
  9
$DIMTOL
 70
     0
  9
$DIMLIM
 70
     0
  9
$DIMTIH
 70
     0
  9
$DIMTOH
 70
     0
  9
$DIMSE1
 70
     0
  9
$DIMSE2
 70
     0
  9
$DIMTAD
 70
     1
  9
$DIMZIN
 70
    11
  9
$DIMBLK
  1
DOT
  9
$DIMASO
 70
     1
  9
$DIMSHO
 70
     1
  9
$DIMPOST
  1
<>
  9
$DIMAPOST
  1
[]
  9
$DIMALT
 70
     0
  9
$DIMALTD
 70
     1
  9
$DIMALTF
 40
1.0
  9
$DIMLFAC
 40
1.0
  9
$DIMTOFL
 70
     0
  9
$DIMTVP
 40
0.0
  9
$DIMTIX
 70
     1
  9
$DIMSOXD
 70
     0
  9
$DIMSAH
 70
     0
  9
$DIMBLK1
  1

  9
$DIMBLK2
  1

  9
$DIMSTYLE
  2
tfrom線あり
  9
$DIMCLRD
 70
     0
  9
$DIMCLRE
 70
     0
  9
$DIMCLRT
 70
     0
  9
$DIMTFAC
 40
1.0
  9
$DIMGAP
 40
20.0
  9
$DIMJUST
 70
     0
  9
$DIMSD1
 70
     0
  9
$DIMSD2
 70
     0
  9
$DIMTOLJ
 70
     1
  9
$DIMTZIN
 70
    11
  9
$DIMALTZ
 70
    11
  9
$DIMALTTZ
 70
    11
  9
$DIMUPT
 70
     0
  9
$DIMDEC
 70
     0
  9
$DIMTDEC
 70
     1
  9
$DIMALTU
 70
     2
  9
$DIMALTTD
 70
     2
  9
$DIMTXSTY
  7
ＭＳ ゴシック
  9
$DIMAUNIT
 70
     0
  9
$DIMADEC
 70
     2
  9
$DIMALTRND
 40
0.0
  9
$DIMAZIN
 70
     0
  9
$DIMDSEP
 70
    46
  9
$DIMATFIT
 70
     0
  9
$DIMFRAC
 70
     2
  9
$DIMLDRBLK
  1
DOT
  9
$DIMLUNIT
 70
     2
  9
$DIMLWD
 70
    -2
  9
$DIMLWE
 70
    -2
  9
$DIMTMOVE
 70
     0
  9
$DIMFXL
 40
1.0
  9
$DIMFXLON
 70
     0
  9
$DIMJOGANG
 40
0.7853981633974483
  9
$DIMTFILL
 70
     0
  9
$DIMTFILLCLR
 70
     0
  9
$DIMARCSYM
 70
     0
  9
$DIMLTYPE
  6

  9
$DIMLTEX1
  6

  9
$DIMLTEX2
  6

  9
$LUNITS
 70
     2
  9
$LUPREC
 70
     0
  9
$SKETCHINC
 40
0.1
  9
$FILLETRAD
 40
0.0
  9
$AUNITS
 70
     0
  9
$AUPREC
 70
     0
  9
$MENU
  1
acad
  9
$ELEVATION
 40
0.0
  9
$PELEVATION
 40
0.0
  9
$THICKNESS
 40
0.0
  9
$LIMCHECK
 70
     0
  9
$CHAMFERA
 40
0.0
  9
$CHAMFERB
 40
0.0
  9
$CHAMFERC
 40
0.0
  9
$CHAMFERD
 40
0.0
  9
$SKPOLY
 70
     0
  9
$TDCREATE
 40
2447893.375
  9
$TDUCREATE
 40
0.0
  9
$TDUPDATE
 40
2458094.664377488
  9
$TDUUPDATE
 40
2458094.289377488
  9
$TDINDWG
 40
0.3917560532
  9
$TDUSRTIMER
 40
2458094.063420475
  9
$USRTIMER
 70
     1
  9
$ANGBASE
 50
0.0
  9
$ANGDIR
 70
     0
  9
$PDMODE
 70
     1
  9
$PDSIZE
 40
-2.0
  9
$PLINEWID
 40
0.0
  9
$SPLFRAME
 70
     0
  9
$SPLINETYPE
 70
     6
  9
$SPLINESEGS
 70
     8
  9
$HANDSEED
  5
3BE0
  9
$SURFTAB1
 70
     6
  9
$SURFTAB2
 70
     6
  9
$SURFTYPE
 70
     6
  9
$SURFU
 70
     6
  9
$SURFV
 70
     6
  9
$UCSBASE
  2

  9
$UCSNAME
  2

  9
$UCSORG
 10
0.0
 20
0.0
 30
0.0
  9
$UCSXDIR
 10
1.0
 20
0.0
 30
0.0
  9
$UCSYDIR
 10
0.0
 20
1.0
 30
0.0
  9
$UCSORTHOREF
  2

  9
$UCSORTHOVIEW
 70
     0
  9
$UCSORGTOP
 10
0.0
 20
0.0
 30
0.0
  9
$UCSORGBOTTOM
 10
0.0
 20
0.0
 30
0.0
  9
$UCSORGLEFT
 10
0.0
 20
0.0
 30
0.0
  9
$UCSORGRIGHT
 10
0.0
 20
0.0
 30
0.0
  9
$UCSORGFRONT
 10
0.0
 20
0.0
 30
0.0
  9
$UCSORGBACK
 10
0.0
 20
0.0
 30
0.0
  9
$PUCSBASE
  2

  9
$PUCSNAME
  2

  9
$PUCSORG
 10
0.0
 20
0.0
 30
0.0
  9
$PUCSXDIR
 10
1.0
 20
0.0
 30
0.0
  9
$PUCSYDIR
 10
0.0
 20
1.0
 30
0.0
  9
$PUCSORTHOREF
  2

  9
$PUCSORTHOVIEW
 70
     0
  9
$PUCSORGTOP
 10
0.0
 20
0.0
 30
0.0
  9
$PUCSORGBOTTOM
 10
0.0
 20
0.0
 30
0.0
  9
$PUCSORGLEFT
 10
0.0
 20
0.0
 30
0.0
  9
$PUCSORGRIGHT
 10
0.0
 20
0.0
 30
0.0
  9
$PUCSORGFRONT
 10
0.0
 20
0.0
 30
0.0
  9
$PUCSORGBACK
 10
0.0
 20
0.0
 30
0.0
  9
$USERI1
 70
     0
  9
$USERI2
 70
     0
  9
$USERI3
 70
     0
  9
$USERI4
 70
     0
  9
$USERI5
 70
     0
  9
$USERR1
 40
0.0
  9
$USERR2
 40
0.0
  9
$USERR3
 40
0.0
  9
$USERR4
 40
0.0
  9
$USERR5
 40
0.0
  9
$WORLDVIEW
 70
     1
  9
$SHADEDGE
 70
     3
  9
$SHADEDIF
 70
    70
  9
$TILEMODE
 70
     1
  9
$MAXACTVP
 70
    64
  9
$PINSBASE
 10
0.0
 20
0.0
 30
0.0
  9
$PLIMCHECK
 70
     0
  9
$PEXTMIN
 10
0.0
 20
0.0
 30
0.0
  9
$PEXTMAX
 10
0.0
 20
0.0
 30
0.0
  9
$PLIMMIN
 10
-7.5
 20
-20.0
  9
$PLIMMAX
 10
412.5
 20
277.0
  9
$UNITMODE
 70
     0
  9
$VISRETAIN
 70
     0
  9
$PLINEGEN
 70
     1
  9
$PSLTSCALE
 70
     0
  9
$TREEDEPTH
 70
  3020
  9
$CMLSTYLE
  2
Standard
  9
$CMLJUST
 70
     0
  9
$CMLSCALE
 40
1.0
  9
$PROXYGRAPHICS
 70
     0
  9
$MEASUREMENT
 70
     1
  9
$CELWEIGHT
370
    -1
  9
$ENDCAPS
280
     0
  9
$JOINSTYLE
280
     0
  9
$LWDISPLAY
290
     1
  9
$INSUNITS
 70
     4
  9
$HYPERLINKBASE
  1

  9
$STYLESHEET
  1

  9
$XEDIT
290
     1
  9
$CEPSNTYPE
380
     0
  9
$PSTYLEMODE
290
     1
  9
$FINGERPRINTGUID
  2

  9
$VERSIONGUID
  2

  9
$EXTNAMES
290
     1
  9
$PSVPSCALE
 40
0.0
  9
$OLESTARTUP
290
     0
  9
$SORTENTS
280
   127
  9
$INDEXCTL
280
     0
  9
$HIDETEXT
280
     1
  9
$XCLIPFRAME
290
     0
  9
$HALOGAP
280
     0
  9
$OBSCOLOR
 70
   257
  9
$OBSLTYPE
280
     0
  9
$INTERSECTIONDISPLAY
280
     0
  9
$INTERSECTIONCOLOR
 70
   257
  9
$DIMASSOC
280
     2
  9
$PROJECTNAME
  1

  9
$CAMERADISPLAY
290
     0
  9
$LENSLENGTH
 40
50.0
  9
$CAMERAHEIGHT
 40
0.0
  9
$STEPSPERSEC
 40
2.0
  9
$STEPSIZE
 40
6.0
  9
$3DDWFPREC
 40
2.0
  9
$PSOLWIDTH
 40
0.25
  9
$PSOLHEIGHT
 40
4.0
  9
$LOFTANG1
 40
1.570796326794897
  9
$LOFTANG2
 40
1.570796326794897
  9
$LOFTMAG1
 40
0.0
  9
$LOFTMAG2
 40
0.0
  9
$LOFTPARAM
 70
     7
  9
$LOFTNORMALS
280
     1
  9
$LATITUDE
 40
37.795
  9
$LONGITUDE
 40
-122.394
  9
$NORTHDIRECTION
 40
0.0
  9
$TIMEZONE
 70
 -8000
  9
$LIGHTGLYPHDISPLAY
280
     1
  9
$TILEMODELIGHTSYNCH
280
     1
  9
$SOLIDHIST
280
     1
  9
$SHOWHIST
280
     1
  9
$DWFFRAME
280
     2
  9
$DGNFRAME
280
     2
  9
$REALWORLDSCALE
290
     1
  9
$INTERFERECOLOR
 62
   256
  9
$CSHADOW
280
     0
  9
$SHADOWPLANELOCATION
 40
0.0
  0
ENDSEC
  0
SECTION
  2
CLASSES
  0
CLASS
  1
LWPOLYLINE
  2
AcDbPolyline
  3
ObjectDBX Classes
 90
        0
 91
        1
280
     0
281
     1
  0
CLASS
  1
IMAGE
  2
AcDbRasterImage
  3
ISM
 90
      127
 91
        5
280
     0
281
     1
  0
CLASS
  1
OLE2FRAME
  2
AcDbOle2Frame
  3
ObjectDBX Classes
 90
        0
 91
        1
280
     0
281
     1
  0
CLASS
  1
HATCH
  2
AcDbHatch
  3
ObjectDBX Classes
 90
        0
 91
        1
280
     0
281
     1
  0
CLASS
  1
DICTIONARYVAR
  2
AcDbDictionaryVar
  3
ObjectDBX Classes
 90
        0
 91
        4
280
     0
281
     0
  0
CLASS
  1
RASTERVARIABLES
  2
AcDbRasterVariables
  3
ISM
 90
        0
 91
        4
280
     0
281
     0
  0
CLASS
  1
IMAGEDEF
  2
AcDbRasterImageDef
  3
ISM
 90
        0
 91
        4
280
     0
281
     0
  0
CLASS
  1
IMAGEDEF_REACTOR
  2
AcDbRasterImageDefReactor
  3
ISM
 90
        1
 91
        4
280
     0
281
     0
  0
CLASS
  1
IDBUFFER
  2
AcDbIdBuffer
  3
ObjectDBX Classes
 90
        0
 91
        4
280
     0
281
     0
  0
CLASS
  1
SPATIAL_FILTER
  2
AcDbSpatialFilter
  3
ObjectDBX Classes
 90
        0
 91
        4
280
     0
281
     0
  0
CLASS
  1
XRECORD
  2
AcDbXrecord
  3
ObjectDBX Classes
 90
        0
 91
        1
280
     0
281
     0
  0
CLASS
  1
SORTENTSTABLE
  2
AcDbSortentsTable
  3
ObjectDBX Classes
 90
        0
 91
        4
280
     0
281
     0
  0
CLASS
  1
LAYER_INDEX
  2
AcDbLayerIndex
  3
ObjectDBX Classes
 90
        0
 91
        4
280
     0
281
     0
  0
CLASS
  1
SPATIAL_INDEX
  2
AcDbSpatialIndex
  3
AutoCAD 2000
 90
        0
 91
        4
280
     0
281
     0
  0
CLASS
  1
OBJECT_PTR
  2
CAseDLPNTableRecord
  3
ASE-LPNTableRecord
 90
        1
 91
        4
280
     0
281
     0
  0
CLASS
  1
LAYOUT
  2
AcDbLayout
  3
ObjectDBX Classes
 90
        0
 91
        1
280
     0
281
     0
  0
CLASS
  1
PLOTSETTINGS
  2
AcDbPlotSettings
  3
ObjectDBX Classes
 90
        0
 91
        4
280
     0
281
     0
  0
CLASS
  1
ACDBDICTIONARYWDFLT
  2
AcDbDictionaryWithDefault
  3
ObjectDBX Classes
 90
        0
 91
        4
280
     0
281
     0
  0
CLASS
  1
ACDBPLACEHOLDER
  2
AcDbPlaceHolder
  3
ObjectDBX Classes
 90
        0
 91
        1
280
     0
281
     0
  0
CLASS
  1
SCALE
  2
AcDbScale
  3
ObjectDBX Classes
 90
     1153
 91
        4
280
     0
281
     0
  0
CLASS
  1
MATERIAL
  2
AcDbMaterial
  3
ObjectDBX Classes
 90
     1153
 91
        4
280
     0
281
     0
  0
CLASS
  1
VISUALSTYLE
  2
AcDbVisualStyle
  3
ObjectDBX Classes
 90
     4095
 91
        4
280
     0
281
     0
  0
CLASS
  1
TABLESTYLE
  2
AcDbTableStyle
  3
ObjectDBX Classes
 90
     4095
 91
        4
280
     0
281
     0
  0
CLASS
  1
DIMASSOC
  2
AcDbDimAssoc
  3
"AcDbDimAssoc|Product Desc:     AcDim ARX App For Dimension|Company:          Autodesk, Inc.|WEB Address:      www.autodesk.com"
 90
        0
 91
        4
280
     0
281
     0
  0
CLASS
  1
CELLSTYLEMAP
  2
AcDbCellStyleMap
  3
ObjectDBX Classes
 90
     1152
 91
        4
280
     0
281
     0
  0
CLASS
  1
SUN
  2
AcDbSun
  3
SCENEOE
 90
     1153
 91
        4
280
     0
281
     0
  0
CLASS
  1
MLEADERSTYLE
  2
AcDbMLeaderStyle
  3
ACDB_MLEADERSTYLE_CLASS
 90
     4095
 91
        4
280
     0
281
     0
  0
CLASS
  1
FIELD
  2
AcDbField
  3
ObjectDBX Classes
 90
     1152
 91
        4
280
     0
281
     0
  0
CLASS
  1
FIELDLIST
  2
AcDbFieldList
  3
ObjectDBX Classes
 90
     1152
 91
        4
280
     0
281
     0
  0
CLASS
  1
MULTILEADER
  2
AcDbMLeader
  3
ACDB_MLEADER_CLASS
 90
     1025
 91
        4
280
     0
281
     1
  0
ENDSEC
  0
SECTION
  2
TABLES
  0
TABLE
  2
VPORT
  5
7
330
0
100
AcDbSymbolTable
 70
     1
  0
VPORT
  5
15
330
7
100
AcDbSymbolTableRecord
100
AcDbViewportTableRecord
  2
*ACTIVE
 70
     0
 10
0.0
 20
0.0
 11
1.0
 21
1.0
 12
1141.020135670899
 22
1411.401285469834
 13
0.0
 23
0.0
 14
1.0
 24
1.0
 15
0.0
 25
0.0
 16
0.0
 26
0.0
 36
1.0
 17
-91.02013567089898
 27
73.59871453016603
 37
-46.86809886248113
 40
3029.4
 41
2.178082191780822
 42
50.0
 43
0.0
 44
0.0
 50
0.0
 51
0.0
 71
    16
 72
  2000
 73
     1
 74
     1
 75
     0
 76
     0
 77
     0
 78
     0
281
     0
 65
     1
110
0.0
120
0.0
130
0.0
111
1.0
121
0.0
131
0.0
112
0.0
122
1.0
132
0.0
 79
     0
146
0.0
348
26C
 60
     3
 61
     5
292
     1
282
     1
141
0.0
142
0.0
 63
   256
361
904
  0
ENDTAB
  0
TABLE
  2
LTYPE
  5
4
330
0
100
AcDbSymbolTable
 70
     4
  0
LTYPE
  5
11
330
4
100
AcDbSymbolTableRecord
100
AcDbLinetypeTableRecord
  2
ByBlock
 70
     0
  3

 72
    65
 73
     0
 40
0.0
  0
LTYPE
  5
12
330
4
100
AcDbSymbolTableRecord
100
AcDbLinetypeTableRecord
  2
ByLayer
 70
     0
  3

 72
    65
 73
     0
 40
0.0
  0
LTYPE
  5
13
330
4
100
AcDbSymbolTableRecord
100
AcDbLinetypeTableRecord
  2
Continuous
 70
     0
  3
Solid line
 72
    65
 73
     0
 40
0.0
  0
LTYPE
  5
DAF
330
4
100
AcDbSymbolTableRecord
100
AcDbLinetypeTableRecord
  2
BORDER
 70
     0
  3
Border __  __  . __  __  . __  __  . __  __  . 
 72
    65
 73
     6
 40
44.45
 49
12.7
 74
     0
 49
-6.35
 74
     0
 49
12.7
 74
     0
 49
-6.35
 74
     0
 49
0.0
 74
     0
 49
-6.35
 74
     0
  0
LTYPE
  5
33DD
330
4
100
AcDbSymbolTableRecord
100
AcDbLinetypeTableRecord
  2
HIDDEN
 70
     0
  3
Hidden _ _ _ _ _ _ _ _ _ _ _ _ _ _ _ _ _ _ _ _ 
 72
    65
 73
     2
 40
9.524999999999999
 49
6.35
 74
     0
 49
-3.175
 74
     0
  0
ENDTAB
  0
TABLE
  2
LAYER
  5
2
102
{ACAD_XDICTIONARY
360
2E1
102
}
330
0
100
AcDbSymbolTable
 70
    15
  0
LAYER
  5
14
330
2
100
AcDbSymbolTableRecord
100
AcDbLayerTableRecord
  2
0
 70
     0
 62
     7
  6
Continuous
370
    -3
390
1D
347
266
  0
LAYER
  5
4B
330
2
100
AcDbSymbolTableRecord
100
AcDbLayerTableRecord
  2
TEMPLATE
 70
     0
 62
     7
  6
Continuous
370
    20
390
1D
347
266
  0
LAYER
  5
4C
330
2
100
AcDbSymbolTableRecord
100
AcDbLayerTableRecord
  2
DIM
 70
     0
 62
     3
  6
Continuous
370
    13
390
1D
347
266
  0
LAYER
  5
4D
330
2
100
AcDbSymbolTableRecord
100
AcDbLayerTableRecord
  2
MODEL
 70
     0
 62
     7
  6
Continuous
370
    20
390
1D
347
266
  0
LAYER
  5
667
330
2
100
AcDbSymbolTableRecord
100
AcDbLayerTableRecord
  2
LOGO
 70
     0
 62
     7
  6
Continuous
370
    -3
390
1D
347
266
  0
LAYER
  5
D5D
330
2
100
AcDbSymbolTableRecord
100
AcDbLayerTableRecord
  2
Defpoints
 70
     0
 62
     7
  6
Continuous
290
     0
370
    -3
390
1D
347
266
  0
LAYER
  5
DAE
330
2
100
AcDbSymbolTableRecord
100
AcDbLayerTableRecord
  2
BORDER
 70
     0
 62
     4
  6
BORDER
290
     0
370
    20
390
1D
347
266
1001
AcAecLayerStandard
1000

1000

  0
LAYER
  5
157B
330
2
100
AcDbSymbolTableRecord
100
AcDbLayerTableRecord
  2
Layer3
 70
     0
 62
     7
  6
Continuous
370
    -3
390
1D
347
266
  0
LAYER
  5
157F
330
2
100
AcDbSymbolTableRecord
100
AcDbLayerTableRecord
  2
Layer9
 70
     0
 62
     7
  6
Continuous
370
    -3
390
1D
347
266
  0
LAYER
  5
1582
330
2
100
AcDbSymbolTableRecord
100
AcDbLayerTableRecord
  2
Standard
 70
     0
 62
     7
  6
Continuous
370
    -3
390
1D
347
266
  0
LAYER
  5
33DC
330
2
100
AcDbSymbolTableRecord
100
AcDbLayerTableRecord
  2
HIDDEN
 70
     0
 62
     8
  6
HIDDEN
370
    20
390
1D
347
266
1001
AcAecLayerStandard
1000

1000

  0
ENDTAB
  0
TABLE
  2
STYLE
  5
3
330
0
100
AcDbSymbolTable
 70
     6
  0
STYLE
  5
17
330
3
100
AcDbSymbolTableRecord
100
AcDbTextStyleTableRecord
  2
Standard
 70
     0
 40
0.0
 41
1.0
 50
0.0
 71
     0
 42
2.5
  3
txt
  4
BIGFONT.SHX
  0
STYLE
  5
39
330
3
100
AcDbSymbolTableRecord
100
AcDbTextStyleTableRecord
  2
ＭＳ ゴシック
 70
     0
 40
0.0
 41
1.0
 50
0.0
 71
     0
 42
2.5
  3
msgothic.ttc
  4
ＭＳ ゴシック
1001
ACAD
1000
ＭＳ ゴシック
1071
        0
  0
STYLE
  5
384
330
3
100
AcDbSymbolTableRecord
100
AcDbTextStyleTableRecord
  2
ARIAL
 70
     0
 40
0.0
 41
1.0
 50
0.0
 71
     0
 42
12.0
  3
ARIAL.TTF
  4

1001
ACAD
1000
Arial
1071
       34
  0
STYLE
  5
385
330
3
100
AcDbSymbolTableRecord
100
AcDbTextStyleTableRecord
  2
ROMANS
 70
     0
 40
0.0
 41
1.0
 50
0.0
 71
     0
 42
5.0
  3
romans.shx
  4

  0
STYLE
  5
158C
330
3
100
AcDbSymbolTableRecord
100
AcDbTextStyleTableRecord
  2
SEACAD_Arial
 70
     0
 40
0.0
 41
1.0
 50
0.0
 71
     0
 42
2.5
  3
arial.ttf
  4

1001
ACAD
1000
Arial
1071
        0
  0
STYLE
  5
158D
330
3
100
AcDbSymbolTableRecord
100
AcDbTextStyleTableRecord
  2
SEACAD_Solid_Edge_ANSI1_Symbols
 70
     0
 40
0.0
 41
1.0
 50
0.0
 71
     0
 42
2.5
  3
semeca1.ttf
  4

1001
ACAD
1000
Solid Edge ANSI1 Symbols
1071
        0
  0
ENDTAB
  0
TABLE
  2
VIEW
  5
5
330
0
100
AcDbSymbolTable
 70
     0
  0
ENDTAB
  0
TABLE
  2
UCS
  5
6
330
0
100
AcDbSymbolTable
 70
     0
  0
ENDTAB
  0
TABLE
  2
APPID
  5
8
330
0
100
AcDbSymbolTable
 70
     3
  0
APPID
  5
16
330
8
100
AcDbSymbolTableRecord
100
AcDbRegAppTableRecord
  2
ACAD
 70
     0
  0
APPID
  5
7AC
330
8
100
AcDbSymbolTableRecord
100
AcDbRegAppTableRecord
  2
AcAecLayerStandard
 70
     0
  0
APPID
  5
F3A
330
8
100
AcDbSymbolTableRecord
100
AcDbRegAppTableRecord
  2
ACAD_MLEADERVER
 70
     0
  0
ENDTAB
  0
TABLE
  2
DIMSTYLE
  5
9
330
0
100
AcDbSymbolTable
 70
     3
100
AcDbDimStyleTable
  0
DIMSTYLE
105
18
330
9
100
AcDbSymbolTableRecord
100
AcDbDimStyleTableRecord
  2
Standard
 70
     0
178
     0
340
17
  0
DIMSTYLE
105
57
102
{ACAD_REACTORS
330
3A8C
330
3AA4
330
3AB3
330
3B90
330
3BB2
102
}
330
9
100
AcDbSymbolTableRecord
100
AcDbDimStyleTableRecord
  2
tfrom線あり
 70
     0
  3
<>
  4
[]
 41
10.0
 42
30.0
 43
0.9999999999999999
 44
0.0
 73
     0
 74
     0
 77
     1
 78
    11
140
24.0
141
0.0
143
1.0
147
20.0
171
     1
174
     1
178
     0
179
     2
271
     0
272
     1
276
     2
284
    11
285
    11
286
    11
289
     0
340
39
341
4E
342
4E
  0
ENDTAB
  0
TABLE
  2
BLOCK_RECORD
  5
1
330
0
100
AcDbSymbolTable
 70
   177
  0
BLOCK_RECORD
  5
A
330
1
100
AcDbSymbolTableRecord
100
AcDbBlockTableRecord
  2
*MODEL_SPACE
340
20
 70
     0
280
     1
281
     0
  0
BLOCK_RECORD
  5
B
330
1
100
AcDbSymbolTableRecord
100
AcDbBlockTableRecord
  2
*PAPER_SPACE
340
21
 70
     0
280
     1
281
     0
  0
BLOCK_RECORD
  5
4E
330
1
100
AcDbSymbolTableRecord
100
AcDbBlockTableRecord
  2
_DOT
340
0
102
{BLKREFS
331
3106
331
3107
331
313D
331
313E
331
3216
331
3217
331
3225
331
3226
331
3449
331
344A
331
3458
331
3459
331
3465
331
3466
331
3472
331
3473
331
347F
331
3480
331
348C
331
348D
331
3499
331
349A
331
34BB
331
34BC
331
34CF
331
34D0
331
34DE
331
34DF
331
34ED
331
34EE
331
34FC
331
34FD
331
3509
331
350A
331
3516
331
3517
331
35B5
331
35B6
331
35C1
331
35C2
331
35CD
331
35CE
331
35D9
331
35DA
331
35E5
331
35E6
331
35F1
331
35F2
331
35FD
331
35FE
331
3609
331
360A
331
3615
331
3616
331
3621
331
3622
331
362D
331
362E
331
3639
331
363A
331
3645
331
3646
331
3651
331
3652
331
3A96
331
3A95
331
3AAE
331
3AAD
331
3ABD
331
3ABC
331
3AFE
331
3AFD
331
3B42
331
3B41
331
3B9A
331
3B99
331
3BA9
331
3BA8
331
3BBA
331
3BB9
102
}
 70
     0
280
     1
281
     0
  0
BLOCK_RECORD
  5
68A
330
1
100
AcDbSymbolTableRecord
100
AcDbBlockTableRecord
  2
名称未設定-1
340
0
102
{BLKREFS
331
6B5
102
}
 70
     1
280
     1
281
     0
  0
BLOCK_RECORD
  5
68D
330
1
100
AcDbSymbolTableRecord
100
AcDbBlockTableRecord
  2
block 2
340
0
102
{BLKREFS
331
68C
102
}
 70
     0
280
     1
281
     0
  0
BLOCK_RECORD
  5
690
330
1
100
AcDbSymbolTableRecord
100
AcDbBlockTableRecord
  2
block 3
340
0
102
{BLKREFS
331
68F
102
}
 70
     0
280
     1
281
     0
  0
BLOCK_RECORD
  5
693
330
1
100
AcDbSymbolTableRecord
100
AcDbBlockTableRecord
  2
block 4
340
0
102
{BLKREFS
331
692
102
}
 70
     0
280
     1
281
     0
  0
BLOCK_RECORD
  5
6A2
330
1
100
AcDbSymbolTableRecord
100
AcDbBlockTableRecord
  2
block 5
340
0
102
{BLKREFS
331
6A1
102
}
 70
     0
280
     1
281
     0
  0
BLOCK_RECORD
  5
199A
330
1
100
AcDbSymbolTableRecord
100
AcDbBlockTableRecord
  2
SEANNOT_GROUP
340
0
102
{BLKREFS
331
28CA
102
}
 70
     0
280
     1
281
     0
  0
BLOCK_RECORD
  5
1F2F
330
1
100
AcDbSymbolTableRecord
100
AcDbBlockTableRecord
  2
SEANNOT_GROUP1
340
0
102
{BLKREFS
331
2B9B
102
}
 70
     0
280
     1
281
     0
  0
BLOCK_RECORD
  5
3A8F
330
1
100
AcDbSymbolTableRecord
100
AcDbBlockTableRecord
  2
*D166
340
0
 70
     0
280
     1
281
     0
  0
BLOCK_RECORD
  5
3AA7
330
1
100
AcDbSymbolTableRecord
100
AcDbBlockTableRecord
  2
*D167
340
0
 70
     0
280
     1
281
     0
  0
BLOCK_RECORD
  5
3AB6
330
1
100
AcDbSymbolTableRecord
100
AcDbBlockTableRecord
  2
*D168
340
0
 70
     0
280
     1
281
     0
  0
BLOCK_RECORD
  5
3AF7
330
1
100
AcDbSymbolTableRecord
100
AcDbBlockTableRecord
  2
*D170
340
0
 70
     0
280
     1
281
     0
  0
BLOCK_RECORD
  5
3B3A
330
1
100
AcDbSymbolTableRecord
100
AcDbBlockTableRecord
  2
*D172
340
0
 70
     0
280
     1
281
     0
  0
BLOCK_RECORD
  5
3B93
330
1
100
AcDbSymbolTableRecord
100
AcDbBlockTableRecord
  2
*D174
340
0
 70
     0
280
     1
281
     0
  0
BLOCK_RECORD
  5
3BA2
330
1
100
AcDbSymbolTableRecord
100
AcDbBlockTableRecord
  2
*D175
340
0
 70
     0
280
     1
281
     0
  0
BLOCK_RECORD
  5
3BB3
330
1
100
AcDbSymbolTableRecord
100
AcDbBlockTableRecord
  2
*D176
340
0
 70
     0
280
     1
281
     0
  0
ENDTAB
  0
ENDSEC
  0
SECTION
  2
BLOCKS
  0
BLOCK
  5
D
330
A
100
AcDbEntity
  8
0
390
1D
100
AcDbBlockBegin
  2
*MODEL_SPACE
 70
     0
 10
0.0
 20
0.0
 30
0.0
  3
*MODEL_SPACE
  1
*MODEL_SPACE
  0
ENDBLK
  5
E
330
A
100
AcDbEntity
  8
0
390
1D
100
AcDbBlockEnd
  0
BLOCK
  5
F
330
B
100
AcDbEntity
 67
     1
  8
0
390
1D
100
AcDbBlockBegin
  2
*PAPER_SPACE
 70
     0
 10
0.0
 20
0.0
 30
0.0
  3
*PAPER_SPACE
  1
*PAPER_SPACE
  0
ENDBLK
  5
10
330
B
100
AcDbEntity
 67
     1
  8
0
390
1D
100
AcDbBlockEnd
  0
BLOCK
  5
EC4
330
4E
100
AcDbEntity
  8
0
390
1D
100
AcDbBlockBegin
  2
_DOT
 70
     0
 10
0.0
 20
0.0
 30
0.0
  3
_DOT
  1
_DOT
  0
POLYLINE
  5
EC6
330
4E
100
AcDbEntity
  8
0
  6
ByBlock
 62
     0
370
    -2
390
1D
100
AcDb2dPolyline
 66
     1
 10
0.0
 20
0.0
 30
0.0
 70
     1
 40
0.5
 41
0.5
  0
VERTEX
  5
EC7
330
EC6
100
AcDbEntity
  8
0
  6
ByBlock
 62
     0
370
    -2
390
1D
100
AcDbVertex
100
AcDb2dVertex
 10
-0.25
 20
0.0
 30
0.0
 42
1.0
  0
VERTEX
  5
EC8
330
EC6
100
AcDbEntity
  8
0
  6
ByBlock
 62
     0
370
    -2
390
1D
100
AcDbVertex
100
AcDb2dVertex
 10
0.25
 20
0.0
 30
0.0
 42
1.0
  0
SEQEND
  5
EC9
330
EC6
100
AcDbEntity
  8
0
390
1D
  0
LINE
  5
ECA
330
4E
100
AcDbEntity
  8
0
  6
ByBlock
 62
     0
370
    -2
390
1D
100
AcDbLine
 10
-0.5
 20
0.0
 30
0.0
 11
-1.0
 21
0.0
 31
0.0
  0
ENDBLK
  5
ECB
330
4E
100
AcDbEntity
  8
0
390
1D
100
AcDbBlockEnd
  0
BLOCK
  5
68B
330
68A
100
AcDbEntity
  8
0
100
AcDbBlockBegin
  2
名称未設定-1
 70
     0
 10
0.0
 20
0.0
 30
0.0
  3
名称未設定-1
  1
名称未設定-1
  0
INSERT
  5
68F
330
68A
100
AcDbEntity
  8
LOGO
100
AcDbBlockReference
  2
block 3
 10
0.0
 20
0.0
 30
0.0
  0
ENDBLK
  5
6B1
330
68A
100
AcDbEntity
  8
0
100
AcDbBlockEnd
  0
BLOCK
  5
68E
330
68D
100
AcDbEntity
  8
0
100
AcDbBlockBegin
  2
block 2
 70
     0
 10
0.0
 20
0.0
 30
0.0
  3
block 2
  1
block 2
  0
ENDBLK
  5
6B0
330
68D
100
AcDbEntity
  8
0
100
AcDbBlockEnd
  0
BLOCK
  5
691
330
690
100
AcDbEntity
  8
0
100
AcDbBlockBegin
  2
block 3
 70
     0
 10
0.0
 20
0.0
 30
0.0
  3
block 3
  1
block 3
  0
INSERT
  5
692
330
690
100
AcDbEntity
  8
LOGO
100
AcDbBlockReference
  2
block 4
 10
0.0
 20
0.0
 30
0.0
  0
INSERT
  5
6A1
330
690
100
AcDbEntity
  8
LOGO
100
AcDbBlockReference
  2
block 5
 10
0.0
 20
0.0
 30
0.0
  0
ENDBLK
  5
6AF
330
690
100
AcDbEntity
  8
0
100
AcDbBlockEnd
  0
BLOCK
  5
694
330
693
100
AcDbEntity
  8
0
100
AcDbBlockBegin
  2
block 4
 70
     0
 10
0.0
 20
0.0
 30
0.0
  3
block 4
  1
block 4
  0
POLYLINE
  5
695
330
693
100
AcDbEntity
  8
LOGO
370
     0
100
AcDb2dPolyline
 66
     1
 10
0.0
 20
0.0
 30
0.0
  0
VERTEX
  5
696
330
695
100
AcDbEntity
  8
LOGO
370
     0
100
AcDbVertex
100
AcDb2dVertex
 10
83.79545727667795
 20
167.6444858234922
 30
0.0
  0
VERTEX
  5
697
330
695
100
AcDbEntity
  8
LOGO
370
     0
100
AcDbVertex
100
AcDb2dVertex
 10
83.79545727667795
 20
159.7968976406313
 30
0.0
  0
VERTEX
  5
698
330
695
100
AcDbEntity
  8
LOGO
370
     0
100
AcDbVertex
100
AcDb2dVertex
 10
71.3631329975216
 20
159.7968976406313
 30
0.0
  0
VERTEX
  5
699
330
695
100
AcDbEntity
  8
LOGO
370
     0
100
AcDbVertex
100
AcDb2dVertex
 10
71.3631329975216
 20
127.8027915271048
 30
0.0
  0
VERTEX
  5
69A
330
695
100
AcDbEntity
  8
LOGO
370
     0
100
AcDbVertex
100
AcDb2dVertex
 10
60.43011526263018
 20
127.8027915271048
 30
0.0
  0
VERTEX
  5
69B
330
695
100
AcDbEntity
  8
LOGO
370
     0
100
AcDbVertex
100
AcDb2dVertex
 10
60.43011526263018
 20
159.7968976406313
 30
0.0
  0
VERTEX
  5
69C
330
695
100
AcDbEntity
  8
LOGO
370
     0
100
AcDbVertex
100
AcDb2dVertex
 10
48.21793273020759
 20
159.7968976406313
 30
0.0
  0
VERTEX
  5
69D
330
695
100
AcDbEntity
  8
LOGO
370
     0
100
AcDbVertex
100
AcDb2dVertex
 10
48.21793273020759
 20
167.6444858234922
 30
0.0
  0
VERTEX
  5
69E
330
695
100
AcDbEntity
  8
LOGO
370
     0
100
AcDbVertex
100
AcDb2dVertex
 10
83.79545727667795
 20
167.6444858234922
 30
0.0
  0
SEQEND
  5
69F
330
695
100
AcDbEntity
  8
LOGO
370
     0
  0
HATCH
  5
6A0
330
693
100
AcDbEntity
  8
LOGO
 62
   250
420
  2234388
100
AcDbHatch
 10
0.0
 20
0.0
 30
0.0
210
0.0
220
0.0
230
1.0
  2
SOLID
 70
     1
 71
     0
 91
        1
 92
        1
 93
        8
 72
     1
 10
83.79545727667795
 20
167.6444858234922
 11
83.79545727667795
 21
159.7968976406313
 72
     1
 10
83.79545727667795
 20
159.7968976406313
 11
71.3631329975216
 21
159.7968976406313
 72
     1
 10
71.3631329975216
 20
159.7968976406313
 11
71.3631329975216
 21
127.8027915271048
 72
     1
 10
71.3631329975216
 20
127.8027915271048
 11
60.43011526263018
 21
127.8027915271048
 72
     1
 10
60.43011526263018
 20
127.8027915271048
 11
60.43011526263018
 21
159.7968976406313
 72
     1
 10
60.43011526263018
 20
159.7968976406313
 11
48.21793273020759
 21
159.7968976406313
 72
     1
 10
48.21793273020759
 20
159.7968976406313
 11
48.21793273020759
 21
167.6444858234922
 72
     1
 10
48.21793273020759
 20
167.6444858234922
 11
83.79545727667795
 21
167.6444858234922
 97
        0
 75
     2
 76
     1
 98
        0
  0
ENDBLK
  5
6AE
330
693
100
AcDbEntity
  8
0
100
AcDbBlockEnd
  0
BLOCK
  5
6A3
330
6A2
100
AcDbEntity
  8
0
100
AcDbBlockBegin
  2
block 5
 70
     0
 10
0.0
 20
0.0
 30
0.0
  3
block 5
  1
block 5
  0
SPLINE
  5
6A4
330
6A2
100
AcDbEntity
  8
LOGO
370
     0
100
AcDbSpline
210
0.0
220
0.0
230
1.0
 70
    11
 71
     3
 72
    56
 73
    52
 74
     0
 42
0.000000001
 43
0.0000000001
 40
0.0
 40
0.0
 40
0.0
 40
0.0
 40
1.0
 40
1.0
 40
1.0
 40
2.0
 40
2.0
 40
2.0
 40
3.0
 40
3.0
 40
3.0
 40
4.0
 40
4.0
 40
4.0
 40
5.0
 40
5.0
 40
5.0
 40
6.0
 40
6.0
 40
6.0
 40
7.0
 40
7.0
 40
7.0
 40
8.0
 40
8.0
 40
8.0
 40
9.0
 40
9.0
 40
9.0
 40
10.0
 40
10.0
 40
10.0
 40
11.0
 40
11.0
 40
11.0
 40
12.0
 40
12.0
 40
12.0
 40
13.0
 40
13.0
 40
13.0
 40
14.0
 40
14.0
 40
14.0
 40
15.0
 40
15.0
 40
15.0
 40
16.0
 40
16.0
 40
16.0
 40
17.0
 40
17.0
 40
17.0
 40
17.0
 10
100.4504378777679
 20
166.69157178364
 30
0.0
 10
101.9848844191641
 20
167.1313385124438
 30
0.0
 10
103.9637485713373
 20
166.7649523658846
 30
0.0
 10
103.9637485713373
 20
166.7649523658846
 30
0.0
 10
103.9637485713373
 20
166.7649523658846
 30
0.0
 10
103.0132460999156
 20
163.911205638077
 30
0.0
 10
103.0132460999156
 20
163.911205638077
 30
0.0
 10
103.0132460999156
 20
163.911205638077
 30
0.0
 10
101.0674548862189
 20
164.3601018759394
 30
0.0
 10
99.57090442016032
 20
163.1805004036133
 30
0.0
 10
98.40508333886608
 20
162.258247733807
 30
0.0
 10
97.65301849830304
 20
159.804132345923
 30
0.0
 10
97.3598406791005
 20
158.8699940888517
 30
0.0
 10
97.3598406791005
 20
158.8699940888517
 30
0.0
 10
96.07137411762282
 20
154.9119212747295
 30
0.0
 10
96.07137411762282
 20
154.9119212747295
 30
0.0
 10
96.07137411762282
 20
154.9119212747295
 30
0.0
 10
100.3012651448482
 20
154.9119212747295
 30
0.0
 10
100.3012651448482
 20
154.9119212747295
 30
0.0
 10
100.3012651448482
 20
154.9119212747295
 30
0.0
 10
99.64152892419852
 20
152.4199098115079
 30
0.0
 10
99.64152892419852
 20
152.4199098115079
 30
0.0
 10
99.64152892419852
 20
152.4199098115079
 30
0.0
 10
95.38097652692731
 20
152.4199098115079
 30
0.0
 10
95.38097652692731
 20
152.4199098115079
 30
0.0
 10
95.38097652692731
 20
152.4199098115079
 30
0.0
 10
87.75353009080013
 20
127.8027915271048
 30
0.0
 10
87.75353009080013
 20
127.8027915271048
 30
0.0
 10
87.75353009080013
 20
127.8027915271048
 30
0.0
 10
85.36538832498108
 20
127.8027915271048
 30
0.0
 10
85.36538832498108
 20
127.8027915271048
 30
0.0
 10
85.36538832498108
 20
127.8027915271048
 30
0.0
 10
93.00006946639998
 20
152.4199098115079
 30
0.0
 10
93.00006946639998
 20
152.4199098115079
 30
0.0
 10
93.00006946639998
 20
152.4199098115079
 30
0.0
 10
89.85297266450198
 20
152.4199098115079
 30
0.0
 10
89.85297266450198
 20
152.4199098115079
 30
0.0
 10
89.85297266450198
 20
152.4199098115079
 30
0.0
 10
90.51270888515164
 20
154.9119212747295
 30
0.0
 10
90.51270888515164
 20
154.9119212747295
 30
0.0
 10
90.51270888515164
 20
154.9119212747295
 30
0.0
 10
93.6904670570955
 20
154.9119212747295
 30
0.0
 10
93.6904670570955
 20
154.9119212747295
 30
0.0
 10
93.6904670570955
 20
154.9119212747295
 30
0.0
 10
94.81598049462158
 20
158.3616699146644
 30
0.0
 10
94.81598049462158
 20
158.3616699146644
 30
0.0
 10
95.7237637538445
 20
161.2605474231013
 30
0.0
 10
96.4968436907311
 20
162.8139420021662
 30
0.0
 10
97.15657991138076
 20
163.9844139654337
 30
0.0
 10
97.81183750494507
 20
165.1523021053827
 30
0.0
 10
99.1047826935081
 20
166.3084769129547
 30
0.0
 10
100.4504378777679
 20
166.69157178364
 30
0.0
  0
HATCH
  5
6A5
330
6A2
100
AcDbEntity
  8
LOGO
 62
   250
420
  2234388
100
AcDbHatch
 10
0.0
 20
0.0
 30
0.0
210
0.0
220
0.0
230
1.0
  2
SOLID
 70
     1
 71
     0
 91
        1
 92
        1
 93
        1
 72
     4
 94
        3
 73
     0
 74
     1
 95
       56
 96
       52
 40
0.0
 40
0.0
 40
0.0
 40
0.0
 40
1.0
 40
1.0
 40
1.0
 40
2.0
 40
2.0
 40
2.0
 40
3.0
 40
3.0
 40
3.0
 40
4.0
 40
4.0
 40
4.0
 40
5.0
 40
5.0
 40
5.0
 40
6.0
 40
6.0
 40
6.0
 40
7.0
 40
7.0
 40
7.0
 40
8.0
 40
8.0
 40
8.0
 40
9.0
 40
9.0
 40
9.0
 40
10.0
 40
10.0
 40
10.0
 40
11.0
 40
11.0
 40
11.0
 40
12.0
 40
12.0
 40
12.0
 40
13.0
 40
13.0
 40
13.0
 40
14.0
 40
14.0
 40
14.0
 40
15.0
 40
15.0
 40
15.0
 40
16.0
 40
16.0
 40
16.0
 40
17.0
 40
17.0
 40
17.0
 40
17.0
 10
100.4504378777679
 20
166.69157178364
 10
101.9848844191641
 20
167.1313385124438
 10
103.9637485713373
 20
166.7649523658846
 10
103.9637485713373
 20
166.7649523658846
 10
103.9637485713373
 20
166.7649523658846
 10
103.0132460999156
 20
163.911205638077
 10
103.0132460999156
 20
163.911205638077
 10
103.0132460999156
 20
163.911205638077
 10
101.0674548862189
 20
164.3601018759394
 10
99.57090442016032
 20
163.1805004036133
 10
98.40508333886608
 20
162.258247733807
 10
97.65301849830304
 20
159.804132345923
 10
97.3598406791005
 20
158.8699940888517
 10
97.3598406791005
 20
158.8699940888517
 10
96.07137411762282
 20
154.9119212747295
 10
96.07137411762282
 20
154.9119212747295
 10
96.07137411762282
 20
154.9119212747295
 10
100.3012651448482
 20
154.9119212747295
 10
100.3012651448482
 20
154.9119212747295
 10
100.3012651448482
 20
154.9119212747295
 10
99.64152892419852
 20
152.4199098115079
 10
99.64152892419852
 20
152.4199098115079
 10
99.64152892419852
 20
152.4199098115079
 10
95.38097652692731
 20
152.4199098115079
 10
95.38097652692731
 20
152.4199098115079
 10
95.38097652692731
 20
152.4199098115079
 10
87.75353009080013
 20
127.8027915271048
 10
87.75353009080013
 20
127.8027915271048
 10
87.75353009080013
 20
127.8027915271048
 10
85.36538832498108
 20
127.8027915271048
 10
85.36538832498108
 20
127.8027915271048
 10
85.36538832498108
 20
127.8027915271048
 10
93.00006946639998
 20
152.4199098115079
 10
93.00006946639998
 20
152.4199098115079
 10
93.00006946639998
 20
152.4199098115079
 10
89.85297266450198
 20
152.4199098115079
 10
89.85297266450198
 20
152.4199098115079
 10
89.85297266450198
 20
152.4199098115079
 10
90.51270888515164
 20
154.9119212747295
 10
90.51270888515164
 20
154.9119212747295
 10
90.51270888515164
 20
154.9119212747295
 10
93.6904670570955
 20
154.9119212747295
 10
93.6904670570955
 20
154.9119212747295
 10
93.6904670570955
 20
154.9119212747295
 10
94.81598049462158
 20
158.3616699146644
 10
94.81598049462158
 20
158.3616699146644
 10
95.7237637538445
 20
161.2605474231013
 10
96.4968436907311
 20
162.8139420021662
 10
97.15657991138076
 20
163.9844139654337
 10
97.81183750494507
 20
165.1523021053827
 10
99.1047826935081
 20
166.3084769129547
 10
100.4504378777679
 20
166.69157178364
 97
        0
 75
     2
 76
     1
 98
        0
  0
SPLINE
  5
6A6
330
6A2
100
AcDbEntity
  8
LOGO
370
     0
100
AcDbSpline
210
0.0
220
0.0
230
1.0
 70
    11
 71
     3
 72
    38
 73
    34
 74
     0
 42
0.000000001
 43
0.0000000001
 40
0.0
 40
0.0
 40
0.0
 40
0.0
 40
1.0
 40
1.0
 40
1.0
 40
2.0
 40
2.0
 40
2.0
 40
3.0
 40
3.0
 40
3.0
 40
4.0
 40
4.0
 40
4.0
 40
5.0
 40
5.0
 40
5.0
 40
6.0
 40
6.0
 40
6.0
 40
7.0
 40
7.0
 40
7.0
 40
8.0
 40
8.0
 40
8.0
 40
9.0
 40
9.0
 40
9.0
 40
10.0
 40
10.0
 40
10.0
 40
11.0
 40
11.0
 40
11.0
 40
11.0
 10
126.377554584636
 20
154.8151140277308
 30
0.0
 10
126.377554584636
 20
154.8151140277308
 30
0.0
 10
128.8311532078563
 20
154.8151140277308
 30
0.0
 10
128.8311532078563
 20
154.8151140277308
 30
0.0
 10
128.8311532078563
 20
154.8151140277308
 30
0.0
 10
127.7345785914971
 20
151.3062819612468
 30
0.0
 10
127.7345785914971
 20
151.3062819612468
 30
0.0
 10
128.571392836906
 20
152.2922689395754
 30
0.0
 10
129.8860421413442
 20
153.604506675583
 30
0.0
 10
131.0163787157314
 20
154.2664822097754
 30
0.0
 10
132.7044766171327
 20
155.2500576196734
 30
0.0
 10
133.6642808525008
 20
155.3847609420097
 30
0.0
 10
134.7284715499351
 20
155.3565111403944
 30
0.0
 10
134.7284715499351
 20
155.3565111403944
 30
0.0
 10
133.6877075172549
 20
152.0345756272799
 30
0.0
 10
133.6877075172549
 20
152.0345756272799
 30
0.0
 10
133.011434827367
 20
152.3184516825359
 30
0.0
 10
130.930940291334
 20
151.7768823149844
 30
0.0
 10
129.739280976855
 20
150.9162968950455
 30
0.0
 10
128.66613302525
 20
150.1454562717016
 30
0.0
 10
127.9192358313239
 20
149.4857200510519
 30
0.0
 10
127.0393578639405
 20
147.8282835196966
 30
0.0
 10
126.164647543194
 20
146.1699857139017
 30
0.0
 10
125.4742499524985
 20
143.5262176944419
 30
0.0
 10
124.2822461282437
 20
139.6959580071401
 30
0.0
 10
124.2822461282437
 20
139.6959580071401
 30
0.0
 10
120.5753209406769
 20
127.8027915271048
 30
0.0
 10
120.5753209406769
 20
127.8027915271048
 30
0.0
 10
120.5753209406769
 20
127.8027915271048
 30
0.0
 10
118.1964809388044
 20
127.8027915271048
 30
0.0
 10
118.1964809388044
 20
127.8027915271048
 30
0.0
 10
118.1964809388044
 20
127.8027915271048
 30
0.0
 10
126.377554584636
 20
154.8151140277308
 30
0.0
 10
126.377554584636
 20
154.8151140277308
 30
0.0
  0
HATCH
  5
6A7
330
6A2
100
AcDbEntity
  8
LOGO
 62
   250
420
  2234388
100
AcDbHatch
 10
0.0
 20
0.0
 30
0.0
210
0.0
220
0.0
230
1.0
  2
SOLID
 70
     1
 71
     0
 91
        1
 92
        1
 93
        1
 72
     4
 94
        3
 73
     0
 74
     1
 95
       38
 96
       34
 40
0.0
 40
0.0
 40
0.0
 40
0.0
 40
1.0
 40
1.0
 40
1.0
 40
2.0
 40
2.0
 40
2.0
 40
3.0
 40
3.0
 40
3.0
 40
4.0
 40
4.0
 40
4.0
 40
5.0
 40
5.0
 40
5.0
 40
6.0
 40
6.0
 40
6.0
 40
7.0
 40
7.0
 40
7.0
 40
8.0
 40
8.0
 40
8.0
 40
9.0
 40
9.0
 40
9.0
 40
10.0
 40
10.0
 40
10.0
 40
11.0
 40
11.0
 40
11.0
 40
11.0
 10
126.377554584636
 20
154.8151140277308
 10
126.377554584636
 20
154.8151140277308
 10
128.8311532078563
 20
154.8151140277308
 10
128.8311532078563
 20
154.8151140277308
 10
128.8311532078563
 20
154.8151140277308
 10
127.7345785914971
 20
151.3062819612468
 10
127.7345785914971
 20
151.3062819612468
 10
128.571392836906
 20
152.2922689395754
 10
129.8860421413442
 20
153.604506675583
 10
131.0163787157314
 20
154.2664822097754
 10
132.7044766171327
 20
155.2500576196734
 10
133.6642808525008
 20
155.3847609420097
 10
134.7284715499351
 20
155.3565111403944
 10
134.7284715499351
 20
155.3565111403944
 10
133.6877075172549
 20
152.0345756272799
 10
133.6877075172549
 20
152.0345756272799
 10
133.011434827367
 20
152.3184516825359
 10
130.930940291334
 20
151.7768823149844
 10
129.739280976855
 20
150.9162968950455
 10
128.66613302525
 20
150.1454562717016
 10
127.9192358313239
 20
149.4857200510519
 10
127.0393578639405
 20
147.8282835196966
 10
126.164647543194
 20
146.1699857139017
 10
125.4742499524985
 20
143.5262176944419
 10
124.2822461282437
 20
139.6959580071401
 10
124.2822461282437
 20
139.6959580071401
 10
120.5753209406769
 20
127.8027915271048
 10
120.5753209406769
 20
127.8027915271048
 10
120.5753209406769
 20
127.8027915271048
 10
118.1964809388044
 20
127.8027915271048
 10
118.1964809388044
 20
127.8027915271048
 10
118.1964809388044
 20
127.8027915271048
 10
126.377554584636
 20
154.8151140277308
 10
126.377554584636
 20
154.8151140277308
 97
        0
 75
     2
 76
     1
 98
        0
  0
SPLINE
  5
6A8
330
6A2
100
AcDbEntity
  8
LOGO
370
     0
100
AcDbSpline
210
0.0
220
0.0
230
1.0
 70
    11
 71
     3
 72
   104
 73
   100
 74
     0
 42
0.000000001
 43
0.0000000001
 40
0.0
 40
0.0
 40
0.0
 40
0.0
 40
1.0
 40
1.0
 40
1.0
 40
2.0
 40
2.0
 40
2.0
 40
3.0
 40
3.0
 40
3.0
 40
4.0
 40
4.0
 40
4.0
 40
5.0
 40
5.0
 40
5.0
 40
6.0
 40
6.0
 40
6.0
 40
7.0
 40
7.0
 40
7.0
 40
8.0
 40
8.0
 40
8.0
 40
9.0
 40
9.0
 40
9.0
 40
10.0
 40
10.0
 40
10.0
 40
11.0
 40
11.0
 40
11.0
 40
12.0
 40
12.0
 40
12.0
 40
13.0
 40
13.0
 40
13.0
 40
14.0
 40
14.0
 40
14.0
 40
15.0
 40
15.0
 40
15.0
 40
16.0
 40
16.0
 40
16.0
 40
17.0
 40
17.0
 40
17.0
 40
18.0
 40
18.0
 40
18.0
 40
19.0
 40
19.0
 40
19.0
 40
20.0
 40
20.0
 40
20.0
 40
21.0
 40
21.0
 40
21.0
 40
22.0
 40
22.0
 40
22.0
 40
23.0
 40
23.0
 40
23.0
 40
24.0
 40
24.0
 40
24.0
 40
25.0
 40
25.0
 40
25.0
 40
26.0
 40
26.0
 40
26.0
 40
27.0
 40
27.0
 40
27.0
 40
28.0
 40
28.0
 40
28.0
 40
29.0
 40
29.0
 40
29.0
 40
30.0
 40
30.0
 40
30.0
 40
31.0
 40
31.0
 40
31.0
 40
32.0
 40
32.0
 40
32.0
 40
33.0
 40
33.0
 40
33.0
 40
33.0
 10
139.8926730891197
 20
154.8294111834263
 30
0.0
 10
139.8926730891197
 20
154.8294111834263
 30
0.0
 10
142.0344903652445
 20
154.8294111834263
 30
0.0
 10
142.0344903652445
 20
154.8294111834263
 30
0.0
 10
142.0344903652445
 20
154.8294111834263
 30
0.0
 10
140.9516961399171
 20
151.3157559800812
 30
0.0
 10
140.9516961399171
 20
151.3157559800812
 30
0.0
 10
141.8928968473923
 20
152.7887075264977
 30
0.0
 10
142.7341897198865
 20
153.4484437471474
 30
0.0
 10
143.8552245303272
 20
154.2926649527359
 30
0.0
 10
144.9803934580775
 20
155.1296514530327
 30
0.0
 10
146.3139908001845
 20
155.3044901642492
 30
0.0
 10
147.241066606852
 20
155.3044901642492
 30
0.0
 10
148.3855280820469
 20
155.3044901642492
 30
0.0
 10
149.4969166187653
 20
155.0752189084569
 30
0.0
 10
150.0784491203092
 20
153.8172414621372
 30
0.0
 10
150.5228667310863
 20
152.833838307127
 30
0.0
 10
150.5414702589793
 20
152.7201500811143
 30
0.0
 10
150.4140016419347
 20
150.7765981809602
 30
0.0
 10
151.5818897818837
 20
152.7699317437168
 30
0.0
 10
152.4424752018226
 20
153.6256940267945
 30
0.0
 10
153.9038856707499
 20
154.4507949398263
 30
0.0
 10
155.4455669174378
 20
155.3044901642492
 30
0.0
 10
156.339225275853
 20
155.3659851592288
 30
0.0
 10
157.3748216618963
 20
155.2147453676543
 30
0.0
 10
158.911679771723
 20
154.9877134254046
 30
0.0
 10
159.8859534176746
 20
154.4390816074493
 30
0.0
 10
160.3965169054045
 20
152.7816450760939
 30
0.0
 10
160.9070803931344
 20
151.1219692311958
 30
0.0
 10
160.6328506116007
 20
150.2303779314354
 30
0.0
 10
159.9992971339115
 20
147.597634224801
 30
0.0
 10
159.7105979417943
 20
146.4014962832367
 30
0.0
 10
159.2947746424084
 20
144.9400858143094
 30
0.0
 10
158.7463150793409
 20
143.2092687007094
 30
0.0
 10
158.7463150793409
 20
143.2092687007094
 30
0.0
 10
153.9038856707499
 20
127.8027915271048
 30
0.0
 10
153.9038856707499
 20
127.8027915271048
 30
0.0
 10
153.9038856707499
 20
127.8027915271048
 30
0.0
 10
151.3882752878863
 20
127.8027915271048
 30
0.0
 10
151.3882752878863
 20
127.8027915271048
 30
0.0
 10
151.3882752878863
 20
127.8027915271048
 30
0.0
 10
155.6250565106276
 20
141.2751908193897
 30
0.0
 10
155.6250565106276
 20
141.2751908193897
 30
0.0
 10
156.5094131050963
 20
144.0936252951782
 30
0.0
 10
157.109893644309
 20
146.1506931664571
 30
0.0
 10
157.4220195011804
 20
147.4415712963654
 30
0.0
 10
157.8095929989511
 20
149.0530157726519
 30
0.0
 10
157.9656559273867
 20
149.5826995529385
 30
0.0
 10
157.7816877071116
 20
150.7529992613181
 30
0.0
 10
157.6111553680925
 20
151.8430281919372
 30
0.0
 10
157.0582171779396
 20
152.5547853887321
 30
0.0
 10
156.1170164704645
 20
152.5547853887321
 30
0.0
 10
155.1096698860365
 20
152.5547853887321
 30
0.0
 10
154.2962823053817
 20
152.4412694176073
 30
0.0
 10
153.156643967048
 20
151.2945686288697
 30
0.0
 10
152.0170056287143
 20
150.1476955852443
 30
0.0
 10
151.076149431015
 20
148.7930831468137
 30
0.0
 10
150.3337308641742
 20
147.2290087646991
 30
0.0
 10
149.5957909244188
 20
145.6683794803425
 30
0.0
 10
148.8530278478023
 20
143.6822806228776
 30
0.0
 10
148.0964843801539
 20
141.2751908193897
 30
0.0
 10
148.0964843801539
 20
141.2751908193897
 30
0.0
 10
143.8552245303272
 20
127.8027915271048
 30
0.0
 10
143.8552245303272
 20
127.8027915271048
 30
0.0
 10
143.8552245303272
 20
127.8027915271048
 30
0.0
 10
141.486030802177
 20
127.8027915271048
 30
0.0
 10
141.486030802177
 20
127.8027915271048
 30
0.0
 10
141.486030802177
 20
127.8027915271048
 30
0.0
 10
146.3329388378533
 20
143.2092687007094
 30
0.0
 10
146.3329388378533
 20
143.2092687007094
 30
0.0
 10
146.8483254624444
 20
144.8408669988801
 30
0.0
 10
147.2314203331297
 20
146.1837661049335
 30
0.0
 10
147.4867020769946
 20
147.224185627838
 30
0.0
 10
147.9169947869641
 20
149.0197705792876
 30
0.0
 10
148.0306830129768
 20
150.2400242051577
 30
0.0
 10
147.709255392159
 20
151.3157559800812
 30
0.0
 10
147.3874832615654
 20
152.3916600098926
 30
0.0
 10
146.8245542879144
 20
152.6683013598569
 30
0.0
 10
145.8840425999909
 20
152.6683013598569
 30
0.0
 10
145.0989048209514
 20
152.6683013598569
 30
0.0
 10
144.3282364524954
 20
152.3275811915945
 30
0.0
 10
143.4531816219731
 20
151.6538923250251
 30
0.0
 10
142.34627171234
 20
150.8074318058939
 30
0.0
 10
141.901854101563
 20
150.1097995099067
 30
0.0
 10
141.3578731655808
 20
149.289521733736
 30
0.0
 10
140.6299240093235
 20
148.192602607601
 30
0.0
 10
140.2850697237515
 20
147.455696197173
 30
0.0
 10
139.6652966370942
 20
145.8385673095858
 30
0.0
 10
139.0506911970739
 20
144.2214384219986
 30
0.0
 10
138.463991048893
 20
142.3252566160164
 30
0.0
 10
138.0571250036777
 20
141.0154304484394
 30
0.0
 10
138.0571250036777
 20
141.0154304484394
 30
0.0
 10
133.9009590684727
 20
127.8027915271048
 30
0.0
 10
133.9009590684727
 20
127.8027915271048
 30
0.0
 10
133.9009590684727
 20
127.8027915271048
 30
0.0
 10
131.4180771143097
 20
127.8027915271048
 30
0.0
 10
131.4180771143097
 20
127.8027915271048
 30
0.0
 10
131.4180771143097
 20
127.8027915271048
 30
0.0
 10
139.8926730891197
 20
154.8294111834263
 30
0.0
 10
139.8926730891197
 20
154.8294111834263
 30
0.0
  0
HATCH
  5
6A9
330
6A2
100
AcDbEntity
  8
LOGO
 62
   250
420
  2234388
100
AcDbHatch
 10
0.0
 20
0.0
 30
0.0
210
0.0
220
0.0
230
1.0
  2
SOLID
 70
     1
 71
     0
 91
        1
 92
        1
 93
        1
 72
     4
 94
        3
 73
     0
 74
     1
 95
      104
 96
      100
 40
0.0
 40
0.0
 40
0.0
 40
0.0
 40
1.0
 40
1.0
 40
1.0
 40
2.0
 40
2.0
 40
2.0
 40
3.0
 40
3.0
 40
3.0
 40
4.0
 40
4.0
 40
4.0
 40
5.0
 40
5.0
 40
5.0
 40
6.0
 40
6.0
 40
6.0
 40
7.0
 40
7.0
 40
7.0
 40
8.0
 40
8.0
 40
8.0
 40
9.0
 40
9.0
 40
9.0
 40
10.0
 40
10.0
 40
10.0
 40
11.0
 40
11.0
 40
11.0
 40
12.0
 40
12.0
 40
12.0
 40
13.0
 40
13.0
 40
13.0
 40
14.0
 40
14.0
 40
14.0
 40
15.0
 40
15.0
 40
15.0
 40
16.0
 40
16.0
 40
16.0
 40
17.0
 40
17.0
 40
17.0
 40
18.0
 40
18.0
 40
18.0
 40
19.0
 40
19.0
 40
19.0
 40
20.0
 40
20.0
 40
20.0
 40
21.0
 40
21.0
 40
21.0
 40
22.0
 40
22.0
 40
22.0
 40
23.0
 40
23.0
 40
23.0
 40
24.0
 40
24.0
 40
24.0
 40
25.0
 40
25.0
 40
25.0
 40
26.0
 40
26.0
 40
26.0
 40
27.0
 40
27.0
 40
27.0
 40
28.0
 40
28.0
 40
28.0
 40
29.0
 40
29.0
 40
29.0
 40
30.0
 40
30.0
 40
30.0
 40
31.0
 40
31.0
 40
31.0
 40
32.0
 40
32.0
 40
32.0
 40
33.0
 40
33.0
 40
33.0
 40
33.0
 10
139.8926730891197
 20
154.8294111834263
 10
139.8926730891197
 20
154.8294111834263
 10
142.0344903652445
 20
154.8294111834263
 10
142.0344903652445
 20
154.8294111834263
 10
142.0344903652445
 20
154.8294111834263
 10
140.9516961399171
 20
151.3157559800812
 10
140.9516961399171
 20
151.3157559800812
 10
141.8928968473923
 20
152.7887075264977
 10
142.7341897198865
 20
153.4484437471474
 10
143.8552245303272
 20
154.2926649527359
 10
144.9803934580775
 20
155.1296514530327
 10
146.3139908001845
 20
155.3044901642492
 10
147.241066606852
 20
155.3044901642492
 10
148.3855280820469
 20
155.3044901642492
 10
149.4969166187653
 20
155.0752189084569
 10
150.0784491203092
 20
153.8172414621372
 10
150.5228667310863
 20
152.833838307127
 10
150.5414702589793
 20
152.7201500811143
 10
150.4140016419347
 20
150.7765981809602
 10
151.5818897818837
 20
152.7699317437168
 10
152.4424752018226
 20
153.6256940267945
 10
153.9038856707499
 20
154.4507949398263
 10
155.4455669174378
 20
155.3044901642492
 10
156.339225275853
 20
155.3659851592288
 10
157.3748216618963
 20
155.2147453676543
 10
158.911679771723
 20
154.9877134254046
 10
159.8859534176746
 20
154.4390816074493
 10
160.3965169054045
 20
152.7816450760939
 10
160.9070803931344
 20
151.1219692311958
 10
160.6328506116007
 20
150.2303779314354
 10
159.9992971339115
 20
147.597634224801
 10
159.7105979417943
 20
146.4014962832367
 10
159.2947746424084
 20
144.9400858143094
 10
158.7463150793409
 20
143.2092687007094
 10
158.7463150793409
 20
143.2092687007094
 10
153.9038856707499
 20
127.8027915271048
 10
153.9038856707499
 20
127.8027915271048
 10
153.9038856707499
 20
127.8027915271048
 10
151.3882752878863
 20
127.8027915271048
 10
151.3882752878863
 20
127.8027915271048
 10
151.3882752878863
 20
127.8027915271048
 10
155.6250565106276
 20
141.2751908193897
 10
155.6250565106276
 20
141.2751908193897
 10
156.5094131050963
 20
144.0936252951782
 10
157.109893644309
 20
146.1506931664571
 10
157.4220195011804
 20
147.4415712963654
 10
157.8095929989511
 20
149.0530157726519
 10
157.9656559273867
 20
149.5826995529385
 10
157.7816877071116
 20
150.7529992613181
 10
157.6111553680925
 20
151.8430281919372
 10
157.0582171779396
 20
152.5547853887321
 10
156.1170164704645
 20
152.5547853887321
 10
155.1096698860365
 20
152.5547853887321
 10
154.2962823053817
 20
152.4412694176073
 10
153.156643967048
 20
151.2945686288697
 10
152.0170056287143
 20
150.1476955852443
 10
151.076149431015
 20
148.7930831468137
 10
150.3337308641742
 20
147.2290087646991
 10
149.5957909244188
 20
145.6683794803425
 10
148.8530278478023
 20
143.6822806228776
 10
148.0964843801539
 20
141.2751908193897
 10
148.0964843801539
 20
141.2751908193897
 10
143.8552245303272
 20
127.8027915271048
 10
143.8552245303272
 20
127.8027915271048
 10
143.8552245303272
 20
127.8027915271048
 10
141.486030802177
 20
127.8027915271048
 10
141.486030802177
 20
127.8027915271048
 10
141.486030802177
 20
127.8027915271048
 10
146.3329388378533
 20
143.2092687007094
 10
146.3329388378533
 20
143.2092687007094
 10
146.8483254624444
 20
144.8408669988801
 10
147.2314203331297
 20
146.1837661049335
 10
147.4867020769946
 20
147.224185627838
 10
147.9169947869641
 20
149.0197705792876
 10
148.0306830129768
 20
150.2400242051577
 10
147.709255392159
 20
151.3157559800812
 10
147.3874832615654
 20
152.3916600098926
 10
146.8245542879144
 20
152.6683013598569
 10
145.8840425999909
 20
152.6683013598569
 10
145.0989048209514
 20
152.6683013598569
 10
144.3282364524954
 20
152.3275811915945
 10
143.4531816219731
 20
151.6538923250251
 10
142.34627171234
 20
150.8074318058939
 10
141.901854101563
 20
150.1097995099067
 10
141.3578731655808
 20
149.289521733736
 10
140.6299240093235
 20
148.192602607601
 10
140.2850697237515
 20
147.455696197173
 10
139.6652966370942
 20
145.8385673095858
 10
139.0506911970739
 20
144.2214384219986
 10
138.463991048893
 20
142.3252566160164
 10
138.0571250036777
 20
141.0154304484394
 10
138.0571250036777
 20
141.0154304484394
 10
133.9009590684727
 20
127.8027915271048
 10
133.9009590684727
 20
127.8027915271048
 10
133.9009590684727
 20
127.8027915271048
 10
131.4180771143097
 20
127.8027915271048
 10
131.4180771143097
 20
127.8027915271048
 10
131.4180771143097
 20
127.8027915271048
 10
139.8926730891197
 20
154.8294111834263
 10
139.8926730891197
 20
154.8294111834263
 97
        0
 75
     2
 76
     1
 98
        0
  0
SPLINE
  5
6AA
330
6A2
100
AcDbEntity
  8
LOGO
370
     0
100
AcDbSpline
210
0.0
220
0.0
230
1.0
 70
    11
 71
     3
 72
    29
 73
    25
 74
     0
 42
0.000000001
 43
0.0000000001
 40
0.0
 40
0.0
 40
0.0
 40
0.0
 40
1.0
 40
1.0
 40
1.0
 40
2.0
 40
2.0
 40
2.0
 40
3.0
 40
3.0
 40
3.0
 40
4.0
 40
4.0
 40
4.0
 40
5.0
 40
5.0
 40
5.0
 40
6.0
 40
6.0
 40
6.0
 40
7.0
 40
7.0
 40
7.0
 40
8.0
 40
8.0
 40
8.0
 40
8.0
 10
101.6420971922469
 20
132.8388354296931
 30
0.0
 10
101.630039350094
 20
134.7164137077823
 30
0.0
 10
102.2236296937908
 20
138.0598810818841
 30
0.0
 10
103.7487744712405
 20
142.5378191476827
 30
0.0
 10
105.819967243327
 20
148.5896501242061
 30
0.0
 10
107.0602024361932
 20
150.8074318058939
 30
0.0
 10
108.1522984254671
 20
151.8833358357054
 30
0.0
 10
109.741177511439
 20
153.4532668840085
 30
0.0
 10
111.8740375333931
 20
153.5290590346837
 30
0.0
 10
112.5075910110823
 20
153.4532668840085
 30
0.0
 10
113.4012493694975
 20
153.3490526768302
 30
0.0
 10
114.6683563248758
 20
152.7580461564518
 30
0.0
 10
114.7493161221879
 20
150.7838328862519
 30
0.0
 10
114.8106388622796
 20
149.0909118479895
 30
0.0
 10
114.3186789024427
 20
145.9191825971221
 30
0.0
 10
112.6164561002338
 20
140.9489400617108
 30
0.0
 10
110.6444821435766
 20
135.1746117095912
 30
0.0
 10
109.4669477299053
 20
132.8960240524753
 30
0.0
 10
108.5212683953448
 20
131.9072809959403
 30
0.0
 10
106.7346406980658
 20
130.0538184021569
 30
0.0
 10
104.8222669326213
 20
130.2336525051225
 30
0.0
 10
104.5408024457958
 20
130.2336525051225
 30
0.0
 10
104.1721769856939
 20
130.2336525051225
 30
0.0
 10
101.6465758193322
 20
130.6305277668397
 30
0.0
 10
101.6420971922469
 20
132.8388354296931
 30
0.0
  0
SPLINE
  5
6AB
330
6A2
100
AcDbEntity
  8
LOGO
370
     0
100
AcDbSpline
210
0.0
220
0.0
230
1.0
 70
    11
 71
     3
 72
    32
 73
    28
 74
     0
 42
0.000000001
 43
0.0000000001
 40
0.0
 40
0.0
 40
0.0
 40
0.0
 40
1.0
 40
1.0
 40
1.0
 40
2.0
 40
2.0
 40
2.0
 40
3.0
 40
3.0
 40
3.0
 40
4.0
 40
4.0
 40
4.0
 40
5.0
 40
5.0
 40
5.0
 40
6.0
 40
6.0
 40
6.0
 40
7.0
 40
7.0
 40
7.0
 40
8.0
 40
8.0
 40
8.0
 40
9.0
 40
9.0
 40
9.0
 40
9.0
 10
106.2595617172429
 20
153.4105476718098
 30
0.0
 10
104.8222669326213
 20
151.5474388043041
 30
0.0
 10
103.7177685914188
 20
149.8758773721411
 30
0.0
 10
101.9232171692965
 20
144.6141795664062
 30
0.0
 10
100.2754269116635
 20
139.7999999594306
 30
0.0
 10
99.22777268346732
 20
136.3052927937542
 30
0.0
 10
99.06964269637689
 20
132.039572749846
 30
0.0
 10
98.94665270641765
 20
128.8673267343149
 30
0.0
 10
100.8807305877373
 20
127.8027915271048
 30
0.0
 10
103.7129454545577
 20
127.8027915271048
 30
0.0
 10
104.9352661390825
 20
127.8027915271048
 30
0.0
 10
108.0151835347002
 20
127.8827177950895
 30
0.0
 10
110.2045431598849
 20
130.5926316915021
 30
0.0
 10
111.7417457794874
 20
132.4984597712065
 30
0.0
 10
113.155269389579
 20
134.475256864725
 30
0.0
 10
115.0562743324223
 20
140.9489400617108
 30
0.0
 10
116.6361961642235
 20
146.3680788349845
 30
0.0
 10
117.7282921534974
 20
149.8639917848761
 30
0.0
 10
117.6480213757369
 20
151.8595646611754
 30
0.0
 10
117.6480213757369
 20
151.8595646611754
 30
0.0
 10
117.6480213757369
 20
151.8595646611754
 30
0.0
 10
117.6480213757369
 20
151.8595646611754
 30
0.0
 10
117.13229024137
 20
155.18150017429
 30
0.0
 10
114.7162431837115
 20
155.886194920681
 30
0.0
 10
113.3351034925446
 20
155.886194920681
 30
0.0
 10
111.9829026225447
 20
155.886194920681
 30
0.0
 10
108.3414342923792
 20
156.1251124501957
 30
0.0
 10
106.2595617172429
 20
153.4105476718098
 30
0.0
  0
HATCH
  5
6AC
330
6A2
100
AcDbEntity
  8
LOGO
 62
   250
420
  2234388
100
AcDbHatch
 10
0.0
 20
0.0
 30
0.0
210
0.0
220
0.0
230
1.0
  2
SOLID
 70
     1
 71
     0
 91
        2
 92
        1
 93
        1
 72
     4
 94
        3
 73
     0
 74
     1
 95
       29
 96
       25
 40
0.0
 40
0.0
 40
0.0
 40
0.0
 40
1.0
 40
1.0
 40
1.0
 40
2.0
 40
2.0
 40
2.0
 40
3.0
 40
3.0
 40
3.0
 40
4.0
 40
4.0
 40
4.0
 40
5.0
 40
5.0
 40
5.0
 40
6.0
 40
6.0
 40
6.0
 40
7.0
 40
7.0
 40
7.0
 40
8.0
 40
8.0
 40
8.0
 40
8.0
 10
101.6420971922469
 20
132.8388354296931
 10
101.630039350094
 20
134.7164137077823
 10
102.2236296937908
 20
138.0598810818841
 10
103.7487744712405
 20
142.5378191476827
 10
105.819967243327
 20
148.5896501242061
 10
107.0602024361932
 20
150.8074318058939
 10
108.1522984254671
 20
151.8833358357054
 10
109.741177511439
 20
153.4532668840085
 10
111.8740375333931
 20
153.5290590346837
 10
112.5075910110823
 20
153.4532668840085
 10
113.4012493694975
 20
153.3490526768302
 10
114.6683563248758
 20
152.7580461564518
 10
114.7493161221879
 20
150.7838328862519
 10
114.8106388622796
 20
149.0909118479895
 10
114.3186789024427
 20
145.9191825971221
 10
112.6164561002338
 20
140.9489400617108
 10
110.6444821435766
 20
135.1746117095912
 10
109.4669477299053
 20
132.8960240524753
 10
108.5212683953448
 20
131.9072809959403
 10
106.7346406980658
 20
130.0538184021569
 10
104.8222669326213
 20
130.2336525051225
 10
104.5408024457958
 20
130.2336525051225
 10
104.1721769856939
 20
130.2336525051225
 10
101.6465758193322
 20
130.6305277668397
 10
101.6420971922469
 20
132.8388354296931
 97
        0
 92
        1
 93
        1
 72
     4
 94
        3
 73
     0
 74
     1
 95
       32
 96
       28
 40
0.0
 40
0.0
 40
0.0
 40
0.0
 40
1.0
 40
1.0
 40
1.0
 40
2.0
 40
2.0
 40
2.0
 40
3.0
 40
3.0
 40
3.0
 40
4.0
 40
4.0
 40
4.0
 40
5.0
 40
5.0
 40
5.0
 40
6.0
 40
6.0
 40
6.0
 40
7.0
 40
7.0
 40
7.0
 40
8.0
 40
8.0
 40
8.0
 40
9.0
 40
9.0
 40
9.0
 40
9.0
 10
106.2595617172429
 20
153.4105476718098
 10
104.8222669326213
 20
151.5474388043041
 10
103.7177685914188
 20
149.8758773721411
 10
101.9232171692965
 20
144.6141795664062
 10
100.2754269116635
 20
139.7999999594306
 10
99.22777268346732
 20
136.3052927937542
 10
99.06964269637689
 20
132.039572749846
 10
98.94665270641765
 20
128.8673267343149
 10
100.8807305877373
 20
127.8027915271048
 10
103.7129454545577
 20
127.8027915271048
 10
104.9352661390825
 20
127.8027915271048
 10
108.0151835347002
 20
127.8827177950895
 10
110.2045431598849
 20
130.5926316915021
 10
111.7417457794874
 20
132.4984597712065
 10
113.155269389579
 20
134.475256864725
 10
115.0562743324223
 20
140.9489400617108
 10
116.6361961642235
 20
146.3680788349845
 10
117.7282921534974
 20
149.8639917848761
 10
117.6480213757369
 20
151.8595646611754
 10
117.6480213757369
 20
151.8595646611754
 10
117.6480213757369
 20
151.8595646611754
 10
117.6480213757369
 20
151.8595646611754
 10
117.13229024137
 20
155.18150017429
 10
114.7162431837115
 20
155.886194920681
 10
113.3351034925446
 20
155.886194920681
 10
111.9829026225447
 20
155.886194920681
 10
108.3414342923792
 20
156.1251124501957
 10
106.2595617172429
 20
153.4105476718098
 97
        0
 75
     2
 76
     1
 98
        0
  0
ENDBLK
  5
6AD
330
6A2
100
AcDbEntity
  8
0
100
AcDbBlockEnd
  0
BLOCK
  5
199B
330
199A
100
AcDbEntity
  8
0
100
AcDbBlockBegin
  2
SEANNOT_GROUP
 70
     0
 10
0.0
 20
0.0
 30
0.0
  3
SEANNOT_GROUP
  1
SEANNOT_GROUP
  0
ENDBLK
  5
199C
330
199A
100
AcDbEntity
  8
0
100
AcDbBlockEnd
  0
BLOCK
  5
1F30
330
1F2F
100
AcDbEntity
  8
0
100
AcDbBlockBegin
  2
SEANNOT_GROUP1
 70
     0
 10
0.0
 20
0.0
 30
0.0
  3
SEANNOT_GROUP1
  1
SEANNOT_GROUP1
  0
ENDBLK
  5
1F31
330
1F2F
100
AcDbEntity
  8
0
100
AcDbBlockEnd
  0
BLOCK
  5
3A90
330
3A8F
100
AcDbEntity
  8
0
100
AcDbBlockBegin
  2
*D166
 70
     1
 10
0.0
 20
0.0
 30
0.0
  3
*D166
  1

  0
LINE
  5
3A92
330
3A8F
100
AcDbEntity
  8
DIM
 62
     0
370
    -2
100
AcDbLine
 10
1799.783802115801
 20
1503.612949640288
 30
0.0
 11
1860.871836741025
 21
1503.612949640288
 31
0.0
  0
LINE
  5
3A93
330
3A8F
100
AcDbEntity
  8
DIM
 62
     0
370
    -2
100
AcDbLine
 10
1655.386892648753
 20
678.6129496402878
 30
0.0
 11
1860.871836741025
 21
678.6129496402878
 31
0.0
  0
LINE
  5
3A94
330
3A8F
100
AcDbEntity
  8
DIM
 62
     0
370
    -2
100
AcDbLine
 10
1860.871836741025
 20
1493.612949640288
 30
0.0
 11
1860.871836741025
 21
688.6129496402878
 31
0.0
  0
INSERT
  5
3A95
330
3A8F
100
AcDbEntity
  8
DIM
 62
     0
370
    -2
100
AcDbBlockReference
  2
_DOT
 10
1860.871836741025
 20
1503.612949640288
 30
0.0
 41
10.0
 42
10.0
 43
10.0
 50
90.0
  0
INSERT
  5
3A96
330
3A8F
100
AcDbEntity
  8
DIM
 62
     0
370
    -2
100
AcDbBlockReference
  2
_DOT
 10
1860.871836741025
 20
678.6129496402878
 30
0.0
 41
10.0
 42
10.0
 43
10.0
 50
270.0
  0
MTEXT
  5
3A97
330
3A8F
100
AcDbEntity
  8
DIM
 62
     0
100
AcDbMText
 10
1828.871836741025
 20
1091.112949640288
 30
0.0
 40
24.0
 41
0.0
 46
0.0
 71
     5
 72
     1
  1
\A1;825
  7
ＭＳ ゴシック
 11
0.0
 21
1.0
 31
0.0
 73
     1
 44
1.0
  0
POINT
  5
3A98
330
3A8F
100
AcDbEntity
  8
Defpoints
 62
     0
100
AcDbPoint
 10
1769.783802115801
 20
1503.612949640288
 30
0.0
  0
POINT
  5
3A99
330
3A8F
100
AcDbEntity
  8
Defpoints
 62
     0
100
AcDbPoint
 10
1625.386892648753
 20
678.6129496402878
 30
0.0
  0
POINT
  5
3A9A
330
3A8F
100
AcDbEntity
  8
Defpoints
 62
     0
100
AcDbPoint
 10
1860.871836741025
 20
678.6129496402878
 30
0.0
  0
ENDBLK
  5
3A91
330
3A8F
100
AcDbEntity
  8
0
100
AcDbBlockEnd
  0
BLOCK
  5
3AA8
330
3AA7
100
AcDbEntity
  8
0
100
AcDbBlockBegin
  2
*D167
 70
     1
 10
0.0
 20
0.0
 30
0.0
  3
*D167
  1

  0
LINE
  5
3AAA
330
3AA7
100
AcDbEntity
  8
DIM
 62
     0
370
    -2
100
AcDbLine
 10
1655.519536013613
 20
1359.006550489141
 30
0.0
 11
1750.629725447013
 21
1359.006550489141
 31
0.0
  0
LINE
  5
3AAB
330
3AA7
100
AcDbEntity
  8
DIM
 62
     0
370
    -2
100
AcDbLine
 10
1685.386892648753
 20
678.6129496402878
 30
0.0
 11
1750.629725447013
 21
678.6129496402878
 31
0.0
  0
LINE
  5
3AAC
330
3AA7
100
AcDbEntity
  8
DIM
 62
     0
370
    -2
100
AcDbLine
 10
1750.629725447013
 20
1349.006550489141
 30
0.0
 11
1750.629725447013
 21
688.6129496402878
 31
0.0
  0
INSERT
  5
3AAD
330
3AA7
100
AcDbEntity
  8
DIM
 62
     0
370
    -2
100
AcDbBlockReference
  2
_DOT
 10
1750.629725447013
 20
1359.006550489141
 30
0.0
 41
10.0
 42
10.0
 43
10.0
 50
90.0
  0
INSERT
  5
3AAE
330
3AA7
100
AcDbEntity
  8
DIM
 62
     0
370
    -2
100
AcDbBlockReference
  2
_DOT
 10
1750.629725447013
 20
678.6129496402878
 30
0.0
 41
10.0
 42
10.0
 43
10.0
 50
270.0
  0
MTEXT
  5
3AAF
330
3AA7
100
AcDbEntity
  8
DIM
 62
     0
100
AcDbMText
 10
1718.629725447013
 20
1018.809750064714
 30
0.0
 40
24.0
 41
0.0
 46
0.0
 71
     5
 72
     1
  1
\A1;680
  7
ＭＳ ゴシック
 11
0.0
 21
1.0
 31
0.0
 73
     1
 44
1.0
  0
POINT
  5
3AB0
330
3AA7
100
AcDbEntity
  8
Defpoints
 62
     0
100
AcDbPoint
 10
1625.519536013613
 20
1359.006550489141
 30
0.0
  0
POINT
  5
3AB1
330
3AA7
100
AcDbEntity
  8
Defpoints
 62
     0
100
AcDbPoint
 10
1655.386892648753
 20
678.6129496402878
 30
0.0
  0
POINT
  5
3AB2
330
3AA7
100
AcDbEntity
  8
Defpoints
 62
     0
100
AcDbPoint
 10
1750.629725447013
 20
678.6129496402878
 30
0.0
  0
ENDBLK
  5
3AA9
330
3AA7
100
AcDbEntity
  8
0
100
AcDbBlockEnd
  0
BLOCK
  5
3AB7
330
3AB6
100
AcDbEntity
  8
0
100
AcDbBlockBegin
  2
*D168
 70
     1
 10
0.0
 20
0.0
 30
0.0
  3
*D168
  1

  0
LINE
  5
3AB9
330
3AB6
100
AcDbEntity
  8
DIM
 62
     0
370
    -2
100
AcDbLine
 10
1420.667542693243
 20
1368.612949628761
 30
0.0
 11
1326.660244693637
 21
1368.612949628761
 31
0.0
  0
LINE
  5
3ABA
330
3AB6
100
AcDbEntity
  8
DIM
 62
     0
370
    -2
100
AcDbLine
 10
1418.348440610872
 20
678.6129496402878
 30
0.0
 11
1326.660244693637
 21
678.6129496402878
 31
0.0
  0
LINE
  5
3ABB
330
3AB6
100
AcDbEntity
  8
DIM
 62
     0
370
    -2
100
AcDbLine
 10
1326.660244693637
 20
1358.612949628761
 30
0.0
 11
1326.660244693637
 21
688.6129496402878
 31
0.0
  0
INSERT
  5
3ABC
330
3AB6
100
AcDbEntity
  8
DIM
 62
     0
370
    -2
100
AcDbBlockReference
  2
_DOT
 10
1326.660244693637
 20
1368.612949628761
 30
0.0
 41
10.0
 42
10.0
 43
10.0
 50
90.0
  0
INSERT
  5
3ABD
330
3AB6
100
AcDbEntity
  8
DIM
 62
     0
370
    -2
100
AcDbBlockReference
  2
_DOT
 10
1326.660244693637
 20
678.6129496402878
 30
0.0
 41
10.0
 42
10.0
 43
10.0
 50
270.0
  0
MTEXT
  5
3ABE
330
3AB6
100
AcDbEntity
  8
DIM
 62
     0
100
AcDbMText
 10
1294.660244693637
 20
1023.612949634524
 30
0.0
 40
24.0
 41
0.0
 46
0.0
 71
     5
 72
     1
  1
\A1;690
  7
ＭＳ ゴシック
 11
0.0
 21
1.0
 31
0.0
 73
     1
 44
1.0
  0
POINT
  5
3ABF
330
3AB6
100
AcDbEntity
  8
Defpoints
 62
     0
100
AcDbPoint
 10
1450.667542693243
 20
1368.612949628761
 30
0.0
  0
POINT
  5
3AC0
330
3AB6
100
AcDbEntity
  8
Defpoints
 62
     0
100
AcDbPoint
 10
1448.348440610872
 20
678.6129496402878
 30
0.0
  0
POINT
  5
3AC1
330
3AB6
100
AcDbEntity
  8
Defpoints
 62
     0
100
AcDbPoint
 10
1326.660244693637
 20
678.6129496402878
 30
0.0
  0
ENDBLK
  5
3AB8
330
3AB6
100
AcDbEntity
  8
0
100
AcDbBlockEnd
  0
BLOCK
  5
3AF8
330
3AF7
100
AcDbEntity
  8
0
100
AcDbBlockBegin
  2
*D170
 70
     1
 10
0.0
 20
0.0
 30
0.0
  3
*D170
  1

  0
LINE
  5
3AFA
330
3AF7
100
AcDbEntity
  8
DIM
 62
     0
370
    -2
100
AcDbLine
 10
1628.368672354752
 20
1383.152693755608
 30
0.0
 11
1628.368672354752
 21
1393.305532963313
 31
0.0
  0
LINE
  5
3AFB
330
3AF7
100
AcDbEntity
  8
DIM
 62
     0
370
    -2
100
AcDbLine
 10
1448.25543689437
 20
1383.152693755608
 30
0.0
 11
1448.25543689437
 21
1393.305532963313
 31
0.0
  0
LINE
  5
3AFC
330
3AF7
100
AcDbEntity
  8
DIM
 62
     0
370
    -2
100
AcDbLine
 10
1618.368672354752
 20
1393.305532963313
 30
0.0
 11
1458.25543689437
 21
1393.305532963313
 31
0.0
  0
INSERT
  5
3AFD
330
3AF7
100
AcDbEntity
  8
DIM
 62
     0
370
    -2
100
AcDbBlockReference
  2
_DOT
 10
1628.368672354752
 20
1393.305532963313
 30
0.0
 41
10.0
 42
10.0
 43
10.0
  0
INSERT
  5
3AFE
330
3AF7
100
AcDbEntity
  8
DIM
 62
     0
370
    -2
100
AcDbBlockReference
  2
_DOT
 10
1448.25543689437
 20
1393.305532963313
 30
0.0
 41
10.0
 42
10.0
 43
10.0
 50
180.0
  0
MTEXT
  5
3AFF
330
3AF7
100
AcDbEntity
  8
DIM
 62
     0
100
AcDbMText
 10
1538.312054624561
 20
1425.305532963313
 30
0.0
 40
24.0
 41
0.0
 46
0.0
 71
     5
 72
     1
  1
\A1;180
  7
ＭＳ ゴシック
 73
     1
 44
1.0
  0
POINT
  5
3B00
330
3AF7
100
AcDbEntity
  8
Defpoints
 62
     0
100
AcDbPoint
 10
1628.368672354752
 20
1353.152693755608
 30
0.0
  0
POINT
  5
3B01
330
3AF7
100
AcDbEntity
  8
Defpoints
 62
     0
100
AcDbPoint
 10
1448.25543689437
 20
1353.152693755608
 30
0.0
  0
POINT
  5
3B02
330
3AF7
100
AcDbEntity
  8
Defpoints
 62
     0
100
AcDbPoint
 10
1448.25543689437
 20
1393.305532963313
 30
0.0
  0
ENDBLK
  5
3AF9
330
3AF7
100
AcDbEntity
  8
0
100
AcDbBlockEnd
  0
BLOCK
  5
3B3B
330
3B3A
100
AcDbEntity
  8
0
100
AcDbBlockBegin
  2
*D172
 70
     1
 10
0.0
 20
0.0
 30
0.0
  3
*D172
  1

  0
LINE
  5
3B3D
330
3B3A
100
AcDbEntity
  8
DIM
 62
     0
370
    -2
100
AcDbLine
 10
1084.277980037793
 20
1644.436996263332
 30
0.0
 11
1066.719788518352
 21
1644.436996263332
 31
0.0
  0
LINE
  5
3B3E
330
3B3A
100
AcDbEntity
  8
DIM
 62
     0
370
    -2
100
AcDbLine
 10
1084.27949065791
 20
1632.455188562833
 30
0.0
 11
1066.719788518352
 21
1632.455188562833
 31
0.0
  0
LINE
  5
3B3F
330
3B3A
100
AcDbEntity
  8
DIM
 62
     0
370
    -2
100
AcDbLine
 10
1066.719788518352
 20
1654.436996263332
 30
0.0
 11
1066.719788518352
 21
1664.436996263332
 31
0.0
  0
LINE
  5
3B40
330
3B3A
100
AcDbEntity
  8
DIM
 62
     0
370
    -2
100
AcDbLine
 10
1066.719788518352
 20
1622.455188562833
 30
0.0
 11
1066.719788518352
 21
1612.455188562833
 31
0.0
  0
INSERT
  5
3B41
330
3B3A
100
AcDbEntity
  8
DIM
 62
     0
370
    -2
100
AcDbBlockReference
  2
_DOT
 10
1066.719788518352
 20
1644.436996263332
 30
0.0
 41
10.0
 42
10.0
 43
10.0
 50
270.0
  0
INSERT
  5
3B42
330
3B3A
100
AcDbEntity
  8
DIM
 62
     0
370
    -2
100
AcDbBlockReference
  2
_DOT
 10
1066.719788518352
 20
1632.455188562833
 30
0.0
 41
10.0
 42
10.0
 43
10.0
 50
90.0
  0
MTEXT
  5
3B43
330
3B3A
100
AcDbEntity
  8
DIM
 62
     0
100
AcDbMText
 10
1034.719788518352
 20
1638.446092413083
 30
0.0
 40
24.0
 41
0.0
 46
0.0
 71
     5
 72
     1
  1
\A1;12
  7
ＭＳ ゴシック
 11
0.0
 21
1.0
 31
0.0
 73
     1
 44
1.0
  0
POINT
  5
3B44
330
3B3A
100
AcDbEntity
  8
Defpoints
 62
     0
100
AcDbPoint
 10
1054.277980037793
 20
1644.436996263332
 30
0.0
  0
POINT
  5
3B45
330
3B3A
100
AcDbEntity
  8
Defpoints
 62
     0
100
AcDbPoint
 10
1054.27949065791
 20
1632.455188562833
 30
0.0
  0
POINT
  5
3B46
330
3B3A
100
AcDbEntity
  8
Defpoints
 62
     0
100
AcDbPoint
 10
1066.719788518352
 20
1632.455188562833
 30
0.0
  0
ENDBLK
  5
3B3C
330
3B3A
100
AcDbEntity
  8
0
100
AcDbBlockEnd
  0
BLOCK
  5
3B94
330
3B93
100
AcDbEntity
  8
0
100
AcDbBlockBegin
  2
*D174
 70
     1
 10
0.0
 20
0.0
 30
0.0
  3
*D174
  1

  0
LINE
  5
3B96
330
3B93
100
AcDbEntity
  8
DIM
 62
     0
370
    -2
100
AcDbLine
 10
720.2344759090304
 20
2304.25141638278
 30
0.0
 11
767.0801425080147
 21
2304.25141638278
 31
0.0
  0
LINE
  5
3B97
330
3B93
100
AcDbEntity
  8
DIM
 62
     0
370
    -2
100
AcDbLine
 10
631.6963476889714
 20
2124.255989580973
 30
0.0
 11
767.0801425080147
 21
2124.255989580973
 31
0.0
  0
LINE
  5
3B98
330
3B93
100
AcDbEntity
  8
DIM
 62
     0
370
    -2
100
AcDbLine
 10
767.0801425080147
 20
2294.25141638278
 30
0.0
 11
767.0801425080147
 21
2134.255989580973
 31
0.0
  0
INSERT
  5
3B99
330
3B93
100
AcDbEntity
  8
DIM
 62
     0
370
    -2
100
AcDbBlockReference
  2
_DOT
 10
767.0801425080147
 20
2304.25141638278
 30
0.0
 41
10.0
 42
10.0
 43
10.0
 50
90.0
  0
INSERT
  5
3B9A
330
3B93
100
AcDbEntity
  8
DIM
 62
     0
370
    -2
100
AcDbBlockReference
  2
_DOT
 10
767.0801425080147
 20
2124.255989580973
 30
0.0
 41
10.0
 42
10.0
 43
10.0
 50
270.0
  0
MTEXT
  5
3B9B
330
3B93
100
AcDbEntity
  8
DIM
 62
     0
100
AcDbMText
 10
735.0801425080147
 20
2214.253702981877
 30
0.0
 40
24.0
 41
0.0
 46
0.0
 71
     5
 72
     1
  1
\A1;180
  7
ＭＳ ゴシック
 11
0.0
 21
1.0
 31
0.0
 73
     1
 44
1.0
  0
POINT
  5
3B9C
330
3B93
100
AcDbEntity
  8
Defpoints
 62
     0
100
AcDbPoint
 10
690.2344759090304
 20
2304.25141638278
 30
0.0
  0
POINT
  5
3B9D
330
3B93
100
AcDbEntity
  8
Defpoints
 62
     0
100
AcDbPoint
 10
601.6963476889714
 20
2124.255989580973
 30
0.0
  0
POINT
  5
3B9E
330
3B93
100
AcDbEntity
  8
Defpoints
 62
     0
100
AcDbPoint
 10
767.0801425080147
 20
2124.255989580973
 30
0.0
  0
ENDBLK
  5
3B95
330
3B93
100
AcDbEntity
  8
0
100
AcDbBlockEnd
  0
BLOCK
  5
3BA3
330
3BA2
100
AcDbEntity
  8
0
100
AcDbBlockBegin
  2
*D175
 70
     1
 10
0.0
 20
0.0
 30
0.0
  3
*D175
  1

  0
LINE
  5
3BA5
330
3BA2
100
AcDbEntity
  8
DIM
 62
     0
370
    -2
100
AcDbLine
 10
543.4962481798907
 20
2324.666487824502
 30
0.0
 11
543.4962481798907
 21
2390.306487437285
 31
0.0
  0
LINE
  5
3BA6
330
3BA2
100
AcDbEntity
  8
DIM
 62
     0
370
    -2
100
AcDbLine
 10
726.3236599843425
 20
2326.399303713932
 30
0.0
 11
726.3236599843425
 21
2390.306487437285
 31
0.0
  0
LINE
  5
3BA7
330
3BA2
100
AcDbEntity
  8
DIM
 62
     0
370
    -2
100
AcDbLine
 10
553.4962481798907
 20
2390.306487437285
 30
0.0
 11
716.3236599843425
 21
2390.306487437285
 31
0.0
  0
INSERT
  5
3BA8
330
3BA2
100
AcDbEntity
  8
DIM
 62
     0
370
    -2
100
AcDbBlockReference
  2
_DOT
 10
543.4962481798907
 20
2390.306487437285
 30
0.0
 41
10.0
 42
10.0
 43
10.0
 50
180.0
  0
INSERT
  5
3BA9
330
3BA2
100
AcDbEntity
  8
DIM
 62
     0
370
    -2
100
AcDbBlockReference
  2
_DOT
 10
726.3236599843425
 20
2390.306487437285
 30
0.0
 41
10.0
 42
10.0
 43
10.0
  0
MTEXT
  5
3BAA
330
3BA2
100
AcDbEntity
  8
DIM
 62
     0
100
AcDbMText
 10
634.9099540821167
 20
2422.306487437285
 30
0.0
 40
24.0
 41
0.0
 46
0.0
 71
     5
 72
     1
  1
\A1;183
  7
ＭＳ ゴシック
 73
     1
 44
1.0
  0
POINT
  5
3BAB
330
3BA2
100
AcDbEntity
  8
Defpoints
 62
     0
100
AcDbPoint
 10
543.4962481798907
 20
2294.666487824502
 30
0.0
  0
POINT
  5
3BAC
330
3BA2
100
AcDbEntity
  8
Defpoints
 62
     0
100
AcDbPoint
 10
726.3236599843425
 20
2296.399303713932
 30
0.0
  0
POINT
  5
3BAD
330
3BA2
100
AcDbEntity
  8
Defpoints
 62
     0
100
AcDbPoint
 10
726.3236599843425
 20
2390.306487437285
 30
0.0
  0
ENDBLK
  5
3BA4
330
3BA2
100
AcDbEntity
  8
0
100
AcDbBlockEnd
  0
BLOCK
  5
3BB4
330
3BB3
100
AcDbEntity
  8
0
100
AcDbBlockBegin
  2
*D176
 70
     1
 10
0.0
 20
0.0
 30
0.0
  3
*D176
  1

  0
LINE
  5
3BB6
330
3BB3
100
AcDbEntity
  8
DIM
 62
     0
370
    -2
100
AcDbLine
 10
511.6963476889714
 20
2162.039771358533
 30
0.0
 11
511.6963476889714
 21
2054.882169500605
 31
0.0
  0
LINE
  5
3BB7
330
3BB3
100
AcDbEntity
  8
DIM
 62
     0
370
    -2
100
AcDbLine
 10
691.6963476889714
 20
2162.039771358533
 30
0.0
 11
691.6963476889714
 21
2054.882169500605
 31
0.0
  0
LINE
  5
3BB8
330
3BB3
100
AcDbEntity
  8
DIM
 62
     0
370
    -2
100
AcDbLine
 10
521.6963476889714
 20
2054.882169500605
 30
0.0
 11
681.6963476889714
 21
2054.882169500605
 31
0.0
  0
INSERT
  5
3BB9
330
3BB3
100
AcDbEntity
  8
DIM
 62
     0
370
    -2
100
AcDbBlockReference
  2
_DOT
 10
511.6963476889714
 20
2054.882169500605
 30
0.0
 41
10.0
 42
10.0
 43
10.0
 50
180.0
  0
INSERT
  5
3BBA
330
3BB3
100
AcDbEntity
  8
DIM
 62
     0
370
    -2
100
AcDbBlockReference
  2
_DOT
 10
691.6963476889714
 20
2054.882169500605
 30
0.0
 41
10.0
 42
10.0
 43
10.0
  0
MTEXT
  5
3BBB
330
3BB3
100
AcDbEntity
  8
DIM
 62
     0
100
AcDbMText
 10
601.6963476889714
 20
2086.882169500605
 30
0.0
 40
24.0
 41
0.0
 46
0.0
 71
     5
 72
     1
  1
\A1;180
  7
ＭＳ ゴシック
 73
     1
 44
1.0
  0
POINT
  5
3BBC
330
3BB3
100
AcDbEntity
  8
Defpoints
 62
     0
100
AcDbPoint
 10
511.6963476889714
 20
2192.039771358533
 30
0.0
  0
POINT
  5
3BBD
330
3BB3
100
AcDbEntity
  8
Defpoints
 62
     0
100
AcDbPoint
 10
691.6963476889714
 20
2192.039771358533
 30
0.0
  0
POINT
  5
3BBE
330
3BB3
100
AcDbEntity
  8
Defpoints
 62
     0
100
AcDbPoint
 10
691.6963476889714
 20
2054.882169500605
 30
0.0
  0
ENDBLK
  5
3BB5
330
3BB3
100
AcDbEntity
  8
0
100
AcDbBlockEnd
  0
ENDSEC
  0
SECTION
  2
ENTITIES
  0
MTEXT
  5
177
330
A
100
AcDbEntity
  8
TEMPLATE
390
1D
100
AcDbMText
 10
79.20214454773075
 20
343.7317516314282
 30
0.0
 40
16.28841145833333
 41
0.0
 46
0.0
 71
     1
 72
     1
  1
品名
  7
ＭＳ ゴシック
 73
     1
 44
0.7828267384257843
  0
MTEXT
  5
178
330
A
100
AcDbEntity
  8
TEMPLATE
390
1D
100
AcDbMText
 10
79.20214454773075
 20
258.731751631428
 30
0.0
 40
16.28841145833333
 41
0.0
 46
0.0
 71
     1
 72
     1
  1
仕様
  7
ＭＳ ゴシック
 73
     1
 44
0.7828267384257843
  0
LINE
  5
179
330
A
100
AcDbEntity
  8
TEMPLATE
390
1D
100
AcDbLine
 10
2022.202144547248
 20
267.1466735064284
 30
0.0
 11
72.20214454724874
 21
267.1466735064284
 31
0.0
  0
LWPOLYLINE
  5
17A
330
A
100
AcDbEntity
  8
TEMPLATE
390
1D
100
AcDbPolyline
 90
        5
 70
   128
 43
0.0
 10
2022.202144547248
 20
2897.146673506426
 10
72.20214454724874
 20
2897.146673506426
 10
72.20214454724874
 20
97.14667350642826
 10
2022.202144547248
 20
97.14667350642826
 10
2022.202144547248
 20
2897.146673506426
  0
LINE
  5
17B
330
A
100
AcDbEntity
  8
TEMPLATE
390
1D
100
AcDbLine
 10
2022.202144547248
 20
352.1466735064282
 30
0.0
 11
72.20214454724874
 21
352.1466735064282
 31
0.0
  0
LINE
  5
17C
330
A
100
AcDbEntity
  8
TEMPLATE
390
1D
100
AcDbLine
 10
2022.202144547732
 20
182.1466735064282
 30
0.0
 11
1269.20214454773
 21
182.1466735064282
 31
0.0
  0
MTEXT
  5
17E
330
A
100
AcDbEntity
  8
TEMPLATE
390
1D
100
AcDbMText
 10
1299.073550799991
 20
152.2362790331201
 30
0.0
 40
24.4326171875
 41
0.0
 46
0.0
 71
     1
 72
     1
  1
大洋金物株式会社 ティーフォルム事業部
  7
ＭＳ ゴシック
 73
     1
 44
0.7828267384257843
  0
MTEXT
  5
180
330
A
100
AcDbEntity
  8
TEMPLATE
390
1D
100
AcDbMText
 10
1831.20214454799
 20
230.1492906939282
 30
0.0
 40
24.4326171875
 41
0.0
 46
24.4326171875
 71
     1
 72
     1
  1
{1:10}
  7
ＭＳ ゴシック
 73
     1
 44
0.7828267384257843
1001
ACAD
1000
ACAD_MTEXT_DEFINED_HEIGHT_BEGIN
1070
    46
1040
24.4326171875
1000
ACAD_MTEXT_DEFINED_HEIGHT_END
  0
MTEXT
  5
181
330
A
100
AcDbEntity
  8
TEMPLATE
390
1D
100
AcDbMText
 10
1778.20214454799
 20
258.731751631428
 30
0.0
 40
16.28841145833333
 41
0.0
 46
0.0
 71
     1
 72
     1
  1
縮尺
  7
ＭＳ ゴシック
 73
     1
 44
0.7828267384257843
  0
LINE
  5
182
330
A
100
AcDbEntity
  8
TEMPLATE
390
1D
100
AcDbLine
 10
1771.20214454799
 20
182.1466735064282
 30
0.0
 11
1771.20214454799
 21
267.1466735064284
 31
0.0
  0
MTEXT
  5
183
330
A
100
AcDbEntity
  8
TEMPLATE
390
1D
100
AcDbMText
 10
1527.20214454799
 20
258.731751631428
 30
0.0
 40
16.28841145833333
 41
0.0
 46
0.0
 71
     1
 72
     1
  1
容量
  7
ＭＳ ゴシック
 73
     1
 44
0.7828267384257843
  0
LINE
  5
184
330
A
100
AcDbEntity
  8
TEMPLATE
390
1D
100
AcDbLine
 10
1520.20214454799
 20
182.1466735064282
 30
0.0
 11
1520.20214454799
 21
267.1466735064284
 31
0.0
  0
MTEXT
  5
185
330
A
100
AcDbEntity
  8
TEMPLATE
390
1D
100
AcDbMText
 10
1276.20214454799
 20
343.7317516314282
 30
0.0
 40
16.28841145833333
 41
0.0
 46
0.0
 71
     1
 72
     1
  1
品番
  7
ＭＳ ゴシック
 73
     1
 44
0.7828267384257843
  0
MTEXT
  5
186
330
A
100
AcDbEntity
  8
TEMPLATE
390
1D
100
AcDbMText
 10
1276.20214454799
 20
258.731751631428
 30
0.0
 40
16.28841145833333
 41
0.0
 46
0.0
 71
     1
 72
     1
  1
重量
  7
ＭＳ ゴシック
 73
     1
 44
0.7828267384257843
  0
MTEXT
  5
187
330
A
100
AcDbEntity
  8
TEMPLATE
390
1D
100
AcDbMText
 10
1329.20214454799
 20
315.1492906939282
 30
0.0
 40
24.4326171875
 41
0.0
 46
27.2912333984375
 71
     1
 72
     1
  1
{ADF75-2001 (洗面器: ADF70-2411)}
  7
ＭＳ ゴシック
 73
     1
 44
0.7828267384257843
1001
ACAD
1000
ACAD_MTEXT_DEFINED_HEIGHT_BEGIN
1070
    46
1040
27.2912333984375
1000
ACAD_MTEXT_DEFINED_HEIGHT_END
  0
LINE
  5
188
330
A
100
AcDbEntity
  8
TEMPLATE
390
1D
100
AcDbLine
 10
1269.20214454799
 20
97.14667350642826
 30
0.0
 11
1269.20214454799
 21
352.1466735064282
 31
0.0
  0
MTEXT
  5
189
330
A
100
AcDbEntity
  8
TEMPLATE
390
1D
100
AcDbMText
 10
132.2021445477307
 20
315.1492906939282
 30
0.0
 40
24.4326171875
 41
0.0
 46
28.390701171875
 71
     1
 72
     1
  1
{{\C7;ペデスタル -CATALANO,New Light-}}
  7
ＭＳ ゴシック
 73
     1
 44
0.7828267384257843
1001
ACAD
1000
ACAD_MTEXT_DEFINED_HEIGHT_BEGIN
1070
    46
1040
28.390701171875
1000
ACAD_MTEXT_DEFINED_HEIGHT_END
  0
INSERT
  5
6B5
330
A
100
AcDbEntity
  8
TEMPLATE
100
AcDbBlockReference
  2
名称未設定-1
 10
1870.75074808845
 20
25.94676575665382
 30
0.0
 41
0.7619999999999998
 42
0.7619999999999998
 43
0.7619999999999998
  0
MTEXT
  5
7D9
330
A
100
AcDbEntity
  8
TEMPLATE
390
1D
100
AcDbMText
 10
132.2021445477307
 20
226.8119760293952
 30
0.0
 40
24.4326171875
 41
0.0
 46
25.556517578125
 71
     1
 72
     1
  1
{{\C7;陶器/ホワイト}}
  7
ＭＳ ゴシック
 73
     1
 44
0.9331787841240657
1001
ACAD
1000
ACAD_MTEXT_DEFINED_HEIGHT_BEGIN
1070
    46
1040
25.556517578125
1000
ACAD_MTEXT_DEFINED_HEIGHT_END
  0
INSERT
  5
68C
330
A
100
AcDbEntity
  8
TEMPLATE
100
AcDbBlockReference
  2
block 2
 10
919.2743017702577
 20
8.373076514336368
 30
0.0
 41
0.3809999999999999
 42
0.3809999999999999
 43
0.3809999999999999
  0
LWPOLYLINE
  5
DAC
330
A
100
AcDbEntity
  8
BORDER
100
AcDbPolyline
 90
        4
 70
     1
 43
0.0
 10
0.0
 20
0.0
 10
0.0
 20
2970.0
 10
2100.0
 20
2970.0
 10
2100.0
 20
0.0
  0
MTEXT
  5
1466
102
{ACAD_XDICTIONARY
360
1468
102
}
330
A
100
AcDbEntity
  8
TEMPLATE
 48
0.05
100
AcDbMText
 10
74.728656548571
 20
83.86172105142839
 30
0.0
 40
22.0
 41
0.0
 46
22.0
 71
     1
 72
     1
  1
{20171207N}
  7
ＭＳ ゴシック
 73
     1
 44
1.0
1001
ACAD
1000
ACAD_MTEXT_DEFINED_HEIGHT_BEGIN
1070
    46
1040
22.0
1000
ACAD_MTEXT_DEFINED_HEIGHT_END
  0
POINT
  5
262A
330
A
100
AcDbEntity
  8
Layer9
  6
Continuous
 62
     7
100
AcDbPoint
 10
1037.460145007193
 20
1010.220672371878
 30
0.0
  0
POINT
  5
262B
330
A
100
AcDbEntity
  8
Layer9
  6
Continuous
 62
     7
100
AcDbPoint
 10
1037.460146257193
 20
1010.220672788578
 30
0.0
  0
POINT
  5
262C
330
A
100
AcDbEntity
  8
Layer9
  6
Continuous
 62
     7
100
AcDbPoint
 10
1037.853693340493
 20
1015.267975288578
 30
0.0
  0
POINT
  5
2812
330
A
100
AcDbEntity
  8
Layer9
  6
Continuous
 62
     7
100
AcDbPoint
 10
925.7934783404928
 20
1010.220672371878
 30
0.0
  0
POINT
  5
2813
330
A
100
AcDbEntity
  8
Layer9
  6
Continuous
 62
     7
100
AcDbPoint
 10
925.7934795904928
 20
1010.220672788578
 30
0.0
  0
POINT
  5
2814
330
A
100
AcDbEntity
  8
Layer9
  6
Continuous
 62
     7
100
AcDbPoint
 10
926.1870266737928
 20
1015.267975288578
 30
0.0
  0
INSERT
  5
28CA
330
A
100
AcDbEntity
  8
Layer3
100
AcDbBlockReference
  2
SEANNOT_GROUP
 10
859.7083018867928
 20
826.1905269541776
 30
0.0
  0
POINT
  5
2A52
330
A
100
AcDbEntity
  8
Standard
  6
Continuous
 62
     7
100
AcDbPoint
 10
1036.111241014893
 20
1018.794321538578
 30
0.0
  0
INSERT
  5
2B9B
330
A
100
AcDbEntity
  8
Layer3
100
AcDbBlockReference
  2
SEANNOT_GROUP1
 10
859.7083018867928
 20
826.1905269541776
 30
0.0
  0
LINE
  5
3881
102
{ACAD_REACTORS
330
3B8A
102
}
330
A
100
AcDbEntity
  8
HIDDEN
390
1D
100
AcDbLine
 10
241.6963476889714
 20
1960.232017082116
 30
0.0
 11
961.6963476889714
 21
1960.232017082116
 31
0.0
  0
ARC
  5
3882
102
{ACAD_REACTORS
330
3B8A
102
}
330
A
100
AcDbEntity
  8
HIDDEN
390
1D
100
AcDbCircle
 10
241.6963476889714
 20
2000.232017082116
 30
0.0
 40
40.0
100
AcDbArc
 50
180.0
 51
270.0
  0
LINE
  5
3883
102
{ACAD_REACTORS
330
3B8A
102
}
330
A
100
AcDbEntity
  8
HIDDEN
390
1D
100
AcDbLine
 10
356.6963476889714
 20
2020.232017082115
 30
0.0
 11
846.6963476889714
 21
2020.232017082117
 31
0.0
  0
ARC
  5
3884
102
{ACAD_REACTORS
330
3B8A
102
}
330
A
100
AcDbEntity
  8
HIDDEN
390
1D
100
AcDbCircle
 10
356.6963476889714
 20
2045.232017082116
 30
0.0
 40
25.0
100
AcDbArc
 50
180.0
 51
270.0
  0
LINE
  5
3885
102
{ACAD_REACTORS
330
3B8A
102
}
330
A
100
AcDbEntity
  8
HIDDEN
390
1D
100
AcDbLine
 10
1001.696347688971
 20
2000.232017082116
 30
0.0
 11
1001.69634768898
 21
2437.308526074123
 31
0.0
  0
ARC
  5
3886
102
{ACAD_REACTORS
330
3B8A
102
}
330
A
100
AcDbEntity
  8
HIDDEN
390
1D
100
AcDbCircle
 10
998.6963476889805
 20
2437.232017082116
 30
0.0
 40
3.0
100
AcDbArc
 50
0.0
 51
90.0
  0
LINE
  5
3887
102
{ACAD_REACTORS
330
3B8A
102
}
330
A
100
AcDbEntity
  8
HIDDEN
390
1D
100
AcDbLine
 10
871.6963476889714
 20
2045.232017082116
 30
0.0
 11
871.6963476889805
 21
2289.90441077229
 31
0.0
  0
ARC
  5
3888
102
{ACAD_REACTORS
330
3B8A
102
}
330
A
100
AcDbEntity
  8
HIDDEN
390
1D
100
AcDbCircle
 10
851.6963476889805
 20
2289.90441077229
 30
0.0
 40
20.00000000000004
100
AcDbArc
 50
0.0
 51
90.0
  0
LINE
  5
3889
102
{ACAD_REACTORS
330
3B8A
102
}
330
A
100
AcDbEntity
  8
HIDDEN
390
1D
100
AcDbLine
 10
998.6963476889805
 20
2440.232017082116
 30
0.0
 11
204.6963476889714
 21
2440.232017082116
 31
0.0
  0
LINE
  5
388A
102
{ACAD_REACTORS
330
3B8A
102
}
330
A
100
AcDbEntity
  8
HIDDEN
390
1D
100
AcDbLine
 10
201.6963476889714
 20
2437.232017082116
 30
0.0
 11
201.6963476889714
 21
2000.232017082116
 31
0.0
  0
ARC
  5
388B
102
{ACAD_REACTORS
330
3B8A
102
}
330
A
100
AcDbEntity
  8
HIDDEN
390
1D
100
AcDbCircle
 10
204.6963476889714
 20
2437.232017082117
 30
0.0
 40
3.0
100
AcDbArc
 50
90.0
 51
180.0
  0
LINE
  5
388C
102
{ACAD_REACTORS
330
3B8A
102
}
330
A
100
AcDbEntity
  8
HIDDEN
390
1D
100
AcDbLine
 10
331.6963476889714
 20
2284.904410772288
 30
0.0
 11
331.6963476889714
 21
2045.232017082115
 31
0.0
  0
LINE
  5
388D
102
{ACAD_REACTORS
330
3B8A
102
}
330
A
100
AcDbEntity
  8
HIDDEN
390
1D
100
AcDbLine
 10
356.6963476889714
 20
2309.904410772288
 30
0.0
 11
851.6963476889805
 21
2309.90441077229
 31
0.0
  0
ARC
  5
388E
102
{ACAD_REACTORS
330
3B8A
102
}
330
A
100
AcDbEntity
  8
HIDDEN
390
1D
100
AcDbCircle
 10
356.6963476889714
 20
2284.904410772289
 30
0.0
 40
25.0
100
AcDbArc
 50
90.0
 51
180.0
  0
CIRCLE
  5
388F
102
{ACAD_REACTORS
330
3B8A
102
}
330
A
100
AcDbEntity
  8
HIDDEN
390
1D
100
AcDbCircle
 10
601.6963476889714
 20
2222.134545353189
 30
0.0
 40
22.49999999999818
  0
CIRCLE
  5
3890
102
{ACAD_REACTORS
330
3B8A
102
}
330
A
100
AcDbEntity
  8
HIDDEN
390
1D
100
AcDbCircle
 10
601.6963476889714
 20
2222.134545353189
 30
0.0
 40
38.0
  0
SPLINE
  5
3891
102
{ACAD_REACTORS
330
3B8A
102
}
330
A
100
AcDbEntity
  8
HIDDEN
390
1D
100
AcDbSpline
210
0.0
220
0.0
230
1.0
 70
    11
 71
     2
 72
    26
 73
    23
 74
     0
 42
0.000000001
 43
0.000001
 40
0.0
 40
0.0
 40
0.0
 40
1.0
 40
2.0
 40
3.0
 40
4.0
 40
4.0
 40
5.0
 40
6.0
 40
7.0
 40
8.0
 40
9.0
 40
9.0
 40
10.0
 40
11.0
 40
12.0
 40
13.0
 40
13.0
 40
14.0
 40
15.0
 40
16.0
 40
17.0
 40
18.0
 40
18.0
 40
18.0
 10
589.0935435750807
 20
2307.669140041954
 30
0.0
 10
589.2438260257304
 20
2307.440721694339
 30
0.0
 10
590.4180400683717
 20
2307.149946184707
 30
0.0
 10
592.0619571649213
 20
2306.952118424865
 30
0.0
 10
597.1849971958318
 20
2306.547316955606
 30
0.0
 10
601.5935435750716
 20
2306.570710350668
 30
0.0
 10
604.1445434585703
 20
2306.568408835895
 30
0.0
 10
608.547647067021
 20
2306.7326710453
 30
0.0
 10
611.1251299852311
 20
2306.952118424866
 30
0.0
 10
612.7613221625206
 20
2307.14749917811
 30
0.0
 10
613.943261124431
 20
2307.440721694336
 30
0.0
 10
614.0935435750807
 20
2307.669140041954
 30
0.0
 10
613.943261124431
 20
2307.897558389567
 30
0.0
 10
612.7690470817806
 20
2308.188333899203
 30
0.0
 10
611.1251299852311
 20
2308.386161659044
 30
0.0
 10
606.0020899543206
 20
2308.790963128301
 30
0.0
 10
601.5935435750716
 20
2308.76756973324
 30
0.0
 10
599.0425436915802
 20
2308.769871248013
 30
0.0
 10
594.6394400831314
 20
2308.605609038609
 30
0.0
 10
592.0619571649304
 20
2308.386161659043
 30
0.0
 10
590.4257649876317
 20
2308.1907809058
 30
0.0
 10
589.2438260257304
 20
2307.89755838957
 30
0.0
 10
589.0935435750807
 20
2307.669140041954
 30
0.0
  0
ARC
  5
38B4
102
{ACAD_REACTORS
330
3B8A
102
}
330
A
100
AcDbEntity
  8
HIDDEN
390
1D
100
AcDbCircle
 10
961.6963476889714
 20
2000.232017082116
 30
0.0
 40
40.0
100
AcDbArc
 50
270.0
 51
0.0
  0
ARC
  5
38B5
102
{ACAD_REACTORS
330
3B8A
102
}
330
A
100
AcDbEntity
  8
HIDDEN
390
1D
100
AcDbCircle
 10
846.6963476889714
 20
2045.232017082117
 30
0.0
 40
25.0
100
AcDbArc
 50
270.0
 51
0.0
  0
LINE
  5
38D8
102
{ACAD_REACTORS
330
3B8C
102
}
330
A
100
AcDbEntity
  8
HIDDEN
390
1D
100
AcDbLine
 10
1355.499864917062
 20
1458.612931960468
 30
0.0
 11
1299.586439130922
 21
1458.612933930224
 31
0.0
  0
LINE
  5
38D9
102
{ACAD_REACTORS
330
3B8C
102
}
330
A
100
AcDbEntity
  8
HIDDEN
390
1D
100
AcDbLine
 10
1741.699405627012
 20
1368.647118268358
 30
0.0
 11
1741.699320949073
 21
1368.650335509528
 31
0.0
  0
LINE
  5
38DA
102
{ACAD_REACTORS
330
3B8C
102
}
330
A
100
AcDbEntity
  8
HIDDEN
390
1D
100
AcDbLine
 10
1770.199405663423
 20
1371.089393537678
 30
0.0
 11
1770.199414995973
 21
1502.112949640293
 31
0.0
  0
LINE
  5
38DB
102
{ACAD_REACTORS
330
3B8C
102
}
330
A
100
AcDbEntity
  8
HIDDEN
390
1D
100
AcDbLine
 10
1770.199405647692
 20
1371.150335413362
 30
0.0
 11
1770.199405743404
 21
1373.63835949416
 31
0.0
  0
LINE
  5
38DE
102
{ACAD_REACTORS
330
3B8C
102
}
330
A
100
AcDbEntity
  8
HIDDEN
390
1D
100
AcDbLine
 10
1296.773383187963
 20
1458.612949640288
 30
0.0
 11
1299.586371903264
 21
1458.612949640288
 31
0.0
  0
LINE
  5
38E1
102
{ACAD_REACTORS
330
3B8C
102
}
330
A
100
AcDbEntity
  8
HIDDEN
390
1D
100
AcDbLine
 10
1768.699414995973
 20
1503.612949640288
 30
0.0
 11
1296.197366504633
 21
1503.612949640288
 31
0.0
  0
ARC
  5
38E3
102
{ACAD_REACTORS
330
3B8C
102
}
330
A
100
AcDbEntity
  8
HIDDEN
390
1D
100
AcDbCircle
 10
1768.699414995973
 20
1502.112949640288
 30
0.0
 40
1.5
100
AcDbArc
 50
0.0000000002084408
 51
90.0
  0
LINE
  5
38E5
102
{ACAD_REACTORS
330
3B8C
102
}
330
A
100
AcDbEntity
  8
HIDDEN
390
1D
100
AcDbLine
 10
1290.198280091714
 20
1497.50823495542
 30
0.0
 11
1290.774297233763
 21
1464.508234988694
 31
0.0
  0
ARC
  5
38E6
102
{ACAD_REACTORS
330
3B8C
102
}
330
A
100
AcDbEntity
  8
HIDDEN
390
1D
100
AcDbCircle
 10
1296.197457863092
 20
1497.61285962056
 30
0.0
 40
6.000090020423825
100
AcDbArc
 50
90.00087239591463
 51
180.999127603864
  0
ARC
  5
38E7
102
{ACAD_REACTORS
330
3B8C
102
}
330
A
100
AcDbEntity
  8
HIDDEN
390
1D
100
AcDbCircle
 10
1296.773467137432
 20
1464.613034851123
 30
0.0
 40
6.000085211423412
100
AcDbArc
 50
181.0008016468961
 51
269.9991983527407
  0
LINE
  5
38E8
102
{ACAD_REACTORS
330
3B8C
102
}
330
A
100
AcDbEntity
  8
HIDDEN
390
1D
100
AcDbLine
 10
1518.357594998582
 20
1323.61384836844
 30
0.0
 11
1585.113359172823
 21
1323.615119506894
 31
0.0
  0
ARC
  5
38EA
102
{ACAD_REACTORS
330
3B8C
102
}
330
A
100
AcDbEntity
  8
HIDDEN
390
1D
100
AcDbCircle
 10
1518.357611543893
 20
1326.613866423404
 30
0.0
 40
3.000018055008176
100
AcDbArc
 50
185.0023133170869
 51
269.9996840097003
  0
ARC
  5
38EB
102
{ACAD_REACTORS
330
3B8C
102
}
330
A
100
AcDbEntity
  8
HIDDEN
390
1D
100
AcDbCircle
 10
1504.709940669663
 20
1352.630818589158
 30
0.0
 40
8.00000086247131
100
AcDbArc
 50
5.002002291252619
 51
83.4475202687067
  0
LINE
  5
38ED
102
{ACAD_REACTORS
330
3B8C
102
}
330
A
100
AcDbEntity
  8
HIDDEN
390
1D
100
AcDbLine
 10
1290.198565049073
 20
1497.453408686335
 30
0.0
 11
1290.199414995733
 21
1497.348364875419
 31
0.0
  0
LINE
  5
38EE
102
{ACAD_REACTORS
330
3B8C
102
}
330
A
100
AcDbEntity
  8
HIDDEN
390
1D
100
AcDbLine
 10
1290.199414995733
 20
1497.348364875419
 30
0.0
 11
1290.198190545463
 21
1497.508229089173
 31
0.0
  0
LINE
  5
38EF
102
{ACAD_REACTORS
330
3B8C
102
}
330
A
100
AcDbEntity
  8
HIDDEN
390
1D
100
AcDbLine
 10
1296.069987051143
 20
1503.611586002633
 30
0.0
 11
1296.139026106442
 21
1503.614478997215
 31
0.0
  0
LINE
  5
38F0
102
{ACAD_REACTORS
330
3B8C
102
}
330
A
100
AcDbEntity
  8
HIDDEN
390
1D
100
AcDbLine
 10
1296.139026106442
 20
1503.614478997215
 30
0.0
 11
1296.078711297423
 21
1503.6123645266
 31
0.0
  0
LINE
  5
38F1
102
{ACAD_REACTORS
330
3B8C
102
}
330
A
100
AcDbEntity
  8
HIDDEN
390
1D
100
AcDbLine
 10
1296.197346169743
 20
1503.613599126727
 30
0.0
 11
1296.307678624052
 21
1503.615335447916
 31
0.0
  0
LINE
  5
38F2
102
{ACAD_REACTORS
330
3B8C
102
}
330
A
100
AcDbEntity
  8
HIDDEN
390
1D
100
AcDbLine
 10
1741.699405627023
 20
1368.647118268022
 30
0.0
 11
1658.617048629552
 21
1368.647118268022
 31
0.0
  0
LINE
  5
38F3
102
{ACAD_REACTORS
330
3B8C
102
}
330
A
100
AcDbEntity
  8
HIDDEN
390
1D
100
AcDbLine
 10
1741.699320949073
 20
1368.650335509528
 30
0.0
 11
1767.699405647692
 21
1368.650335509528
 31
0.0
  0
ARC
  5
38F4
102
{ACAD_REACTORS
330
3B8C
102
}
330
A
100
AcDbEntity
  8
HIDDEN
390
1D
100
AcDbCircle
 10
1767.699405647692
 20
1371.150335509528
 30
0.0
 40
2.5
100
AcDbArc
 50
270.0
 51
359.99999779603
  0
ARC
  5
38F6
102
{ACAD_REACTORS
330
3B8C
102
}
330
A
100
AcDbEntity
  8
HIDDEN
390
1D
100
AcDbCircle
 10
1585.113359172823
 20
1326.615119506896
 30
0.0
 40
3.000000000001819
100
AcDbArc
 50
270.0
 51
352.4557929125721
  0
ARC
  5
38F7
102
{ACAD_REACTORS
330
3B8C
102
}
330
A
100
AcDbEntity
  8
HIDDEN
390
1D
100
AcDbCircle
 10
1591.061422318363
 20
1327.074133408392
 30
0.0
 40
3.000000000000875
100
AcDbArc
 50
109.1248985861781
 51
172.4557929125698
  0
LINE
  5
390D
102
{ACAD_REACTORS
330
3B8B
102
}
330
A
100
AcDbEntity
  8
HIDDEN
390
1D
100
AcDbLine
 10
241.8035669442206
 20
1503.612949640288
 30
0.0
 11
207.8087466942006
 21
1503.612949640288
 31
0.0
  0
LINE
  5
390E
102
{ACAD_REACTORS
330
3B8B
102
}
330
A
100
AcDbEntity
  8
HIDDEN
390
1D
100
AcDbLine
 10
201.8096602812702
 20
1497.508234955419
 30
0.0
 11
202.3856774255319
 21
1464.508234862015
 31
0.0
  0
LINE
  5
390F
102
{ACAD_REACTORS
330
3B8B
102
}
330
A
100
AcDbEntity
  8
HIDDEN
390
1D
100
AcDbLine
 10
241.8035669442206
 20
1503.612949640288
 30
0.0
 11
601.6963476889714
 21
1503.612949640288
 31
0.0
  0
LINE
  5
3910
102
{ACAD_REACTORS
330
3B8B
102
}
330
A
100
AcDbEntity
  8
HIDDEN
390
1D
100
AcDbLine
 10
208.384743834552
 20
1458.612949640288
 30
0.0
 11
242.3949878321318
 21
1458.612949640288
 31
0.0
  0
LINE
  5
3911
102
{ACAD_REACTORS
330
3B8B
102
}
330
A
100
AcDbEntity
  8
HIDDEN
390
1D
100
AcDbLine
 10
242.3949878321318
 20
1458.612949640288
 30
0.0
 11
601.6963476889714
 21
1458.612949640288
 31
0.0
  0
ARC
  5
3912
102
{ACAD_REACTORS
330
3B8B
102
}
330
A
100
AcDbEntity
  8
HIDDEN
390
1D
100
AcDbCircle
 10
208.3847534733914
 20
1464.612939344996
 30
0.0
 40
5.999989704714104
100
AcDbArc
 50
180.999906632248
 51
269.9999079557059
  0
POLYLINE
  5
3913
102
{ACAD_REACTORS
330
3B8B
102
}
330
A
100
AcDbEntity
  8
HIDDEN
390
1D
100
AcDb2dPolyline
 66
     1
 10
0.0
 20
0.0
 30
0.0
 75
     5
  0
VERTEX
  5
3914
330
3913
100
AcDbEntity
  8
HIDDEN
390
1D
100
AcDbVertex
100
AcDb2dVertex
 10
374.9821748544118
 20
1366.478013914855
 30
0.0
  0
VERTEX
  5
3915
330
3913
100
AcDbEntity
  8
HIDDEN
390
1D
100
AcDbVertex
100
AcDb2dVertex
 10
374.9906851090518
 20
1366.466505406238
 30
0.0
  0
VERTEX
  5
3916
330
3913
100
AcDbEntity
  8
HIDDEN
390
1D
100
AcDbVertex
100
AcDb2dVertex
 10
374.9906916313112
 20
1366.466503276286
 30
0.0
  0
SEQEND
  5
3917
330
3913
100
AcDbEntity
  8
HIDDEN
390
1D
  0
LINE
  5
3918
102
{ACAD_REACTORS
330
3B8B
102
}
330
A
100
AcDbEntity
  8
HIDDEN
390
1D
100
AcDbLine
 10
374.9906916313112
 20
1366.466503276286
 30
0.0
 11
374.9963657058806
 21
1366.465549385166
 31
0.0
  0
SPLINE
  5
3919
102
{ACAD_REACTORS
330
3B8B
102
}
330
A
100
AcDbEntity
  8
HIDDEN
390
1D
100
AcDbSpline
210
0.0
220
0.0
230
1.0
 70
     8
 71
     2
 72
    12
 73
     9
 74
     0
 42
0.000000001
 43
0.000001
 40
0.0
 40
0.0
 40
0.0
 40
1.0
 40
2.0
 40
3.0
 40
4.0
 40
5.0
 40
6.0
 40
7.0
 40
7.0
 40
7.0
 10
337.0508479373811
 20
1398.420359559677
 30
0.0
 10
337.6956166177615
 20
1395.075185430604
 30
0.0
 10
340.5917476634304
 20
1387.422485577918
 30
0.0
 10
346.0730210286119
 20
1379.417365957275
 30
0.0
 10
351.5974821109712
 20
1374.534824022114
 30
0.0
 10
355.6342571828018
 20
1371.7788430911
 30
0.0
 10
362.0083359599803
 20
1368.503337051122
 30
0.0
 10
369.870062637342
 20
1366.651978074343
 30
0.0
 10
373.2258961445705
 20
1366.466503276286
 30
0.0
  0
LINE
  5
391A
102
{ACAD_REACTORS
330
3B8B
102
}
330
A
100
AcDbEntity
  8
HIDDEN
390
1D
100
AcDbLine
 10
337.0508479373902
 20
1398.420359559676
 30
0.0
 11
333.3279192687305
 21
1419.803348313546
 31
0.0
  0
POLYLINE
  5
391B
102
{ACAD_REACTORS
330
3B8B
102
}
330
A
100
AcDbEntity
  8
HIDDEN
390
1D
100
AcDb2dPolyline
 66
     1
 10
0.0
 20
0.0
 30
0.0
 75
     5
  0
VERTEX
  5
391C
330
391B
100
AcDbEntity
  8
HIDDEN
390
1D
100
AcDbVertex
100
AcDb2dVertex
 10
830.1753160102808
 20
1366.478013914855
 30
0.0
  0
VERTEX
  5
391D
330
391B
100
AcDbEntity
  8
HIDDEN
390
1D
100
AcDbVertex
100
AcDb2dVertex
 10
830.1668057556408
 20
1366.466505406237
 30
0.0
  0
VERTEX
  5
391E
330
391B
100
AcDbEntity
  8
HIDDEN
390
1D
100
AcDbVertex
100
AcDb2dVertex
 10
830.1667992333705
 20
1366.466503276286
 30
0.0
  0
SEQEND
  5
391F
330
391B
100
AcDbEntity
  8
HIDDEN
390
1D
  0
LINE
  5
3920
102
{ACAD_REACTORS
330
3B8B
102
}
330
A
100
AcDbEntity
  8
HIDDEN
390
1D
100
AcDbLine
 10
830.1667992333705
 20
1366.466503276286
 30
0.0
 11
830.161125158812
 21
1366.465549385166
 31
0.0
  0
LINE
  5
3921
102
{ACAD_REACTORS
330
3B8B
102
}
330
A
100
AcDbEntity
  8
HIDDEN
390
1D
100
AcDbLine
 10
866.3418474405617
 20
1398.420359559676
 30
0.0
 11
866.2461256314609
 21
1397.877494203965
 31
0.0
  0
LINE
  5
3922
102
{ACAD_REACTORS
330
3B8B
102
}
330
A
100
AcDbEntity
  8
HIDDEN
390
1D
100
AcDbLine
 10
960.9977075458219
 20
1458.612949640288
 30
0.0
 11
601.6963476889714
 21
1458.612949640288
 31
0.0
  0
ARC
  5
3923
102
{ACAD_REACTORS
330
3B8B
102
}
330
A
100
AcDbEntity
  8
HIDDEN
390
1D
100
AcDbCircle
 10
995.0079419045605
 20
1464.612939344992
 30
0.0
 40
5.999989704712346
100
AcDbArc
 50
270.0000920442594
 51
359.0000933678039
  0
LINE
  5
3924
102
{ACAD_REACTORS
330
3B8B
102
}
330
A
100
AcDbEntity
  8
HIDDEN
390
1D
100
AcDbLine
 10
995.0079515434018
 20
1458.612949640288
 30
0.0
 11
960.9977075458219
 21
1458.612949640288
 31
0.0
  0
LINE
  5
3925
102
{ACAD_REACTORS
330
3B8B
102
}
330
A
100
AcDbEntity
  8
HIDDEN
390
1D
100
AcDbLine
 10
961.5891284337204
 20
1503.612949640288
 30
0.0
 11
601.6963476889714
 21
1503.612949640288
 31
0.0
  0
LINE
  5
3926
102
{ACAD_REACTORS
330
3B8B
102
}
330
A
100
AcDbEntity
  8
HIDDEN
390
1D
100
AcDbLine
 10
1001.583035096671
 20
1497.508234955419
 30
0.0
 11
1001.007017952411
 21
1464.508234862015
 31
0.0
  0
LINE
  5
3927
102
{ACAD_REACTORS
330
3B8B
102
}
330
A
100
AcDbEntity
  8
HIDDEN
390
1D
100
AcDbLine
 10
961.5891284337204
 20
1503.612949640288
 30
0.0
 11
995.5839486837513
 21
1503.612949640288
 31
0.0
  0
LINE
  5
3928
102
{ACAD_REACTORS
330
3B8B
102
}
330
A
100
AcDbEntity
  8
HIDDEN
390
1D
100
AcDbLine
 10
866.3418474405617
 20
1398.420359559676
 30
0.0
 11
870.1597129978118
 21
1419.803348313546
 31
0.0
  0
ARC
  5
3929
102
{ACAD_REACTORS
330
3B8B
102
}
330
A
100
AcDbEntity
  8
HIDDEN
390
1D
100
AcDbCircle
 10
828.8173797095706
 20
1404.441779595769
 30
0.0
 40
37.99999536472141
100
AcDbArc
 50
272.0265430542227
 51
349.9678590995512
  0
LINE
  5
392A
102
{ACAD_REACTORS
330
3B8B
102
}
330
A
100
AcDbEntity
  8
HIDDEN
390
1D
100
AcDbLine
 10
866.2342970961317
 20
1397.810497199917
 30
0.0
 11
866.2345866745209
 21
1397.8121293143
 31
0.0
  0
LINE
  5
392B
102
{ACAD_REACTORS
330
3B8B
102
}
330
A
100
AcDbEntity
  8
HIDDEN
390
1D
100
AcDbLine
 10
866.2345866745209
 20
1397.8121293143
 30
0.0
 11
866.2349625372217
 21
1397.814250645203
 31
0.0
  0
LINE
  5
392C
102
{ACAD_REACTORS
330
3B8B
102
}
330
A
100
AcDbEntity
  8
HIDDEN
390
1D
100
AcDbLine
 10
866.2349625372217
 20
1397.814250645203
 30
0.0
 11
866.235387285732
 21
1397.81665055847
 31
0.0
  0
LINE
  5
392D
102
{ACAD_REACTORS
330
3B8B
102
}
330
A
100
AcDbEntity
  8
HIDDEN
390
1D
100
AcDbLine
 10
866.2353872857211
 20
1397.81665055847
 30
0.0
 11
866.235853436131
 21
1397.819286540348
 31
0.0
  0
LINE
  5
392E
102
{ACAD_REACTORS
330
3B8B
102
}
330
A
100
AcDbEntity
  8
HIDDEN
390
1D
100
AcDbLine
 10
866.235853436131
 20
1397.819286540348
 30
0.0
 11
866.2363609845806
 21
1397.822158114874
 31
0.0
  0
LINE
  5
392F
102
{ACAD_REACTORS
330
3B8B
102
}
330
A
100
AcDbEntity
  8
HIDDEN
390
1D
100
AcDbLine
 10
866.2363609845806
 20
1397.822158114874
 30
0.0
 11
866.2461256314609
 21
1397.877494203965
 31
0.0
  0
ARC
  5
3930
102
{ACAD_REACTORS
330
3B8B
102
}
330
A
100
AcDbEntity
  8
HIDDEN
390
1D
100
AcDbCircle
 10
995.583981711422
 20
1497.612981854463
 30
0.0
 40
5.999967785912645
100
AcDbArc
 50
358.9996846073363
 51
89.99969249411885
  0
SPLINE
  5
3931
102
{ACAD_REACTORS
330
3B8B
102
}
330
A
100
AcDbEntity
  8
HIDDEN
390
1D
100
AcDbSpline
210
0.0
220
0.0
230
1.0
 70
     8
 71
     2
 72
     8
 73
     5
 74
     0
 42
0.000000001
 43
0.000001
 40
0.0
 40
0.0
 40
0.0
 40
1.0
 40
1.0
 40
2.0
 40
2.0
 40
2.0
 10
1000.997134739781
 20
1464.253160281663
 30
0.0
 10
1000.998245102742
 20
1464.26242010636
 30
0.0
 10
1001.00481060585
 20
1464.303272206247
 30
0.0
 10
1001.00481132466
 20
1464.303256433686
 30
0.0
 10
1001.00481204347
 20
1464.303240661126
 30
0.0
  0
LINE
  5
3932
102
{ACAD_REACTORS
330
3B8B
102
}
330
A
100
AcDbEntity
  8
HIDDEN
390
1D
100
AcDbLine
 10
1000.985395940331
 20
1464.093408354314
 30
0.0
 11
1000.927473252082
 21
1463.544802759252
 31
0.0
  0
SPLINE
  5
3933
102
{ACAD_REACTORS
330
3B8B
102
}
330
A
100
AcDbEntity
  8
HIDDEN
390
1D
100
AcDbSpline
210
0.0
220
0.0
230
1.0
 70
     8
 71
     2
 72
    11
 73
     8
 74
     0
 42
0.000000001
 43
0.000001
 40
0.0
 40
0.0
 40
0.0
 40
1.0
 40
2.0
 40
3.0
 40
4.0
 40
4.0
 40
5.0
 40
5.0
 40
5.0
 10
1001.00481204347
 20
1464.303240661126
 30
0.0
 10
1001.003613950302
 20
1464.282081317147
 30
0.0
 10
1001.002847121562
 20
1464.272697265937
 30
0.0
 10
1001.001866939031
 20
1464.26135682934
 30
0.0
 10
1001.000658995402
 20
1464.247940350751
 30
0.0
 10
1000.98669813224
 20
1464.106125298348
 30
0.0
 10
1000.986648764861
 20
1464.105642340558
 30
0.0
 10
1000.986599397481
 20
1464.105159382768
 30
0.0
  0
SPLINE
  5
3934
102
{ACAD_REACTORS
330
3B8B
102
}
330
A
100
AcDbEntity
  8
HIDDEN
390
1D
100
AcDbSpline
210
0.0
220
0.0
230
1.0
 70
     8
 71
     2
 72
     8
 73
     5
 74
     0
 42
0.000000001
 43
0.000001
 40
0.0
 40
0.0
 40
0.0
 40
1.0
 40
1.0
 40
2.0
 40
2.0
 40
2.0
 10
1000.927473252082
 20
1463.544802759252
 30
0.0
 10
1000.948516052812
 20
1463.74035425295
 30
0.0
 10
1000.969127889571
 20
1463.931534964414
 30
0.0
 10
1000.969259698601
 20
1463.932757591299
 30
0.0
 10
1000.96939150763
 20
1463.933980218184
 30
0.0
  0
ARC
  5
3935
102
{ACAD_REACTORS
330
3B8B
102
}
330
A
100
AcDbEntity
  8
HIDDEN
390
1D
100
AcDbCircle
 10
207.8087136665317
 20
1497.61298185446
 30
0.0
 40
5.999967785914134
100
AcDbArc
 50
90.00030750588118
 51
181.0003153926634
  0
ARC
  5
3937
102
{ACAD_REACTORS
330
3B8B
102
}
330
A
100
AcDbEntity
  8
HIDDEN
390
1D
100
AcDbCircle
 10
281.264459260442
 20
1410.772000162269
 30
0.0
 40
52.8409795278578
100
AcDbArc
 50
9.841058704988779
 51
64.87395835121573
  0
ARC
  5
3938
102
{ACAD_REACTORS
330
3B8B
102
}
330
A
100
AcDbEntity
  8
HIDDEN
390
1D
100
AcDbCircle
 10
922.2231730060912
 20
1410.772000162269
 30
0.0
 40
52.84097952785821
100
AcDbArc
 50
115.1260416487841
 51
170.1589412950113
  0
LINE
  5
3939
102
{ACAD_REACTORS
330
3B8B
102
}
330
A
100
AcDbEntity
  8
HIDDEN
390
1D
100
AcDbLine
 10
567.9719994314919
 20
1323.614648885085
 30
0.0
 11
601.7031021083103
 21
1323.613472984984
 31
0.0
  0
ARC
  5
393A
102
{ACAD_REACTORS
330
3B8B
102
}
330
A
100
AcDbEntity
  8
HIDDEN
390
1D
100
AcDbCircle
 10
649.0669306805312
 20
1352.252139004289
 30
0.0
 40
7.999992810170727
100
AcDbArc
 50
92.11714923651716
 51
174.9998087447347
  0
LINE
  5
393B
102
{ACAD_REACTORS
330
3B8B
102
}
330
A
100
AcDbEntity
  8
HIDDEN
390
1D
100
AcDbLine
 10
601.7295933060914
 20
1323.613472984984
 30
0.0
 11
635.4606959829207
 21
1323.614648885085
 31
0.0
  0
LINE
  5
393C
102
{ACAD_REACTORS
330
3B8B
102
}
330
A
100
AcDbEntity
  8
HIDDEN
390
1D
100
AcDbLine
 10
641.097381623892
 20
1352.949342845307
 30
0.0
 11
638.4491754941819
 21
1326.353181655009
 31
0.0
  0
ARC
  5
393D
102
{ACAD_REACTORS
330
3B8B
102
}
330
A
100
AcDbEntity
  8
HIDDEN
390
1D
100
AcDbCircle
 10
635.4605913999103
 20
1326.614648883263
 30
0.0
 40
2.999999999999852
100
AcDbArc
 50
270.0019973883685
 51
354.9999999997908
  0
LWPOLYLINE
  5
393E
102
{ACAD_REACTORS
330
3B8B
102
}
330
A
100
AcDbEntity
  8
HIDDEN
390
1D
100
AcDbPolyline
 90
       62
 70
   128
 43
0.0
 10
562.322502635102
 20
1352.949343001505
 10
562.3220264857109
 20
1352.95470293517
 42
0.0102141986635054
 10
562.2853189467614
 20
1353.290041420729
 10
562.2804060152712
 20
1353.327779260131
 42
0.0108711708760697
 10
562.2410574162504
 20
1353.586036480649
 42
0.005438482049392
 10
562.1932923766208
 20
1353.842953440792
 42
0.0109194198959949
 10
562.1371526058019
 20
1354.098159598709
 10
562.1194180044213
 20
1354.17114539321
 42
0.0133049008124589
 10
562.0247358442002
 20
1354.520067182431
 10
562.0156733531412
 20
1354.550261544463
 42
0.0093196374813755
 10
561.9245299216209
 20
1354.834575694994
 42
0.00930354873907
 10
561.8228667634203
 20
1355.115287798646
 42
0.0092992704076858
 10
561.7108398285918
 20
1355.392005140272
 42
0.0093077326037543
 10
561.5886005976618
 20
1355.664350580833
 10
561.5876057798714
 20
1355.666460947362
 42
0.0093268101766321
 10
561.4573737373312
 20
1355.929875953574
 42
0.0090725105156129
 10
561.3175321065419
 20
1356.188334239626
 42
0.0093530411504399
 10
561.1682593141804
 20
1356.44147276251
 10
561.1670315521906
 20
1356.443468531511
 42
0.0093294410437305
 10
561.0058770157311
 20
1356.694799800592
 42
0.0093216862484793
 10
560.8354611277309
 20
1356.939947428327
 10
560.8112948542012
 20
1356.97336436716
 42
0.0144790216130349
 10
560.579226092902
 20
1357.275446803222
 10
560.5357361082106
 20
1357.328786747582
 42
0.0120434503008241
 10
560.3218312656909
 20
1357.578604167628
 10
560.3033850998117
 20
1357.599125525726
 42
0.0085792682148629
 10
560.1169151897511
 20
1357.799547391212
 42
0.0085475580290643
 10
559.9236969674503
 20
1357.993459822355
 42
0.0085296566570933
 10
559.7239854281406
 20
1358.180646393329
 42
0.0085224459346246
 10
559.5180302503004
 20
1358.360894155543
 42
0.0085263543968724
 10
559.3060811232308
 20
1358.533989994713
 42
0.0085399440644106
 10
559.0883871858105
 20
1358.699721808946
 42
0.0085747912309327
 10
558.8651702249108
 20
1358.857890565443
 10
558.8214541282205
 20
1358.887754545594
 42
0.0144253513160967
 10
558.5231069999018
 20
1359.079182859587
 10
558.4760980822202
 20
1359.10746499203
 42
0.0077839749266172
 10
558.2643304824005
 20
1359.230422738196
 42
0.007550679328997
 10
558.0488905604007
 20
1359.346829876197
 10
558.0377406958405
 20
1359.352638616637
 42
0.0093392465645931
 10
557.7959966568806
 20
1359.472893806244
 10
557.7827569833416
 20
1359.479174182419
 42
0.0093065339556337
 10
557.5108848052905
 20
1359.601994241106
 10
557.5097896237703
 20
1359.602464654316
 42
0.0093174442574501
 10
557.2357396483012
 20
1359.714175738814
 42
0.0092133424389389
 10
556.9577274778103
 20
1359.815660115209
 42
0.0093444562918311
 10
556.6761322737411
 20
1359.906761949904
 10
556.6515173779017
 20
1359.914220210257
 42
0.0105307577905167
 10
556.3744768801507
 20
1359.991832001843
 42
0.0074965435208559
 10
556.0947882500905
 20
1360.059414621876
 10
556.0827448200207
 20
1360.062134306667
 42
0.0121081116674926
 10
555.7764686543114
 20
1360.123544725082
 10
555.7642517791219
 20
1360.125687992068
 42
0.0078104975577082
 10
555.472161899931
 20
1360.17224017228
 10
555.4555335463419
 20
1360.174624632357
 42
0.0109859555851524
 10
555.1952809110817
 20
1360.206125941468
 10
555.1637546563516
 20
1360.209240858505
 42
0.0058467154305607
 10
554.9656607474708
 20
1360.226476918917
 10
554.9315005229519
 20
1360.22904710545
 42
0.0079097009745607
 10
554.801403357932
 20
1360.236768128069
 10
554.7575049771813
 20
1360.238677132629
 42
0.0021806558093803
 10
554.7150751852414
 20
1360.240336907592
 10
554.7146006760404
 20
1360.240353426111
  0
ARC
  5
393F
102
{ACAD_REACTORS
330
3B8B
102
}
330
A
100
AcDbEntity
  8
HIDDEN
390
1D
100
AcDbCircle
 10
567.9721040145005
 20
1326.614648883263
 30
0.0
 40
3.000000000000925
100
AcDbArc
 50
185.0000000002075
 51
269.9980026115967
  0
LINE
  5
3940
102
{ACAD_REACTORS
330
3B8B
102
}
330
A
100
AcDbEntity
  8
HIDDEN
390
1D
100
AcDbLine
 10
562.322502637252
 20
1352.949342845307
 30
0.0
 11
564.9835199202216
 21
1326.353181655009
 31
0.0
  0
LINE
  5
3942
102
{ACAD_REACTORS
330
3B8B
102
}
330
A
100
AcDbEntity
  8
HIDDEN
390
1D
100
AcDbLine
 10
563.2876856196408
 20
1360.029392650572
 30
0.0
 11
637.9319921695815
 21
1360.029392650572
 31
0.0
  0
LINE
  5
3943
102
{ACAD_REACTORS
330
3B8C
102
}
330
A
100
AcDbEntity
  8
HIDDEN
390
1D
100
AcDbLine
 10
1588.087390745593
 20
1326.22124617172
 30
0.0
 11
1588.087390745593
 21
1327.468006743567
 31
0.0
  0
SPLINE
  5
3944
102
{ACAD_REACTORS
330
3A82
102
}
330
A
100
AcDbEntity
  8
MODEL
100
AcDbSpline
210
0.0
220
0.0
230
1.0
 70
    24
 71
     3
 72
    14
 73
    10
 74
     0
 42
0.000000001
 43
0.0000000001
 40
0.0
 40
0.0
 40
0.0
 40
0.0
 40
1.0
 40
1.0
 40
1.0
 40
2.0
 40
2.0
 40
2.0
 40
3.0
 40
3.0
 40
3.0
 40
3.0
 10
1536.801614547714
 20
1360.927183276261
 30
0.0
 10
1536.801614547714
 20
1360.927183276261
 30
0.0
 10
1536.801614547714
 20
681.6615902293884
 30
0.0
 10
1536.801614547714
 20
681.6615902293884
 30
0.0
 10
1536.801614547714
 20
680.6673041936078
 30
0.0
 10
1536.801614547714
 20
679.6730181578273
 30
0.0
 10
1536.801614547714
 20
678.6798105233879
 30
0.0
 10
1536.801614547714
 20
678.6798105233879
 30
0.0
 10
1536.801614547714
 20
678.6129496402878
 30
0.0
 10
1536.801614547714
 20
678.6129496402878
 30
0.0
  0
LINE
  5
3945
102
{ACAD_REACTORS
330
3A82
330
3AB5
102
}
330
A
100
AcDbEntity
  8
MODEL
100
AcDbLine
 10
1628.368672354752
 20
678.6129496402878
 30
0.0
 11
1448.348440610872
 21
678.6129496402878
 31
0.0
  0
LINE
  5
3946
102
{ACAD_REACTORS
330
3A82
102
}
330
A
100
AcDbEntity
  8
MODEL
100
AcDbLine
 10
1536.801614547714
 20
1360.927183276261
 30
0.0
 11
1448.348440610872
 21
1365.63116992276
 31
0.0
  0
LINE
  5
3947
102
{ACAD_REACTORS
330
3A82
102
}
330
A
100
AcDbEntity
  8
MODEL
100
AcDbLine
 10
1537.000040394334
 20
1363.908962982261
 30
0.0
 11
1451.528646163493
 21
1368.679810511861
 31
0.0
  0
LINE
  5
3948
102
{ACAD_REACTORS
330
3A82
102
}
330
A
100
AcDbEntity
  8
MODEL
100
AcDbLine
 10
1448.348440610872
 20
681.6615902293884
 30
0.0
 11
1536.801614547714
 21
681.6615902293884
 31
0.0
  0
LINE
  5
3949
102
{ACAD_REACTORS
330
3A82
102
}
330
A
100
AcDbEntity
  8
MODEL
100
AcDbLine
 10
1536.801614547714
 20
678.6129496402878
 30
0.0
 11
1536.801614547714
 21
678.6798105233879
 31
0.0
  0
SPLINE
  5
394A
102
{ACAD_REACTORS
330
3A82
102
}
330
A
100
AcDbEntity
  8
MODEL
100
AcDbSpline
210
0.0
220
0.0
230
1.0
 70
    24
 71
     3
 72
     8
 73
     4
 74
     0
 42
0.000000001
 43
0.0000000001
 40
0.0
 40
0.0
 40
0.0
 40
0.0
 40
1.0
 40
1.0
 40
1.0
 40
1.0
 10
1625.321110166993
 20
681.6615902293884
 30
0.0
 10
1625.321110166993
 20
681.6615902293884
 30
0.0
 10
1625.321110166993
 20
681.131016769948
 30
0.0
 10
1625.321110166993
 20
681.131016769948
 30
0.0
  0
SPLINE
  5
394B
102
{ACAD_REACTORS
330
3A82
330
3A8E
102
}
330
A
100
AcDbEntity
  8
MODEL
100
AcDbSpline
210
0.0
220
0.0
230
1.0
 70
     8
 71
     3
 72
    11
 73
     7
 74
     0
 42
0.000000001
 43
0.0000000001
 40
1.0
 40
1.0
 40
1.0
 40
1.0
 40
2.0
 40
2.0
 40
2.0
 40
3.0
 40
3.0
 40
3.0
 40
3.0
 10
1625.321110166993
 20
681.131016769948
 30
0.0
 10
1625.311404554933
 20
680.2079052226286
 30
0.0
 10
1625.309247752242
 20
679.5899812546227
 30
0.0
 10
1625.386892648753
 20
678.6798105233879
 30
0.0
 10
1625.386892648753
 20
678.6798105233879
 30
0.0
 10
1625.386892648753
 20
678.6129496402878
 30
0.0
 10
1625.386892648753
 20
678.6129496402878
 30
0.0
  0
LINE
  5
394C
102
{ACAD_REACTORS
330
3A82
102
}
330
A
100
AcDbEntity
  8
MODEL
100
AcDbLine
 10
1625.321110166993
 20
681.6615902293884
 30
0.0
 11
1625.321110166993
 21
1355.957909900041
 31
0.0
  0
LINE
  5
394D
102
{ACAD_REACTORS
330
3A82
102
}
330
A
100
AcDbEntity
  8
MODEL
100
AcDbLine
 10
1628.368672354752
 20
681.6615902293884
 30
0.0
 11
1628.368672354752
 21
1355.957909900041
 31
0.0
  0
SPLINE
  5
394E
102
{ACAD_REACTORS
330
3A82
102
}
330
A
100
AcDbEntity
  8
MODEL
100
AcDbSpline
210
0.0
220
0.0
230
1.0
 70
    24
 71
     3
 72
     8
 73
     4
 74
     0
 42
0.000000001
 43
0.0000000001
 40
0.0
 40
0.0
 40
0.0
 40
0.0
 40
1.0
 40
1.0
 40
1.0
 40
1.0
 10
1625.320570966323
 20
1355.957909900041
 30
0.0
 10
1625.320570966323
 20
1355.957909900041
 30
0.0
 10
1625.386892648753
 20
1356.488483359482
 30
0.0
 10
1625.386892648753
 20
1356.488483359482
 30
0.0
  0
SPLINE
  5
394F
102
{ACAD_REACTORS
330
3A82
102
}
330
A
100
AcDbEntity
  8
MODEL
100
AcDbSpline
210
0.0
220
0.0
230
1.0
 70
     8
 71
     3
 72
    11
 73
     7
 74
     0
 42
0.000000001
 43
0.0000000001
 40
1.0
 40
1.0
 40
1.0
 40
1.0
 40
2.0
 40
2.0
 40
2.0
 40
3.0
 40
3.0
 40
3.0
 40
3.0
 10
1625.386892648753
 20
1356.488483359482
 30
0.0
 10
1625.401451066843
 20
1357.308068378128
 30
0.0
 10
1625.475321558653
 20
1358.124418192754
 30
0.0
 10
1625.519536013613
 20
1358.939689606041
 30
0.0
 10
1625.519536013613
 20
1358.939689606041
 30
0.0
 10
1625.519536013613
 20
1359.005472087801
 30
0.0
 10
1625.519536013613
 20
1359.005472087801
 30
0.0
  0
LINE
  5
3950
102
{ACAD_REACTORS
330
3A82
102
}
330
A
100
AcDbEntity
  8
MODEL
100
AcDbLine
 10
1625.386892648753
 20
678.6129496402878
 30
0.0
 11
1626.182752837912
 21
678.7455930051469
 31
0.0
  0
LINE
  5
3951
102
{ACAD_REACTORS
330
3A82
102
}
330
A
100
AcDbEntity
  8
MODEL
100
AcDbLine
 10
1626.182752837912
 20
678.7455930051469
 30
0.0
 11
1626.910673742633
 21
679.0108797348671
 31
0.0
  0
LINE
  5
3952
102
{ACAD_REACTORS
330
3A82
102
}
330
A
100
AcDbEntity
  8
MODEL
100
AcDbLine
 10
1626.910673742633
 20
679.0108797348671
 30
0.0
 11
1627.507029683833
 21
679.5414531943075
 31
0.0
  0
LINE
  5
3953
102
{ACAD_REACTORS
330
3A82
102
}
330
A
100
AcDbEntity
  8
MODEL
100
AcDbLine
 10
1627.507029683833
 20
679.5414531943075
 30
0.0
 11
1627.971820661512
 21
680.1378091355068
 31
0.0
  0
LINE
  5
3954
102
{ACAD_REACTORS
330
3A82
102
}
330
A
100
AcDbEntity
  8
MODEL
100
AcDbLine
 10
1627.971820661512
 20
680.1378091355068
 30
0.0
 11
1628.302889872993
 21
680.8657300402278
 31
0.0
  0
LINE
  5
3955
102
{ACAD_REACTORS
330
3A82
102
}
330
A
100
AcDbEntity
  8
MODEL
100
AcDbLine
 10
1628.302889872993
 20
680.8657300402278
 30
0.0
 11
1628.368672354752
 21
681.6615902293884
 31
0.0
  0
LINE
  5
3956
102
{ACAD_REACTORS
330
3A82
102
}
330
A
100
AcDbEntity
  8
MODEL
100
AcDbLine
 10
1536.801614547714
 20
681.6615902293884
 30
0.0
 11
1625.321110166993
 21
681.6615902293884
 31
0.0
  0
LINE
  5
3957
102
{ACAD_REACTORS
330
3A82
102
}
330
A
100
AcDbEntity
  8
MODEL
100
AcDbLine
 10
1625.321110166993
 20
1355.957909900041
 30
0.0
 11
1536.801614547714
 21
1360.927183276261
 31
0.0
  0
LINE
  5
3958
102
{ACAD_REACTORS
330
3A82
102
}
330
A
100
AcDbEntity
  8
MODEL
100
AcDbLine
 10
1625.321110166993
 20
681.6615902293884
 30
0.0
 11
1628.368672354752
 21
681.6615902293884
 31
0.0
  0
LINE
  5
3959
102
{ACAD_REACTORS
330
3A82
330
3AA6
102
}
330
A
100
AcDbEntity
  8
MODEL
100
AcDbLine
 10
1625.519536013613
 20
1359.006550489141
 30
0.0
 11
1537.000040394334
 21
1363.908962982261
 31
0.0
  0
LINE
  5
395A
102
{ACAD_REACTORS
330
3A82
102
}
330
A
100
AcDbEntity
  8
MODEL
100
AcDbLine
 10
1625.320570966323
 20
1355.957909900041
 30
0.0
 11
1628.368672354752
 21
1355.957909900041
 31
0.0
  0
LINE
  5
395B
102
{ACAD_REACTORS
330
3A82
102
}
330
A
100
AcDbEntity
  8
MODEL
100
AcDbLine
 10
1628.368672354752
 20
1355.957909900041
 30
0.0
 11
1628.302350672323
 21
1356.752691687861
 31
0.0
  0
LINE
  5
395C
102
{ACAD_REACTORS
330
3A82
102
}
330
A
100
AcDbEntity
  8
MODEL
100
AcDbLine
 10
1628.302350672323
 20
1356.752691687861
 30
0.0
 11
1628.037603143273
 21
1357.415908512161
 31
0.0
  0
LINE
  5
395D
102
{ACAD_REACTORS
330
3A82
102
}
330
A
100
AcDbEntity
  8
MODEL
100
AcDbLine
 10
1628.037603143273
 20
1357.415908512161
 30
0.0
 11
1627.573351366263
 21
1358.078046935121
 31
0.0
  0
LINE
  5
395E
102
{ACAD_REACTORS
330
3A82
102
}
330
A
100
AcDbEntity
  8
MODEL
100
AcDbLine
 10
1627.573351366263
 20
1358.078046935121
 30
0.0
 11
1626.977534625733
 21
1358.541759511462
 31
0.0
  0
LINE
  5
395F
102
{ACAD_REACTORS
330
3A82
102
}
330
A
100
AcDbEntity
  8
MODEL
100
AcDbLine
 10
1626.977534625733
 20
1358.541759511462
 30
0.0
 11
1626.314857002104
 21
1358.873907124281
 31
0.0
  0
LINE
  5
3960
102
{ACAD_REACTORS
330
3A82
102
}
330
A
100
AcDbEntity
  8
MODEL
100
AcDbLine
 10
1626.314857002104
 20
1358.873907124281
 30
0.0
 11
1625.519536013613
 21
1359.005472087801
 31
0.0
  0
LINE
  5
3961
102
{ACAD_REACTORS
330
3A82
102
}
330
A
100
AcDbEntity
  8
MODEL
100
AcDbLine
 10
1448.348440610872
 20
681.6615902293884
 30
0.0
 11
1448.414762293303
 21
680.8657300402278
 31
0.0
  0
LINE
  5
3962
102
{ACAD_REACTORS
330
3A82
102
}
330
A
100
AcDbEntity
  8
MODEL
100
AcDbLine
 10
1448.414762293303
 20
680.8657300402278
 30
0.0
 11
1448.745831504782
 21
680.1367307341675
 31
0.0
  0
LINE
  5
3963
102
{ACAD_REACTORS
330
3A82
102
}
330
A
100
AcDbEntity
  8
MODEL
100
AcDbLine
 10
1448.745831504782
 20
680.1367307341675
 30
0.0
 11
1449.209544081122
 21
679.5414531943075
 31
0.0
  0
LINE
  5
3964
102
{ACAD_REACTORS
330
3A82
102
}
330
A
100
AcDbEntity
  8
MODEL
100
AcDbLine
 10
1449.209544081122
 20
679.5414531943075
 30
0.0
 11
1449.805900022323
 21
679.0108797348671
 31
0.0
  0
LINE
  5
3965
102
{ACAD_REACTORS
330
3A82
102
}
330
A
100
AcDbEntity
  8
MODEL
100
AcDbLine
 10
1449.805900022323
 20
679.0108797348671
 30
0.0
 11
1450.534899328382
 21
678.7455930051469
 31
0.0
  0
LINE
  5
3966
102
{ACAD_REACTORS
330
3A82
102
}
330
A
100
AcDbEntity
  8
MODEL
100
AcDbLine
 10
1450.534899328382
 20
678.7455930051469
 30
0.0
 11
1451.329681116203
 21
678.6129496402878
 31
0.0
  0
LINE
  5
3967
102
{ACAD_REACTORS
330
3A82
102
}
330
A
100
AcDbEntity
  8
MODEL
100
AcDbLine
 10
1448.348440610872
 20
1365.6322483241
 30
0.0
 11
1448.348440610872
 21
681.6615902293884
 31
0.0
  0
LINE
  5
3968
102
{ACAD_REACTORS
330
3A82
102
}
330
A
100
AcDbEntity
  8
MODEL
100
AcDbLine
 10
1451.528646163493
 20
1368.679810511861
 30
0.0
 11
1450.667542693243
 21
1368.612949628761
 31
0.0
  0
LINE
  5
3969
102
{ACAD_REACTORS
330
3A82
330
3AB5
102
}
330
A
100
AcDbEntity
  8
MODEL
100
AcDbLine
 10
1450.667542693243
 20
1368.612949628761
 30
0.0
 11
1449.938543387183
 21
1368.34766289904
 31
0.0
  0
LINE
  5
396A
102
{ACAD_REACTORS
330
3A82
102
}
330
A
100
AcDbEntity
  8
MODEL
100
AcDbLine
 10
1449.938543387183
 20
1368.34766289904
 30
0.0
 11
1449.275865763553
 21
1367.81816784094
 31
0.0
  0
LINE
  5
396B
102
{ACAD_REACTORS
330
3A82
102
}
330
A
100
AcDbEntity
  8
MODEL
100
AcDbLine
 10
1449.275865763553
 20
1367.81816784094
 30
0.0
 11
1448.745831504782
 21
1367.221811899741
 31
0.0
  0
LINE
  5
396C
102
{ACAD_REACTORS
330
3A82
102
}
330
A
100
AcDbEntity
  8
MODEL
100
AcDbLine
 10
1448.745831504782
 20
1367.221811899741
 30
0.0
 11
1448.414762293303
 21
1366.492812593681
 31
0.0
  0
LINE
  5
396D
102
{ACAD_REACTORS
330
3A82
102
}
330
A
100
AcDbEntity
  8
MODEL
100
AcDbLine
 10
1448.414762293303
 20
1366.492812593681
 30
0.0
 11
1448.348440610872
 21
1365.6322483241
 31
0.0
  0
LINE
  5
396E
102
{ACAD_REACTORS
330
3A81
102
}
330
A
100
AcDbEntity
  8
MODEL
100
AcDbLine
 10
692.243218384071
 20
678.6129496402878
 30
0.0
 11
508.9764594051512
 21
678.6129496402878
 31
0.0
  0
SPLINE
  5
396F
102
{ACAD_REACTORS
330
3A81
102
}
330
A
100
AcDbEntity
  8
MODEL
100
AcDbSpline
210
0.0
220
0.0
230
1.0
 70
     8
 71
     3
 72
    14
 73
    10
 74
     0
 42
0.000000001
 43
0.0000000001
 40
0.0
 40
0.0
 40
0.0
 40
0.0
 40
1.0
 40
1.0
 40
1.0
 40
2.0
 40
2.0
 40
2.0
 40
3.0
 40
3.0
 40
3.0
 40
3.0
 10
690.6525764070911
 20
1360.927183276261
 30
0.0
 10
690.6525764070911
 20
1360.927183276261
 30
0.0
 10
690.4541505604711
 20
1361.126687524222
 30
0.0
 10
690.4541505604711
 20
1361.126687524222
 30
0.0
 10
690.4541505604711
 20
1361.126687524222
 30
0.0
 10
690.0562204658918
 20
1361.390895852602
 30
0.0
 10
690.0562204658918
 20
1361.390895852602
 30
0.0
 10
690.0562204658918
 20
1361.390895852602
 30
0.0
 10
689.4598645246906
 20
1361.590400100562
 30
0.0
 10
689.4598645246906
 20
1361.590400100562
 30
0.0
  0
SPLINE
  5
3970
102
{ACAD_REACTORS
330
3A81
102
}
330
A
100
AcDbEntity
  8
MODEL
100
AcDbSpline
210
0.0
220
0.0
230
1.0
 70
     8
 71
     3
 72
    14
 73
    10
 74
     0
 42
0.000000001
 43
0.0000000001
 40
3.0
 40
3.0
 40
3.0
 40
3.0
 40
4.0
 40
4.0
 40
4.0
 40
5.0
 40
5.0
 40
5.0
 40
6.0
 40
6.0
 40
6.0
 40
6.0
 10
689.4598645246906
 20
1361.590400100562
 30
0.0
 10
685.9205513257502
 20
1362.652625420782
 30
0.0
 10
681.0202956353105
 20
1362.997713849686
 30
0.0
 10
677.3353982554117
 20
1363.378389522821
 30
0.0
 10
677.3353982554117
 20
1363.378389522821
 30
0.0
 10
674.9499744906107
 20
1363.577893770781
 30
0.0
 10
674.9499744906107
 20
1363.577893770781
 30
0.0
 10
674.9499744906107
 20
1363.577893770781
 30
0.0
 10
672.3661248791914
 20
1363.776319617401
 30
0.0
 10
672.3661248791914
 20
1363.776319617401
 30
0.0
  0
SPLINE
  5
3971
102
{ACAD_REACTORS
330
3A81
102
}
330
A
100
AcDbEntity
  8
MODEL
100
AcDbSpline
210
0.0
220
0.0
230
1.0
 70
     8
 71
     3
 72
    20
 73
    16
 74
     0
 42
0.000000001
 43
0.0000000001
 40
6.0
 40
6.0
 40
6.0
 40
6.0
 40
7.0
 40
7.0
 40
7.0
 40
8.0
 40
8.0
 40
8.0
 40
9.0
 40
9.0
 40
9.0
 40
10.0
 40
10.0
 40
10.0
 40
11.0
 40
11.0
 40
11.0
 40
11.0
 10
672.3661248791914
 20
1363.776319617401
 30
0.0
 10
657.102432308232
 20
1364.746880823693
 30
0.0
 10
641.8085444997314
 20
1365.209514998693
 30
0.0
 10
626.5162742932507
 20
1365.432744076142
 30
0.0
 10
626.5162742932507
 20
1365.432744076142
 30
0.0
 10
618.035186952261
 20
1365.565387441001
 30
0.0
 10
618.035186952261
 20
1365.565387441001
 30
0.0
 10
618.035186952261
 20
1365.565387441001
 30
0.0
 10
600.6098388946111
 20
1365.631169922761
 30
0.0
 10
600.6098388946111
 20
1365.631169922761
 30
0.0
 10
600.6098388946111
 20
1365.631169922761
 30
0.0
 10
583.2502733187202
 20
1365.565387441001
 30
0.0
 10
583.2502733187202
 20
1365.565387441001
 30
0.0
 10
583.2502733187202
 20
1365.565387441001
 30
0.0
 10
574.7691859777306
 20
1365.432744076142
 30
0.0
 10
574.7691859777306
 20
1365.432744076142
 30
0.0
  0
SPLINE
  5
3972
102
{ACAD_REACTORS
330
3A81
102
}
330
A
100
AcDbEntity
  8
MODEL
100
AcDbSpline
210
0.0
220
0.0
230
1.0
 70
     8
 71
     3
 72
    14
 73
    10
 74
     0
 42
0.000000001
 43
0.0000000001
 40
11.0
 40
11.0
 40
11.0
 40
11.0
 40
12.0
 40
12.0
 40
12.0
 40
13.0
 40
13.0
 40
13.0
 40
14.0
 40
14.0
 40
14.0
 40
14.0
 10
574.7691859777306
 20
1365.432744076142
 30
0.0
 10
560.4604177936208
 20
1365.194417379929
 30
0.0
 10
545.862638050311
 20
1364.854720957727
 30
0.0
 10
531.5700458863002
 20
1363.908962982262
 30
0.0
 10
531.5700458863002
 20
1363.908962982262
 30
0.0
 10
528.8535529100218
 20
1363.776319617401
 30
0.0
 10
528.8535529100218
 20
1363.776319617401
 30
0.0
 10
528.8535529100218
 20
1363.776319617401
 30
0.0
 10
526.269164097931
 20
1363.577893770781
 30
0.0
 10
526.269164097931
 20
1363.577893770781
 30
0.0
  0
SPLINE
  5
3973
102
{ACAD_REACTORS
330
3A81
102
}
330
A
100
AcDbEntity
  8
MODEL
100
AcDbSpline
210
0.0
220
0.0
230
1.0
 70
     8
 71
     3
 72
    17
 73
    13
 74
     0
 42
0.000000001
 43
0.0000000001
 40
14.0
 40
14.0
 40
14.0
 40
14.0
 40
15.0
 40
15.0
 40
15.0
 40
16.0
 40
16.0
 40
16.0
 40
17.0
 40
17.0
 40
17.0
 40
18.0
 40
18.0
 40
18.0
 40
18.0
 10
526.269164097931
 20
1363.577893770781
 30
0.0
 10
521.7652209000616
 20
1363.153003642693
 30
0.0
 10
516.1176330807803
 20
1362.821934431213
 30
0.0
 10
511.7587348631905
 20
1361.590400100562
 30
0.0
 10
511.7587348631905
 20
1361.590400100562
 30
0.0
 10
511.1629181226517
 20
1361.390895852602
 30
0.0
 10
511.1629181226517
 20
1361.390895852602
 30
0.0
 10
511.1629181226517
 20
1361.390895852602
 30
0.0
 10
510.7649880280705
 20
1361.126687524222
 30
0.0
 10
510.7649880280705
 20
1361.126687524222
 30
0.0
 10
510.7649880280705
 20
1361.126687524222
 30
0.0
 10
510.6328838638919
 20
1360.927183276261
 30
0.0
 10
510.6328838638919
 20
1360.927183276261
 30
0.0
  0
SPLINE
  5
3974
102
{ACAD_REACTORS
330
3A81
102
}
330
A
100
AcDbEntity
  8
MODEL
100
AcDbSpline
210
0.0
220
0.0
230
1.0
 70
     8
 71
     3
 72
    14
 73
    10
 74
     0
 42
0.000000001
 43
0.0000000001
 40
0.0
 40
0.0
 40
0.0
 40
0.0
 40
1.0
 40
1.0
 40
1.0
 40
2.0
 40
2.0
 40
2.0
 40
3.0
 40
3.0
 40
3.0
 40
3.0
 10
687.6707967010907
 20
1363.908962982262
 30
0.0
 10
687.6707967010907
 20
1363.908962982262
 30
0.0
 10
687.4723708544816
 20
1364.174249711981
 30
0.0
 10
687.4723708544816
 20
1364.174249711981
 30
0.0
 10
687.4723708544816
 20
1364.174249711981
 30
0.0
 10
687.0744407598913
 20
1364.372675558601
 30
0.0
 10
687.0744407598913
 20
1364.372675558601
 30
0.0
 10
687.0744407598913
 20
1364.372675558601
 30
0.0
 10
686.4791632200313
 20
1364.637962288321
 30
0.0
 10
686.4791632200313
 20
1364.637962288321
 30
0.0
  0
SPLINE
  5
3975
102
{ACAD_REACTORS
330
3A81
102
}
330
A
100
AcDbEntity
  8
MODEL
100
AcDbSpline
210
0.0
220
0.0
230
1.0
 70
     8
 71
     3
 72
    14
 73
    10
 74
     0
 42
0.000000001
 43
0.0000000001
 40
3.0
 40
3.0
 40
3.0
 40
3.0
 40
4.0
 40
4.0
 40
4.0
 40
5.0
 40
5.0
 40
5.0
 40
6.0
 40
6.0
 40
6.0
 40
6.0
 10
686.4791632200313
 20
1364.637962288321
 30
0.0
 10
682.6476032578603
 20
1365.641953936164
 30
0.0
 10
678.6855567335015
 20
1366.006453589194
 30
0.0
 10
674.7515486439906
 20
1366.360169228821
 30
0.0
 10
674.7515486439906
 20
1366.360169228821
 30
0.0
 10
672.4987682440506
 20
1366.559673476781
 30
0.0
 10
672.4987682440506
 20
1366.559673476781
 30
0.0
 10
672.4987682440506
 20
1366.559673476781
 30
0.0
 10
669.9807011143903
 20
1366.758099323401
 30
0.0
 10
669.9807011143903
 20
1366.758099323401
 30
0.0
  0
SPLINE
  5
3976
102
{ACAD_REACTORS
330
3A81
102
}
330
A
100
AcDbEntity
  8
MODEL
100
AcDbSpline
210
0.0
220
0.0
230
1.0
 70
     8
 71
     3
 72
    20
 73
    16
 74
     0
 42
0.000000001
 43
0.0000000001
 40
6.0
 40
6.0
 40
6.0
 40
6.0
 40
7.0
 40
7.0
 40
7.0
 40
8.0
 40
8.0
 40
8.0
 40
9.0
 40
9.0
 40
9.0
 40
10.0
 40
10.0
 40
10.0
 40
11.0
 40
11.0
 40
11.0
 40
11.0
 10
669.9807011143903
 20
1366.758099323401
 30
0.0
 10
655.2227787720412
 20
1367.787972603411
 30
0.0
 10
640.4411316002015
 20
1368.136296236337
 30
0.0
 10
625.6546316223312
 20
1368.480306263901
 30
0.0
 10
625.6546316223312
 20
1368.480306263901
 30
0.0
 10
617.4388310110617
 20
1368.547167147
 30
0.0
 10
617.4388310110617
 20
1368.547167147
 30
0.0
 10
617.4388310110617
 20
1368.547167147
 30
0.0
 10
600.6098388946111
 20
1368.679810511861
 30
0.0
 10
600.6098388946111
 20
1368.679810511861
 30
0.0
 10
600.6098388946111
 20
1368.679810511861
 30
0.0
 10
583.8466292599214
 20
1368.547167147
 30
0.0
 10
583.8466292599214
 20
1368.547167147
 30
0.0
 10
583.8466292599214
 20
1368.547167147
 30
0.0
 10
575.6308286486519
 20
1368.480306263901
 30
0.0
 10
575.6308286486519
 20
1368.480306263901
 30
0.0
  0
SPLINE
  5
3977
102
{ACAD_REACTORS
330
3A81
102
}
330
A
100
AcDbEntity
  8
MODEL
100
AcDbSpline
210
0.0
220
0.0
230
1.0
 70
     8
 71
     3
 72
    14
 73
    10
 74
     0
 42
0.000000001
 43
0.0000000001
 40
11.0
 40
11.0
 40
11.0
 40
11.0
 40
12.0
 40
12.0
 40
12.0
 40
13.0
 40
13.0
 40
13.0
 40
14.0
 40
14.0
 40
14.0
 40
14.0
 10
575.6308286486519
 20
1368.480306263901
 30
0.0
 10
561.6628352880916
 20
1368.183745895311
 30
0.0
 10
547.8301812957316
 20
1367.789051004752
 30
0.0
 10
533.8886087680103
 20
1366.95652517002
 30
0.0
 10
533.8886087680103
 20
1366.95652517002
 30
0.0
 10
531.2384374741514
 20
1366.758099323401
 30
0.0
 10
531.2384374741514
 20
1366.758099323401
 30
0.0
 10
531.2384374741514
 20
1366.758099323401
 30
0.0
 10
528.7872312275913
 20
1366.559673476781
 30
0.0
 10
528.7872312275913
 20
1366.559673476781
 30
0.0
  0
SPLINE
  5
3978
102
{ACAD_REACTORS
330
3A81
102
}
330
A
100
AcDbEntity
  8
MODEL
100
AcDbSpline
210
0.0
220
0.0
230
1.0
 70
     8
 71
     3
 72
    17
 73
    13
 74
     0
 42
0.000000001
 43
0.0000000001
 40
14.0
 40
14.0
 40
14.0
 40
14.0
 40
15.0
 40
15.0
 40
15.0
 40
16.0
 40
16.0
 40
16.0
 40
17.0
 40
17.0
 40
17.0
 40
18.0
 40
18.0
 40
18.0
 40
18.0
 10
528.7872312275913
 20
1366.559673476781
 30
0.0
 10
524.0783917750605
 20
1366.154194572818
 30
0.0
 10
519.3355826803117
 20
1365.800478933191
 30
0.0
 10
514.740514569191
 20
1364.637962288321
 30
0.0
 10
514.740514569191
 20
1364.637962288321
 30
0.0
 10
514.1441586279916
 20
1364.372675558601
 30
0.0
 10
514.1441586279916
 20
1364.372675558601
 30
0.0
 10
514.1441586279916
 20
1364.372675558601
 30
0.0
 10
513.746767734071
 20
1364.174249711981
 30
0.0
 10
513.746767734071
 20
1364.174249711981
 30
0.0
 10
513.746767734071
 20
1364.174249711981
 30
0.0
 10
513.6141243692209
 20
1363.908962982262
 30
0.0
 10
513.6141243692209
 20
1363.908962982262
 30
0.0
  0
LINE
  5
3979
102
{ACAD_REACTORS
330
3A81
102
}
330
A
100
AcDbEntity
  8
MODEL
100
AcDbLine
 10
690.519933042232
 20
1361.854608428941
 30
0.0
 11
690.6525764070911
 21
1360.927183276261
 31
0.0
  0
LINE
  5
397A
102
{ACAD_REACTORS
330
3A81
102
}
330
A
100
AcDbEntity
  8
MODEL
100
AcDbLine
 10
510.7649880280705
 20
1361.854608428941
 30
0.0
 11
510.6328838638919
 21
1361.390895852602
 31
0.0
  0
LINE
  5
397B
102
{ACAD_REACTORS
330
3A81
102
}
330
A
100
AcDbEntity
  8
MODEL
100
AcDbLine
 10
510.6328838638919
 20
1361.390895852602
 30
0.0
 11
510.6328838638919
 21
1360.927183276261
 31
0.0
  0
LINE
  5
397C
102
{ACAD_REACTORS
330
3A81
102
}
330
A
100
AcDbEntity
  8
MODEL
100
AcDbLine
 10
690.6525764070911
 20
681.6615902293884
 30
0.0
 11
510.6328838638919
 21
681.6615902293884
 31
0.0
  0
LINE
  5
397D
102
{ACAD_REACTORS
330
3A81
102
}
330
A
100
AcDbEntity
  8
MODEL
100
AcDbLine
 10
510.6328838638919
 20
681.6615902293884
 30
0.0
 11
510.6328838638919
 21
1360.927183276261
 31
0.0
  0
LINE
  5
397E
102
{ACAD_REACTORS
330
3A81
102
}
330
A
100
AcDbEntity
  8
MODEL
100
AcDbLine
 10
690.6525764070911
 20
1360.927183276261
 30
0.0
 11
690.6525764070911
 21
681.6615902293884
 31
0.0
  0
LINE
  5
397F
102
{ACAD_REACTORS
330
3A81
102
}
330
A
100
AcDbEntity
  8
MODEL
100
AcDbLine
 10
510.6328838638919
 20
681.6615902293884
 30
0.0
 11
510.698666345651
 21
680.8657300402278
 31
0.0
  0
LINE
  5
3980
102
{ACAD_REACTORS
330
3A81
102
}
330
A
100
AcDbEntity
  8
MODEL
100
AcDbLine
 10
510.698666345651
 20
680.8657300402278
 30
0.0
 11
511.0308139584713
 21
680.1367307341675
 31
0.0
  0
LINE
  5
3981
102
{ACAD_REACTORS
330
3A81
102
}
330
A
100
AcDbEntity
  8
MODEL
100
AcDbLine
 10
511.0308139584713
 20
680.1367307341675
 30
0.0
 11
511.4945265348006
 21
679.5414531943075
 31
0.0
  0
LINE
  5
3982
102
{ACAD_REACTORS
330
3A81
102
}
330
A
100
AcDbEntity
  8
MODEL
100
AcDbLine
 10
511.4945265348006
 20
679.5414531943075
 30
0.0
 11
512.0908824760108
 21
679.010879734868
 31
0.0
  0
LINE
  5
3983
102
{ACAD_REACTORS
330
3A81
102
}
330
A
100
AcDbEntity
  8
MODEL
100
AcDbLine
 10
512.0908824760108
 20
679.010879734868
 30
0.0
 11
512.8198817820603
 21
678.7455930051478
 31
0.0
  0
LINE
  5
3984
102
{ACAD_REACTORS
330
3A81
102
}
330
A
100
AcDbEntity
  8
MODEL
100
AcDbLine
 10
512.8198817820603
 20
678.7455930051478
 30
0.0
 11
513.6146635698815
 21
678.6129496402878
 31
0.0
  0
LINE
  5
3985
102
{ACAD_REACTORS
330
3A81
102
}
330
A
100
AcDbEntity
  8
MODEL
100
AcDbLine
 10
687.6707967010907
 20
678.6129496402878
 30
0.0
 11
688.399796007151
 21
678.7455930051478
 31
0.0
  0
LINE
  5
3986
102
{ACAD_REACTORS
330
3A81
102
}
330
A
100
AcDbEntity
  8
MODEL
100
AcDbLine
 10
688.399796007151
 20
678.7455930051478
 30
0.0
 11
689.1287953132114
 21
679.010879734868
 31
0.0
  0
LINE
  5
3987
102
{ACAD_REACTORS
330
3A81
102
}
330
A
100
AcDbEntity
  8
MODEL
100
AcDbLine
 10
689.1287953132114
 20
679.010879734868
 30
0.0
 11
689.7920121375219
 21
679.5414531943075
 31
0.0
  0
LINE
  5
3988
102
{ACAD_REACTORS
330
3A81
102
}
330
A
100
AcDbEntity
  8
MODEL
100
AcDbLine
 10
689.7920121375219
 20
679.5414531943075
 30
0.0
 11
690.2557247138602
 21
680.1367307341675
 31
0.0
  0
LINE
  5
3989
102
{ACAD_REACTORS
330
3A81
102
}
330
A
100
AcDbEntity
  8
MODEL
100
AcDbLine
 10
690.2557247138602
 20
680.1367307341675
 30
0.0
 11
690.519933042232
 21
680.8657300402278
 31
0.0
  0
LINE
  5
398A
102
{ACAD_REACTORS
330
3A81
102
}
330
A
100
AcDbEntity
  8
MODEL
100
AcDbLine
 10
690.519933042232
 20
680.8657300402278
 30
0.0
 11
690.6525764070911
 21
681.6615902293884
 31
0.0
  0
LINE
  5
398B
102
{ACAD_REACTORS
330
3A81
102
}
330
A
100
AcDbEntity
  8
MODEL
100
AcDbLine
 10
689.1956561963116
 20
678.6129496402878
 30
0.0
 11
689.990437984131
 21
678.7455930051478
 31
0.0
  0
LINE
  5
398C
102
{ACAD_REACTORS
330
3A81
102
}
330
A
100
AcDbEntity
  8
MODEL
100
AcDbLine
 10
689.990437984131
 20
678.7455930051478
 30
0.0
 11
690.7194372901913
 21
679.010879734868
 31
0.0
  0
LINE
  5
398D
102
{ACAD_REACTORS
330
3A81
102
}
330
A
100
AcDbEntity
  8
MODEL
100
AcDbLine
 10
690.7194372901913
 20
679.010879734868
 30
0.0
 11
691.3157932313907
 21
679.5414531943075
 31
0.0
  0
LINE
  5
398E
102
{ACAD_REACTORS
330
3A81
102
}
330
A
100
AcDbEntity
  8
MODEL
100
AcDbLine
 10
691.3157932313907
 20
679.5414531943075
 30
0.0
 11
691.7795058077309
 21
680.1378091355077
 31
0.0
  0
LINE
  5
398F
102
{ACAD_REACTORS
330
3A81
102
}
330
A
100
AcDbEntity
  8
MODEL
100
AcDbLine
 10
691.7795058077309
 20
680.1378091355077
 30
0.0
 11
692.1105750192119
 21
680.8657300402278
 31
0.0
  0
LINE
  5
3990
102
{ACAD_REACTORS
330
3A81
102
}
330
A
100
AcDbEntity
  8
MODEL
100
AcDbLine
 10
692.1105750192119
 20
680.8657300402278
 30
0.0
 11
692.1763575009709
 21
681.6615902293884
 31
0.0
  0
LINE
  5
3991
102
{ACAD_REACTORS
330
3A81
102
}
330
A
100
AcDbEntity
  8
MODEL
100
AcDbLine
 10
692.1763575009709
 20
681.6615902293884
 30
0.0
 11
692.1763575009709
 21
1356.421622476382
 31
0.0
  0
LINE
  5
3992
102
{ACAD_REACTORS
330
3A81
102
}
330
A
100
AcDbEntity
  8
MODEL
100
AcDbLine
 10
692.1763575009709
 20
1356.421622476382
 30
0.0
 11
692.0437141361117
 21
1356.885335052721
 31
0.0
  0
LINE
  5
3993
102
{ACAD_REACTORS
330
3A81
102
}
330
A
100
AcDbEntity
  8
MODEL
100
AcDbLine
 10
687.6707967010907
 20
678.6129496402878
 30
0.0
 11
689.1956561963116
 21
678.6129496402878
 31
0.0
  0
LINE
  5
3994
102
{ACAD_REACTORS
330
3A81
102
}
330
A
100
AcDbEntity
  8
MODEL
100
AcDbLine
 10
690.6525764070911
 20
681.6615902293884
 30
0.0
 11
692.1763575009709
 21
681.6615902293884
 31
0.0
  0
LINE
  5
3995
102
{ACAD_REACTORS
330
3A81
102
}
330
A
100
AcDbEntity
  8
MODEL
100
AcDbLine
 10
692.1763575009709
 20
1355.957909900042
 30
0.0
 11
690.6525764070911
 21
1360.927183276261
 31
0.0
  0
LINE
  5
3996
102
{ACAD_REACTORS
330
3A81
102
}
330
A
100
AcDbEntity
  8
MODEL
100
AcDbLine
 10
509.0422418869102
 20
681.6615902293884
 30
0.0
 11
509.1748852517603
 21
680.8657300402278
 31
0.0
  0
LINE
  5
3997
102
{ACAD_REACTORS
330
3A81
102
}
330
A
100
AcDbEntity
  8
MODEL
100
AcDbLine
 10
509.1748852517603
 20
680.8657300402278
 30
0.0
 11
509.4401719814914
 21
680.1367307341675
 31
0.0
  0
LINE
  5
3998
102
{ACAD_REACTORS
330
3A81
102
}
330
A
100
AcDbEntity
  8
MODEL
100
AcDbLine
 10
509.4401719814914
 20
680.1367307341675
 30
0.0
 11
509.9038845578316
 21
679.5414531943075
 31
0.0
  0
LINE
  5
3999
102
{ACAD_REACTORS
330
3A81
102
}
330
A
100
AcDbEntity
  8
MODEL
100
AcDbLine
 10
509.9038845578316
 20
679.5414531943075
 30
0.0
 11
510.567101382122
 21
679.010879734868
 31
0.0
  0
LINE
  5
399A
102
{ACAD_REACTORS
330
3A81
102
}
330
A
100
AcDbEntity
  8
MODEL
100
AcDbLine
 10
510.567101382122
 20
679.010879734868
 30
0.0
 11
511.2950222868503
 21
678.7455930051478
 31
0.0
  0
LINE
  5
399B
102
{ACAD_REACTORS
330
3A81
102
}
330
A
100
AcDbEntity
  8
MODEL
100
AcDbLine
 10
511.2950222868503
 20
678.7455930051478
 30
0.0
 11
512.0240215929107
 21
678.6129496402878
 31
0.0
  0
LINE
  5
399C
102
{ACAD_REACTORS
330
3A81
102
}
330
A
100
AcDbEntity
  8
MODEL
100
AcDbLine
 10
509.0422418869102
 20
681.6615902293884
 30
0.0
 11
509.0422418869102
 21
1355.957909900042
 31
0.0
  0
LINE
  5
399D
102
{ACAD_REACTORS
330
3A81
102
}
330
A
100
AcDbEntity
  8
MODEL
100
AcDbLine
 10
509.0422418869102
 20
1355.957909900042
 30
0.0
 11
509.1748852517603
 21
1356.885335052721
 31
0.0
  0
LINE
  5
399E
102
{ACAD_REACTORS
330
3A81
102
}
330
A
100
AcDbEntity
  8
MODEL
100
AcDbLine
 10
512.0240215929107
 20
678.6129496402878
 30
0.0
 11
513.6146635698815
 21
678.6129496402878
 31
0.0
  0
LINE
  5
399F
102
{ACAD_REACTORS
330
3A81
102
}
330
A
100
AcDbEntity
  8
MODEL
100
AcDbLine
 10
509.0422418869102
 20
681.6615902293884
 30
0.0
 11
510.6328838638919
 21
681.6615902293884
 31
0.0
  0
LINE
  5
39A0
102
{ACAD_REACTORS
330
3A81
102
}
330
A
100
AcDbEntity
  8
MODEL
100
AcDbLine
 10
510.6328838638919
 20
1360.927183276261
 30
0.0
 11
509.0422418869102
 21
1355.957909900042
 31
0.0
  0
LINE
  5
39A1
102
{ACAD_REACTORS
330
3A81
102
}
330
A
100
AcDbEntity
  8
MODEL
100
AcDbLine
 10
510.7649880280705
 20
1361.788825947182
 30
0.0
 11
509.1748852517603
 21
1356.885335052721
 31
0.0
  0
LINE
  5
39A2
102
{ACAD_REACTORS
330
3A81
102
}
330
A
100
AcDbEntity
  8
MODEL
100
AcDbLine
 10
692.0437141361117
 20
1356.885335052721
 30
0.0
 11
690.519933042232
 21
1361.788825947182
 31
0.0
  0
SPLINE
  5
39A3
102
{ACAD_REACTORS
330
3A81
102
}
330
A
100
AcDbEntity
  8
MODEL
100
AcDbSpline
210
0.0
220
0.0
230
1.0
 70
     8
 71
     3
 72
    14
 73
    10
 74
     0
 42
0.000000001
 43
0.0000000001
 40
0.0
 40
0.0
 40
0.0
 40
0.0
 40
1.0
 40
1.0
 40
1.0
 40
2.0
 40
2.0
 40
2.0
 40
3.0
 40
3.0
 40
3.0
 40
3.0
 10
690.519933042232
 20
1361.854608428941
 30
0.0
 10
690.519933042232
 20
1361.854608428941
 30
0.0
 10
690.0562204658918
 20
1362.716251099861
 30
0.0
 10
690.0562204658918
 20
1362.716251099861
 30
0.0
 10
690.0562204658918
 20
1362.716251099861
 30
0.0
 10
689.5267254077908
 20
1363.378389522821
 30
0.0
 10
689.5267254077908
 20
1363.378389522821
 30
0.0
 10
689.5267254077908
 20
1363.378389522821
 30
0.0
 10
688.5324393720102
 20
1364.041606347121
 30
0.0
 10
688.5324393720102
 20
1364.041606347121
 30
0.0
  0
SPLINE
  5
39A4
102
{ACAD_REACTORS
330
3A81
102
}
330
A
100
AcDbEntity
  8
MODEL
100
AcDbSpline
210
0.0
220
0.0
230
1.0
 70
     8
 71
     3
 72
    14
 73
    10
 74
     0
 42
0.000000001
 43
0.0000000001
 40
3.0
 40
3.0
 40
3.0
 40
3.0
 40
4.0
 40
4.0
 40
4.0
 40
5.0
 40
5.0
 40
5.0
 40
6.0
 40
6.0
 40
6.0
 40
6.0
 10
688.5324393720102
 20
1364.041606347121
 30
0.0
 10
684.6534297508615
 20
1365.586955467808
 30
0.0
 10
679.4102424342009
 20
1365.866261414951
 30
0.0
 10
675.2810437020917
 20
1366.29438674706
 30
0.0
 10
675.2810437020917
 20
1366.29438674706
 30
0.0
 10
672.9624808203907
 20
1366.492812593681
 30
0.0
 10
672.9624808203907
 20
1366.492812593681
 30
0.0
 10
672.9624808203907
 20
1366.492812593681
 30
0.0
 10
670.5101961725004
 20
1366.6912384403
 30
0.0
 10
670.5101961725004
 20
1366.6912384403
 30
0.0
  0
SPLINE
  5
39A5
102
{ACAD_REACTORS
330
3A81
102
}
330
A
100
AcDbEntity
  8
MODEL
100
AcDbSpline
210
0.0
220
0.0
230
1.0
 70
     8
 71
     3
 72
    20
 73
    16
 74
     0
 42
0.000000001
 43
0.0000000001
 40
6.0
 40
6.0
 40
6.0
 40
6.0
 40
7.0
 40
7.0
 40
7.0
 40
8.0
 40
8.0
 40
8.0
 40
9.0
 40
9.0
 40
9.0
 40
10.0
 40
10.0
 40
10.0
 40
11.0
 40
11.0
 40
11.0
 40
11.0
 10
670.5101961725004
 20
1366.6912384403
 30
0.0
 10
655.6552177095118
 20
1367.864539098575
 30
0.0
 10
640.7463191795114
 20
1368.100708992106
 30
0.0
 10
625.8535966696209
 20
1368.480306263901
 30
0.0
 10
625.8535966696209
 20
1368.480306263901
 30
0.0
 10
617.5714743759208
 20
1368.547167147
 30
0.0
 10
617.5714743759208
 20
1368.547167147
 30
0.0
 10
617.5714743759208
 20
1368.547167147
 30
0.0
 10
600.6098388946111
 20
1368.679810511861
 30
0.0
 10
600.6098388946111
 20
1368.679810511861
 30
0.0
 10
600.6098388946111
 20
1368.679810511861
 30
0.0
 10
583.7139858950604
 20
1368.547167147
 30
0.0
 10
583.7139858950604
 20
1368.547167147
 30
0.0
 10
583.7139858950604
 20
1368.547167147
 30
0.0
 10
575.4318636013604
 20
1368.480306263901
 30
0.0
 10
575.4318636013604
 20
1368.480306263901
 30
0.0
  0
SPLINE
  5
39A6
102
{ACAD_REACTORS
330
3A81
102
}
330
A
100
AcDbEntity
  8
MODEL
100
AcDbSpline
210
0.0
220
0.0
230
1.0
 70
     8
 71
     3
 72
    14
 73
    10
 74
     0
 42
0.000000001
 43
0.0000000001
 40
11.0
 40
11.0
 40
11.0
 40
11.0
 40
12.0
 40
12.0
 40
12.0
 40
13.0
 40
13.0
 40
13.0
 40
14.0
 40
14.0
 40
14.0
 40
14.0
 10
575.4318636013604
 20
1368.480306263901
 30
0.0
 10
561.4250477925407
 20
1368.126590624274
 30
0.0
 10
547.4042127663006
 20
1367.894734336104
 30
0.0
 10
533.424896191661
 20
1366.890742688261
 30
0.0
 10
533.424896191661
 20
1366.890742688261
 30
0.0
 10
530.7747248978112
 20
1366.6912384403
 30
0.0
 10
530.7747248978112
 20
1366.6912384403
 30
0.0
 10
530.7747248978112
 20
1366.6912384403
 30
0.0
 10
528.2571969688206
 20
1366.492812593681
 30
0.0
 10
528.2571969688206
 20
1366.492812593681
 30
0.0
  0
SPLINE
  5
39A7
102
{ACAD_REACTORS
330
3A81
102
}
330
A
100
AcDbEntity
  8
MODEL
100
AcDbSpline
210
0.0
220
0.0
230
1.0
 70
     8
 71
     3
 72
    17
 73
    13
 74
     0
 42
0.000000001
 43
0.0000000001
 40
14.0
 40
14.0
 40
14.0
 40
14.0
 40
15.0
 40
15.0
 40
15.0
 40
16.0
 40
16.0
 40
16.0
 40
17.0
 40
17.0
 40
17.0
 40
18.0
 40
18.0
 40
18.0
 40
18.0
 10
528.2571969688206
 20
1366.492812593681
 30
0.0
 10
523.5650727370712
 20
1365.991355970429
 30
0.0
 10
517.1448103574412
 20
1365.808027742574
 30
0.0
 10
512.753020898962
 20
1364.041606347121
 30
0.0
 10
512.753020898962
 20
1364.041606347121
 30
0.0
 10
511.7587348631905
 20
1363.378389522821
 30
0.0
 10
511.7587348631905
 20
1363.378389522821
 30
0.0
 10
511.7587348631905
 20
1363.378389522821
 30
0.0
 10
511.2292398050913
 20
1362.716251099861
 30
0.0
 10
511.2292398050913
 20
1362.716251099861
 30
0.0
 10
511.2292398050913
 20
1362.716251099861
 30
0.0
 10
510.7649880280705
 20
1361.854608428941
 30
0.0
 10
510.7649880280705
 20
1361.854608428941
 30
0.0
  0
SPLINE
  5
39A8
102
{ACAD_REACTORS
330
3A85
102
}
330
A
100
AcDbEntity
  8
MODEL
100
AcDbSpline
210
0.0
220
0.0
230
1.0
 70
     8
 71
     3
 72
    14
 73
    10
 74
     0
 42
0.000000001
 43
0.0000000001
 40
0.0
 40
0.0
 40
0.0
 40
0.0
 40
1.0
 40
1.0
 40
1.0
 40
2.0
 40
2.0
 40
2.0
 40
3.0
 40
3.0
 40
3.0
 40
3.0
 10
1643.962152830857
 20
1885.957469611566
 30
0.0
 10
1643.962152830857
 20
1885.957469611566
 30
0.0
 10
1645.618577289597
 20
1885.030044458887
 30
0.0
 10
1645.618577289597
 20
1885.030044458887
 30
0.0
 10
1645.618577289597
 20
1885.030044458887
 30
0.0
 10
1579.759529034577
 20
1848.257637155129
 30
0.0
 10
1579.759529034577
 20
1848.257637155129
 30
0.0
 10
1579.759529034577
 20
1848.257637155129
 30
0.0
 10
1574.790255658367
 20
1845.673787543708
 30
0.0
 10
1574.790255658367
 20
1845.673787543708
 30
0.0
  0
SPLINE
  5
39A9
102
{ACAD_REACTORS
330
3A85
102
}
330
A
100
AcDbEntity
  8
MODEL
100
AcDbSpline
210
0.0
220
0.0
230
1.0
 70
     8
 71
     3
 72
    14
 73
    10
 74
     0
 42
0.000000001
 43
0.0000000001
 40
3.0
 40
3.0
 40
3.0
 40
3.0
 40
4.0
 40
4.0
 40
4.0
 40
5.0
 40
5.0
 40
5.0
 40
6.0
 40
6.0
 40
6.0
 40
6.0
 10
1574.790255658367
 20
1845.673787543708
 30
0.0
 10
1550.311623634318
 20
1834.085286740572
 30
0.0
 10
1520.132562125308
 20
1831.372028968313
 30
0.0
 10
1493.558596297008
 20
1835.46995406155
 30
0.0
 10
1493.558596297008
 20
1835.46995406155
 30
0.0
 10
1487.263967673528
 20
1836.662665943951
 30
0.0
 10
1487.263967673528
 20
1836.662665943951
 30
0.0
 10
1487.263967673528
 20
1836.662665943951
 30
0.0
 10
1481.036199933148
 20
1838.053803672969
 30
0.0
 10
1481.036199933148
 20
1838.053803672969
 30
0.0
  0
SPLINE
  5
39AA
102
{ACAD_REACTORS
330
3A85
102
}
330
A
100
AcDbEntity
  8
MODEL
100
AcDbSpline
210
0.0
220
0.0
230
1.0
 70
     8
 71
     3
 72
    14
 73
    10
 74
     0
 42
0.000000001
 43
0.0000000001
 40
6.0
 40
6.0
 40
6.0
 40
6.0
 40
7.0
 40
7.0
 40
7.0
 40
8.0
 40
8.0
 40
8.0
 40
9.0
 40
9.0
 40
9.0
 40
9.0
 10
1481.036199933148
 20
1838.053803672969
 30
0.0
 10
1460.433342326227
 20
1843.119054768479
 30
0.0
 10
1433.009596241757
 20
1856.379077649121
 30
0.0
 10
1427.897973888607
 20
1879.199128411748
 30
0.0
 10
1427.897973888607
 20
1879.199128411748
 30
0.0
 10
1427.301617947417
 20
1883.042550788668
 30
0.0
 10
1427.301617947417
 20
1883.042550788668
 30
0.0
 10
1427.301617947417
 20
1883.042550788668
 30
0.0
 10
1427.168974582548
 20
1886.884894764245
 30
0.0
 10
1427.168974582548
 20
1886.884894764245
 30
0.0
  0
SPLINE
  5
39AB
102
{ACAD_REACTORS
330
3A85
102
}
330
A
100
AcDbEntity
  8
MODEL
100
AcDbSpline
210
0.0
220
0.0
230
1.0
 70
     8
 71
     3
 72
    11
 73
     7
 74
     0
 42
0.000000001
 43
0.0000000001
 40
0.0
 40
0.0
 40
0.0
 40
0.0
 40
1.0
 40
1.0
 40
1.0
 40
2.0
 40
2.0
 40
2.0
 40
2.0
 10
1579.759529034577
 20
2405.345750349831
 30
0.0
 10
1579.759529034577
 20
2405.345750349831
 30
0.0
 10
1574.856038140117
 20
2403.092969949891
 30
0.0
 10
1574.856038140117
 20
2403.092969949891
 30
0.0
 10
1574.856038140117
 20
2403.092969949891
 30
0.0
 10
1569.621478034178
 20
2401.03969379791
 30
0.0
 10
1569.621478034178
 20
2401.03969379791
 30
0.0
  0
SPLINE
  5
39AC
102
{ACAD_REACTORS
330
3A85
102
}
330
A
100
AcDbEntity
  8
MODEL
100
AcDbSpline
210
0.0
220
0.0
230
1.0
 70
     8
 71
     3
 72
    14
 73
    10
 74
     0
 42
0.000000001
 43
0.0000000001
 40
2.0
 40
2.0
 40
2.0
 40
2.0
 40
3.0
 40
3.0
 40
3.0
 40
4.0
 40
4.0
 40
4.0
 40
5.0
 40
5.0
 40
5.0
 40
5.0
 10
1569.621478034178
 20
2401.03969379791
 30
0.0
 10
1544.335123406227
 20
2392.043669816916
 30
0.0
 10
1514.289783663428
 20
2391.39447221004
 30
0.0
 10
1488.191392826208
 20
2396.997845574372
 30
0.0
 10
1488.191392826208
 20
2396.997845574372
 30
0.0
 10
1482.030485968928
 20
2398.454765785152
 30
0.0
 10
1482.030485968928
 20
2398.454765785152
 30
0.0
 10
1482.030485968928
 20
2398.454765785152
 30
0.0
 10
1476.066926556927
 20
2400.178051126992
 30
0.0
 10
1476.066926556927
 20
2400.178051126992
 30
0.0
  0
SPLINE
  5
39AD
102
{ACAD_REACTORS
330
3A85
102
}
330
A
100
AcDbEntity
  8
MODEL
100
AcDbSpline
210
0.0
220
0.0
230
1.0
 70
     8
 71
     3
 72
    14
 73
    10
 74
     0
 42
0.000000001
 43
0.0000000001
 40
5.0
 40
5.0
 40
5.0
 40
5.0
 40
6.0
 40
6.0
 40
6.0
 40
7.0
 40
7.0
 40
7.0
 40
8.0
 40
8.0
 40
8.0
 40
8.0
 10
1476.066926556927
 20
2400.178051126992
 30
0.0
 10
1457.840865504088
 20
2405.759856464516
 30
0.0
 10
1433.605952182958
 20
2418.307056059201
 30
0.0
 10
1428.163260618338
 20
2438.275813678008
 30
0.0
 10
1428.163260618338
 20
2438.275813678008
 30
0.0
 10
1427.434261312267
 20
2441.853949325208
 30
0.0
 10
1427.434261312267
 20
2441.853949325208
 30
0.0
 10
1427.434261312267
 20
2441.853949325208
 30
0.0
 10
1427.168974582548
 20
2445.431006571067
 30
0.0
 10
1427.168974582548
 20
2445.431006571067
 30
0.0
  0
SPLINE
  5
39AE
102
{ACAD_REACTORS
330
3A85
102
}
330
A
100
AcDbEntity
  8
MODEL
100
AcDbSpline
210
0.0
220
0.0
230
1.0
 70
     8
 71
     3
 72
    11
 73
     7
 74
     0
 42
0.000000001
 43
0.0000000001
 40
0.0
 40
0.0
 40
0.0
 40
0.0
 40
1.0
 40
1.0
 40
1.0
 40
2.0
 40
2.0
 40
2.0
 40
2.0
 10
1577.770956963017
 20
2409.056529361891
 30
0.0
 10
1577.770956963017
 20
2409.056529361891
 30
0.0
 10
1574.657612293508
 20
2407.59853074977
 30
0.0
 10
1574.657612293508
 20
2407.59853074977
 30
0.0
 10
1574.657612293508
 20
2407.59853074977
 30
0.0
 10
1571.410545857778
 20
2406.273175502511
 30
0.0
 10
1571.410545857778
 20
2406.273175502511
 30
0.0
  0
SPLINE
  5
39AF
102
{ACAD_REACTORS
330
3A85
102
}
330
A
100
AcDbEntity
  8
MODEL
100
AcDbSpline
210
0.0
220
0.0
230
1.0
 70
     8
 71
     3
 72
    14
 73
    10
 74
     0
 42
0.000000001
 43
0.0000000001
 40
2.0
 40
2.0
 40
2.0
 40
2.0
 40
3.0
 40
3.0
 40
3.0
 40
4.0
 40
4.0
 40
4.0
 40
5.0
 40
5.0
 40
5.0
 40
5.0
 10
1571.410545857778
 20
2406.273175502511
 30
0.0
 10
1535.402725104318
 20
2391.702894993373
 30
0.0
 10
1479.267621735017
 20
2395.314461082125
 30
0.0
 10
1447.509780663768
 20
2419.06085859609
 30
0.0
 10
1447.509780663768
 20
2419.06085859609
 30
0.0
 10
1445.058574417208
 20
2421.048352266309
 30
0.0
 10
1445.058574417208
 20
2421.048352266309
 30
0.0
 10
1445.058574417208
 20
2421.048352266309
 30
0.0
 10
1442.805794017268
 20
2423.03692433787
 30
0.0
 10
1442.805794017268
 20
2423.03692433787
 30
0.0
  0
SPLINE
  5
39B0
102
{ACAD_REACTORS
330
3A85
102
}
330
A
100
AcDbEntity
  8
MODEL
100
AcDbSpline
210
0.0
220
0.0
230
1.0
 70
     8
 71
     3
 72
    14
 73
    10
 74
     0
 42
0.000000001
 43
0.0000000001
 40
5.0
 40
5.0
 40
5.0
 40
5.0
 40
6.0
 40
6.0
 40
6.0
 40
7.0
 40
7.0
 40
7.0
 40
8.0
 40
8.0
 40
8.0
 40
8.0
 10
1442.805794017268
 20
2423.03692433787
 30
0.0
 10
1423.291043362748
 20
2441.389158347528
 30
0.0
 10
1427.477397365887
 20
2462.787876143606
 30
0.0
 10
1449.166205122507
 20
2476.837288805365
 30
0.0
 10
1449.166205122507
 20
2476.837288805365
 30
0.0
 10
1451.816915617028
 20
2478.559495745866
 30
0.0
 10
1451.816915617028
 20
2478.559495745866
 30
0.0
 10
1451.816915617028
 20
2478.559495745866
 30
0.0
 10
1454.731834439927
 20
2480.150137722846
 30
0.0
 10
1454.731834439927
 20
2480.150137722846
 30
0.0
  0
SPLINE
  5
39B1
102
{ACAD_REACTORS
330
3A85
102
}
330
A
100
AcDbEntity
  8
MODEL
100
AcDbSpline
210
0.0
220
0.0
230
1.0
 70
    24
 71
     3
 72
     8
 73
     4
 74
     0
 42
0.000000001
 43
0.0000000001
 40
0.0
 40
0.0
 40
0.0
 40
0.0
 40
1.0
 40
1.0
 40
1.0
 40
1.0
 10
1577.770956963017
 20
2409.056529361891
 30
0.0
 10
1577.770956963017
 20
2409.056529361891
 30
0.0
 10
1578.103104575838
 20
2408.85702511393
 30
0.0
 10
1578.103104575838
 20
2408.85702511393
 30
0.0
  0
SPLINE
  5
39B2
102
{ACAD_REACTORS
330
3A85
102
}
330
A
100
AcDbEntity
  8
MODEL
100
AcDbSpline
210
0.0
220
0.0
230
1.0
 70
     8
 71
     3
 72
    11
 73
     7
 74
     0
 42
0.000000001
 43
0.0000000001
 40
1.0
 40
1.0
 40
1.0
 40
1.0
 40
2.0
 40
2.0
 40
2.0
 40
3.0
 40
3.0
 40
3.0
 40
3.0
 10
1578.103104575838
 20
2408.85702511393
 30
0.0
 10
1579.074744183478
 20
2408.130182610551
 30
0.0
 10
1579.481301488777
 20
2406.949333142894
 30
0.0
 10
1579.759529034577
 20
2405.80946292617
 30
0.0
 10
1579.759529034577
 20
2405.80946292617
 30
0.0
 10
1579.759529034577
 20
2405.345750349831
 30
0.0
 10
1579.759529034577
 20
2405.345750349831
 30
0.0
  0
LINE
  5
39B3
102
{ACAD_REACTORS
330
3A85
102
}
330
A
100
AcDbEntity
  8
MODEL
100
AcDbLine
 10
1454.731834439927
 20
2480.150137722846
 30
0.0
 11
1454.268121863587
 21
2480.348563569466
 31
0.0
  0
LINE
  5
39B4
102
{ACAD_REACTORS
330
3A85
102
}
330
A
100
AcDbEntity
  8
MODEL
100
AcDbLine
 10
1454.268121863587
 20
2480.348563569466
 30
0.0
 11
1453.871270170347
 21
2480.415424452566
 31
0.0
  0
LINE
  5
39B5
102
{ACAD_REACTORS
330
3A85
102
}
330
A
100
AcDbEntity
  8
MODEL
100
AcDbLine
 10
1453.871270170347
 20
2480.415424452566
 30
0.0
 11
1453.539122557528
 21
2480.415424452566
 31
0.0
  0
LINE
  5
39B6
102
{ACAD_REACTORS
330
3A85
102
}
330
A
100
AcDbEntity
  8
MODEL
100
AcDbLine
 10
1453.539122557528
 20
2480.415424452566
 30
0.0
 11
1453.142270864288
 21
2480.282781087706
 31
0.0
  0
SPLINE
  5
39B7
102
{ACAD_REACTORS
330
3A85
102
}
330
A
100
AcDbEntity
  8
MODEL
100
AcDbSpline
210
0.0
220
0.0
230
1.0
 70
     8
 71
     3
 72
    11
 73
     7
 74
     0
 42
0.000000001
 43
0.0000000001
 40
0.0
 40
0.0
 40
0.0
 40
0.0
 40
1.0
 40
1.0
 40
1.0
 40
2.0
 40
2.0
 40
2.0
 40
2.0
 10
1573.597543775958
 20
2411.57459649155
 30
0.0
 10
1573.597543775958
 20
2411.57459649155
 30
0.0
 10
1570.681546551718
 20
2410.249241244291
 30
0.0
 10
1570.681546551718
 20
2410.249241244291
 30
0.0
 10
1570.681546551718
 20
2410.249241244291
 30
0.0
 10
1567.699766845717
 20
2408.923885997031
 30
0.0
 10
1567.699766845717
 20
2408.923885997031
 30
0.0
  0
SPLINE
  5
39B8
102
{ACAD_REACTORS
330
3A85
102
}
330
A
100
AcDbEntity
  8
MODEL
100
AcDbSpline
210
0.0
220
0.0
230
1.0
 70
     8
 71
     3
 72
    14
 73
    10
 74
     0
 42
0.000000001
 43
0.0000000001
 40
2.0
 40
2.0
 40
2.0
 40
2.0
 40
3.0
 40
3.0
 40
3.0
 40
4.0
 40
4.0
 40
4.0
 40
5.0
 40
5.0
 40
5.0
 40
5.0
 10
1567.699766845717
 20
2408.923885997031
 30
0.0
 10
1533.718262210727
 20
2395.200150540049
 30
0.0
 10
1479.139291975517
 20
2398.7502477524
 30
0.0
 10
1450.027847793427
 20
2422.70477672505
 30
0.0
 10
1450.027847793427
 20
2422.70477672505
 30
0.0
 10
1447.907710758348
 20
2424.560705431751
 30
0.0
 10
1447.907710758348
 20
2424.560705431751
 30
0.0
 10
1447.907710758348
 20
2424.560705431751
 30
0.0
 10
1445.985999569887
 20
2426.54819910197
 30
0.0
 10
1445.985999569887
 20
2426.54819910197
 30
0.0
  0
SPLINE
  5
39B9
102
{ACAD_REACTORS
330
3A85
102
}
330
A
100
AcDbEntity
  8
MODEL
100
AcDbSpline
210
0.0
220
0.0
230
1.0
 70
     8
 71
     3
 72
    14
 73
    10
 74
     0
 42
0.000000001
 43
0.0000000001
 40
5.0
 40
5.0
 40
5.0
 40
5.0
 40
6.0
 40
6.0
 40
6.0
 40
7.0
 40
7.0
 40
7.0
 40
8.0
 40
8.0
 40
8.0
 40
8.0
 10
1445.985999569887
 20
2426.54819910197
 30
0.0
 10
1429.652532869317
 20
2443.562137048284
 30
0.0
 10
1435.075813209817
 20
2462.584058290285
 30
0.0
 10
1453.871270170347
 20
2474.650290887186
 30
0.0
 10
1453.871270170347
 20
2474.650290887186
 30
0.0
 10
1456.388258898668
 20
2476.240932864167
 30
0.0
 10
1456.388258898668
 20
2476.240932864167
 30
0.0
 10
1456.388258898668
 20
2476.240932864167
 30
0.0
 10
1459.038969393187
 20
2477.764713958047
 30
0.0
 10
1459.038969393187
 20
2477.764713958047
 30
0.0
  0
SPLINE
  5
39BA
102
{ACAD_REACTORS
330
3A85
102
}
330
A
100
AcDbEntity
  8
MODEL
100
AcDbSpline
210
0.0
220
0.0
230
1.0
 70
    24
 71
     3
 72
     8
 73
     4
 74
     0
 42
0.000000001
 43
0.0000000001
 40
0.0
 40
0.0
 40
0.0
 40
0.0
 40
1.0
 40
1.0
 40
1.0
 40
1.0
 10
1467.850586744988
 20
2462.393181253046
 30
0.0
 10
1467.850586744988
 20
2462.393181253046
 30
0.0
 10
1464.140886134268
 20
2460.207261736207
 30
0.0
 10
1464.140886134268
 20
2460.207261736207
 30
0.0
  0
SPLINE
  5
39BB
102
{ACAD_REACTORS
330
3A85
102
}
330
A
100
AcDbEntity
  8
MODEL
100
AcDbSpline
210
0.0
220
0.0
230
1.0
 70
     8
 71
     3
 72
    11
 73
     7
 74
     0
 42
0.000000001
 43
0.0000000001
 40
1.0
 40
1.0
 40
1.0
 40
1.0
 40
2.0
 40
2.0
 40
2.0
 40
3.0
 40
3.0
 40
3.0
 40
3.0
 10
1464.140886134268
 20
2460.207261736207
 30
0.0
 10
1448.480341870067
 20
2450.225578930154
 30
0.0
 10
1442.998827857188
 20
2434.953259148467
 30
0.0
 10
1456.189833052048
 20
2420.05514463187
 30
0.0
 10
1456.189833052048
 20
2420.05514463187
 30
0.0
 10
1458.972108510087
 20
2417.338651655591
 30
0.0
 10
1458.972108510087
 20
2417.338651655591
 30
0.0
  0
SPLINE
  5
39BC
102
{ACAD_REACTORS
330
3A85
102
}
330
A
100
AcDbEntity
  8
MODEL
100
AcDbSpline
210
0.0
220
0.0
230
1.0
 70
    24
 71
     3
 72
     8
 73
     4
 74
     0
 42
0.000000001
 43
0.0000000001
 40
0.0
 40
0.0
 40
0.0
 40
0.0
 40
1.0
 40
1.0
 40
1.0
 40
1.0
 10
1461.092245545168
 20
2474.186578310846
 30
0.0
 10
1461.092245545168
 20
2474.186578310846
 30
0.0
 10
1458.442613451988
 20
2472.729658100066
 30
0.0
 10
1458.442613451988
 20
2472.729658100066
 30
0.0
  0
SPLINE
  5
39BD
102
{ACAD_REACTORS
330
3A85
102
}
330
A
100
AcDbEntity
  8
MODEL
100
AcDbSpline
210
0.0
220
0.0
230
1.0
 70
     8
 71
     3
 72
    11
 73
     7
 74
     0
 42
0.000000001
 43
0.0000000001
 40
1.0
 40
1.0
 40
1.0
 40
1.0
 40
2.0
 40
2.0
 40
2.0
 40
3.0
 40
3.0
 40
3.0
 40
3.0
 10
1458.442613451988
 20
2472.729658100066
 30
0.0
 10
1448.981798493318
 20
2467.173734394711
 30
0.0
 10
1439.840190331377
 20
2458.223003270009
 30
0.0
 10
1439.227658370068
 20
2446.623718453468
 30
0.0
 10
1439.227658370068
 20
2446.623718453468
 30
0.0
 10
1439.161875888307
 20
2444.570442301489
 30
0.0
 10
1439.161875888307
 20
2444.570442301489
 30
0.0
  0
SPLINE
  5
39BE
102
{ACAD_REACTORS
330
3A85
102
}
330
A
100
AcDbEntity
  8
MODEL
100
AcDbSpline
210
0.0
220
0.0
230
1.0
 70
    24
 71
     3
 72
     8
 73
     4
 74
     0
 42
0.000000001
 43
0.0000000001
 40
0.0
 40
0.0
 40
0.0
 40
0.0
 40
1.0
 40
1.0
 40
1.0
 40
1.0
 10
1461.092245545168
 20
2474.186578310846
 30
0.0
 10
1461.092245545168
 20
2474.186578310846
 30
0.0
 10
1461.026463063407
 20
2474.717151770285
 30
0.0
 10
1461.026463063407
 20
2474.717151770285
 30
0.0
  0
SPLINE
  5
39BF
102
{ACAD_REACTORS
330
3A85
102
}
330
A
100
AcDbEntity
  8
MODEL
100
AcDbSpline
210
0.0
220
0.0
230
1.0
 70
     8
 71
     3
 72
    11
 73
     7
 74
     0
 42
0.000000001
 43
0.0000000001
 40
1.0
 40
1.0
 40
1.0
 40
1.0
 40
2.0
 40
2.0
 40
2.0
 40
3.0
 40
3.0
 40
3.0
 40
3.0
 10
1461.026463063407
 20
2474.717151770285
 30
0.0
 10
1460.815096400708
 20
2475.58742165193
 30
0.0
 10
1460.231681275588
 20
2476.948364143419
 30
0.0
 10
1459.435821086427
 20
2477.433644746567
 30
0.0
 10
1459.435821086427
 20
2477.433644746567
 30
0.0
 10
1459.038969393187
 20
2477.764713958047
 30
0.0
 10
1459.038969393187
 20
2477.764713958047
 30
0.0
  0
LINE
  5
39C0
102
{ACAD_REACTORS
330
3A85
102
}
330
A
100
AcDbEntity
  8
MODEL
100
AcDbLine
 10
1572.139545163837
 20
2411.77302233817
 30
0.0
 11
1572.470614375318
 21
2411.83880481993
 31
0.0
  0
LINE
  5
39C1
102
{ACAD_REACTORS
330
3A85
102
}
330
A
100
AcDbEntity
  8
MODEL
100
AcDbLine
 10
1572.470614375318
 20
2411.83880481993
 30
0.0
 11
1572.801683586797
 21
2411.83880481993
 31
0.0
  0
LINE
  5
39C2
102
{ACAD_REACTORS
330
3A85
102
}
330
A
100
AcDbEntity
  8
MODEL
100
AcDbLine
 10
1572.801683586797
 20
2411.83880481993
 30
0.0
 11
1573.199613681378
 21
2411.77302233817
 31
0.0
  0
LINE
  5
39C3
102
{ACAD_REACTORS
330
3A85
102
}
330
A
100
AcDbEntity
  8
MODEL
100
AcDbLine
 10
1573.199613681378
 20
2411.77302233817
 30
0.0
 11
1573.597543775958
 21
2411.57351809021
 31
0.0
  0
SPLINE
  5
39C4
102
{ACAD_REACTORS
330
3A85
102
}
330
A
100
AcDbEntity
  8
MODEL
100
AcDbSpline
210
0.0
220
0.0
230
1.0
 70
    24
 71
     3
 72
     8
 73
     4
 74
     0
 42
0.000000001
 43
0.0000000001
 40
0.0
 40
0.0
 40
0.0
 40
0.0
 40
1.0
 40
1.0
 40
1.0
 40
1.0
 10
1467.850586744988
 20
2462.393181253046
 30
0.0
 10
1467.850586744988
 20
2462.393181253046
 30
0.0
 10
1466.526309899068
 20
2463.254823923968
 30
0.0
 10
1466.526309899068
 20
2463.254823923968
 30
0.0
  0
SPLINE
  5
39C5
102
{ACAD_REACTORS
330
3A85
102
}
330
A
100
AcDbEntity
  8
MODEL
100
AcDbSpline
210
0.0
220
0.0
230
1.0
 70
     8
 71
     3
 72
    11
 73
     7
 74
     0
 42
0.000000001
 43
0.0000000001
 40
1.0
 40
1.0
 40
1.0
 40
1.0
 40
2.0
 40
2.0
 40
2.0
 40
3.0
 40
3.0
 40
3.0
 40
3.0
 10
1466.526309899068
 20
2463.254823923968
 30
0.0
 10
1463.650213524418
 20
2465.730833401354
 30
0.0
 10
1461.861145700818
 20
2468.776238786433
 30
0.0
 10
1461.224888910027
 20
2472.530153852106
 30
0.0
 10
1461.224888910027
 20
2472.530153852106
 30
0.0
 10
1461.092245545168
 20
2474.186578310846
 30
0.0
 10
1461.092245545168
 20
2474.186578310846
 30
0.0
  0
SPLINE
  5
39C6
102
{ACAD_REACTORS
330
3A85
102
}
330
A
100
AcDbEntity
  8
MODEL
100
AcDbSpline
210
0.0
220
0.0
230
1.0
 70
    24
 71
     3
 72
     8
 73
     4
 74
     0
 42
0.000000001
 43
0.0000000001
 40
0.0
 40
0.0
 40
0.0
 40
0.0
 40
1.0
 40
1.0
 40
1.0
 40
1.0
 10
1475.272144769108
 20
2439.799594771889
 30
0.0
 10
1475.272144769108
 20
2439.799594771889
 30
0.0
 10
1472.423008427968
 20
2438.143170313148
 30
0.0
 10
1472.423008427968
 20
2438.143170313148
 30
0.0
  0
SPLINE
  5
39C7
102
{ACAD_REACTORS
330
3A85
102
}
330
A
100
AcDbEntity
  8
MODEL
100
AcDbSpline
210
0.0
220
0.0
230
1.0
 70
     8
 71
     3
 72
    11
 73
     7
 74
     0
 42
0.000000001
 43
0.0000000001
 40
1.0
 40
1.0
 40
1.0
 40
1.0
 40
2.0
 40
2.0
 40
2.0
 40
3.0
 40
3.0
 40
3.0
 40
3.0
 10
1472.423008427968
 20
2438.143170313148
 30
0.0
 10
1468.109403066667
 20
2435.339326828303
 30
0.0
 10
1463.876677805888
 20
2431.079641534016
 30
0.0
 10
1462.948174251868
 20
2425.819199795909
 30
0.0
 10
1462.948174251868
 20
2425.819199795909
 30
0.0
 10
1462.748670003907
 20
2423.500636914211
 30
0.0
 10
1462.748670003907
 20
2423.500636914211
 30
0.0
  0
SPLINE
  5
39C8
102
{ACAD_REACTORS
330
3A85
102
}
330
A
100
AcDbEntity
  8
MODEL
100
AcDbSpline
210
0.0
220
0.0
230
1.0
 70
    24
 71
     3
 72
     8
 73
     4
 74
     0
 42
0.000000001
 43
0.0000000001
 40
0.0
 40
0.0
 40
0.0
 40
0.0
 40
1.0
 40
1.0
 40
1.0
 40
1.0
 10
1469.706515451688
 20
2449.672359042568
 30
0.0
 10
1469.706515451688
 20
2449.672359042568
 30
0.0
 10
1470.832366450987
 20
2448.876498853409
 30
0.0
 10
1470.832366450987
 20
2448.876498853409
 30
0.0
  0
SPLINE
  5
39C9
102
{ACAD_REACTORS
330
3A85
102
}
330
A
100
AcDbEntity
  8
MODEL
100
AcDbSpline
210
0.0
220
0.0
230
1.0
 70
     8
 71
     3
 72
    11
 73
     7
 74
     0
 42
0.000000001
 43
0.0000000001
 40
1.0
 40
1.0
 40
1.0
 40
1.0
 40
2.0
 40
2.0
 40
2.0
 40
3.0
 40
3.0
 40
3.0
 40
3.0
 10
1470.832366450987
 20
2448.876498853409
 30
0.0
 10
1472.872701786888
 20
2447.646042924096
 30
0.0
 10
1475.079110929188
 20
2443.489884158483
 30
0.0
 10
1475.205283886008
 20
2441.124950019148
 30
0.0
 10
1475.205283886008
 20
2441.124950019148
 30
0.0
 10
1475.272144769108
 20
2439.799594771889
 30
0.0
 10
1475.272144769108
 20
2439.799594771889
 30
0.0
  0
LINE
  5
39CA
102
{ACAD_REACTORS
330
3A85
102
}
330
A
100
AcDbEntity
  8
MODEL
100
AcDbLine
 10
1539.076838470807
 20
2407.73117411463
 30
0.0
 11
1538.149413318128
 21
2408.261747574072
 31
0.0
  0
LINE
  5
39CB
102
{ACAD_REACTORS
330
3A85
102
}
330
A
100
AcDbEntity
  8
MODEL
100
AcDbLine
 10
1538.149413318128
 20
2408.261747574072
 30
0.0
 11
1537.156205683687
 21
2408.525955902451
 31
0.0
  0
LINE
  5
39CC
102
{ACAD_REACTORS
330
3A85
102
}
330
A
100
AcDbEntity
  8
MODEL
100
AcDbLine
 10
1537.156205683687
 20
2408.525955902451
 30
0.0
 11
1536.294563012767
 21
2408.525955902451
 31
0.0
  0
LINE
  5
39CD
102
{ACAD_REACTORS
330
3A85
102
}
330
A
100
AcDbEntity
  8
MODEL
100
AcDbLine
 10
1536.294563012767
 20
2408.525955902451
 30
0.0
 11
1535.499781224948
 21
2408.327530055832
 31
0.0
  0
SPLINE
  5
39CE
102
{ACAD_REACTORS
330
3A85
102
}
330
A
100
AcDbEntity
  8
MODEL
100
AcDbSpline
210
0.0
220
0.0
230
1.0
 70
    24
 71
     3
 72
     8
 73
     4
 74
     0
 42
0.000000001
 43
0.0000000001
 40
0.0
 40
0.0
 40
0.0
 40
0.0
 40
1.0
 40
1.0
 40
1.0
 40
1.0
 10
1511.381335248567
 20
2401.76761470263
 30
0.0
 10
1511.381335248567
 20
2401.76761470263
 30
0.0
 10
1515.158975143728
 20
2402.032901432352
 30
0.0
 10
1515.158975143728
 20
2402.032901432352
 30
0.0
  0
SPLINE
  5
39CF
102
{ACAD_REACTORS
330
3A85
102
}
330
A
100
AcDbEntity
  8
MODEL
100
AcDbSpline
210
0.0
220
0.0
230
1.0
 70
     8
 71
     3
 72
    11
 73
     7
 74
     0
 42
0.000000001
 43
0.0000000001
 40
1.0
 40
1.0
 40
1.0
 40
1.0
 40
2.0
 40
2.0
 40
2.0
 40
3.0
 40
3.0
 40
3.0
 40
3.0
 10
1515.158975143728
 20
2402.032901432352
 30
0.0
 10
1522.286129601937
 20
2402.643276590975
 30
0.0
 10
1529.393872836018
 20
2403.993435069064
 30
0.0
 10
1536.096137166147
 20
2406.538462232232
 30
0.0
 10
1536.096137166147
 20
2406.538462232232
 30
0.0
 10
1539.076838470807
 20
2407.73117411463
 30
0.0
 10
1539.076838470807
 20
2407.73117411463
 30
0.0
  0
SPLINE
  5
39D0
102
{ACAD_REACTORS
330
3A85
102
}
330
A
100
AcDbEntity
  8
MODEL
100
AcDbSpline
210
0.0
220
0.0
230
1.0
 70
    24
 71
     3
 72
     8
 73
     4
 74
     0
 42
0.000000001
 43
0.0000000001
 40
0.0
 40
0.0
 40
0.0
 40
0.0
 40
1.0
 40
1.0
 40
1.0
 40
1.0
 10
1469.706515451688
 20
2449.672359042568
 30
0.0
 10
1469.706515451688
 20
2449.672359042568
 30
0.0
 10
1466.857379110547
 20
2447.949073700728
 30
0.0
 10
1466.857379110547
 20
2447.949073700728
 30
0.0
  0
SPLINE
  5
39D1
102
{ACAD_REACTORS
330
3A85
102
}
330
A
100
AcDbEntity
  8
MODEL
100
AcDbSpline
210
0.0
220
0.0
230
1.0
 70
     8
 71
     3
 72
    11
 73
     7
 74
     0
 42
0.000000001
 43
0.0000000001
 40
1.0
 40
1.0
 40
1.0
 40
1.0
 40
2.0
 40
2.0
 40
2.0
 40
3.0
 40
3.0
 40
3.0
 40
3.0
 10
1466.857379110547
 20
2447.949073700728
 30
0.0
 10
1454.655267944767
 20
2440.072430310991
 30
0.0
 10
1450.408523466568
 20
2427.901592784077
 30
0.0
 10
1461.357532274888
 20
2416.675434831291
 30
0.0
 10
1461.357532274888
 20
2416.675434831291
 30
0.0
 10
1463.677173557928
 20
2414.555297796211
 30
0.0
 10
1463.677173557928
 20
2414.555297796211
 30
0.0
  0
LINE
  5
39D2
102
{ACAD_REACTORS
330
3A85
102
}
330
A
100
AcDbEntity
  8
MODEL
100
AcDbLine
 10
1539.076838470807
 20
2407.73117411463
 30
0.0
 11
1539.143699353907
 21
2407.73117411463
 31
0.0
  0
LINE
  5
39D3
102
{ACAD_REACTORS
330
3A85
102
}
330
A
100
AcDbEntity
  8
MODEL
100
AcDbLine
 10
1474.212076251568
 20
2410.249241244291
 30
0.0
 11
1475.272144769108
 21
2411.044023032111
 31
0.0
  0
LINE
  5
39D4
102
{ACAD_REACTORS
330
3A85
102
}
330
A
100
AcDbEntity
  8
MODEL
100
AcDbLine
 10
1475.272144769108
 20
2411.044023032111
 30
0.0
 11
1475.272144769108
 21
2439.799594771889
 31
0.0
  0
LINE
  5
39D5
102
{ACAD_REACTORS
330
3A85
102
}
330
A
100
AcDbEntity
  8
MODEL
100
AcDbLine
 10
1493.160666202428
 20
2421.44628236089
 30
0.0
 11
1485.343334886408
 21
2415.020088773891
 31
0.0
  0
LINE
  5
39D6
102
{ACAD_REACTORS
330
3A85
102
}
330
A
100
AcDbEntity
  8
MODEL
100
AcDbLine
 10
1485.343334886408
 20
2415.020088773891
 30
0.0
 11
1477.458064285948
 21
2408.725460150411
 31
0.0
  0
LINE
  5
39D7
102
{ACAD_REACTORS
330
3A85
102
}
330
A
100
AcDbEntity
  8
MODEL
100
AcDbLine
 10
1475.205283886008
 20
2409.785528667951
 30
0.0
 11
1475.272144769108
 21
2411.044023032111
 31
0.0
  0
SPLINE
  5
39D8
102
{ACAD_REACTORS
330
3A85
102
}
330
A
100
AcDbEntity
  8
MODEL
100
AcDbSpline
210
0.0
220
0.0
230
1.0
 70
     8
 71
     3
 72
    11
 73
     7
 74
     0
 42
0.000000001
 43
0.0000000001
 40
0.0
 40
0.0
 40
0.0
 40
0.0
 40
1.0
 40
1.0
 40
1.0
 40
2.0
 40
2.0
 40
2.0
 40
2.0
 10
1427.168974582548
 20
1888.077606646646
 30
0.0
 10
1427.168974582548
 20
1888.077606646646
 30
0.0
 10
1427.434261312267
 20
1884.301045152827
 30
0.0
 10
1427.434261312267
 20
1884.301045152827
 30
0.0
 10
1427.434261312267
 20
1884.301045152827
 30
0.0
 10
1428.163260618338
 20
1880.524483659006
 30
0.0
 10
1428.163260618338
 20
1880.524483659006
 30
0.0
  0
SPLINE
  5
39D9
102
{ACAD_REACTORS
330
3A85
102
}
330
A
100
AcDbEntity
  8
MODEL
100
AcDbSpline
210
0.0
220
0.0
230
1.0
 70
     8
 71
     3
 72
    14
 73
    10
 74
     0
 42
0.000000001
 43
0.0000000001
 40
2.0
 40
2.0
 40
2.0
 40
2.0
 40
3.0
 40
3.0
 40
3.0
 40
4.0
 40
4.0
 40
4.0
 40
5.0
 40
5.0
 40
5.0
 40
5.0
 10
1428.163260618338
 20
1880.524483659006
 30
0.0
 10
1433.505660858308
 20
1859.972310915085
 30
0.0
 10
1457.213235924017
 20
1847.29785996224
 30
0.0
 10
1476.066926556927
 20
1841.897226049889
 30
0.0
 10
1476.066926556927
 20
1841.897226049889
 30
0.0
 10
1482.030485968928
 20
1840.240801591151
 30
0.0
 10
1482.030485968928
 20
1840.240801591151
 30
0.0
 10
1482.030485968928
 20
1840.240801591151
 30
0.0
 10
1488.191392826208
 20
1838.915446343889
 30
0.0
 10
1488.191392826208
 20
1838.915446343889
 30
0.0
  0
SPLINE
  5
39DA
102
{ACAD_REACTORS
330
3A85
102
}
330
A
100
AcDbEntity
  8
MODEL
100
AcDbSpline
210
0.0
220
0.0
230
1.0
 70
     8
 71
     3
 72
    17
 73
    13
 74
     0
 42
0.000000001
 43
0.0000000001
 40
5.0
 40
5.0
 40
5.0
 40
5.0
 40
6.0
 40
6.0
 40
6.0
 40
7.0
 40
7.0
 40
7.0
 40
8.0
 40
8.0
 40
8.0
 40
9.0
 40
9.0
 40
9.0
 40
9.0
 10
1488.191392826208
 20
1838.915446343889
 30
0.0
 10
1514.516247944887
 20
1833.728335896924
 30
0.0
 10
1544.699623059258
 20
1835.598283821048
 30
0.0
 10
1569.621478034178
 20
1845.872213390328
 30
0.0
 10
1569.621478034178
 20
1845.872213390328
 30
0.0
 10
1574.856038140117
 20
1848.19185467337
 30
0.0
 10
1574.856038140117
 20
1848.19185467337
 30
0.0
 10
1574.856038140117
 20
1848.19185467337
 30
0.0
 10
1579.759529034577
 20
1850.708843401689
 30
0.0
 10
1579.759529034577
 20
1850.708843401689
 30
0.0
 10
1579.759529034577
 20
1850.708843401689
 30
0.0
 10
1579.759529034577
 20
2405.345750349831
 30
0.0
 10
1579.759529034577
 20
2405.345750349831
 30
0.0
  0
LINE
  5
39DB
102
{ACAD_REACTORS
330
3A85
102
}
330
A
100
AcDbEntity
  8
MODEL
100
AcDbLine
 10
1579.759529034577
 20
1850.708843401689
 30
0.0
 11
1579.692668151478
 21
1850.31199170845
 31
0.0
  0
LINE
  5
39DC
102
{ACAD_REACTORS
330
3A85
102
}
330
A
100
AcDbEntity
  8
MODEL
100
AcDbLine
 10
1579.692668151478
 20
1850.31199170845
 30
0.0
 11
1579.626885669728
 21
1849.979844095628
 31
0.0
  0
LINE
  5
39DD
102
{ACAD_REACTORS
330
3A85
102
}
330
A
100
AcDbEntity
  8
MODEL
100
AcDbLine
 10
1579.626885669728
 20
1849.979844095628
 30
0.0
 11
1579.494242304858
 21
1849.715635767248
 31
0.0
  0
LINE
  5
39DE
102
{ACAD_REACTORS
330
3A85
102
}
330
A
100
AcDbEntity
  8
MODEL
100
AcDbLine
 10
1579.494242304858
 20
1849.715635767248
 30
0.0
 11
1579.361598939997
 21
1849.51613151929
 31
0.0
  0
LINE
  5
39DF
102
{ACAD_REACTORS
330
3A85
102
}
330
A
100
AcDbEntity
  8
MODEL
100
AcDbLine
 10
1579.361598939997
 20
1849.51613151929
 30
0.0
 11
1579.096312210288
 21
1849.317705672669
 31
0.0
  0
LINE
  5
39E0
102
{ACAD_REACTORS
330
3A85
102
}
330
A
100
AcDbEntity
  8
MODEL
100
AcDbLine
 10
1623.753990114498
 20
2437.281527642228
 30
0.0
 11
1613.284869902617
 21
2443.310869535988
 31
0.0
  0
LINE
  5
39E1
102
{ACAD_REACTORS
330
3A85
102
}
330
A
100
AcDbEntity
  8
MODEL
100
AcDbLine
 10
1609.508308408797
 20
2443.841442995427
 30
0.0
 11
1610.303090196618
 21
2444.106729725147
 31
0.0
  0
LINE
  5
39E2
102
{ACAD_REACTORS
330
3A85
102
}
330
A
100
AcDbEntity
  8
MODEL
100
AcDbLine
 10
1610.303090196618
 20
2444.106729725147
 30
0.0
 11
1611.231593750638
 21
2444.106729725147
 31
0.0
  0
LINE
  5
39E3
102
{ACAD_REACTORS
330
3A85
102
}
330
A
100
AcDbEntity
  8
MODEL
100
AcDbLine
 10
1611.231593750638
 20
2444.106729725147
 30
0.0
 11
1612.224801385077
 21
2443.841442995427
 31
0.0
  0
LINE
  5
39E4
102
{ACAD_REACTORS
330
3A85
102
}
330
A
100
AcDbEntity
  8
MODEL
100
AcDbLine
 10
1612.224801385077
 20
2443.841442995427
 30
0.0
 11
1613.284869902617
 21
2443.310869535988
 31
0.0
  0
LINE
  5
39E5
102
{ACAD_REACTORS
330
3A85
102
}
330
A
100
AcDbEntity
  8
MODEL
100
AcDbLine
 10
1643.431579371418
 20
1886.222756341287
 30
0.0
 11
1643.431579371418
 21
1885.825904648047
 31
0.0
  0
LINE
  5
39E6
102
{ACAD_REACTORS
330
3A85
102
}
330
A
100
AcDbEntity
  8
MODEL
100
AcDbLine
 10
1643.431579371418
 20
1885.825904648047
 30
0.0
 11
1643.365796889657
 21
1885.493757035228
 31
0.0
  0
LINE
  5
39E7
102
{ACAD_REACTORS
330
3A85
102
}
330
A
100
AcDbEntity
  8
MODEL
100
AcDbLine
 10
1643.365796889657
 20
1885.493757035228
 30
0.0
 11
1643.233153524798
 21
1885.229548706846
 31
0.0
  0
LINE
  5
39E8
102
{ACAD_REACTORS
330
3A85
102
}
330
A
100
AcDbEntity
  8
MODEL
100
AcDbLine
 10
1643.233153524798
 20
1885.229548706846
 30
0.0
 11
1642.835223430217
 21
1884.831618612267
 31
0.0
  0
SPLINE
  5
39E9
102
{ACAD_REACTORS
330
3A85
102
}
330
A
100
AcDbEntity
  8
MODEL
100
AcDbSpline
210
0.0
220
0.0
230
1.0
 70
    24
 71
     3
 72
     8
 73
     4
 74
     0
 42
0.000000001
 43
0.0000000001
 40
0.0
 40
0.0
 40
0.0
 40
0.0
 40
1.0
 40
1.0
 40
1.0
 40
1.0
 10
1643.431579371418
 20
1886.222756341287
 30
0.0
 10
1643.431579371418
 20
1886.222756341287
 30
0.0
 10
1643.431579371418
 20
2436.817815065889
 30
0.0
 10
1643.431579371418
 20
2436.817815065889
 30
0.0
  0
SPLINE
  5
39EA
102
{ACAD_REACTORS
330
3A85
102
}
330
A
100
AcDbEntity
  8
MODEL
100
AcDbSpline
210
0.0
220
0.0
230
1.0
 70
     8
 71
     3
 72
    11
 73
     7
 74
     0
 42
0.000000001
 43
0.0000000001
 40
1.0
 40
1.0
 40
1.0
 40
1.0
 40
2.0
 40
2.0
 40
2.0
 40
3.0
 40
3.0
 40
3.0
 40
3.0
 10
1643.431579371418
 20
2436.817815065889
 30
0.0
 10
1643.537262702767
 20
2438.271500072648
 30
0.0
 10
1642.642189590297
 20
2439.745674704873
 30
0.0
 10
1641.510946584298
 20
2440.594376559709
 30
0.0
 10
1641.510946584298
 20
2440.594376559709
 30
0.0
 10
1637.203811631038
 20
2443.046661207608
 30
0.0
 10
1637.203811631038
 20
2443.046661207608
 30
0.0
  0
LINE
  5
39EB
102
{ACAD_REACTORS
330
3A85
102
}
330
A
100
AcDbEntity
  8
MODEL
100
AcDbLine
 10
1635.812673902018
 20
2443.245087054228
 30
0.0
 11
1636.143743113497
 21
2443.310869535988
 31
0.0
  0
LINE
  5
39EC
102
{ACAD_REACTORS
330
3A85
102
}
330
A
100
AcDbEntity
  8
MODEL
100
AcDbLine
 10
1636.143743113497
 20
2443.310869535988
 30
0.0
 11
1636.474812324978
 21
2443.310869535988
 31
0.0
  0
LINE
  5
39ED
102
{ACAD_REACTORS
330
3A85
102
}
330
A
100
AcDbEntity
  8
MODEL
100
AcDbLine
 10
1636.474812324978
 20
2443.310869535988
 30
0.0
 11
1636.872742419557
 21
2443.245087054228
 31
0.0
  0
LINE
  5
39EE
102
{ACAD_REACTORS
330
3A85
102
}
330
A
100
AcDbEntity
  8
MODEL
100
AcDbLine
 10
1636.872742419557
 20
2443.245087054228
 30
0.0
 11
1637.203811631038
 21
2443.046661207608
 31
0.0
  0
LINE
  5
39EF
102
{ACAD_REACTORS
330
3A85
102
}
330
A
100
AcDbEntity
  8
MODEL
100
AcDbLine
 10
1539.143699353907
 20
2407.73117411463
 30
0.0
 11
1613.284869902617
 21
2443.310869535988
 31
0.0
  0
LINE
  5
39F0
102
{ACAD_REACTORS
330
3A85
102
}
330
A
100
AcDbEntity
  8
MODEL
100
AcDbLine
 10
1579.759529034577
 20
1850.708843401689
 30
0.0
 11
1643.431579371418
 21
1886.222756341287
 31
0.0
  0
LINE
  5
39F1
102
{ACAD_REACTORS
330
3A85
102
}
330
A
100
AcDbEntity
  8
MODEL
100
AcDbLine
 10
1643.431579371418
 20
2436.817815065889
 30
0.0
 11
1579.759529034577
 21
2405.345750349831
 31
0.0
  0
LINE
  5
39F2
102
{ACAD_REACTORS
330
3A85
102
}
330
A
100
AcDbEntity
  8
MODEL
100
AcDbLine
 10
1643.431579371418
 20
1886.222756341287
 30
0.0
 11
1643.763726984237
 21
1886.422260589246
 31
0.0
  0
LINE
  5
39F3
102
{ACAD_REACTORS
330
3A85
102
}
330
A
100
AcDbEntity
  8
MODEL
100
AcDbLine
 10
1643.763726984237
 20
1886.422260589246
 30
0.0
 11
1644.027935312618
 21
1886.686468917625
 31
0.0
  0
LINE
  5
39F4
102
{ACAD_REACTORS
330
3A85
102
}
330
A
100
AcDbEntity
  8
MODEL
100
AcDbLine
 10
1644.027935312618
 20
1886.686468917625
 30
0.0
 11
1644.227439560577
 21
1886.951755647347
 31
0.0
  0
LINE
  5
39F5
102
{ACAD_REACTORS
330
3A85
102
}
330
A
100
AcDbEntity
  8
MODEL
100
AcDbLine
 10
1644.227439560577
 20
1886.951755647347
 30
0.0
 11
1644.360082925438
 21
1887.482329106786
 31
0.0
  0
LINE
  5
39F6
102
{ACAD_REACTORS
330
3A85
102
}
330
A
100
AcDbEntity
  8
MODEL
100
AcDbLine
 10
1641.510946584298
 20
2440.594376559709
 30
0.0
 11
1577.770956963017
 21
2409.056529361891
 31
0.0
  0
LINE
  5
39F7
102
{ACAD_REACTORS
330
3A85
102
}
330
A
100
AcDbEntity
  8
MODEL
100
AcDbLine
 10
1643.431579371418
 20
2436.817815065889
 30
0.0
 11
1643.763726984237
 21
2437.017319313848
 31
0.0
  0
LINE
  5
39F8
102
{ACAD_REACTORS
330
3A85
102
}
330
A
100
AcDbEntity
  8
MODEL
100
AcDbLine
 10
1643.763726984237
 20
2437.017319313848
 30
0.0
 11
1644.027935312618
 21
2437.281527642228
 31
0.0
  0
LINE
  5
39F9
102
{ACAD_REACTORS
330
3A85
102
}
330
A
100
AcDbEntity
  8
MODEL
100
AcDbLine
 10
1644.027935312618
 20
2437.281527642228
 30
0.0
 11
1644.227439560577
 21
2437.546814371949
 31
0.0
  0
LINE
  5
39FA
102
{ACAD_REACTORS
330
3A85
102
}
330
A
100
AcDbEntity
  8
MODEL
100
AcDbLine
 10
1644.227439560577
 20
2437.546814371949
 30
0.0
 11
1644.360082925438
 21
2438.077387831388
 31
0.0
  0
LINE
  5
39FB
102
{ACAD_REACTORS
330
3A85
102
}
330
A
100
AcDbEntity
  8
MODEL
100
AcDbLine
 10
1642.835223430217
 20
2440.66123744281
 30
0.0
 11
1642.571015101838
 21
2440.79388080767
 31
0.0
  0
LINE
  5
39FC
102
{ACAD_REACTORS
330
3A85
102
}
330
A
100
AcDbEntity
  8
MODEL
100
AcDbLine
 10
1642.571015101838
 20
2440.79388080767
 30
0.0
 11
1642.238867489018
 21
2440.79388080767
 31
0.0
  0
LINE
  5
39FD
102
{ACAD_REACTORS
330
3A85
102
}
330
A
100
AcDbEntity
  8
MODEL
100
AcDbLine
 10
1642.238867489018
 20
2440.79388080767
 30
0.0
 11
1641.842015795778
 21
2440.727019924569
 31
0.0
  0
LINE
  5
39FE
102
{ACAD_REACTORS
330
3A85
102
}
330
A
100
AcDbEntity
  8
MODEL
100
AcDbLine
 10
1641.842015795778
 20
2440.727019924569
 30
0.0
 11
1641.510946584298
 21
2440.594376559709
 31
0.0
  0
LINE
  5
39FF
102
{ACAD_REACTORS
330
3A85
102
}
330
A
100
AcDbEntity
  8
MODEL
100
AcDbLine
 10
1637.203811631038
 20
2443.046661207608
 30
0.0
 11
1573.597543775958
 21
2411.57459649155
 31
0.0
  0
LINE
  5
3A00
102
{ACAD_REACTORS
330
3A85
102
}
330
A
100
AcDbEntity
  8
MODEL
100
AcDbLine
 10
1616.928788031577
 20
2443.576156265709
 30
0.0
 11
1616.134006243758
 21
2443.841442995427
 31
0.0
  0
LINE
  5
3A01
102
{ACAD_REACTORS
330
3A85
102
}
330
A
100
AcDbEntity
  8
MODEL
100
AcDbLine
 10
1616.134006243758
 20
2443.841442995427
 30
0.0
 11
1615.272363572837
 21
2443.907225477189
 31
0.0
  0
LINE
  5
3A02
102
{ACAD_REACTORS
330
3A85
102
}
330
A
100
AcDbEntity
  8
MODEL
100
AcDbLine
 10
1615.272363572837
 20
2443.907225477189
 30
0.0
 11
1614.279155938397
 21
2443.774582112329
 31
0.0
  0
LINE
  5
3A03
102
{ACAD_REACTORS
330
3A85
102
}
330
A
100
AcDbEntity
  8
MODEL
100
AcDbLine
 10
1614.279155938397
 20
2443.774582112329
 30
0.0
 11
1613.284869902617
 21
2443.310869535988
 31
0.0
  0
LINE
  5
3A04
102
{ACAD_REACTORS
330
3A85
102
}
330
A
100
AcDbEntity
  8
MODEL
100
AcDbLine
 10
1638.594949360057
 20
2443.112443689368
 30
0.0
 11
1638.329662630337
 21
2443.245087054228
 31
0.0
  0
LINE
  5
3A05
102
{ACAD_REACTORS
330
3A85
102
}
330
A
100
AcDbEntity
  8
MODEL
100
AcDbLine
 10
1638.329662630337
 20
2443.245087054228
 30
0.0
 11
1637.998593418858
 21
2443.245087054228
 31
0.0
  0
LINE
  5
3A06
102
{ACAD_REACTORS
330
3A85
102
}
330
A
100
AcDbEntity
  8
MODEL
100
AcDbLine
 10
1637.998593418858
 20
2443.245087054228
 30
0.0
 11
1637.601741725618
 21
2443.179304572468
 31
0.0
  0
LINE
  5
3A07
102
{ACAD_REACTORS
330
3A85
102
}
330
A
100
AcDbEntity
  8
MODEL
100
AcDbLine
 10
1637.601741725618
 20
2443.179304572468
 30
0.0
 11
1637.203811631038
 21
2443.046661207608
 31
0.0
  0
SPLINE
  5
3A08
102
{ACAD_REACTORS
330
3A85
102
}
330
A
100
AcDbEntity
  8
MODEL
100
AcDbSpline
210
0.0
220
0.0
230
1.0
 70
    24
 71
     3
 72
     8
 73
     4
 74
     0
 42
0.000000001
 43
0.0000000001
 40
0.0
 40
0.0
 40
0.0
 40
0.0
 40
1.0
 40
1.0
 40
1.0
 40
1.0
 10
1526.356016260327
 20
2493.534176757626
 30
0.0
 10
1526.356016260327
 20
2493.534176757626
 30
0.0
 10
1525.561234472507
 20
2494.461601910305
 30
0.0
 10
1525.561234472507
 20
2494.461601910305
 30
0.0
  0
SPLINE
  5
3A09
102
{ACAD_REACTORS
330
3A85
102
}
330
A
100
AcDbEntity
  8
MODEL
100
AcDbSpline
210
0.0
220
0.0
230
1.0
 70
     8
 71
     3
 72
    11
 73
     7
 74
     0
 42
0.000000001
 43
0.0000000001
 40
1.0
 40
1.0
 40
1.0
 40
1.0
 40
2.0
 40
2.0
 40
2.0
 40
3.0
 40
3.0
 40
3.0
 40
3.0
 10
1525.561234472507
 20
2494.461601910305
 30
0.0
 10
1523.603936039807
 20
2497.227701348239
 30
0.0
 10
1522.283972799258
 20
2501.428074568807
 30
0.0
 10
1522.314168036787
 20
2504.798078757325
 30
0.0
 10
1522.314168036787
 20
2504.798078757325
 30
0.0
 10
1522.512593883407
 20
2506.918215792405
 30
0.0
 10
1522.512593883407
 20
2506.918215792405
 30
0.0
  0
LINE
  5
3A0A
102
{ACAD_REACTORS
330
3A85
102
}
330
A
100
AcDbEntity
  8
MODEL
100
AcDbLine
 10
1537.752561624888
 20
2486.908478922665
 30
0.0
 11
1526.356016260327
 21
2493.534176757626
 31
0.0
  0
SPLINE
  5
3A0B
102
{ACAD_REACTORS
330
3A85
102
}
330
A
100
AcDbEntity
  8
MODEL
100
AcDbSpline
210
0.0
220
0.0
230
1.0
 70
    24
 71
     3
 72
     8
 73
     4
 74
     0
 42
0.000000001
 43
0.0000000001
 40
0.0
 40
0.0
 40
0.0
 40
0.0
 40
1.0
 40
1.0
 40
1.0
 40
1.0
 10
1543.251330059197
 20
2477.035714651985
 30
0.0
 10
1543.251330059197
 20
2477.035714651985
 30
0.0
 10
1543.185547577447
 20
2478.427930782345
 30
0.0
 10
1543.185547577447
 20
2478.427930782345
 30
0.0
  0
SPLINE
  5
3A0C
102
{ACAD_REACTORS
330
3A85
102
}
330
A
100
AcDbEntity
  8
MODEL
100
AcDbSpline
210
0.0
220
0.0
230
1.0
 70
     8
 71
     3
 72
    11
 73
     7
 74
     0
 42
0.000000001
 43
0.0000000001
 40
1.0
 40
1.0
 40
1.0
 40
1.0
 40
2.0
 40
2.0
 40
2.0
 40
3.0
 40
3.0
 40
3.0
 40
3.0
 10
1543.185547577447
 20
2478.427930782345
 30
0.0
 10
1542.784382278848
 20
2481.627547559091
 30
0.0
 10
1541.330697272088
 20
2484.111105845861
 30
0.0
 10
1538.878412624187
 20
2486.179479616605
 30
0.0
 10
1538.878412624187
 20
2486.179479616605
 30
0.0
 10
1537.752561624888
 20
2486.908478922665
 30
0.0
 10
1537.752561624888
 20
2486.908478922665
 30
0.0
  0
LINE
  5
3A0D
102
{ACAD_REACTORS
330
3A85
102
}
330
A
100
AcDbEntity
  8
MODEL
100
AcDbLine
 10
1543.251330059197
 20
2459.941975006488
 30
0.0
 11
1543.251330059197
 21
2477.035714651985
 31
0.0
  0
LINE
  5
3A0E
102
{ACAD_REACTORS
330
3A85
102
}
330
A
100
AcDbEntity
  8
MODEL
100
AcDbLine
 10
1542.125479059907
 20
2456.562265205906
 30
0.0
 11
1542.654974118008
 21
2457.158621147108
 31
0.0
  0
LINE
  5
3A0F
102
{ACAD_REACTORS
330
3A85
102
}
330
A
100
AcDbEntity
  8
MODEL
100
AcDbLine
 10
1542.654974118008
 20
2457.158621147108
 30
0.0
 11
1543.052904212588
 21
2457.887620453168
 31
0.0
  0
LINE
  5
3A10
102
{ACAD_REACTORS
330
3A85
102
}
330
A
100
AcDbEntity
  8
MODEL
100
AcDbLine
 10
1543.052904212588
 20
2457.887620453168
 30
0.0
 11
1543.251330059197
 21
2458.815045605847
 31
0.0
  0
LINE
  5
3A11
102
{ACAD_REACTORS
330
3A85
102
}
330
A
100
AcDbEntity
  8
MODEL
100
AcDbLine
 10
1543.251330059197
 20
2458.815045605847
 30
0.0
 11
1543.251330059197
 21
2459.941975006488
 31
0.0
  0
LINE
  5
3A12
102
{ACAD_REACTORS
330
3A85
102
}
330
A
100
AcDbEntity
  8
MODEL
100
AcDbLine
 10
1529.403578448077
 20
2447.419578642628
 30
0.0
 11
1529.403578448077
 21
2406.074749655892
 31
0.0
  0
LINE
  5
3A13
102
{ACAD_REACTORS
330
3A85
102
}
330
A
100
AcDbEntity
  8
MODEL
100
AcDbLine
 10
1514.694184166047
 20
2513.013340167924
 30
0.0
 11
1515.026331778867
 21
2513.145983532784
 31
0.0
  0
LINE
  5
3A14
102
{ACAD_REACTORS
330
3A85
102
}
330
A
100
AcDbEntity
  8
MODEL
100
AcDbLine
 10
1515.026331778867
 20
2513.145983532784
 30
0.0
 11
1515.423183472107
 21
2513.145983532784
 31
0.0
  0
LINE
  5
3A15
102
{ACAD_REACTORS
330
3A85
102
}
330
A
100
AcDbEntity
  8
MODEL
100
AcDbLine
 10
1515.423183472107
 20
2513.145983532784
 30
0.0
 11
1515.821113566688
 21
2513.080201051023
 31
0.0
  0
LINE
  5
3A16
102
{ACAD_REACTORS
330
3A85
102
}
330
A
100
AcDbEntity
  8
MODEL
100
AcDbLine
 10
1515.821113566688
 20
2513.080201051023
 30
0.0
 11
1516.219043661268
 21
2512.880696803064
 31
0.0
  0
LINE
  5
3A17
102
{ACAD_REACTORS
330
3A85
102
}
330
A
100
AcDbEntity
  8
MODEL
100
AcDbLine
 10
1516.219043661268
 20
2512.880696803064
 30
0.0
 11
1520.459317731428
 21
2510.429490556503
 31
0.0
  0
SPLINE
  5
3A18
102
{ACAD_REACTORS
330
3A85
102
}
330
A
100
AcDbEntity
  8
MODEL
100
AcDbSpline
210
0.0
220
0.0
230
1.0
 70
    24
 71
     3
 72
     8
 73
     4
 74
     0
 42
0.000000001
 43
0.0000000001
 40
0.0
 40
0.0
 40
0.0
 40
0.0
 40
1.0
 40
1.0
 40
1.0
 40
1.0
 10
1522.512593883407
 20
2506.918215792405
 30
0.0
 10
1522.512593883407
 20
2506.918215792405
 30
0.0
 10
1522.446811401648
 20
2507.381928368744
 30
0.0
 10
1522.446811401648
 20
2507.381928368744
 30
0.0
  0
SPLINE
  5
3A19
102
{ACAD_REACTORS
330
3A85
102
}
330
A
100
AcDbEntity
  8
MODEL
100
AcDbSpline
210
0.0
220
0.0
230
1.0
 70
     8
 71
     3
 72
    11
 73
     7
 74
     0
 42
0.000000001
 43
0.0000000001
 40
1.0
 40
1.0
 40
1.0
 40
1.0
 40
2.0
 40
2.0
 40
2.0
 40
3.0
 40
3.0
 40
3.0
 40
3.0
 10
1522.446811401648
 20
2507.381928368744
 30
0.0
 10
1522.470536231127
 20
2508.280236685236
 30
0.0
 10
1521.593795941448
 20
2509.672452815596
 30
0.0
 10
1520.856169424668
 20
2510.164203826784
 30
0.0
 10
1520.856169424668
 20
2510.164203826784
 30
0.0
 10
1520.459317731428
 20
2510.429490556503
 30
0.0
 10
1520.459317731428
 20
2510.429490556503
 30
0.0
  0
LINE
  5
3A1A
102
{ACAD_REACTORS
330
3A85
102
}
330
A
100
AcDbEntity
  8
MODEL
100
AcDbLine
 10
1526.356016260327
 20
2493.534176757626
 30
0.0
 11
1467.850586744988
 21
2462.393181253046
 31
0.0
  0
LINE
  5
3A1B
102
{ACAD_REACTORS
330
3A85
102
}
330
A
100
AcDbEntity
  8
MODEL
100
AcDbLine
 10
1522.512593883407
 20
2506.918215792405
 30
0.0
 11
1461.092245545168
 21
2474.186578310846
 31
0.0
  0
LINE
  5
3A1C
102
{ACAD_REACTORS
330
3A85
102
}
330
A
100
AcDbEntity
  8
MODEL
100
AcDbLine
 10
1526.356016260327
 20
2493.534176757626
 30
0.0
 11
1527.349223894768
 21
2493.931028450865
 31
0.0
  0
LINE
  5
3A1D
102
{ACAD_REACTORS
330
3A85
102
}
330
A
100
AcDbEntity
  8
MODEL
100
AcDbLine
 10
1527.349223894768
 20
2493.931028450865
 30
0.0
 11
1528.343509930548
 21
2494.130532698824
 31
0.0
  0
LINE
  5
3A1E
102
{ACAD_REACTORS
330
3A85
102
}
330
A
100
AcDbEntity
  8
MODEL
100
AcDbLine
 10
1528.343509930548
 20
2494.130532698824
 30
0.0
 11
1529.270935083227
 21
2494.063671815726
 31
0.0
  0
LINE
  5
3A1F
102
{ACAD_REACTORS
330
3A85
102
}
330
A
100
AcDbEntity
  8
MODEL
100
AcDbLine
 10
1529.270935083227
 20
2494.063671815726
 30
0.0
 11
1530.066795272387
 21
2493.732602604246
 31
0.0
  0
LINE
  5
3A20
102
{ACAD_REACTORS
330
3A85
102
}
330
A
100
AcDbEntity
  8
MODEL
100
AcDbLine
 10
1537.752561624888
 20
2486.908478922665
 30
0.0
 11
1469.706515451688
 21
2449.671280641227
 31
0.0
  0
LINE
  5
3A21
102
{ACAD_REACTORS
330
3A85
102
}
330
A
100
AcDbEntity
  8
MODEL
100
AcDbLine
 10
1475.272144769108
 20
2439.799594771889
 30
0.0
 11
1543.251330059197
 21
2477.035714651985
 31
0.0
  0
LINE
  5
3A22
102
{ACAD_REACTORS
330
3A85
102
}
330
A
100
AcDbEntity
  8
MODEL
100
AcDbLine
 10
1543.251330059197
 20
2477.035714651985
 30
0.0
 11
1544.178755211888
 21
2477.764713958047
 31
0.0
  0
LINE
  5
3A23
102
{ACAD_REACTORS
330
3A85
102
}
330
A
100
AcDbEntity
  8
MODEL
100
AcDbLine
 10
1544.178755211888
 20
2477.764713958047
 30
0.0
 11
1544.841972036188
 21
2478.493713264106
 31
0.0
  0
LINE
  5
3A24
102
{ACAD_REACTORS
330
3A85
102
}
330
A
100
AcDbEntity
  8
MODEL
100
AcDbLine
 10
1544.841972036188
 20
2478.493713264106
 30
0.0
 11
1545.305684612528
 21
2479.355355935027
 31
0.0
  0
LINE
  5
3A25
102
{ACAD_REACTORS
330
3A85
102
}
330
A
100
AcDbEntity
  8
MODEL
100
AcDbLine
 10
1545.305684612528
 20
2479.355355935027
 30
0.0
 11
1545.438327977387
 21
2480.215920204605
 31
0.0
  0
LINE
  5
3A26
102
{ACAD_REACTORS
330
3A85
102
}
330
A
100
AcDbEntity
  8
MODEL
100
AcDbLine
 10
1475.272144769108
 20
2411.044023032111
 30
0.0
 11
1543.251330059197
 21
2459.941975006488
 31
0.0
  0
LINE
  5
3A27
102
{ACAD_REACTORS
330
3A85
102
}
330
A
100
AcDbEntity
  8
MODEL
100
AcDbLine
 10
1543.251330059197
 20
2459.941975006488
 30
0.0
 11
1544.178755211888
 21
2460.604113429446
 31
0.0
  0
LINE
  5
3A28
102
{ACAD_REACTORS
330
3A85
102
}
330
A
100
AcDbEntity
  8
MODEL
100
AcDbLine
 10
1544.178755211888
 20
2460.604113429446
 30
0.0
 11
1544.841972036188
 21
2461.398895217268
 31
0.0
  0
LINE
  5
3A29
102
{ACAD_REACTORS
330
3A85
102
}
330
A
100
AcDbEntity
  8
MODEL
100
AcDbLine
 10
1544.841972036188
 20
2461.398895217268
 30
0.0
 11
1545.305684612528
 21
2462.194755406428
 31
0.0
  0
LINE
  5
3A2A
102
{ACAD_REACTORS
330
3A85
102
}
330
A
100
AcDbEntity
  8
MODEL
100
AcDbLine
 10
1545.305684612528
 20
2462.194755406428
 30
0.0
 11
1545.438327977387
 21
2463.055319676007
 31
0.0
  0
LINE
  5
3A2B
102
{ACAD_REACTORS
330
3A85
102
}
330
A
100
AcDbEntity
  8
MODEL
100
AcDbLine
 10
1454.731834439927
 20
2480.150137722846
 30
0.0
 11
1516.219043661268
 21
2512.880696803064
 31
0.0
  0
LINE
  5
3A2C
102
{ACAD_REACTORS
330
3A85
102
}
330
A
100
AcDbEntity
  8
MODEL
100
AcDbLine
 10
1517.610181390288
 20
2513.013340167924
 30
0.0
 11
1517.279112178807
 21
2513.080201051023
 31
0.0
  0
LINE
  5
3A2D
102
{ACAD_REACTORS
330
3A85
102
}
330
A
100
AcDbEntity
  8
MODEL
100
AcDbLine
 10
1517.279112178807
 20
2513.080201051023
 30
0.0
 11
1516.946964565987
 21
2513.145983532784
 31
0.0
  0
LINE
  5
3A2E
102
{ACAD_REACTORS
330
3A85
102
}
330
A
100
AcDbEntity
  8
MODEL
100
AcDbLine
 10
1516.946964565987
 20
2513.145983532784
 30
0.0
 11
1516.615895354508
 21
2513.080201051023
 31
0.0
  0
LINE
  5
3A2F
102
{ACAD_REACTORS
330
3A85
102
}
330
A
100
AcDbEntity
  8
MODEL
100
AcDbLine
 10
1516.615895354508
 20
2513.080201051023
 30
0.0
 11
1516.219043661268
 21
2512.880696803064
 31
0.0
  0
LINE
  5
3A30
102
{ACAD_REACTORS
330
3A85
102
}
330
A
100
AcDbEntity
  8
MODEL
100
AcDbLine
 10
1459.038969393187
 20
2477.764713958047
 30
0.0
 11
1520.459317731428
 21
2510.429490556503
 31
0.0
  0
LINE
  5
3A31
102
{ACAD_REACTORS
330
3A85
102
}
330
A
100
AcDbEntity
  8
MODEL
100
AcDbLine
 10
1522.512593883407
 20
2506.918215792405
 30
0.0
 11
1522.844741496227
 21
2507.116641639023
 31
0.0
  0
LINE
  5
3A32
102
{ACAD_REACTORS
330
3A85
102
}
330
A
100
AcDbEntity
  8
MODEL
100
AcDbLine
 10
1522.844741496227
 20
2507.116641639023
 30
0.0
 11
1523.043167342847
 21
2507.381928368744
 31
0.0
  0
LINE
  5
3A33
102
{ACAD_REACTORS
330
3A85
102
}
330
A
100
AcDbEntity
  8
MODEL
100
AcDbLine
 10
1523.043167342847
 20
2507.381928368744
 30
0.0
 11
1523.241593189467
 21
2507.580354215364
 31
0.0
  0
LINE
  5
3A34
102
{ACAD_REACTORS
330
3A85
102
}
330
A
100
AcDbEntity
  8
MODEL
100
AcDbLine
 10
1523.241593189467
 20
2507.580354215364
 30
0.0
 11
1523.374236554328
 21
2508.110927674803
 31
0.0
  0
LINE
  5
3A35
102
{ACAD_REACTORS
330
3A85
102
}
330
A
100
AcDbEntity
  8
MODEL
100
AcDbLine
 10
1541.462262235597
 20
2487.173765652386
 30
0.0
 11
1540.667480447787
 21
2487.437973980765
 31
0.0
  0
LINE
  5
3A36
102
{ACAD_REACTORS
330
3A85
102
}
330
A
100
AcDbEntity
  8
MODEL
100
AcDbLine
 10
1540.667480447787
 20
2487.437973980765
 30
0.0
 11
1539.740055295108
 21
2487.504834863866
 31
0.0
  0
LINE
  5
3A37
102
{ACAD_REACTORS
330
3A85
102
}
330
A
100
AcDbEntity
  8
MODEL
100
AcDbLine
 10
1539.740055295108
 20
2487.504834863866
 30
0.0
 11
1538.745769259328
 21
2487.372191499006
 31
0.0
  0
LINE
  5
3A38
102
{ACAD_REACTORS
330
3A85
102
}
330
A
100
AcDbEntity
  8
MODEL
100
AcDbLine
 10
1538.745769259328
 20
2487.372191499006
 30
0.0
 11
1537.752561624888
 21
2486.908478922665
 31
0.0
  0
LINE
  5
3A39
102
{ACAD_REACTORS
330
3A85
102
}
330
A
100
AcDbEntity
  8
MODEL
100
AcDbLine
 10
1521.850455460448
 20
2510.562133921364
 30
0.0
 11
1521.585168730728
 21
2510.627916403123
 31
0.0
  0
LINE
  5
3A3A
102
{ACAD_REACTORS
330
3A85
102
}
330
A
100
AcDbEntity
  8
MODEL
100
AcDbLine
 10
1521.585168730728
 20
2510.627916403123
 30
0.0
 11
1521.188317037488
 21
2510.694777286224
 31
0.0
  0
LINE
  5
3A3B
102
{ACAD_REACTORS
330
3A85
102
}
330
A
100
AcDbEntity
  8
MODEL
100
AcDbLine
 10
1521.188317037488
 20
2510.694777286224
 30
0.0
 11
1520.856169424668
 21
2510.627916403123
 31
0.0
  0
LINE
  5
3A3C
102
{ACAD_REACTORS
330
3A85
102
}
330
A
100
AcDbEntity
  8
MODEL
100
AcDbLine
 10
1520.856169424668
 20
2510.627916403123
 30
0.0
 11
1520.459317731428
 21
2510.429490556503
 31
0.0
  0
LINE
  5
3A3D
102
{ACAD_REACTORS
330
3A85
102
}
330
A
100
AcDbEntity
  8
MODEL
100
AcDbLine
 10
1523.374236554328
 20
2508.110927674803
 30
0.0
 11
1523.241593189467
 21
2508.838848579524
 31
0.0
  0
LINE
  5
3A3E
102
{ACAD_REACTORS
330
3A85
102
}
330
A
100
AcDbEntity
  8
MODEL
100
AcDbLine
 10
1523.241593189467
 20
2508.838848579524
 30
0.0
 11
1522.910523977988
 21
2509.502065403824
 31
0.0
  0
LINE
  5
3A3F
102
{ACAD_REACTORS
330
3A85
102
}
330
A
100
AcDbEntity
  8
MODEL
100
AcDbLine
 10
1522.910523977988
 20
2509.502065403824
 30
0.0
 11
1522.446811401648
 21
2510.098421345025
 31
0.0
  0
LINE
  5
3A40
102
{ACAD_REACTORS
330
3A85
102
}
330
A
100
AcDbEntity
  8
MODEL
100
AcDbLine
 10
1522.446811401648
 20
2510.098421345025
 30
0.0
 11
1521.850455460448
 21
2510.562133921364
 31
0.0
  0
LINE
  5
3A41
102
{ACAD_REACTORS
330
3A85
102
}
330
A
100
AcDbEntity
  8
MODEL
100
AcDbLine
 10
1521.850455460448
 20
2510.562133921364
 30
0.0
 11
1517.610181390288
 21
2513.013340167924
 31
0.0
  0
LINE
  5
3A42
102
{ACAD_REACTORS
330
3A85
102
}
330
A
100
AcDbEntity
  8
MODEL
100
AcDbLine
 10
1517.610181390288
 20
2513.013340167924
 30
0.0
 11
1516.881182084228
 21
2513.278626897643
 31
0.0
  0
LINE
  5
3A43
102
{ACAD_REACTORS
330
3A85
102
}
330
A
100
AcDbEntity
  8
MODEL
100
AcDbLine
 10
1516.881182084228
 20
2513.278626897643
 30
0.0
 11
1516.152182778168
 21
2513.411270262503
 31
0.0
  0
LINE
  5
3A44
102
{ACAD_REACTORS
330
3A85
102
}
330
A
100
AcDbEntity
  8
MODEL
100
AcDbLine
 10
1516.152182778168
 20
2513.411270262503
 30
0.0
 11
1515.423183472107
 21
2513.278626897643
 31
0.0
  0
LINE
  5
3A45
102
{ACAD_REACTORS
330
3A85
102
}
330
A
100
AcDbEntity
  8
MODEL
100
AcDbLine
 10
1515.423183472107
 20
2513.278626897643
 30
0.0
 11
1514.694184166047
 21
2513.013340167924
 31
0.0
  0
LINE
  5
3A46
102
{ACAD_REACTORS
330
3A85
102
}
330
A
100
AcDbEntity
  8
MODEL
100
AcDbLine
 10
1530.728933695337
 20
2448.412786277067
 30
0.0
 11
1530.728933695337
 21
2406.538462232232
 31
0.0
  0
LINE
  5
3A47
102
{ACAD_REACTORS
330
3A85
102
}
330
A
100
AcDbEntity
  8
MODEL
100
AcDbLine
 10
1542.125479059907
 20
2456.562265205906
 30
0.0
 11
1543.251330059197
 21
2457.556551241687
 31
0.0
  0
LINE
  5
3A48
102
{ACAD_REACTORS
330
3A85
102
}
330
A
100
AcDbEntity
  8
MODEL
100
AcDbLine
 10
1543.251330059197
 20
2457.556551241687
 30
0.0
 11
1544.178755211888
 21
2458.749263124088
 31
0.0
  0
LINE
  5
3A49
102
{ACAD_REACTORS
330
3A85
102
}
330
A
100
AcDbEntity
  8
MODEL
100
AcDbLine
 10
1544.178755211888
 20
2458.749263124088
 30
0.0
 11
1544.841972036188
 21
2460.140400853108
 31
0.0
  0
LINE
  5
3A4A
102
{ACAD_REACTORS
330
3A85
102
}
330
A
100
AcDbEntity
  8
MODEL
100
AcDbLine
 10
1544.841972036188
 20
2460.140400853108
 30
0.0
 11
1545.305684612528
 21
2461.598399465227
 31
0.0
  0
LINE
  5
3A4B
102
{ACAD_REACTORS
330
3A85
102
}
330
A
100
AcDbEntity
  8
MODEL
100
AcDbLine
 10
1545.305684612528
 20
2461.598399465227
 30
0.0
 11
1545.438327977387
 21
2463.055319676007
 31
0.0
  0
LINE
  5
3A4C
102
{ACAD_REACTORS
330
3A85
102
}
330
A
100
AcDbEntity
  8
MODEL
100
AcDbLine
 10
1545.438327977387
 20
2463.055319676007
 30
0.0
 11
1545.438327977387
 21
2480.215920204605
 31
0.0
  0
LINE
  5
3A4D
102
{ACAD_REACTORS
330
3A85
102
}
330
A
100
AcDbEntity
  8
MODEL
100
AcDbLine
 10
1545.438327977387
 20
2480.215920204605
 30
0.0
 11
1545.305684612528
 21
2481.608136334967
 31
0.0
  0
LINE
  5
3A4E
102
{ACAD_REACTORS
330
3A85
102
}
330
A
100
AcDbEntity
  8
MODEL
100
AcDbLine
 10
1545.305684612528
 20
2481.608136334967
 30
0.0
 11
1544.974615401038
 21
2482.932413180885
 31
0.0
  0
LINE
  5
3A4F
102
{ACAD_REACTORS
330
3A85
102
}
330
A
100
AcDbEntity
  8
MODEL
100
AcDbLine
 10
1544.974615401038
 20
2482.932413180885
 30
0.0
 11
1544.378259459847
 21
2484.257768428145
 31
0.0
  0
LINE
  5
3A50
102
{ACAD_REACTORS
330
3A85
102
}
330
A
100
AcDbEntity
  8
MODEL
100
AcDbLine
 10
1544.378259459847
 20
2484.257768428145
 30
0.0
 11
1543.582399270687
 21
2485.384697828787
 31
0.0
  0
LINE
  5
3A51
102
{ACAD_REACTORS
330
3A85
102
}
330
A
100
AcDbEntity
  8
MODEL
100
AcDbLine
 10
1543.582399270687
 20
2485.384697828787
 30
0.0
 11
1542.589191636248
 21
2486.377905463225
 31
0.0
  0
LINE
  5
3A52
102
{ACAD_REACTORS
330
3A85
102
}
330
A
100
AcDbEntity
  8
MODEL
100
AcDbLine
 10
1542.589191636248
 20
2486.377905463225
 30
0.0
 11
1541.462262235597
 21
2487.173765652386
 31
0.0
  0
LINE
  5
3A53
102
{ACAD_REACTORS
330
3A85
102
}
330
A
100
AcDbEntity
  8
MODEL
100
AcDbLine
 10
1541.462262235597
 20
2487.173765652386
 30
0.0
 11
1530.066795272387
 21
2493.732602604246
 31
0.0
  0
SPLINE
  5
3A54
102
{ACAD_REACTORS
330
3A85
102
}
330
A
100
AcDbEntity
  8
MODEL
100
AcDbSpline
210
0.0
220
0.0
230
1.0
 70
    24
 71
     3
 72
     8
 73
     4
 74
     0
 42
0.000000001
 43
0.0000000001
 40
0.0
 40
0.0
 40
0.0
 40
0.0
 40
1.0
 40
1.0
 40
1.0
 40
1.0
 10
1530.198360235907
 20
2493.666820122486
 30
0.0
 10
1530.198360235907
 20
2493.666820122486
 30
0.0
 10
1528.874083389987
 20
2494.792671121785
 30
0.0
 10
1528.874083389987
 20
2494.792671121785
 30
0.0
  0
SPLINE
  5
3A55
102
{ACAD_REACTORS
330
3A85
102
}
330
A
100
AcDbEntity
  8
MODEL
100
AcDbSpline
210
0.0
220
0.0
230
1.0
 70
     8
 71
     3
 72
    11
 73
     7
 74
     0
 42
0.000000001
 43
0.0000000001
 40
1.0
 40
1.0
 40
1.0
 40
1.0
 40
2.0
 40
2.0
 40
2.0
 40
3.0
 40
3.0
 40
3.0
 40
3.0
 10
1528.874083389987
 20
2494.792671121785
 30
0.0
 10
1526.111219156068
 20
2497.636415456222
 30
0.0
 10
1523.607171243837
 20
2502.190504316417
 30
0.0
 10
1523.374236554328
 20
2506.189216486344
 30
0.0
 10
1523.374236554328
 20
2506.189216486344
 30
0.0
 10
1523.374236554328
 20
2507.978284309945
 30
0.0
 10
1523.374236554328
 20
2507.978284309945
 30
0.0
  0
LINE
  5
3A56
102
{ACAD_REACTORS
330
3A85
102
}
330
A
100
AcDbEntity
  8
MODEL
100
AcDbLine
 10
1476.265352403547
 20
2409.254955208511
 30
0.0
 11
1542.125479059907
 21
2456.562265205906
 31
0.0
  0
LINE
  5
3A57
102
{ACAD_REACTORS
330
3A85
102
}
330
A
100
AcDbEntity
  8
MODEL
100
AcDbLine
 10
1453.142270864288
 20
2480.282781087706
 30
0.0
 11
1514.694184166047
 21
2513.013340167924
 31
0.0
  0
LINE
  5
3A58
102
{ACAD_REACTORS
330
3A85
102
}
330
A
100
AcDbEntity
  8
MODEL
100
AcDbLine
 10
1638.594949360057
 20
2443.112443689368
 30
0.0
 11
1637.932810937097
 21
2443.443512900848
 31
0.0
  0
LINE
  5
3A59
102
{ACAD_REACTORS
330
3A85
102
}
330
A
100
AcDbEntity
  8
MODEL
100
AcDbLine
 10
1637.932810937097
 20
2443.443512900848
 30
0.0
 11
1637.203811631038
 21
2443.510373783949
 31
0.0
  0
LINE
  5
3A5A
102
{ACAD_REACTORS
330
3A85
102
}
330
A
100
AcDbEntity
  8
MODEL
100
AcDbLine
 10
1637.203811631038
 20
2443.510373783949
 30
0.0
 11
1636.474812324978
 21
2443.443512900848
 31
0.0
  0
LINE
  5
3A5B
102
{ACAD_REACTORS
330
3A85
102
}
330
A
100
AcDbEntity
  8
MODEL
100
AcDbLine
 10
1636.474812324978
 20
2443.443512900848
 30
0.0
 11
1635.812673902018
 21
2443.245087054228
 31
0.0
  0
LINE
  5
3A5C
102
{ACAD_REACTORS
330
3A85
102
}
330
A
100
AcDbEntity
  8
MODEL
100
AcDbLine
 10
1642.835223430217
 20
2440.66123744281
 30
0.0
 11
1638.594949360057
 21
2443.112443689368
 31
0.0
  0
LINE
  5
3A5D
102
{ACAD_REACTORS
330
3A85
102
}
330
A
100
AcDbEntity
  8
MODEL
100
AcDbLine
 10
1644.360082925438
 20
2438.077387831388
 30
0.0
 11
1644.293222042338
 21
2438.872169619208
 31
0.0
  0
LINE
  5
3A5E
102
{ACAD_REACTORS
330
3A85
102
}
330
A
100
AcDbEntity
  8
MODEL
100
AcDbLine
 10
1644.293222042338
 20
2438.872169619208
 30
0.0
 11
1643.962152830857
 21
2439.601168925269
 31
0.0
  0
LINE
  5
3A5F
102
{ACAD_REACTORS
330
3A85
102
}
330
A
100
AcDbEntity
  8
MODEL
100
AcDbLine
 10
1643.962152830857
 20
2439.601168925269
 30
0.0
 11
1643.498440254518
 21
2440.197524866468
 31
0.0
  0
LINE
  5
3A60
102
{ACAD_REACTORS
330
3A85
102
}
330
A
100
AcDbEntity
  8
MODEL
100
AcDbLine
 10
1643.498440254518
 20
2440.197524866468
 30
0.0
 11
1642.835223430217
 21
2440.66123744281
 31
0.0
  0
LINE
  5
3A61
102
{ACAD_REACTORS
330
3A85
102
}
330
A
100
AcDbEntity
  8
MODEL
100
AcDbLine
 10
1644.360082925438
 20
1887.481250705447
 30
0.0
 11
1644.360082925438
 21
2438.077387831388
 31
0.0
  0
LINE
  5
3A62
102
{ACAD_REACTORS
330
3A85
102
}
330
A
100
AcDbEntity
  8
MODEL
100
AcDbLine
 10
1642.835223430217
 20
1884.831618612267
 30
0.0
 11
1643.431579371418
 21
1885.295331188607
 31
0.0
  0
LINE
  5
3A63
102
{ACAD_REACTORS
330
3A85
102
}
330
A
100
AcDbEntity
  8
MODEL
100
AcDbLine
 10
1643.431579371418
 20
1885.295331188607
 30
0.0
 11
1643.962152830857
 21
1885.957469611566
 31
0.0
  0
LINE
  5
3A64
102
{ACAD_REACTORS
330
3A85
102
}
330
A
100
AcDbEntity
  8
MODEL
100
AcDbLine
 10
1643.962152830857
 20
1885.957469611566
 30
0.0
 11
1644.227439560577
 21
1886.686468917625
 31
0.0
  0
LINE
  5
3A65
102
{ACAD_REACTORS
330
3A85
102
}
330
A
100
AcDbEntity
  8
MODEL
100
AcDbLine
 10
1644.227439560577
 20
1886.686468917625
 30
0.0
 11
1644.360082925438
 21
1887.481250705447
 31
0.0
  0
LINE
  5
3A66
102
{ACAD_REACTORS
330
3A85
102
}
330
A
100
AcDbEntity
  8
MODEL
100
AcDbLine
 10
1616.928788031577
 20
2443.576156265709
 30
0.0
 11
1615.802937032277
 21
2444.106729725147
 31
0.0
  0
LINE
  5
3A67
102
{ACAD_REACTORS
330
3A85
102
}
330
A
100
AcDbEntity
  8
MODEL
100
AcDbLine
 10
1615.802937032277
 20
2444.106729725147
 30
0.0
 11
1614.544442668117
 21
2444.503581418388
 31
0.0
  0
LINE
  5
3A68
102
{ACAD_REACTORS
330
3A85
102
}
330
A
100
AcDbEntity
  8
MODEL
100
AcDbLine
 10
1614.544442668117
 20
2444.503581418388
 30
0.0
 11
1613.219087420858
 21
2444.636224783249
 31
0.0
  0
LINE
  5
3A69
102
{ACAD_REACTORS
330
3A85
102
}
330
A
100
AcDbEntity
  8
MODEL
100
AcDbLine
 10
1613.219087420858
 20
2444.636224783249
 30
0.0
 11
1611.959514655357
 21
2444.570442301489
 31
0.0
  0
LINE
  5
3A6A
102
{ACAD_REACTORS
330
3A85
102
}
330
A
100
AcDbEntity
  8
MODEL
100
AcDbLine
 10
1611.959514655357
 20
2444.570442301489
 30
0.0
 11
1610.701020291197
 21
2444.305155571768
 31
0.0
  0
LINE
  5
3A6B
102
{ACAD_REACTORS
330
3A85
102
}
330
A
100
AcDbEntity
  8
MODEL
100
AcDbLine
 10
1610.701020291197
 20
2444.305155571768
 30
0.0
 11
1609.508308408797
 21
2443.841442995427
 31
0.0
  0
LINE
  5
3A6C
102
{ACAD_REACTORS
330
3A85
102
}
330
A
100
AcDbEntity
  8
MODEL
100
AcDbLine
 10
1625.939909631338
 20
2438.341596159768
 30
0.0
 11
1616.928788031577
 21
2443.576156265709
 31
0.0
  0
LINE
  5
3A6D
102
{ACAD_REACTORS
330
3A85
102
}
330
A
100
AcDbEntity
  8
MODEL
100
AcDbLine
 10
1535.367137860087
 20
2408.261747574072
 30
0.0
 11
1609.508308408797
 21
2443.841442995427
 31
0.0
  0
LINE
  5
3A6E
102
{ACAD_REACTORS
330
3A85
102
}
330
A
100
AcDbEntity
  8
MODEL
100
AcDbLine
 10
1579.096312210288
 20
1849.317705672669
 30
0.0
 11
1642.835223430217
 21
1884.831618612267
 31
0.0
  0
LINE
  5
3A6F
102
{ACAD_REACTORS
330
3A85
102
}
330
A
100
AcDbEntity
  8
MODEL
100
AcDbLine
 10
1635.812673902018
 20
2443.245087054228
 30
0.0
 11
1572.139545163837
 21
2411.77302233817
 31
0.0
  0
SPLINE
  5
3A70
102
{ACAD_REACTORS
330
3A85
102
}
330
A
100
AcDbEntity
  8
MODEL
100
AcDbSpline
210
0.0
220
0.0
230
1.0
 70
     8
 71
     3
 72
    11
 73
     7
 74
     0
 42
0.000000001
 43
0.0000000001
 40
0.0
 40
0.0
 40
0.0
 40
0.0
 40
1.0
 40
1.0
 40
1.0
 40
2.0
 40
2.0
 40
2.0
 40
2.0
 10
1579.096312210288
 20
1849.317705672669
 30
0.0
 10
1579.096312210288
 20
1849.317705672669
 30
0.0
 10
1574.193899717157
 20
1846.79963854301
 30
0.0
 10
1574.193899717157
 20
1846.79963854301
 30
0.0
 10
1574.193899717157
 20
1846.79963854301
 30
0.0
 10
1569.025122092988
 20
1844.48107566131
 30
0.0
 10
1569.025122092988
 20
1844.48107566131
 30
0.0
  0
SPLINE
  5
3A71
102
{ACAD_REACTORS
330
3A85
102
}
330
A
100
AcDbEntity
  8
MODEL
100
AcDbSpline
210
0.0
220
0.0
230
1.0
 70
     8
 71
     3
 72
    14
 73
    10
 74
     0
 42
0.000000001
 43
0.0000000001
 40
2.0
 40
2.0
 40
2.0
 40
2.0
 40
3.0
 40
3.0
 40
3.0
 40
4.0
 40
4.0
 40
4.0
 40
5.0
 40
5.0
 40
5.0
 40
5.0
 10
1569.025122092988
 20
1844.48107566131
 30
0.0
 10
1544.031014228258
 20
1834.261066159046
 30
0.0
 10
1514.639185697688
 20
1832.504350375655
 30
0.0
 10
1488.258253709308
 20
1837.656951979729
 30
0.0
 10
1488.258253709308
 20
1837.656951979729
 30
0.0
 10
1482.162050932448
 20
1839.04808970875
 30
0.0
 10
1482.162050932448
 20
1839.04808970875
 30
0.0
 10
1482.162050932448
 20
1839.04808970875
 30
0.0
 10
1476.265352403547
 20
1840.63765328439
 30
0.0
 10
1476.265352403547
 20
1840.63765328439
 30
0.0
  0
SPLINE
  5
3A72
102
{ACAD_REACTORS
330
3A85
102
}
330
A
100
AcDbEntity
  8
MODEL
100
AcDbSpline
210
0.0
220
0.0
230
1.0
 70
     8
 71
     3
 72
    14
 73
    10
 74
     0
 42
0.000000001
 43
0.0000000001
 40
5.0
 40
5.0
 40
5.0
 40
5.0
 40
6.0
 40
6.0
 40
6.0
 40
7.0
 40
7.0
 40
7.0
 40
8.0
 40
8.0
 40
8.0
 40
8.0
 10
1476.265352403547
 20
1840.63765328439
 30
0.0
 10
1455.842587820468
 20
1846.564547050818
 30
0.0
 10
1430.581036423337
 20
1860.850129606109
 30
0.0
 10
1427.434261312267
 20
1884.102619306207
 30
0.0
 10
1427.434261312267
 20
1884.102619306207
 30
0.0
 10
1427.168974582548
 20
1888.077606646646
 30
0.0
 10
1427.168974582548
 20
1888.077606646646
 30
0.0
 10
1427.168974582548
 20
1888.077606646646
 30
0.0
 10
1427.168974582548
 20
2445.431006571067
 30
0.0
 10
1427.168974582548
 20
2445.431006571067
 30
0.0
  0
SPLINE
  5
3A73
102
{ACAD_REACTORS
330
3A85
102
}
330
A
100
AcDbEntity
  8
MODEL
100
AcDbSpline
210
0.0
220
0.0
230
1.0
 70
    24
 71
     3
 72
     8
 73
     4
 74
     0
 42
0.000000001
 43
0.0000000001
 40
0.0
 40
0.0
 40
0.0
 40
0.0
 40
1.0
 40
1.0
 40
1.0
 40
1.0
 10
1478.452350321728
 20
2408.261747574072
 30
0.0
 10
1478.452350321728
 20
2408.261747574072
 30
0.0
 10
1474.608927944808
 20
2410.050815397671
 30
0.0
 10
1474.608927944808
 20
2410.050815397671
 30
0.0
  0
SPLINE
  5
3A74
102
{ACAD_REACTORS
330
3A85
102
}
330
A
100
AcDbEntity
  8
MODEL
100
AcDbSpline
210
0.0
220
0.0
230
1.0
 70
     8
 71
     3
 72
    11
 73
     7
 74
     0
 42
0.000000001
 43
0.0000000001
 40
1.0
 40
1.0
 40
1.0
 40
1.0
 40
2.0
 40
2.0
 40
2.0
 40
3.0
 40
3.0
 40
3.0
 40
3.0
 10
1474.608927944808
 20
2410.050815397671
 30
0.0
 10
1470.050525479257
 20
2412.427611951749
 30
0.0
 10
1464.107455692718
 20
2416.61180915221
 30
0.0
 10
1462.881313368768
 20
2421.97685582033
 30
0.0
 10
1462.881313368768
 20
2421.97685582033
 30
0.0
 10
1462.748670003907
 20
2423.500636914211
 30
0.0
 10
1462.748670003907
 20
2423.500636914211
 30
0.0
  0
SPLINE
  5
3A75
102
{ACAD_REACTORS
330
3A85
102
}
330
A
100
AcDbEntity
  8
MODEL
100
AcDbSpline
210
0.0
220
0.0
230
1.0
 70
    24
 71
     3
 72
     8
 73
     4
 74
     0
 42
0.000000001
 43
0.0000000001
 40
0.0
 40
0.0
 40
0.0
 40
0.0
 40
1.0
 40
1.0
 40
1.0
 40
1.0
 10
1535.499781224948
 20
2408.327530055832
 30
0.0
 10
1535.499781224948
 20
2408.327530055832
 30
0.0
 10
1531.457933001408
 20
2406.803748961951
 30
0.0
 10
1531.457933001408
 20
2406.803748961951
 30
0.0
  0
SPLINE
  5
3A76
102
{ACAD_REACTORS
330
3A85
102
}
330
A
100
AcDbEntity
  8
MODEL
100
AcDbSpline
210
0.0
220
0.0
230
1.0
 70
     8
 71
     3
 72
    11
 73
     7
 74
     0
 42
0.000000001
 43
0.0000000001
 40
1.0
 40
1.0
 40
1.0
 40
1.0
 40
2.0
 40
2.0
 40
2.0
 40
3.0
 40
3.0
 40
3.0
 40
3.0
 10
1531.457933001408
 20
2406.803748961951
 30
0.0
 10
1521.820260222918
 20
2403.530800894063
 30
0.0
 10
1511.897889490578
 20
2402.628178972212
 30
0.0
 10
1501.774936108947
 20
2403.15983083299
 30
0.0
 10
1501.774936108947
 20
2403.15983083299
 30
0.0
 10
1496.473515119908
 20
2403.68932589109
 30
0.0
 10
1496.473515119908
 20
2403.68932589109
 30
0.0
  0
SPLINE
  5
3A77
102
{ACAD_REACTORS
330
3A85
102
}
330
A
100
AcDbEntity
  8
MODEL
100
AcDbSpline
210
0.0
220
0.0
230
1.0
 70
     8
 71
     3
 72
    11
 73
     7
 74
     0
 42
0.000000001
 43
0.0000000001
 40
0.0
 40
0.0
 40
0.0
 40
0.0
 40
1.0
 40
1.0
 40
1.0
 40
2.0
 40
2.0
 40
2.0
 40
2.0
 10
1439.161875888307
 20
2444.570442301489
 30
0.0
 10
1439.161875888307
 20
2444.570442301489
 30
0.0
 10
1439.492945099788
 20
2441.721305960349
 30
0.0
 10
1439.492945099788
 20
2441.721305960349
 30
0.0
 10
1439.492945099788
 20
2441.721305960349
 30
0.0
 10
1440.155083522747
 20
2438.872169619208
 30
0.0
 10
1440.155083522747
 20
2438.872169619208
 30
0.0
  0
SPLINE
  5
3A78
102
{ACAD_REACTORS
330
3A85
102
}
330
A
100
AcDbEntity
  8
MODEL
100
AcDbSpline
210
0.0
220
0.0
230
1.0
 70
     8
 71
     3
 72
    14
 73
    10
 74
     0
 42
0.000000001
 43
0.0000000001
 40
2.0
 40
2.0
 40
2.0
 40
2.0
 40
3.0
 40
3.0
 40
3.0
 40
4.0
 40
4.0
 40
4.0
 40
5.0
 40
5.0
 40
5.0
 40
5.0
 10
1440.155083522747
 20
2438.872169619208
 30
0.0
 10
1445.352977983117
 20
2422.160184048185
 30
0.0
 10
1466.585621972787
 20
2411.654398190734
 30
0.0
 10
1482.096268450687
 20
2407.134818173431
 30
0.0
 10
1482.096268450687
 20
2407.134818173431
 30
0.0
 10
1487.263967673528
 20
2405.67681956131
 30
0.0
 10
1487.263967673528
 20
2405.67681956131
 30
0.0
 10
1487.263967673528
 20
2405.67681956131
 30
0.0
 10
1492.631171144327
 20
2404.418325197152
 30
0.0
 10
1492.631171144327
 20
2404.418325197152
 30
0.0
  0
SPLINE
  5
3A79
102
{ACAD_REACTORS
330
3A85
102
}
330
A
100
AcDbEntity
  8
MODEL
100
AcDbSpline
210
0.0
220
0.0
230
1.0
 70
     8
 71
     3
 72
    14
 73
    10
 74
     0
 42
0.000000001
 43
0.0000000001
 40
5.0
 40
5.0
 40
5.0
 40
5.0
 40
6.0
 40
6.0
 40
6.0
 40
7.0
 40
7.0
 40
7.0
 40
8.0
 40
8.0
 40
8.0
 40
8.0
 10
1492.631171144327
 20
2404.418325197152
 30
0.0
 10
1515.291618508587
 20
2399.704632938588
 30
0.0
 10
1541.523731111997
 20
2400.265401635558
 30
0.0
 10
1563.459492775568
 20
2408.062243326111
 30
0.0
 10
1563.459492775568
 20
2408.062243326111
 30
0.0
 10
1567.965053575447
 20
2409.85131114971
 30
0.0
 10
1567.965053575447
 20
2409.85131114971
 30
0.0
 10
1567.965053575447
 20
2409.85131114971
 30
0.0
 10
1572.139545163837
 20
2411.77302233817
 30
0.0
 10
1572.139545163837
 20
2411.77302233817
 30
0.0
  0
SPLINE
  5
3A7A
102
{ACAD_REACTORS
330
3A85
102
}
330
A
100
AcDbEntity
  8
MODEL
100
AcDbSpline
210
0.0
220
0.0
230
1.0
 70
    24
 71
     3
 72
     8
 73
     4
 74
     0
 42
0.000000001
 43
0.0000000001
 40
0.0
 40
0.0
 40
0.0
 40
0.0
 40
1.0
 40
1.0
 40
1.0
 40
1.0
 10
1453.142270864288
 20
2480.282781087706
 30
0.0
 10
1453.142270864288
 20
2480.282781087706
 30
0.0
 10
1450.226273640047
 20
2478.626356628965
 30
0.0
 10
1450.226273640047
 20
2478.626356628965
 30
0.0
  0
SPLINE
  5
3A7B
102
{ACAD_REACTORS
330
3A85
102
}
330
A
100
AcDbEntity
  8
MODEL
100
AcDbSpline
210
0.0
220
0.0
230
1.0
 70
     8
 71
     3
 72
    11
 73
     7
 74
     0
 42
0.000000001
 43
0.0000000001
 40
1.0
 40
1.0
 40
1.0
 40
1.0
 40
2.0
 40
2.0
 40
2.0
 40
3.0
 40
3.0
 40
3.0
 40
3.0
 10
1450.226273640047
 20
2478.626356628965
 30
0.0
 10
1439.032467727468
 20
2472.081538894531
 30
0.0
 10
1428.411292926607
 20
2461.550949806252
 30
0.0
 10
1427.301617947417
 20
2447.949073700728
 30
0.0
 10
1427.301617947417
 20
2447.949073700728
 30
0.0
 10
1427.168974582548
 20
2445.431006571067
 30
0.0
 10
1427.168974582548
 20
2445.431006571067
 30
0.0
  0
DIMENSION
  5
3A8C
102
{ACAD_REACTORS
330
3A8E
102
}
102
{ACAD_XDICTIONARY
360
3A8D
102
}
330
A
100
AcDbEntity
  8
DIM
100
AcDbDimension
  2
*D166
 10
1860.871836741025
 20
678.6129496402878
 30
0.0
 11
1828.871836741025
 21
1091.112949640288
 31
0.0
 70
    32
 71
     5
 42
824.9999999999998
 73
     0
 74
     0
 75
     0
  3
tfrom線あり
100
AcDbAlignedDimension
 13
1769.783802115801
 23
1503.612949640288
 33
0.0
 14
1625.386892648753
 24
678.6129496402878
 34
0.0
 50
90.0
100
AcDbRotatedDimension
1001
ACAD
1000
DSTYLE
1002
{
1070
     3
1000
<>
1070
   144
1040
1.0
1002
}
  0
DIMENSION
  5
3AA4
102
{ACAD_REACTORS
330
3AA6
102
}
102
{ACAD_XDICTIONARY
360
3AA5
102
}
330
A
100
AcDbEntity
  8
DIM
100
AcDbDimension
  2
*D167
 10
1750.629725447013
 20
678.6129496402878
 30
0.0
 11
1718.629725447013
 21
1018.809750064714
 31
0.0
 70
    32
 71
     5
 42
680.3936008488531
 73
     0
 74
     0
 75
     0
  3
tfrom線あり
100
AcDbAlignedDimension
 13
1625.519536013613
 23
1359.006550489141
 33
0.0
 14
1655.386892648753
 24
678.6129496402878
 34
0.0
 50
90.0
100
AcDbRotatedDimension
1001
ACAD
1000
DSTYLE
1002
{
1070
   144
1040
1.0
1002
}
  0
DIMENSION
  5
3AB3
102
{ACAD_REACTORS
330
3AB5
102
}
102
{ACAD_XDICTIONARY
360
3AB4
102
}
330
A
100
AcDbEntity
  8
DIM
100
AcDbDimension
  2
*D168
 10
1326.660244693637
 20
678.6129496402878
 30
0.0
 11
1294.660244693637
 21
1023.612949634524
 31
0.0
 70
    32
 71
     5
 42
689.9999999884731
 73
     0
 74
     0
 75
     0
  3
tfrom線あり
100
AcDbAlignedDimension
 13
1450.667542693243
 23
1368.612949628761
 33
0.0
 14
1448.348440610872
 24
678.6129496402878
 34
0.0
 50
90.0
100
AcDbRotatedDimension
1001
ACAD
1000
DSTYLE
1002
{
1070
   144
1040
1.0
1002
}
  0
LINE
  5
3AF0
102
{ACAD_REACTORS
330
3B4B
102
}
330
A
100
AcDbEntity
  8
MODEL
100
AcDbLine
 10
510.1863757494305
 20
2301.205868897428
 30
677.1537475585938
 11
511.6886761721653
 21
2212.675062328909
 31
682.0842151493533
  0
LINE
  5
3AF2
102
{ACAD_REACTORS
330
3B4B
102
}
330
A
100
AcDbEntity
  8
MODEL
100
AcDbLine
 10
601.6963476889716
 20
2304.262338728853
 30
339.8274109114416
 11
513.1582194689129
 21
2304.25141638278
 31
677.2927551269531
  0
LINE
  5
3AF4
102
{ACAD_REACTORS
330
3B4B
102
}
330
A
100
AcDbEntity
  8
MODEL
100
AcDbLine
 10
511.6886761721653
 20
2212.675062328909
 30
682.0842151493533
 11
523.6699100964433
 21
2212.675062328909
 31
682.0842151493533
  0
ELLIPSE
  5
3B04
102
{ACAD_REACTORS
330
3B4B
330
3B92
102
}
330
A
100
AcDbEntity
  8
MODEL
100
AcDbEllipse
 10
601.7681052011164
 20
2212.675062328909
 30
0.0
 11
90.07942902895115
 21
-5.515774221466310E-15
 31
0.0
210
0.0
220
0.0
230
1.0
 40
0.9815681755024565
 41
3.141592653589793
 42
4.711592377647441
  0
ARC
  5
3B05
102
{ACAD_REACTORS
330
3B4B
102
}
330
A
100
AcDbEntity
  8
MODEL
100
AcDbCircle
 10
512.9884090141845
 20
2301.444381786534
 30
677.1537475585938
 40
2.812166213981298
100
AcDbArc
 50
86.53813323537125
 51
184.8653665249877
  0
LINE
  5
3B06
102
{ACAD_REACTORS
330
3B4B
102
}
330
A
100
AcDbEntity
  8
MODEL
100
AcDbLine
 10
693.2063196285128
 20
2301.205868897428
 30
677.1537475585938
 11
691.704019205778
 21
2212.675062328909
 31
682.0842151493533
  0
LINE
  5
3B07
102
{ACAD_REACTORS
330
3B4B
102
}
330
A
100
AcDbEntity
  8
MODEL
100
AcDbLine
 10
691.704019205778
 20
2212.675062328909
 30
682.0842151493533
 11
679.704019205778
 21
2212.675062328909
 31
682.0842151493533
  0
LINE
  5
3B08
102
{ACAD_REACTORS
330
3B4B
102
}
330
A
100
AcDbEntity
  8
MODEL
100
AcDbLine
 10
601.6963476889716
 20
2304.262338728853
 30
339.8274109114416
 11
690.2344759090304
 21
2304.25141638278
 31
677.2927551269531
  0
ELLIPSE
  5
3B09
102
{ACAD_REACTORS
330
3B4B
102
}
330
A
100
AcDbEntity
  8
MODEL
100
AcDbEllipse
 10
601.6245901768268
 20
2212.675062328909
 30
0.0
 11
-90.07942902895115
 21
5.515774221466310E-15
 31
0.0
210
0.0
220
0.0
230
-1.0
 40
0.9815681755024565
 41
3.141592653589793
 42
4.711592377647441
  0
ARC
  5
3B0A
102
{ACAD_REACTORS
330
3B4B
330
3B92
102
}
330
A
100
AcDbEntity
  8
MODEL
100
AcDbCircle
 10
690.4042863637587
 20
2301.444381786534
 30
677.1537475585938
 40
2.812166213981298
100
AcDbArc
 50
355.1346334750123
 51
93.46186676462877
  0
LWPOLYLINE
  5
3B34
102
{ACAD_REACTORS
330
3B4B
102
}
330
A
100
AcDbEntity
  8
MODEL
100
AcDbPolyline
 90
        2
 70
     0
 43
0.0
 38
1352.227712631226
 10
681.3005197627901
 20
2301.320187745085
 10
679.704019205778
 20
2212.675062328909
  0
ARC
  5
3B36
102
{ACAD_REACTORS
330
3B4B
102
}
330
A
100
AcDbEntity
  8
MODEL
100
AcDbCircle
 10
684.0752167433416
 20
2301.473862365375
 30
1352.227712631226
 40
2.778949301949027
100
AcDbArc
 50
88.76759219210267
 51
183.17004738687
  0
SPLINE
  5
3B47
102
{ACAD_REACTORS
330
3B4B
102
}
330
A
100
AcDbEntity
  8
MODEL
100
AcDbSpline
210
0.0
220
0.0
230
1.0
 70
  1064
 71
     3
 72
    22
 73
    18
 74
    16
 42
0.000000001
 43
0.0000000001
 44
0.0000000001
 12
6.353197389382938E-17
 22
-1.0
 32
0.0
 13
-0.9999996943006494
 23
-0.0007819198217651166
 33
0.0
 40
0.0
 40
0.0
 40
0.0
 40
0.0
 40
7.971984625970658
 40
15.94882331661174
 40
23.93514874087456
 40
31.93516215655396
 40
39.95244533096121
 40
47.98980341011917
 40
56.04914567533957
 40
64.1314087567724
 40
72.23652444573865
 40
80.36343196424014
 40
88.51013255548938
 40
96.67378263144154
 40
104.8508204687471
 40
113.0371205532687
 40
121.2281690771754
 40
121.2281690771754
 40
121.2281690771754
 40
121.2281690771754
 10
679.704019205778
 20
2212.675062328909
 30
0.0
 10
679.704019205778
 20
2210.017734120252
 30
0.0
 10
679.4201098830783
 20
2204.697105823256
 30
0.0
 10
678.1470806343953
 20
2196.806373178409
 30
0.0
 10
676.0401180087449
 20
2189.08570801375
 30
0.0
 10
673.1212638568619
 20
2181.619810564803
 30
0.0
 10
669.4211928338494
 20
2174.489459071533
 30
0.0
 10
664.9790086429164
 20
2167.772596308177
 30
0.0
 10
659.8419574693929
 20
2161.542975262476
 30
0.0
 10
654.0650475554397
 20
2155.869457058087
 30
0.0
 10
647.7105614373837
 20
2150.81514722343
 30
0.0
 10
640.8474703238704
 20
2146.436611121286
 30
0.0
 10
633.5506944350312
 20
2142.783128761151
 30
0.0
 10
625.9004229272409
 20
2139.896025805369
 30
0.0
 10
617.9807212996524
 20
2137.808095251428
 30
0.0
 10
609.8803653941613
 20
2136.543130383227
 30
0.0
 10
604.4173133244135
 20
2136.258120826982
 30
0.0
 10
601.6869646511107
 20
2136.255985912581
 30
0.0
 11
679.704019205778
 21
2212.675062328909
 31
0.0
 11
679.2791935578912
 21
2204.714405192365
 31
0.0
 11
678.0091162054348
 21
2196.839326842578
 31
0.0
 11
675.9069646688592
 21
2189.134630047797
 31
0.0
 11
672.994627545005
 21
2181.683555821347
 31
0.0
 11
669.3025833429008
 21
2174.566980865068
 31
0.0
 11
664.8697122563383
 21
2167.862595820746
 31
0.0
 11
659.7430263254789
 21
2161.644067931101
 31
0.0
 11
653.9773040975613
 21
2155.980197901873
 31
0.0
 11
647.6346187720544
 21
2150.93408621136
 31
0.0
 11
640.7837533431518
 21
2146.562328133728
 31
0.0
 11
633.4995017092308
 21
2142.914258965363
 31
0.0
 11
625.8618603924597
 21
2140.031271334632
 31
0.0
 11
617.9551208237185
 21
2137.946225247652
 31
0.0
 11
609.8668767130769
 21
2136.68296902641
 31
0.0
 11
601.6869646511107
 21
2136.255985912581
 31
0.0
  0
SPLINE
  5
3B48
102
{ACAD_REACTORS
330
3B4B
102
}
330
A
100
AcDbEntity
  8
MODEL
100
AcDbSpline
210
0.0
220
0.0
230
1.0
 70
  1064
 71
     3
 72
    22
 73
    18
 74
    16
 42
0.000000001
 43
0.0000000001
 44
0.0000000001
 12
-1.859966538085647E-16
 22
-1.0
 32
0.0
 13
0.9999996943006494
 23
-0.0007819198217652391
 33
0.0
 40
0.0
 40
0.0
 40
0.0
 40
0.0
 40
7.971984625970697
 40
15.9488233166118
 40
23.93514874087457
 40
31.93516215655402
 40
39.95244533096116
 40
47.98980341011908
 40
56.04914567533957
 40
64.13140875677246
 40
72.23652444573871
 40
80.36343196424025
 40
88.5101325554893
 40
96.67378263144165
 40
104.8508204687472
 40
113.0371205532687
 40
121.2281690771754
 40
121.2281690771754
 40
121.2281690771754
 40
121.2281690771754
 10
523.6699100964433
 20
2212.675062328909
 30
0.0
 10
523.6699100964433
 20
2210.017734120252
 30
0.0
 10
523.9538194191431
 20
2204.697105823256
 30
0.0
 10
525.2268486678258
 20
2196.806373178409
 30
0.0
 10
527.3338112934766
 20
2189.085708013751
 30
0.0
 10
530.2526654453593
 20
2181.619810564803
 30
0.0
 10
533.9527364683719
 20
2174.489459071533
 30
0.0
 10
538.3949206593051
 20
2167.772596308177
 30
0.0
 10
543.531971832828
 20
2161.542975262475
 30
0.0
 10
549.3088817467816
 20
2155.869457058088
 30
0.0
 10
555.6633678648376
 20
2150.81514722343
 30
0.0
 10
562.5264589783507
 20
2146.436611121286
 30
0.0
 10
569.8232348671904
 20
2142.783128761152
 30
0.0
 10
577.47350637498
 20
2139.896025805369
 30
0.0
 10
585.393208002569
 20
2137.808095251427
 30
0.0
 10
593.49356390806
 20
2136.543130383227
 30
0.0
 10
598.9566159778078
 20
2136.258120826982
 30
0.0
 10
601.6869646511107
 20
2136.255985912581
 30
0.0
 11
523.6699100964433
 21
2212.675062328909
 31
0.0
 11
524.0947357443301
 21
2204.714405192365
 31
0.0
 11
525.3648130967865
 21
2196.839326842578
 31
0.0
 11
527.4669646333621
 21
2189.134630047797
 31
0.0
 11
530.3793017572164
 21
2181.683555821347
 31
0.0
 11
534.0713459593205
 21
2174.566980865068
 31
0.0
 11
538.504217045883
 21
2167.862595820746
 31
0.0
 11
543.6309029767424
 21
2161.644067931101
 31
0.0
 11
549.39662520466
 21
2155.980197901873
 31
0.0
 11
555.7393105301669
 21
2150.93408621136
 31
0.0
 11
562.5901759590695
 21
2146.562328133728
 31
0.0
 11
569.8744275929905
 21
2142.914258965363
 31
0.0
 11
577.5120689097616
 21
2140.031271334632
 31
0.0
 11
585.4188084785028
 21
2137.946225247652
 31
0.0
 11
593.5070525891445
 21
2136.68296902641
 31
0.0
 11
601.6869646511107
 21
2136.255985912581
 31
0.0
  0
LWPOLYLINE
  5
3B49
102
{ACAD_REACTORS
330
3B4B
102
}
330
A
100
AcDbEntity
  8
MODEL
100
AcDbPolyline
 90
        2
 70
     0
 43
0.0
 38
1352.227712631226
 10
522.0734095394312
 20
2301.320187745085
 10
523.6699100964433
 20
2212.675062328909
  0
ARC
  5
3B4A
102
{ACAD_REACTORS
330
3B4B
102
}
330
A
100
AcDbEntity
  8
MODEL
100
AcDbCircle
 10
519.2987125588797
 20
2301.473862365375
 30
1352.227712631226
 40
2.778949301949027
100
AcDbArc
 50
356.82995261313
 51
91.23240780789733
  0
SPLINE
  5
3B83
102
{ACAD_REACTORS
330
3B8C
102
}
330
A
100
AcDbEntity
  8
HIDDEN
100
AcDbSpline
 70
  1056
 71
     3
 72
    20
 73
    16
 74
    14
 42
0.000000001
 43
0.0000000001
 44
0.0
 40
0.0
 40
0.0
 40
0.0
 40
0.0
 40
42.22312854460412
 40
67.29777915801903
 40
85.98766405001165
 40
102.881629102391
 40
119.2362498966554
 40
140.5145847271298
 40
170.380406446172
 40
203.4607495159321
 40
208.576155088644
 40
212.5635398408037
 40
215.0956891831515
 40
222.725218675504
 40
243.2216730306789
 40
243.2216730306789
 40
243.2216730306789
 40
243.2216730306789
 10
1355.499864917062
 20
1458.612931960468
 30
0.0
 10
1360.954489264118
 20
1445.618502538251
 30
-0.0000000019657999
 10
1369.648399861251
 20
1424.907194028342
 30
-0.0000000050990108
 10
1380.679455777124
 20
1398.606488688705
 30
-0.0000000043292096
 10
1388.651522442412
 20
1379.652884330763
 30
-0.0000000044399038
 10
1403.189691098095
 20
1368.605779875892
 30
-0.0000000043469497
 10
1421.442317206975
 20
1365.765602601763
 30
-0.0000000040466131
 10
1443.827878910257
 20
1364.908267390605
 30
-0.0000000046340674
 10
1471.983055227742
 20
1362.59437962103
 30
-0.0000000001671784
 10
1494.22835534737
 20
1361.767854539536
 30
-0.000000013117524
 10
1508.665717782003
 20
1360.182480428778
 30
0.0000000008014821
 10
1511.573233761956
 20
1357.212705482748
 30
-0.0000000001098041
 10
1513.169680687271
 20
1352.733538941219
 30
0.0000000000803542
 10
1513.32340238711
 20
1342.39196147316
 30
-0.0000000000832519
 10
1514.506703979943
 20
1333.113695629289
 30
-0.0000000000350943
 10
1515.369020022553
 20
1326.352276956968
 30
0.0
 11
1355.499864917062
 21
1458.612931960468
 31
0.0
 11
1371.839917031053
 21
1419.679716308454
 31
-0.0000000044268816
 11
1381.54362947222
 21
1396.558815196171
 31
-0.0000000044268816
 11
1390.345176860687
 21
1380.071105808736
 31
-0.0000000044076984
 11
1403.811353761023
 21
1369.869726741185
 31
-0.0000000043140661
 11
1419.772085455576
 21
1366.302001261458
 31
-0.0000000041747384
 11
1441.003291218508
 21
1364.886573760732
 31
-0.0000000040127704
 11
1470.80296357294
 21
1362.899909591297
 31
-0.0000000037854355
 11
1503.810037482529
 21
1360.699416569289
 31
-0.000000003533632
 11
1508.786287235485
 21
1359.514379620691
 31
0.0
 11
1511.602629523224
 21
1356.691711861275
 31
0.0
 11
1512.52651069119
 21
1354.334123288298
 31
0.0
 11
1513.335581129502
 21
1346.747613860338
 31
0.0
 11
1515.369020022553
 21
1326.352276956968
 31
0.0
  0
SPLINE
  5
3B84
102
{ACAD_REACTORS
330
3B8C
102
}
330
A
100
AcDbEntity
  8
HIDDEN
100
AcDbSpline
210
0.0
220
0.0
230
1.0
 70
  1064
 71
     3
 72
    19
 73
    15
 74
    13
 42
0.000000001
 43
0.0000000001
 44
0.0
 40
0.0
 40
0.0
 40
0.0
 40
0.0
 40
4.495389264025806
 40
10.53920653033467
 40
16.7560988367701
 40
26.71018744757022
 40
35.10676142318469
 40
40.89895548686054
 40
46.38924955138927
 40
54.64824377984966
 40
66.70785475325384
 40
73.45384112044967
 40
79.21803761356108
 40
81.42591041006155
 40
81.42591041006155
 40
81.42591041006155
 40
81.42591041006155
 10
1658.617048629552
 20
1368.647118268022
 30
0.0
 10
1658.152655808552
 20
1367.21025868667
 30
0.0
 10
1657.063910971508
 20
1363.841616063408
 30
0.0
 10
1653.420742692483
 20
1359.483418561662
 30
0.0
 10
1648.460222172694
 20
1354.012929203225
 30
0.0
 10
1641.874721185796
 20
1349.012014133295
 30
0.0
 10
1634.684894924481
 20
1345.317713087491
 30
0.0
 10
1628.458839995753
 20
1343.229909814431
 30
0.0
 10
1622.3114537347
 20
1341.080856258222
 30
0.0
 10
1614.180340335444
 20
1338.268697482743
 30
0.0
 10
1605.657861743901
 20
1335.310562607497
 30
0.0
 10
1597.919773726838
 20
1332.627710557729
 30
0.0
 10
1593.284564456205
 20
1331.020295208223
 30
0.0
 10
1590.77387486382
 20
1330.149673003389
 30
0.0
 10
1590.078536796612
 20
1329.908553287509
 30
0.0
 11
1658.617048629552
 21
1368.647118268022
 31
0.0
 11
1657.005051037472
 21
1364.450692598687
 31
0.0
 11
1653.440871337427
 21
1359.569673215985
 31
0.0
 11
1649.187754101525
 21
1355.035277586191
 31
0.0
 11
1641.296602680554
 21
1348.967855619411
 31
0.0
 11
1633.816998459859
 21
1345.152364139965
 31
0.0
 11
1628.368672354752
 21
1343.18633903237
 31
0.0
 11
1623.181406141852
 21
1341.387562183647
 31
0.0
 11
1615.37825366763
 21
1338.681680233193
 31
0.0
 11
1603.984253308483
 21
1334.730607891966
 31
0.0
 11
1597.610600687338
 21
1332.520430448555
 31
0.0
 11
1592.164549644933
 21
1330.631915356023
 31
0.0
 11
1590.078536796612
 21
1329.908553287509
 31
0.0
  0
LINE
  5
3B88
102
{ACAD_REACTORS
330
3B8B
102
}
330
A
100
AcDbEntity
  8
HIDDEN
100
AcDbLine
 10
830.1753160102808
 20
1366.478013914855
 30
0.0
 11
648.7713884126779
 21
1360.246670868676
 31
0.0
  0
LINE
  5
3B89
102
{ACAD_REACTORS
330
3B8B
102
}
330
A
100
AcDbEntity
  8
HIDDEN
100
AcDbLine
 10
374.9963657058806
 20
1366.465549385166
 30
0.0
 11
554.7146006760404
 21
1360.240353426111
 31
0.0
  0
DIMENSION
  5
3B90
102
{ACAD_REACTORS
330
3B92
102
}
102
{ACAD_XDICTIONARY
360
3B91
102
}
330
A
100
AcDbEntity
  8
DIM
100
AcDbDimension
  2
*D174
 10
767.0801425080147
 20
2124.255989580973
 30
0.0
 11
735.0801425080147
 21
2214.253702981877
 31
0.0
 70
    32
 71
     5
 42
179.9954268018068
 73
     0
 74
     0
 75
     0
  3
tfrom線あり
100
AcDbAlignedDimension
 13
690.2344759090304
 23
2304.25141638278
 33
677.1537475585938
 14
601.6963476889714
 24
2124.255989580973
 34
0.0
 50
90.0
100
AcDbRotatedDimension
1001
ACAD
1000
DSTYLE
1002
{
1070
   144
1040
1.0
1002
}
  0
DIMENSION
  5
3BB2
330
A
100
AcDbEntity
  8
DIM
100
AcDbDimension
  2
*D176
 10
691.6963476889714
 20
2054.882169500605
 30
0.0
 11
601.6963476889714
 21
2086.882169500605
 31
0.0
 70
    32
 71
     5
 42
180.0
 73
     0
 74
     0
 75
     0
  3
tfrom線あり
100
AcDbAlignedDimension
 13
511.6963476889714
 23
2192.039771358533
 33
0.0
 14
691.6963476889714
 24
2192.039771358533
 34
0.0
100
AcDbRotatedDimension
1001
ACAD
1000
DSTYLE
1002
{
1070
   144
1040
1.0
1002
}
  0
VIEWPORT
  5
349
330
B
100
AcDbEntity
 67
     1
  8
0
100
AcDbViewport
 10
202.5
 20
128.5
 30
0.0
 40
486.0
 41
308.4
 68
     1
 69
     1
 12
202.5
 22
128.5
 13
0.0
 23
0.0
 14
0.5
 24
0.5
 15
0.0
 25
0.0
 16
0.0
 26
0.0
 36
1.0
 17
0.0
 27
0.0
 37
0.0
 42
50.0
 43
0.0
 44
0.0
 45
308.4
 50
0.0
 51
0.0
 72
   100
 90
   557152
  1

281
     0
 71
     1
 74
     0
110
0.0
120
0.0
130
0.0
111
1.0
121
0.0
131
0.0
112
0.0
122
1.0
132
0.0
 79
     0
146
0.0
170
     0
 61
     5
348
26C
292
     1
282
     1
141
0.0
142
0.0
 63
   256
  0
VIEWPORT
  5
34A
330
B
100
AcDbEntity
 67
     1
  8
0
100
AcDbViewport
 10
202.5
 20
128.5
 30
0.0
 40
324.0
 41
205.6
 68
     2
 69
     2
 12
986.6781359294573
 22
1427.077061889956
 13
0.0
 23
0.0
 14
0.5
 24
0.5
 15
0.0
 25
0.0
 16
0.0
 26
0.0
 36
1.0
 17
0.0
 27
0.0
 37
0.0
 42
50.0
 43
0.0
 44
0.0
 45
2890.021615685494
 50
0.0
 51
0.0
 72
   100
 90
   557152
  1

281
     0
 71
     1
 74
     0
110
0.0
120
0.0
130
0.0
111
1.0
121
0.0
131
0.0
112
0.0
122
1.0
132
0.0
 79
     0
146
0.0
170
     0
 61
     5
348
26C
292
     1
282
     1
141
0.0
142
0.0
 63
   256
  0
ENDSEC
  0
SECTION
  2
OBJECTS
  0
DICTIONARY
  5
19
330
0
100
AcDbDictionary
281
     1
  3
ACAD_COLOR
350
674
  3
ACAD_DETAILVIEWSTYLE
350
BBF
  3
ACAD_FIELDLIST
350
146A
  3
ACAD_GROUP
350
1A
  3
ACAD_IMAGE_VARS
350
27B
  3
ACAD_LAYOUT
350
1E
  3
ACAD_MATERIAL
350
263
  3
ACAD_MLEADERSTYLE
350
336
  3
ACAD_MLINESTYLE
350
1B
  3
ACAD_PLOTSETTINGS
350
22
  3
ACAD_PLOTSTYLENAME
350
1F
  3
ACAD_SCALELIST
350
241
  3
ACAD_SECTIONVIEWSTYLE
350
BC0
  3
ACAD_TABLESTYLE
350
278
  3
ACAD_VISUALSTYLE
350
267
  3
ACDB_RECOMPOSE_DATA
350
3BDF
  3
AcDbVariableDictionary
350
330
  3
APPDATA
350
27A
  3
DimOffsetDictionary
350
E3E
  0
SUN
  5
904
330
15
100
AcDbSun
 90
        1
290
     0
 63
     7
421
 16777215
 40
1.0
291
     1
 91
  2455826
 92
 54000000
292
     0
 70
     2
 71
   256
280
     1
  0
DICTIONARY
  5
2E1
330
2
100
AcDbDictionary
280
     1
281
     1
  3
ACAD_LAYERSTATES
360
2E2
  3
ACLYDICTIONARY
360
DF9
  0
DICTIONARY
  5
1468
330
1466
100
AcDbDictionary
280
     1
281
     1
  3
ACAD_FIELD
360
146C
  0
DICTIONARY
  5
3A8D
330
3A8C
100
AcDbDictionary
280
     1
281
     1
  3
ACAD_DIMASSOC
360
3A8E
  0
DICTIONARY
  5
3AA5
330
3AA4
100
AcDbDictionary
280
     1
281
     1
  3
ACAD_DIMASSOC
360
3AA6
  0
DICTIONARY
  5
3AB4
330
3AB3
100
AcDbDictionary
280
     1
281
     1
  3
ACAD_DIMASSOC
360
3AB5
  0
DICTIONARY
  5
3B91
330
3B90
100
AcDbDictionary
280
     1
281
     1
  3
ACAD_DIMASSOC
360
3B92
  0
DICTIONARY
  5
674
102
{ACAD_REACTORS
330
19
102
}
330
19
100
AcDbDictionary
281
     1
  0
DICTIONARY
  5
BBF
102
{ACAD_REACTORS
330
19
102
}
330
19
100
AcDbDictionary
281
     1
  0
FIELDLIST
  5
146A
102
{ACAD_REACTORS
330
19
102
}
330
19
100
AcDbIdSet
 90
        2
330
146B
330
1467
100
AcDbFieldList
  0
DICTIONARY
  5
1A
102
{ACAD_REACTORS
330
19
102
}
330
19
100
AcDbDictionary
281
     1
  3
*A10
350
3B8C
  3
*A2
350
3A81
  3
*A3
350
3A82
  3
*A6
350
3A85
  3
*A7
350
3B4B
  3
*A8
350
3B8A
  3
*A9
350
3B8B
  0
RASTERVARIABLES
  5
27B
102
{ACAD_REACTORS
330
19
102
}
330
19
100
AcDbRasterVariables
 90
        0
 70
     1
 71
     1
 72
     1
  0
DICTIONARY
  5
1E
102
{ACAD_REACTORS
330
19
102
}
330
19
100
AcDbDictionary
281
     1
  3
Layout1
350
21
  3
Model
350
20
  0
DICTIONARY
  5
263
102
{ACAD_REACTORS
330
19
102
}
330
19
100
AcDbDictionary
281
     1
  3
ByBlock
350
265
  3
ByLayer
350
264
  3
Global
350
266
  0
DICTIONARY
  5
336
102
{ACAD_REACTORS
330
19
102
}
330
19
100
AcDbDictionary
281
     1
  3
Standard
350
DAB
  0
DICTIONARY
  5
1B
102
{ACAD_REACTORS
330
19
102
}
330
19
100
AcDbDictionary
281
     1
  3
Standard
350
1C
  0
DICTIONARY
  5
22
102
{ACAD_REACTORS
330
19
102
}
330
19
100
AcDbDictionary
281
     1
  0
ACDBDICTIONARYWDFLT
  5
1F
102
{ACAD_REACTORS
330
19
102
}
330
19
100
AcDbDictionary
281
     1
  3
Normal
350
1D
100
AcDbDictionaryWithDefault
340
1D
  0
DICTIONARY
  5
241
102
{ACAD_REACTORS
330
19
102
}
330
19
100
AcDbDictionary
281
     1
  3
A0
350
242
  3
A1
350
243
  3
A2
350
244
  3
A3
350
245
  3
A4
350
246
  3
A5
350
247
  3
A6
350
248
  3
A7
350
249
  3
A8
350
24A
  3
A9
350
24B
  3
B0
350
24C
  3
B1
350
24D
  3
B2
350
24E
  3
B3
350
24F
  3
B4
350
250
  3
B5
350
251
  3
B6
350
252
  3
B7
350
253
  3
B8
350
254
  3
B9
350
255
  3
C0
350
256
  3
C1
350
257
  3
C2
350
258
  3
C3
350
259
  3
C4
350
25A
  3
C5
350
25B
  3
C6
350
25C
  3
C7
350
25D
  3
C8
350
25E
  3
C9
350
25F
  3
D0
350
260
  3
D1
350
261
  3
D2
350
262
  0
DICTIONARY
  5
BC0
102
{ACAD_REACTORS
330
19
102
}
330
19
100
AcDbDictionary
281
     1
  0
DICTIONARY
  5
278
102
{ACAD_REACTORS
330
19
102
}
330
19
100
AcDbDictionary
281
     1
  3
Standard
350
279
  0
DICTIONARY
  5
267
102
{ACAD_REACTORS
330
19
102
}
330
19
100
AcDbDictionary
281
     1
  3
2dWireframe
350
26C
  3
3D Hidden
350
26E
  3
3dWireframe
350
26D
  3
Basic
350
26F
  3
Brighten
350
273
  3
ColorChange
350
277
  3
Conceptual
350
271
  3
Dim
350
272
  3
EdgeColorOff
350
8FE
  3
Facepattern
350
276
  3
Flat
350
268
  3
FlatWithEdges
350
269
  3
Gouraud
350
26A
  3
GouraudWithEdges
350
26B
  3
Hidden
350
8FB
  3
JitterOff
350
8FC
  3
Linepattern
350
275
  3
OverhangOff
350
8FD
  3
Realistic
350
270
  3
Shaded
350
903
  3
Shaded with edges
350
902
  3
Shades of Gray
350
8FF
  3
Sketchy
350
900
  3
Thicken
350
274
  3
Wireframe
350
8FA
  3
X-Ray
350
901
  0
XRECORD
  5
3BDF
102
{ACAD_REACTORS
330
19
102
}
330
19
100
AcDbXrecord
280
     1
 90
        1
330
279
  0
DICTIONARY
  5
330
102
{ACAD_REACTORS
330
19
102
}
330
19
100
AcDbDictionary
281
     1
  3
CANNOSCALE
350
331
  3
CMLEADERSTYLE
350
DB1
  3
CTABLESTYLE
350
335
  3
HPTRANSPARENCY
350
D52
  3
XCLIPFRAME
350
896
  0
DICTIONARY
  5
27A
102
{ACAD_REACTORS
330
19
102
}
330
19
100
AcDbDictionary
281
     1
  0
DICTIONARY
  5
E3E
102
{ACAD_REACTORS
330
19
102
}
330
19
100
AcDbDictionary
281
     1
  3
DIMRAILANGLE
350
ECE
  3
DIMRAILFIRSTOFFSET
350
ECC
  3
DIMRAILOFFSET
350
ECD
  3
DIMRAILSENABLED
350
ECF
  0
DICTIONARY
  5
2E2
102
{ACAD_REACTORS
330
2E1
102
}
330
2E1
100
AcDbDictionary
281
     1
  0
DICTIONARY
  5
DF9
102
{ACAD_REACTORS
330
2E1
102
}
330
2E1
100
AcDbDictionary
281
     1
1001
ACAD
1000
<All
  0
DICTIONARY
  5
146C
102
{ACAD_REACTORS
330
1468
102
}
330
1468
100
AcDbDictionary
280
     1
281
     1
  3
TEXT
360
1467
  0
DIMASSOC
  5
3A8E
102
{ACAD_REACTORS
330
3A8D
102
}
330
3A8D
100
AcDbDimAssoc
330
3A8C
 90
        2
 70
     0
 71
     1
  1
AcDbOsnapPointRef
 72
     1
331
394B
 73
     0
 91
        0
 40
0.0
 10
0.0
 20
0.0
 30
0.0
 75
     0
  0
DIMASSOC
  5
3AA6
102
{ACAD_REACTORS
330
3AA5
102
}
330
3AA5
100
AcDbDimAssoc
330
3AA4
 90
        1
 70
     0
 71
     1
  1
AcDbOsnapPointRef
 72
    13
331
3959
 73
     0
 91
        0
 40
0.0
 10
0.0
 20
0.0
 30
0.0
 75
     0
  0
DIMASSOC
  5
3AB5
102
{ACAD_REACTORS
330
3AB4
102
}
330
3AB4
100
AcDbDimAssoc
330
3AB3
 90
        3
 70
     0
 71
     1
  1
AcDbOsnapPointRef
 72
    13
331
3969
 73
     0
 91
        0
 40
0.0
 10
0.0
 20
0.0
 30
0.0
 75
     0
  1
AcDbOsnapPointRef
 72
     1
331
3945
 73
     0
 91
        0
 40
0.0
 10
0.0
 20
0.0
 30
0.0
 75
     0
  0
DIMASSOC
  5
3B92
102
{ACAD_REACTORS
330
3B91
102
}
330
3B91
100
AcDbDimAssoc
330
3B90
 90
        3
 70
     0
 71
     1
  1
AcDbOsnapPointRef
 72
     1
331
3B0A
 73
     0
 91
        0
 40
0.0
 10
0.0
 20
0.0
 30
0.0
 75
     0
  1
AcDbOsnapPointRef
 72
     1
331
3B04
 73
     0
 91
        0
 40
0.0
 10
0.0
 20
0.0
 30
0.0
 75
     0
  0
GROUP
  5
3B8C
102
{ACAD_REACTORS
330
1A
102
}
330
1A
100
AcDbGroup
300

 70
     1
 71
     1
340
38D8
340
38D9
340
38DA
340
38DB
340
38DE
340
38E1
340
38E3
340
38E5
340
38E6
340
38E7
340
38E8
340
38EA
340
38EB
340
38ED
340
38EE
340
38EF
340
38F0
340
38F1
340
38F2
340
38F3
340
38F4
340
38F6
340
38F7
340
3943
340
3B83
340
3B84
  0
GROUP
  5
3A81
102
{ACAD_REACTORS
330
1A
102
}
330
1A
100
AcDbGroup
300

 70
     1
 71
     1
340
396E
340
397C
340
397D
340
397F
340
3980
340
3981
340
3982
340
3983
340
3984
340
3985
340
3986
340
3987
340
3988
340
3989
340
398A
340
398B
340
398C
340
398D
340
398E
340
398F
340
3990
340
3991
340
3993
340
3994
340
3996
340
3997
340
3998
340
3999
340
399A
340
399B
340
399C
340
399E
340
399F
340
3973
340
397B
340
399D
340
39A0
340
39A1
340
3972
340
3978
340
39A7
340
397A
340
3977
340
39A6
340
3971
340
3976
340
39A5
340
3974
340
3975
340
39A4
340
397E
340
3992
340
3995
340
39A2
340
3970
340
39A3
340
396F
340
3979
  0
GROUP
  5
3A82
102
{ACAD_REACTORS
330
1A
102
}
330
1A
100
AcDbGroup
300

 70
     1
 71
     1
340
3944
340
3945
340
3948
340
3949
340
394A
340
394B
340
394C
340
394D
340
3950
340
3951
340
3952
340
3953
340
3954
340
3955
340
3956
340
3958
340
3961
340
3962
340
3963
340
3964
340
3965
340
3966
340
3967
340
394E
340
394F
340
3957
340
3959
340
395A
340
395B
340
395C
340
395D
340
395E
340
395F
340
3960
340
3946
340
3947
340
3968
340
3969
340
396A
340
396B
340
396C
340
396D
  0
GROUP
  5
3A85
102
{ACAD_REACTORS
330
1A
102
}
330
1A
100
AcDbGroup
300

 70
     1
 71
     1
340
39A8
340
39A9
340
39AA
340
39AB
340
39AC
340
39AD
340
39AE
340
39AF
340
39B0
340
39B1
340
39B2
340
39B3
340
39B4
340
39B5
340
39B6
340
39B7
340
39B8
340
39B9
340
39BA
340
39BB
340
39BC
340
39BD
340
39BE
340
39BF
340
39C0
340
39C1
340
39C2
340
39C3
340
39C4
340
39C5
340
39C6
340
39C7
340
39C8
340
39C9
340
39CA
340
39CB
340
39CC
340
39CD
340
39CE
340
39CF
340
39D0
340
39D1
340
39D2
340
39D3
340
39D4
340
39D5
340
39D6
340
39D7
340
39D8
340
39D9
340
39DA
340
39DB
340
39DC
340
39DD
340
39DE
340
39DF
340
39E0
340
39E1
340
39E2
340
39E3
340
39E4
340
39E5
340
39E6
340
39E7
340
39E8
340
39E9
340
39EA
340
39EB
340
39EC
340
39ED
340
39EE
340
39EF
340
39F0
340
39F1
340
39F2
340
39F3
340
39F4
340
39F5
340
39F6
340
39F7
340
39F8
340
39F9
340
39FA
340
39FB
340
39FC
340
39FD
340
39FE
340
39FF
340
3A00
340
3A01
340
3A02
340
3A03
340
3A04
340
3A05
340
3A06
340
3A07
340
3A08
340
3A09
340
3A0A
340
3A0B
340
3A0C
340
3A0D
340
3A0E
340
3A0F
340
3A10
340
3A11
340
3A12
340
3A13
340
3A14
340
3A15
340
3A16
340
3A17
340
3A18
340
3A19
340
3A1A
340
3A1B
340
3A1C
340
3A1D
340
3A1E
340
3A1F
340
3A20
340
3A21
340
3A22
340
3A23
340
3A24
340
3A25
340
3A26
340
3A27
340
3A28
340
3A29
340
3A2A
340
3A2B
340
3A2C
340
3A2D
340
3A2E
340
3A2F
340
3A30
340
3A31
340
3A32
340
3A33
340
3A34
340
3A35
340
3A36
340
3A37
340
3A38
340
3A39
340
3A3A
340
3A3B
340
3A3C
340
3A3D
340
3A3E
340
3A3F
340
3A40
340
3A41
340
3A42
340
3A43
340
3A44
340
3A45
340
3A46
340
3A47
340
3A48
340
3A49
340
3A4A
340
3A4B
340
3A4C
340
3A4D
340
3A4E
340
3A4F
340
3A50
340
3A51
340
3A52
340
3A53
340
3A54
340
3A55
340
3A56
340
3A57
340
3A58
340
3A59
340
3A5A
340
3A5B
340
3A5C
340
3A5D
340
3A5E
340
3A5F
340
3A60
340
3A61
340
3A62
340
3A63
340
3A64
340
3A65
340
3A66
340
3A67
340
3A68
340
3A69
340
3A6A
340
3A6B
340
3A6C
340
3A6D
340
3A6E
340
3A6F
340
3A70
340
3A71
340
3A72
340
3A73
340
3A74
340
3A75
340
3A76
340
3A77
340
3A78
340
3A79
340
3A7A
340
3A7B
  0
GROUP
  5
3B4B
102
{ACAD_REACTORS
330
1A
102
}
330
1A
100
AcDbGroup
300

 70
     1
 71
     1
340
3AF0
340
3AF2
340
3B04
340
3B05
340
3B06
340
3B08
340
3B09
340
3B0A
340
3B34
340
3B36
340
3B47
340
3B48
340
3B49
340
3B4A
340
3AF4
340
3B07
  0
GROUP
  5
3B8A
102
{ACAD_REACTORS
330
1A
102
}
330
1A
100
AcDbGroup
300

 70
     1
 71
     1
340
3881
340
3882
340
3883
340
3884
340
3885
340
3886
340
3887
340
3888
340
3889
340
388A
340
388B
340
388C
340
388D
340
388E
340
388F
340
3890
340
3891
340
38B4
340
38B5
  0
GROUP
  5
3B8B
102
{ACAD_REACTORS
330
1A
102
}
330
1A
100
AcDbGroup
300

 70
     1
 71
     1
340
390D
340
390E
340
390F
340
3910
340
3911
340
3912
340
3913
340
3918
340
3919
340
391A
340
391B
340
3920
340
3921
340
3922
340
3923
340
3924
340
3925
340
3926
340
3927
340
3928
340
3929
340
392A
340
392B
340
392C
340
392D
340
392E
340
392F
340
3930
340
3931
340
3932
340
3933
340
3934
340
3935
340
3937
340
3938
340
3939
340
393A
340
393B
340
393C
340
393D
340
393E
340
393F
340
3940
340
3942
340
3B88
340
3B89
  0
LAYOUT
  5
21
102
{ACAD_REACTORS
330
1E
102
}
330
1E
100
AcDbPlotSettings
  1

  2
none_device
  4
ISO_A3_(420.00_x_297.00_MM)
  6

 40
7.5
 41
20.0
 42
7.5
 43
20.0
 44
420.0
 45
297.0
 46
0.0
 47
0.0
 48
0.0
 49
0.0
140
0.0
141
0.0
142
1.0
143
1.0
 70
     0
 72
     1
 73
     0
 74
     0
  7

 75
     0
 76
     0
 77
     2
 78
   300
147
1.0
148
0.0
149
0.0
100
AcDbLayout
  1
Layout1
 70
     0
 71
     0
 10
-7.5
 20
-20.0
 11
412.5
 21
277.0
 12
0.0
 22
0.0
 32
0.0
 14
0.0
 24
0.0
 34
0.0
 15
0.0
 25
0.0
 35
0.0
146
0.0
 13
0.0
 23
0.0
 33
0.0
 16
0.0
 26
0.0
 36
0.0
 17
0.0
 27
0.0
 37
0.0
 76
     0
330
B
331
349
  0
LAYOUT
  5
20
102
{ACAD_REACTORS
330
1E
102
}
330
1E
100
AcDbPlotSettings
  1

  2
none_device
  4
ISO_A3_(420.00_x_297.00_MM)
  6

 40
7.5
 41
20.0
 42
7.5
 43
20.0
 44
420.0
 45
297.0
 46
0.0
 47
0.0
 48
0.0
 49
0.0
140
0.0
141
0.0
142
1.0
143
1.0
 70
  1024
 72
     1
 73
     0
 74
     0
  7

 75
     0
 76
     0
 77
     2
 78
   300
147
1.0
148
0.0
149
0.0
100
AcDbLayout
  1
Model
 70
     0
 71
     1
 10
0.0
 20
0.0
 11
2100.0
 21
2970.0
 12
0.0
 22
0.0
 32
0.0
 14
0.0
 24
0.0
 34
-0.000000006806772
 15
2100.0
 25
2970.0
 35
1352.227712631226
146
0.0
 13
0.0
 23
0.0
 33
0.0
 16
0.0
 26
0.0
 36
0.0
 17
0.0
 27
0.0
 37
0.0
 76
     0
330
A
331
15
  0
MATERIAL
  5
265
102
{ACAD_REACTORS
330
263
102
}
330
263
100
AcDbMaterial
  1
ByBlock
 72
     1
 94
      127
  0
MATERIAL
  5
264
102
{ACAD_REACTORS
330
263
102
}
330
263
100
AcDbMaterial
  1
ByLayer
 72
     1
 94
      127
  0
MATERIAL
  5
266
102
{ACAD_REACTORS
330
263
102
}
330
263
100
AcDbMaterial
  1
Global
 72
     1
 94
      127
  0
MLEADERSTYLE
  5
DAB
102
{ACAD_REACTORS
330
336
102
}
330
336
100
AcDbMLeaderStyle
170
     2
171
     1
172
     0
 90
        2
 40
0.0
 41
0.0
173
     1
 91
-1056964608
340
11
 92
       -2
290
     1
 42
2.0
291
     1
 43
8.0
  3
Standard
341
0
 44
4.0
300

342
17
174
     1
178
     6
175
     1
176
     0
 93
-1056964608
 45
4.0
292
     0
297
     0
 46
4.0
343
0
 94
-1056964608
 47
1.0
 49
1.0
140
1.0
293
     1
141
0.0
294
     1
177
     0
142
1.0
295
     0
296
     0
143
3.75
1001
ACAD_MLEADERVER
1070
     2
  0
MLINESTYLE
  5
1C
102
{ACAD_REACTORS
330
1B
102
}
330
1B
100
AcDbMlineStyle
  2
Standard
 70
     0
  3

 62
     0
 51
90.0
 52
90.0
 71
     2
 49
0.5
 62
   256
  6
BYLAYER
 49
-0.5
 62
   256
  6
BYLAYER
  0
ACDBPLACEHOLDER
  5
1D
102
{ACAD_REACTORS
330
1F
102
}
330
1F
  0
SCALE
  5
242
102
{ACAD_REACTORS
330
241
102
}
330
241
100
AcDbScale
 70
     0
300
1:1
140
1.0
141
1.0
290
     1
  0
SCALE
  5
243
102
{ACAD_REACTORS
330
241
102
}
330
241
100
AcDbScale
 70
     0
300
1:2
140
1.0
141
2.0
290
     0
  0
SCALE
  5
244
102
{ACAD_REACTORS
330
241
102
}
330
241
100
AcDbScale
 70
     0
300
1:4
140
1.0
141
4.0
290
     0
  0
SCALE
  5
245
102
{ACAD_REACTORS
330
241
102
}
330
241
100
AcDbScale
 70
     0
300
1:5
140
1.0
141
5.0
290
     0
  0
SCALE
  5
246
102
{ACAD_REACTORS
330
241
102
}
330
241
100
AcDbScale
 70
     0
300
1:8
140
1.0
141
8.0
290
     0
  0
SCALE
  5
247
102
{ACAD_REACTORS
330
241
102
}
330
241
100
AcDbScale
 70
     0
300
1:10
140
1.0
141
10.0
290
     0
  0
SCALE
  5
248
102
{ACAD_REACTORS
330
241
102
}
330
241
100
AcDbScale
 70
     0
300
1:16
140
1.0
141
16.0
290
     0
  0
SCALE
  5
249
102
{ACAD_REACTORS
330
241
102
}
330
241
100
AcDbScale
 70
     0
300
1:20
140
1.0
141
20.0
290
     0
  0
SCALE
  5
24A
102
{ACAD_REACTORS
330
241
102
}
330
241
100
AcDbScale
 70
     0
300
1:30
140
1.0
141
30.0
290
     0
  0
SCALE
  5
24B
102
{ACAD_REACTORS
330
241
102
}
330
241
100
AcDbScale
 70
     0
300
1:40
140
1.0
141
40.0
290
     0
  0
SCALE
  5
24C
102
{ACAD_REACTORS
330
241
102
}
330
241
100
AcDbScale
 70
     0
300
1:50
140
1.0
141
50.0
290
     0
  0
SCALE
  5
24D
102
{ACAD_REACTORS
330
241
102
}
330
241
100
AcDbScale
 70
     0
300
1:100
140
1.0
141
100.0
290
     0
  0
SCALE
  5
24E
102
{ACAD_REACTORS
330
241
102
}
330
241
100
AcDbScale
 70
     0
300
2:1
140
2.0
141
1.0
290
     0
  0
SCALE
  5
24F
102
{ACAD_REACTORS
330
241
102
}
330
241
100
AcDbScale
 70
     0
300
4:1
140
4.0
141
1.0
290
     0
  0
SCALE
  5
250
102
{ACAD_REACTORS
330
241
102
}
330
241
100
AcDbScale
 70
     0
300
8:1
140
8.0
141
1.0
290
     0
  0
SCALE
  5
251
102
{ACAD_REACTORS
330
241
102
}
330
241
100
AcDbScale
 70
     0
300
10:1
140
10.0
141
1.0
290
     0
  0
SCALE
  5
252
102
{ACAD_REACTORS
330
241
102
}
330
241
100
AcDbScale
 70
     0
300
100:1
140
100.0
141
1.0
290
     0
  0
SCALE
  5
253
102
{ACAD_REACTORS
330
241
102
}
330
241
100
AcDbScale
 70
     0
300
1/128" = 1'-0"
140
0.0078125
141
12.0
290
     0
  0
SCALE
  5
254
102
{ACAD_REACTORS
330
241
102
}
330
241
100
AcDbScale
 70
     0
300
1/64" = 1'-0"
140
0.015625
141
12.0
290
     0
  0
SCALE
  5
255
102
{ACAD_REACTORS
330
241
102
}
330
241
100
AcDbScale
 70
     0
300
1/32" = 1'-0"
140
0.03125
141
12.0
290
     0
  0
SCALE
  5
256
102
{ACAD_REACTORS
330
241
102
}
330
241
100
AcDbScale
 70
     0
300
1/16" = 1'-0"
140
0.0625
141
12.0
290
     0
  0
SCALE
  5
257
102
{ACAD_REACTORS
330
241
102
}
330
241
100
AcDbScale
 70
     0
300
3/32" = 1'-0"
140
0.09375
141
12.0
290
     0
  0
SCALE
  5
258
102
{ACAD_REACTORS
330
241
102
}
330
241
100
AcDbScale
 70
     0
300
1/8" = 1'-0"
140
0.125
141
12.0
290
     0
  0
SCALE
  5
259
102
{ACAD_REACTORS
330
241
102
}
330
241
100
AcDbScale
 70
     0
300
3/16" = 1'-0"
140
0.1875
141
12.0
290
     0
  0
SCALE
  5
25A
102
{ACAD_REACTORS
330
241
102
}
330
241
100
AcDbScale
 70
     0
300
1/4" = 1'-0"
140
0.25
141
12.0
290
     0
  0
SCALE
  5
25B
102
{ACAD_REACTORS
330
241
102
}
330
241
100
AcDbScale
 70
     0
300
3/8" = 1'-0"
140
0.375
141
12.0
290
     0
  0
SCALE
  5
25C
102
{ACAD_REACTORS
330
241
102
}
330
241
100
AcDbScale
 70
     0
300
1/2" = 1'-0"
140
0.5
141
12.0
290
     0
  0
SCALE
  5
25D
102
{ACAD_REACTORS
330
241
102
}
330
241
100
AcDbScale
 70
     0
300
3/4" = 1'-0"
140
0.75
141
12.0
290
     0
  0
SCALE
  5
25E
102
{ACAD_REACTORS
330
241
102
}
330
241
100
AcDbScale
 70
     0
300
1" = 1'-0"
140
1.0
141
12.0
290
     0
  0
SCALE
  5
25F
102
{ACAD_REACTORS
330
241
102
}
330
241
100
AcDbScale
 70
     0
300
1-1/2" = 1'-0"
140
1.5
141
12.0
290
     0
  0
SCALE
  5
260
102
{ACAD_REACTORS
330
241
102
}
330
241
100
AcDbScale
 70
     0
300
3" = 1'-0"
140
3.0
141
12.0
290
     0
  0
SCALE
  5
261
102
{ACAD_REACTORS
330
241
102
}
330
241
100
AcDbScale
 70
     0
300
6" = 1'-0"
140
6.0
141
12.0
290
     0
  0
SCALE
  5
262
102
{ACAD_REACTORS
330
241
102
}
330
241
100
AcDbScale
 70
     0
300
1'-0" = 1'-0"
140
12.0
141
12.0
290
     0
  0
TABLESTYLE
  5
279
102
{ACAD_REACTORS
330
278
102
}
102
{ACAD_XDICTIONARY
360
3BDD
102
}
330
278
100
AcDbTableStyle
  3
Standard
 70
     0
 71
     0
 40
0.06
 41
0.06
280
     0
281
     0
  7
Standard
140
4.5
170
     2
 62
     0
 63
   257
283
     0
 90
        4
 91
        0
  1

274
    -2
284
     1
 64
     0
275
    -2
285
     1
 65
     0
276
    -2
286
     1
 66
     0
277
    -2
287
     1
 67
     0
278
    -2
288
     1
 68
     0
279
    -2
289
     1
 69
     0
  7
Standard
140
6.0
170
     5
 62
     0
 63
   257
283
     0
 90
        4
 91
        0
  1

274
    -2
284
     1
 64
     0
275
    -2
285
     1
 65
     0
276
    -2
286
     1
 66
     0
277
    -2
287
     1
 67
     0
278
    -2
288
     1
 68
     0
279
    -2
289
     1
 69
     0
  7
Standard
140
4.5
170
     5
 62
     0
 63
   257
283
     0
 90
        4
 91
        0
  1

274
    -2
284
     1
 64
     0
275
    -2
285
     1
 65
     0
276
    -2
286
     1
 66
     0
277
    -2
287
     1
 67
     0
278
    -2
288
     1
 68
     0
279
    -2
289
     1
 69
     0
  0
VISUALSTYLE
  5
26C
102
{ACAD_REACTORS
330
267
102
}
330
267
100
AcDbVisualStyle
  2
2dWireframe
 70
     4
 71
     0
 72
     2
 73
     0
 90
        0
 40
-0.6
 41
-30.0
 62
     5
 63
     7
421
 16777215
 74
     1
 91
        4
 64
     7
 65
   257
 75
     1
175
     1
 42
1.0
 92
        0
 66
   257
 43
1.0
 76
     1
 77
     6
 78
     2
 67
     7
 79
     5
170
     0
171
     0
290
     0
174
     0
 93
        1
 44
0.0
173
     0
291
     0
 45
0.0
  0
VISUALSTYLE
  5
26E
102
{ACAD_REACTORS
330
267
102
}
330
267
100
AcDbVisualStyle
  2
3D Hidden
 70
     6
 71
     1
 72
     2
 73
     2
 90
        0
 40
-0.6
 41
-30.0
 62
     5
 63
     7
421
 16777215
 74
     2
 91
        2
 64
     7
 65
   257
 75
     2
175
     1
 42
40.0
 92
        0
 66
   257
 43
1.0
 76
     1
 77
     6
 78
     2
 67
     7
 79
     3
170
     0
171
     0
290
     0
174
     0
 93
        1
 44
0.0
173
     0
291
     0
 45
0.0
  0
VISUALSTYLE
  5
26D
102
{ACAD_REACTORS
330
267
102
}
330
267
100
AcDbVisualStyle
  2
3dWireframe
 70
     5
 71
     0
 72
     2
 73
     0
 90
        0
 40
-0.6
 41
-30.0
 62
     5
 63
     7
421
 16777215
 74
     1
 91
        4
 64
     7
 65
   257
 75
     1
175
     1
 42
1.0
 92
        0
 66
   257
 43
1.0
 76
     1
 77
     6
 78
     2
 67
     7
 79
     5
170
     0
171
     0
290
     0
174
     0
 93
        1
 44
0.0
173
     0
291
     0
 45
0.0
  0
VISUALSTYLE
  5
26F
102
{ACAD_REACTORS
330
267
102
}
330
267
100
AcDbVisualStyle
  2
Basic
 70
     7
 71
     1
 72
     0
 73
     1
 90
        0
 40
-0.6
 41
-30.0
 62
     5
 63
     7
421
 16777215
 74
     0
 91
        4
 64
     7
 65
   257
 75
     1
175
     1
 42
1.0
 92
        8
 66
     7
 43
1.0
 76
     1
 77
     6
 78
     2
 67
     7
 79
     5
170
     0
171
     0
290
     0
174
     0
 93
        1
 44
0.0
173
     0
291
     1
 45
0.0
  0
VISUALSTYLE
  5
273
102
{ACAD_REACTORS
330
267
102
}
330
267
100
AcDbVisualStyle
  2
Brighten
 70
    12
 71
     2
 72
     2
 73
     0
 90
        0
 40
-0.6
 41
-30.0
 62
     5
 63
     7
421
 16777215
 74
     1
 91
        4
 64
     7
 65
   257
 75
     1
175
     1
 42
1.0
 92
        8
 66
     7
 43
1.0
 76
     1
 77
     6
 78
     2
 67
     7
 79
     5
170
     0
171
     0
290
     0
174
     0
 93
        1
 44
50.0
173
     0
291
     1
 45
0.0
  0
VISUALSTYLE
  5
277
102
{ACAD_REACTORS
330
267
102
}
330
267
100
AcDbVisualStyle
  2
ColorChange
 70
    16
 71
     2
 72
     2
 73
     3
 90
        0
 40
-0.6
 41
-30.0
 62
     5
 63
     8
421
  8421504
 74
     1
 91
        4
 64
     7
 65
   257
 75
     1
175
     1
 42
1.0
 92
        8
 66
     8
424
  8421504
 43
1.0
 76
     1
 77
     6
 78
     2
 67
     7
 79
     5
170
     0
171
     0
290
     0
174
     0
 93
        1
 44
0.0
173
     0
291
     1
 45
0.0
  0
VISUALSTYLE
  5
271
102
{ACAD_REACTORS
330
267
102
}
330
267
100
AcDbVisualStyle
  2
Conceptual
 70
     9
 71
     3
 72
     2
 73
     0
 90
        0
 40
-0.6
 41
-30.0
 62
     5
 63
     7
421
 16777215
 74
     2
 91
        2
 64
     7
 65
   257
 75
     1
175
     1
 42
40.0
 92
        8
 66
     7
 43
1.0
 76
     1
 77
     6
 78
     2
 67
     7
 79
     3
170
     0
171
     0
290
     0
174
     0
 93
        1
 44
0.0
173
     0
291
     0
 45
0.0
  0
VISUALSTYLE
  5
272
102
{ACAD_REACTORS
330
267
102
}
330
267
100
AcDbVisualStyle
  2
Dim
 70
    11
 71
     2
 72
     2
 73
     0
 90
        0
 40
-0.6
 41
-30.0
 62
     5
 63
     7
421
 16777215
 74
     1
 91
        4
 64
     7
 65
   257
 75
     1
175
     1
 42
1.0
 92
        8
 66
     7
 43
1.0
 76
     1
 77
     6
 78
     2
 67
     7
 79
     5
170
     0
171
     0
290
     0
174
     0
 93
        1
 44
-50.0
173
     0
291
     1
 45
0.0
  0
VISUALSTYLE
  5
8FE
102
{ACAD_REACTORS
330
267
102
}
330
267
100
AcDbVisualStyle
  2
EdgeColorOff
 70
    22
 71
     2
 72
     2
 73
     0
 90
        0
 40
0.6
 41
30.0
 62
     5
 63
     7
421
 16777215
 74
     1
 91
        4
 64
     7
 65
   257
 75
     1
175
     1
 42
1.0
 92
        8
 66
     7
 43
1.0
 76
     1
 77
     6
 78
     2
 67
     7
 79
     5
170
     0
171
     0
290
     0
174
     0
 93
        1
 44
0.0
173
     0
291
     1
 45
0.0
  0
VISUALSTYLE
  5
276
102
{ACAD_REACTORS
330
267
102
}
330
267
100
AcDbVisualStyle
  2
Facepattern
 70
    15
 71
     2
 72
     2
 73
     0
 90
        0
 40
-0.6
 41
-30.0
 62
     5
 63
     7
421
 16777215
 74
     1
 91
        4
 64
     7
 65
   257
 75
     1
175
     1
 42
1.0
 92
        8
 66
     7
 43
1.0
 76
     1
 77
     6
 78
     2
 67
     7
 79
     5
170
     0
171
     0
290
     0
174
     0
 93
        1
 44
0.0
173
     0
291
     1
 45
0.0
  0
VISUALSTYLE
  5
268
102
{ACAD_REACTORS
330
267
102
}
330
267
100
AcDbVisualStyle
  2
Flat
 70
     0
 71
     2
 72
     1
 73
     1
 90
        2
 40
-0.6
 41
30.0
 62
     5
 63
     7
421
 16777215
 74
     0
 91
        4
 64
     7
 65
   257
 75
     1
175
     1
 42
1.0
 92
        8
 66
     7
 43
1.0
 76
     1
 77
     6
 78
     2
 67
     7
 79
     5
170
     0
171
     0
290
     0
174
     0
 93
       13
 44
0.0
173
     0
291
     1
 45
0.0
  0
VISUALSTYLE
  5
269
102
{ACAD_REACTORS
330
267
102
}
330
267
100
AcDbVisualStyle
  2
FlatWithEdges
 70
     1
 71
     2
 72
     1
 73
     1
 90
        2
 40
-0.6
 41
30.0
 62
     5
 63
     7
421
 16777215
 74
     1
 91
        4
 64
     7
 65
   257
 75
     1
175
     1
 42
1.0
 92
        0
 66
   257
 43
1.0
 76
     1
 77
     6
 78
     2
 67
     7
 79
     5
170
     0
171
     0
290
     0
174
     0
 93
       13
 44
0.0
173
     0
291
     1
 45
0.0
  0
VISUALSTYLE
  5
26A
102
{ACAD_REACTORS
330
267
102
}
330
267
100
AcDbVisualStyle
  2
Gouraud
 70
     2
 71
     2
 72
     2
 73
     1
 90
        2
 40
-0.6
 41
30.0
 62
     5
 63
     7
421
 16777215
 74
     0
 91
        4
 64
     7
 65
   257
 75
     1
175
     1
 42
1.0
 92
        0
 66
     7
 43
1.0
 76
     1
 77
     6
 78
     2
 67
     7
 79
     5
170
     0
171
     0
290
     0
174
     0
 93
       13
 44
0.0
173
     0
291
     1
 45
0.0
  0
VISUALSTYLE
  5
26B
102
{ACAD_REACTORS
330
267
102
}
330
267
100
AcDbVisualStyle
  2
GouraudWithEdges
 70
     3
 71
     2
 72
     2
 73
     1
 90
        2
 40
-0.6
 41
30.0
 62
     5
 63
     7
421
 16777215
 74
     1
 91
        4
 64
     7
 65
   257
 75
     1
175
     1
 42
1.0
 92
        0
 66
   257
 43
1.0
 76
     1
 77
     6
 78
     2
 67
     7
 79
     5
170
     0
171
     0
290
     0
174
     0
 93
       13
 44
0.0
173
     0
291
     1
 45
0.0
  0
VISUALSTYLE
  5
8FB
102
{ACAD_REACTORS
330
267
102
}
330
267
100
AcDbVisualStyle
  2
Hidden
 70
     6
 71
     1
 72
     2
 73
     2
 90
        0
 40
0.6
 41
30.0
 62
     5
 63
     7
421
 16777215
 74
     2
 91
        2
 64
     7
 65
   257
 75
     2
175
     1
 42
40.0
 92
        0
 66
   257
 43
1.0
 76
     1
 77
     6
 78
     2
 67
     7
 79
     3
170
     0
171
     0
290
     0
174
     0
 93
        1
 44
0.0
173
     0
291
     0
 45
0.0
  0
VISUALSTYLE
  5
8FC
102
{ACAD_REACTORS
330
267
102
}
330
267
100
AcDbVisualStyle
  2
JitterOff
 70
    20
 71
     2
 72
     2
 73
     0
 90
        0
 40
0.6
 41
30.0
 62
     5
 63
     7
421
 16777215
 74
     1
 91
        4
 64
     7
 65
   257
 75
     1
175
     1
 42
1.0
 92
       10
 66
     7
 43
1.0
 76
     1
 77
     6
 78
     2
 67
     7
 79
     5
170
     0
171
     0
290
     0
174
     0
 93
        1
 44
0.0
173
     0
291
     1
 45
0.0
  0
VISUALSTYLE
  5
275
102
{ACAD_REACTORS
330
267
102
}
330
267
100
AcDbVisualStyle
  2
Linepattern
 70
    14
 71
     2
 72
     2
 73
     0
 90
        0
 40
-0.6
 41
-30.0
 62
     5
 63
     7
421
 16777215
 74
     1
 91
        4
 64
     7
 65
   257
 75
     7
175
     7
 42
1.0
 92
        8
 66
     7
 43
1.0
 76
     1
 77
     6
 78
     2
 67
     7
 79
     5
170
     0
171
     0
290
     0
174
     0
 93
        1
 44
0.0
173
     0
291
     1
 45
0.0
  0
VISUALSTYLE
  5
8FD
102
{ACAD_REACTORS
330
267
102
}
330
267
100
AcDbVisualStyle
  2
OverhangOff
 70
    21
 71
     2
 72
     2
 73
     0
 90
        0
 40
0.6
 41
30.0
 62
     5
 63
     7
421
 16777215
 74
     1
 91
        4
 64
     7
 65
   257
 75
     1
175
     1
 42
1.0
 92
        9
 66
     7
 43
1.0
 76
     1
 77
     6
 78
     2
 67
     7
 79
     5
170
     0
171
     0
290
     0
174
     0
 93
        1
 44
0.0
173
     0
291
     1
 45
0.0
  0
VISUALSTYLE
  5
270
102
{ACAD_REACTORS
330
267
102
}
330
267
100
AcDbVisualStyle
  2
Realistic
 70
     8
 71
     2
 72
     2
 73
     0
 90
        0
 40
-0.6
 41
-30.0
 62
     5
 63
     7
421
 16777215
 74
     1
 91
        0
 64
     7
 65
   257
 75
     1
175
     1
 42
1.0
 92
        8
 66
     8
424
  7895160
 43
1.0
 76
     1
 77
     6
 78
     2
 67
     7
 79
     5
170
     0
171
     0
290
     0
174
     0
 93
       13
 44
0.0
173
     0
291
     0
 45
0.0
  0
VISUALSTYLE
  5
903
102
{ACAD_REACTORS
330
267
102
}
330
267
100
AcDbVisualStyle
  2
Shaded
 70
    27
 71
     2
 72
     2
 73
     1
 90
        2
 40
0.6
 41
30.0
 62
     5
 63
     7
421
 16777215
 74
     0
 91
        4
 64
     7
 65
   257
 75
     1
175
     1
 42
1.0
 92
        8
 66
   257
 43
1.0
 76
     1
 77
     6
 78
     2
 67
     8
425
  7895160
 79
     3
170
     0
171
     0
290
     0
174
     0
 93
        5
 44
0.0
173
     0
291
     0
 45
0.0
  0
VISUALSTYLE
  5
902
102
{ACAD_REACTORS
330
267
102
}
330
267
100
AcDbVisualStyle
  2
Shaded with edges
 70
    26
 71
     2
 72
     2
 73
     1
 90
        2
 40
0.6
 41
30.0
 62
     5
 63
     7
421
 16777215
 74
     1
 91
       10
 64
     7
 65
   257
 75
     2
175
     1
 42
1.0
 92
        8
 66
   257
 43
1.0
 76
     1
 77
     6
 78
     2
 67
     7
 79
     3
170
     0
171
     0
290
     0
174
     0
 93
        5
 44
0.0
173
     0
291
     0
 45
0.0
  0
VISUALSTYLE
  5
8FF
102
{ACAD_REACTORS
330
267
102
}
330
267
100
AcDbVisualStyle
  2
Shades of Gray
 70
    23
 71
     2
 72
     2
 73
     3
 90
        0
 40
0.6
 41
30.0
 62
     5
 63
     7
421
 16777215
 74
     2
 91
        2
 64
     7
 65
     7
 75
     1
175
     1
 42
40.0
 92
        8
 66
     7
 43
1.0
 76
     1
 77
     6
 78
     2
 67
     7
 79
     3
170
     0
171
     0
290
     0
174
     0
 93
        1
 44
0.0
173
     0
291
     0
 45
0.0
  0
VISUALSTYLE
  5
900
102
{ACAD_REACTORS
330
267
102
}
330
267
100
AcDbVisualStyle
  2
Sketchy
 70
    24
 71
     1
 72
     2
 73
     2
 90
        0
 40
0.6
 41
30.0
 62
     5
 63
     7
421
 16777215
 74
     2
 91
        2
 64
     7
 65
     7
 75
     1
175
     1
 42
40.0
 92
       11
 66
     7
 43
1.0
 76
     1
 77
     6
 78
     2
 67
     7
 79
     6
170
     0
171
     0
290
     0
174
     0
 93
        1
 44
0.0
173
     0
291
     0
 45
0.0
  0
VISUALSTYLE
  5
274
102
{ACAD_REACTORS
330
267
102
}
330
267
100
AcDbVisualStyle
  2
Thicken
 70
    13
 71
     2
 72
     2
 73
     0
 90
        0
 40
-0.6
 41
-30.0
 62
     5
 63
     7
421
 16777215
 74
     1
 91
        4
 64
     7
 65
   257
 75
     1
175
     1
 42
1.0
 92
       12
 66
     7
 43
1.0
 76
     1
 77
     6
 78
     2
 67
     7
 79
     5
170
     0
171
     0
290
     0
174
     0
 93
        1
 44
0.0
173
     0
291
     1
 45
0.0
  0
VISUALSTYLE
  5
8FA
102
{ACAD_REACTORS
330
267
102
}
330
267
100
AcDbVisualStyle
  2
Wireframe
 70
     5
 71
     0
 72
     2
 73
     0
 90
        0
 40
0.6
 41
30.0
 62
     5
 63
     7
421
 16777215
 74
     1
 91
        4
 64
     7
 65
   257
 75
     1
175
     1
 42
1.0
 92
        0
 66
   257
 43
1.0
 76
     1
 77
     6
 78
     2
 67
     7
 79
     3
170
     0
171
     0
290
     0
174
     0
 93
        1
 44
0.0
173
     0
291
     0
 45
0.0
  0
VISUALSTYLE
  5
901
102
{ACAD_REACTORS
330
267
102
}
330
267
100
AcDbVisualStyle
  2
X-Ray
 70
    25
 71
     2
 72
     2
 73
     1
 90
        1
 40
0.5
 41
30.0
 62
     5
 63
     7
421
 16777215
 74
     1
 91
        0
 64
     7
 65
   257
 75
     1
175
     1
 42
1.0
 92
        8
 66
     7
 43
1.0
 76
     1
 77
     6
 78
     2
 67
     7
 79
     3
170
     0
171
     0
290
     0
174
     0
 93
       13
 44
0.0
173
     0
291
     0
 45
0.0
  0
DICTIONARYVAR
  5
331
102
{ACAD_REACTORS
330
330
102
}
330
330
100
DictionaryVariables
280
     0
  1
1:1
  0
DICTIONARYVAR
  5
DB1
102
{ACAD_REACTORS
330
330
102
}
330
330
100
DictionaryVariables
280
     0
  1
Standard
  0
DICTIONARYVAR
  5
335
102
{ACAD_REACTORS
330
330
102
}
330
330
100
DictionaryVariables
280
     0
  1
Standard
  0
DICTIONARYVAR
  5
D52
102
{ACAD_REACTORS
330
330
102
}
330
330
100
DictionaryVariables
280
     0
  1
ByLayer
  0
DICTIONARYVAR
  5
896
102
{ACAD_REACTORS
330
330
102
}
330
330
100
DictionaryVariables
280
     0
  1
0
  0
DICTIONARYVAR
  5
ECE
102
{ACAD_REACTORS
330
E3E
102
}
330
E3E
100
DictionaryVariables
280
     0
  1
0.261799
  0
DICTIONARYVAR
  5
ECC
102
{ACAD_REACTORS
330
E3E
102
}
330
E3E
100
DictionaryVariables
280
     0
  1
0.400000
  0
DICTIONARYVAR
  5
ECD
102
{ACAD_REACTORS
330
E3E
102
}
330
E3E
100
DictionaryVariables
280
     0
  1
0.250000
  0
DICTIONARYVAR
  5
ECF
102
{ACAD_REACTORS
330
E3E
102
}
330
E3E
100
DictionaryVariables
280
     0
  1
1
  0
FIELD
  5
1467
102
{ACAD_REACTORS
330
146C
102
}
330
146C
100
AcDbField
  1
_text
  2
{%<\_FldIdx 0>%N}
 90
        1
360
146B
 97
        0
 91
       63
 92
        0
 94
        8
 95
        2
 96
        0
300

 93
        1
  6
ACFD_FIELDTEXT_CHECKSUM
 93
        2
 90
        2
140
4516.0
 94
        0
300

302

304
ACVALUE_END
  7
ACFD_FIELD_VALUE
 93
        6
 90
        4
  1
{20171207N}
 94
        0
300

302

304
ACVALUE_END
301
{20171207N}
 98
       11
  0
DICTIONARY
  5
3BDD
330
279
100
AcDbDictionary
280
     1
281
     1
  3
ACAD_ROUNDTRIP_2008_TABLESTYLE_CELLSTYLEMAP
360
3BDE
  0
FIELD
  5
146B
330
1467
100
AcDbField
  1
AcVar
  2
\AcVar Date \f "yyyyMMdd"
 90
        0
 97
        0
 91
       63
 92
        0
 94
        8
 95
        2
 96
        0
300

 93
        1
  6
Variable
 93
        2
 90
        4
  1
Date
 94
        0
300

302

304
ACVALUE_END
  7
ACFD_FIELD_VALUE
 93
        6
 90
        8
 92
       16
310
E1070C00000006000F0038002A000000
 94
        0
300
yyyyMMdd
302

304
ACVALUE_END
301
20171207
 98
        8
  0
CELLSTYLEMAP
  5
3BDE
102
{ACAD_REACTORS
330
3BDD
102
}
330
3BDD
100
AcDbCellStyleMap
 90
        3
300
CELLSTYLE
  1
TABLEFORMAT_BEGIN
 90
        5
170
     1
 91
        0
 92
    32768
 62
   257
 93
        1
300
CONTENTFORMAT
  1
CONTENTFORMAT_BEGIN
 90
        0
 91
        0
 92
        4
 93
        0
300

 40
0.0
140
1.0
 94
        5
 62
     0
340
17
144
6.0
309
CONTENTFORMAT_END
171
     1
301
MARGIN
  1
CELLMARGIN_BEGIN
 40
0.06
 40
0.06
 40
0.06
 40
0.06
 40
0.18
 40
0.18
309
CELLMARGIN_END
 94
        6
 95
        1
302
GRIDFORMAT
  1
GRIDFORMAT_BEGIN
 90
        0
 91
        1
 62
     0
 92
       -2
340
0
 93
        0
 40
0.045
309
GRIDFORMAT_END
 95
        2
302
GRIDFORMAT
  1
GRIDFORMAT_BEGIN
 90
        0
 91
        1
 62
     0
 92
       -2
340
0
 93
        0
 40
0.045
309
GRIDFORMAT_END
 95
        4
302
GRIDFORMAT
  1
GRIDFORMAT_BEGIN
 90
        0
 91
        1
 62
     0
 92
       -2
340
0
 93
        0
 40
0.045
309
GRIDFORMAT_END
 95
        8
302
GRIDFORMAT
  1
GRIDFORMAT_BEGIN
 90
        0
 91
        1
 62
     0
 92
       -2
340
0
 93
        0
 40
0.045
309
GRIDFORMAT_END
 95
       16
302
GRIDFORMAT
  1
GRIDFORMAT_BEGIN
 90
        0
 91
        1
 62
     0
 92
       -2
340
0
 93
        0
 40
0.045
309
GRIDFORMAT_END
 95
       32
302
GRIDFORMAT
  1
GRIDFORMAT_BEGIN
 90
        0
 91
        1
 62
     0
 92
       -2
340
0
 93
        0
 40
0.045
309
GRIDFORMAT_END
309
TABLEFORMAT_END
  1
CELLSTYLE_BEGIN
 90
        1
 91
        1
300
_TITLE
309
CELLSTYLE_END
300
CELLSTYLE
  1
TABLEFORMAT_BEGIN
 90
        5
170
     1
 91
        0
 92
        0
 62
   257
 93
        1
300
CONTENTFORMAT
  1
CONTENTFORMAT_BEGIN
 90
        0
 91
        0
 92
        4
 93
        0
300

 40
0.0
140
1.0
 94
        5
 62
     0
340
17
144
4.5
309
CONTENTFORMAT_END
171
     1
301
MARGIN
  1
CELLMARGIN_BEGIN
 40
0.06
 40
0.06
 40
0.06
 40
0.06
 40
0.18
 40
0.18
309
CELLMARGIN_END
 94
        6
 95
        1
302
GRIDFORMAT
  1
GRIDFORMAT_BEGIN
 90
        0
 91
        1
 62
     0
 92
       -2
340
0
 93
        0
 40
0.045
309
GRIDFORMAT_END
 95
        2
302
GRIDFORMAT
  1
GRIDFORMAT_BEGIN
 90
        0
 91
        1
 62
     0
 92
       -2
340
0
 93
        0
 40
0.045
309
GRIDFORMAT_END
 95
        4
302
GRIDFORMAT
  1
GRIDFORMAT_BEGIN
 90
        0
 91
        1
 62
     0
 92
       -2
340
0
 93
        0
 40
0.045
309
GRIDFORMAT_END
 95
        8
302
GRIDFORMAT
  1
GRIDFORMAT_BEGIN
 90
        0
 91
        1
 62
     0
 92
       -2
340
0
 93
        0
 40
0.045
309
GRIDFORMAT_END
 95
       16
302
GRIDFORMAT
  1
GRIDFORMAT_BEGIN
 90
        0
 91
        1
 62
     0
 92
       -2
340
0
 93
        0
 40
0.045
309
GRIDFORMAT_END
 95
       32
302
GRIDFORMAT
  1
GRIDFORMAT_BEGIN
 90
        0
 91
        1
 62
     0
 92
       -2
340
0
 93
        0
 40
0.045
309
GRIDFORMAT_END
309
TABLEFORMAT_END
  1
CELLSTYLE_BEGIN
 90
        2
 91
        1
300
_HEADER
309
CELLSTYLE_END
300
CELLSTYLE
  1
TABLEFORMAT_BEGIN
 90
        5
170
     1
 91
        0
 92
        0
 62
   257
 93
        1
300
CONTENTFORMAT
  1
CONTENTFORMAT_BEGIN
 90
        0
 91
        0
 92
        4
 93
        0
300

 40
0.0
140
1.0
 94
        2
 62
     0
340
17
144
4.5
309
CONTENTFORMAT_END
171
     1
301
MARGIN
  1
CELLMARGIN_BEGIN
 40
0.06
 40
0.06
 40
0.06
 40
0.06
 40
0.18
 40
0.18
309
CELLMARGIN_END
 94
        6
 95
        1
302
GRIDFORMAT
  1
GRIDFORMAT_BEGIN
 90
        0
 91
        1
 62
     0
 92
       -2
340
0
 93
        0
 40
0.045
309
GRIDFORMAT_END
 95
        2
302
GRIDFORMAT
  1
GRIDFORMAT_BEGIN
 90
        0
 91
        1
 62
     0
 92
       -2
340
0
 93
        0
 40
0.045
309
GRIDFORMAT_END
 95
        4
302
GRIDFORMAT
  1
GRIDFORMAT_BEGIN
 90
        0
 91
        1
 62
     0
 92
       -2
340
0
 93
        0
 40
0.045
309
GRIDFORMAT_END
 95
        8
302
GRIDFORMAT
  1
GRIDFORMAT_BEGIN
 90
        0
 91
        1
 62
     0
 92
       -2
340
0
 93
        0
 40
0.045
309
GRIDFORMAT_END
 95
       16
302
GRIDFORMAT
  1
GRIDFORMAT_BEGIN
 90
        0
 91
        1
 62
     0
 92
       -2
340
0
 93
        0
 40
0.045
309
GRIDFORMAT_END
 95
       32
302
GRIDFORMAT
  1
GRIDFORMAT_BEGIN
 90
        0
 91
        1
 62
     0
 92
       -2
340
0
 93
        0
 40
0.045
309
GRIDFORMAT_END
309
TABLEFORMAT_END
  1
CELLSTYLE_BEGIN
 90
        3
 91
        2
300
_DATA
309
CELLSTYLE_END
  0
ENDSEC
  0
EOF
