  0
SECTION
  2
HEADER
  9
$ACADVER
  1
AC1021
  9
$ACADMAINTVER
 70
    25
  9
$DWGCODEPAGE
  3
ANSI_932
  9
$LASTSAVEDBY
  1
tform
  9
$INSBASE
 10
0.0
 20
0.0
 30
0.0
  9
$EXTMIN
 10
0.0
 20
0.0
 30
-0.0000000000000071
  9
$EXTMAX
 10
630.0
 20
891.0
 30
0.0000000000000071
  9
$LIMMIN
 10
0.0
 20
0.0
  9
$LIMMAX
 10
630.0
 20
891.0
  9
$ORTHOMODE
 70
     0
  9
$REGENMODE
 70
     1
  9
$FILLMODE
 70
     1
  9
$QTEXTMODE
 70
     0
  9
$MIRRTEXT
 70
     1
  9
$LTSCALE
 40
1.5
  9
$ATTMODE
 70
     1
  9
$TEXTSIZE
 40
2.5
  9
$TRACEWID
 40
1.0
  9
$TEXTSTYLE
  7
ＭＳ ゴシック
  9
$CLAYER
  8
DIM
  9
$CELTYPE
  6
ByLayer
  9
$CECOLOR
 62
   256
  9
$CELTSCALE
 40
1.0
  9
$DISPSILH
 70
     0
  9
$DIMSCALE
 40
1.0
  9
$DIMASZ
 40
3.0
  9
$DIMEXO
 40
10.0
  9
$DIMDLI
 40
0.9999999999999999
  9
$DIMRND
 40
0.0
  9
$DIMDLE
 40
0.0
  9
$DIMEXE
 40
0.0
  9
$DIMTP
 40
0.0
  9
$DIMTM
 40
0.0
  9
$DIMTXT
 40
8.0
  9
$DIMCEN
 40
0.0
  9
$DIMTSZ
 40
0.0
  9
$DIMTOL
 70
     0
  9
$DIMLIM
 70
     0
  9
$DIMTIH
 70
     0
  9
$DIMTOH
 70
     0
  9
$DIMSE1
 70
     0
  9
$DIMSE2
 70
     0
  9
$DIMTAD
 70
     1
  9
$DIMZIN
 70
    11
  9
$DIMBLK
  1
DOT
  9
$DIMASO
 70
     1
  9
$DIMSHO
 70
     1
  9
$DIMPOST
  1
<>
  9
$DIMAPOST
  1
[]
  9
$DIMALT
 70
     0
  9
$DIMALTD
 70
     1
  9
$DIMALTF
 40
1.0
  9
$DIMLFAC
 40
1.0
  9
$DIMTOFL
 70
     0
  9
$DIMTVP
 40
0.0
  9
$DIMTIX
 70
     1
  9
$DIMSOXD
 70
     0
  9
$DIMSAH
 70
     0
  9
$DIMBLK1
  1

  9
$DIMBLK2
  1

  9
$DIMSTYLE
  2
tfrom線あり
  9
$DIMCLRD
 70
     0
  9
$DIMCLRE
 70
     0
  9
$DIMCLRT
 70
     0
  9
$DIMTFAC
 40
1.0
  9
$DIMGAP
 40
6.0
  9
$DIMJUST
 70
     0
  9
$DIMSD1
 70
     0
  9
$DIMSD2
 70
     0
  9
$DIMTOLJ
 70
     1
  9
$DIMTZIN
 70
    11
  9
$DIMALTZ
 70
    11
  9
$DIMALTTZ
 70
    11
  9
$DIMUPT
 70
     0
  9
$DIMDEC
 70
     0
  9
$DIMTDEC
 70
     1
  9
$DIMALTU
 70
     2
  9
$DIMALTTD
 70
     2
  9
$DIMTXSTY
  7
ＭＳ ゴシック
  9
$DIMAUNIT
 70
     0
  9
$DIMADEC
 70
     2
  9
$DIMALTRND
 40
0.0
  9
$DIMAZIN
 70
     0
  9
$DIMDSEP
 70
    46
  9
$DIMATFIT
 70
     0
  9
$DIMFRAC
 70
     2
  9
$DIMLDRBLK
  1
DOT
  9
$DIMLUNIT
 70
     2
  9
$DIMLWD
 70
    -2
  9
$DIMLWE
 70
    -2
  9
$DIMTMOVE
 70
     0
  9
$DIMFXL
 40
1.0
  9
$DIMFXLON
 70
     0
  9
$DIMJOGANG
 40
0.7853981633974483
  9
$DIMTFILL
 70
     0
  9
$DIMTFILLCLR
 70
     0
  9
$DIMARCSYM
 70
     0
  9
$DIMLTYPE
  6

  9
$DIMLTEX1
  6

  9
$DIMLTEX2
  6

  9
$LUNITS
 70
     2
  9
$LUPREC
 70
     0
  9
$SKETCHINC
 40
0.1
  9
$FILLETRAD
 40
0.0
  9
$AUNITS
 70
     0
  9
$AUPREC
 70
     0
  9
$MENU
  1
acad
  9
$ELEVATION
 40
0.0
  9
$PELEVATION
 40
0.0
  9
$THICKNESS
 40
0.0
  9
$LIMCHECK
 70
     0
  9
$CHAMFERA
 40
0.0
  9
$CHAMFERB
 40
0.0
  9
$CHAMFERC
 40
0.0
  9
$CHAMFERD
 40
0.0
  9
$SKPOLY
 70
     0
  9
$TDCREATE
 40
2447893.375
  9
$TDUCREATE
 40
0.0
  9
$TDUPDATE
 40
2460377.70145309
  9
$TDUUPDATE
 40
2460377.32645309
  9
$TDINDWG
 40
0.1425318287
  9
$TDUSRTIMER
 40
0.0000700926
  9
$USRTIMER
 70
     1
  9
$ANGBASE
 50
0.0
  9
$ANGDIR
 70
     0
  9
$PDMODE
 70
     1
  9
$PDSIZE
 40
-2.0
  9
$PLINEWID
 40
0.0
  9
$SPLFRAME
 70
     0
  9
$SPLINETYPE
 70
     6
  9
$SPLINESEGS
 70
     8
  9
$HANDSEED
  5
179A9
  9
$SURFTAB1
 70
     6
  9
$SURFTAB2
 70
     6
  9
$SURFTYPE
 70
     6
  9
$SURFU
 70
     6
  9
$SURFV
 70
     6
  9
$UCSBASE
  2

  9
$UCSNAME
  2

  9
$UCSORG
 10
0.0
 20
0.0
 30
0.0
  9
$UCSXDIR
 10
1.0
 20
0.0
 30
0.0
  9
$UCSYDIR
 10
0.0
 20
1.0
 30
0.0
  9
$UCSORTHOREF
  2

  9
$UCSORTHOVIEW
 70
     0
  9
$UCSORGTOP
 10
0.0
 20
0.0
 30
0.0
  9
$UCSORGBOTTOM
 10
0.0
 20
0.0
 30
0.0
  9
$UCSORGLEFT
 10
0.0
 20
0.0
 30
0.0
  9
$UCSORGRIGHT
 10
0.0
 20
0.0
 30
0.0
  9
$UCSORGFRONT
 10
0.0
 20
0.0
 30
0.0
  9
$UCSORGBACK
 10
0.0
 20
0.0
 30
0.0
  9
$PUCSBASE
  2

  9
$PUCSNAME
  2

  9
$PUCSORG
 10
0.0
 20
0.0
 30
0.0
  9
$PUCSXDIR
 10
1.0
 20
0.0
 30
0.0
  9
$PUCSYDIR
 10
0.0
 20
1.0
 30
0.0
  9
$PUCSORTHOREF
  2

  9
$PUCSORTHOVIEW
 70
     0
  9
$PUCSORGTOP
 10
0.0
 20
0.0
 30
0.0
  9
$PUCSORGBOTTOM
 10
0.0
 20
0.0
 30
0.0
  9
$PUCSORGLEFT
 10
0.0
 20
0.0
 30
0.0
  9
$PUCSORGRIGHT
 10
0.0
 20
0.0
 30
0.0
  9
$PUCSORGFRONT
 10
0.0
 20
0.0
 30
0.0
  9
$PUCSORGBACK
 10
0.0
 20
0.0
 30
0.0
  9
$USERI1
 70
     0
  9
$USERI2
 70
     0
  9
$USERI3
 70
     0
  9
$USERI4
 70
     0
  9
$USERI5
 70
     0
  9
$USERR1
 40
0.0
  9
$USERR2
 40
0.0
  9
$USERR3
 40
0.0
  9
$USERR4
 40
0.0
  9
$USERR5
 40
0.0
  9
$WORLDVIEW
 70
     1
  9
$SHADEDGE
 70
     3
  9
$SHADEDIF
 70
    70
  9
$TILEMODE
 70
     1
  9
$MAXACTVP
 70
    64
  9
$PINSBASE
 10
0.0
 20
0.0
 30
0.0
  9
$PLIMCHECK
 70
     0
  9
$PEXTMIN
 10
0.0
 20
0.0
 30
0.0
  9
$PEXTMAX
 10
0.0
 20
0.0
 30
0.0
  9
$PLIMMIN
 10
-7.5
 20
-20.0
  9
$PLIMMAX
 10
412.5
 20
277.0
  9
$UNITMODE
 70
     0
  9
$VISRETAIN
 70
     0
  9
$PLINEGEN
 70
     1
  9
$PSLTSCALE
 70
     0
  9
$TREEDEPTH
 70
  3020
  9
$CMLSTYLE
  2
Standard
  9
$CMLJUST
 70
     0
  9
$CMLSCALE
 40
1.0
  9
$PROXYGRAPHICS
 70
     0
  9
$MEASUREMENT
 70
     1
  9
$CELWEIGHT
370
    -1
  9
$ENDCAPS
280
     0
  9
$JOINSTYLE
280
     0
  9
$LWDISPLAY
290
     1
  9
$INSUNITS
 70
     4
  9
$HYPERLINKBASE
  1

  9
$STYLESHEET
  1

  9
$XEDIT
290
     1
  9
$CEPSNTYPE
380
     0
  9
$PSTYLEMODE
290
     1
  9
$FINGERPRINTGUID
  2

  9
$VERSIONGUID
  2

  9
$EXTNAMES
290
     1
  9
$PSVPSCALE
 40
0.0
  9
$OLESTARTUP
290
     0
  9
$SORTENTS
280
   127
  9
$INDEXCTL
280
     0
  9
$HIDETEXT
280
     1
  9
$XCLIPFRAME
290
     0
  9
$HALOGAP
280
     0
  9
$OBSCOLOR
 70
   257
  9
$OBSLTYPE
280
     0
  9
$INTERSECTIONDISPLAY
280
     0
  9
$INTERSECTIONCOLOR
 70
   257
  9
$DIMASSOC
280
     2
  9
$PROJECTNAME
  1

  9
$CAMERADISPLAY
290
     0
  9
$LENSLENGTH
 40
50.0
  9
$CAMERAHEIGHT
 40
0.0
  9
$STEPSPERSEC
 40
2.0
  9
$STEPSIZE
 40
6.0
  9
$3DDWFPREC
 40
2.0
  9
$PSOLWIDTH
 40
0.25
  9
$PSOLHEIGHT
 40
4.0
  9
$LOFTANG1
 40
1.570796326794897
  9
$LOFTANG2
 40
1.570796326794897
  9
$LOFTMAG1
 40
0.0
  9
$LOFTMAG2
 40
0.0
  9
$LOFTPARAM
 70
     7
  9
$LOFTNORMALS
280
     1
  9
$LATITUDE
 40
37.795
  9
$LONGITUDE
 40
-122.394
  9
$NORTHDIRECTION
 40
0.0
  9
$TIMEZONE
 70
 -8000
  9
$LIGHTGLYPHDISPLAY
280
     1
  9
$TILEMODELIGHTSYNCH
280
     1
  9
$SOLIDHIST
280
     1
  9
$SHOWHIST
280
     1
  9
$DWFFRAME
280
     2
  9
$DGNFRAME
280
     2
  9
$REALWORLDSCALE
290
     1
  9
$INTERFERECOLOR
 62
   256
  9
$CSHADOW
280
     0
  9
$SHADOWPLANELOCATION
 40
0.0
  0
ENDSEC
  0
SECTION
  2
CLASSES
  0
CLASS
  1
LWPOLYLINE
  2
AcDbPolyline
  3
ObjectDBX Classes
 90
        0
 91
        1
280
     0
281
     1
  0
CLASS
  1
IMAGE
  2
AcDbRasterImage
  3
ISM
 90
      127
 91
        4
280
     0
281
     1
  0
CLASS
  1
OLE2FRAME
  2
AcDbOle2Frame
  3
ObjectDBX Classes
 90
        0
 91
        1
280
     0
281
     1
  0
CLASS
  1
HATCH
  2
AcDbHatch
  3
ObjectDBX Classes
 90
        0
 91
        1
280
     0
281
     1
  0
CLASS
  1
DICTIONARYVAR
  2
AcDbDictionaryVar
  3
ObjectDBX Classes
 90
        0
 91
        3
280
     0
281
     0
  0
CLASS
  1
RASTERVARIABLES
  2
AcDbRasterVariables
  3
ISM
 90
        0
 91
        3
280
     0
281
     0
  0
CLASS
  1
IMAGEDEF
  2
AcDbRasterImageDef
  3
ISM
 90
        0
 91
        3
280
     0
281
     0
  0
CLASS
  1
IMAGEDEF_REACTOR
  2
AcDbRasterImageDefReactor
  3
ISM
 90
        1
 91
        3
280
     0
281
     0
  0
CLASS
  1
IDBUFFER
  2
AcDbIdBuffer
  3
ObjectDBX Classes
 90
        0
 91
        3
280
     0
281
     0
  0
CLASS
  1
SPATIAL_FILTER
  2
AcDbSpatialFilter
  3
ObjectDBX Classes
 90
        0
 91
        3
280
     0
281
     0
  0
CLASS
  1
XRECORD
  2
AcDbXrecord
  3
ObjectDBX Classes
 90
        0
 91
        1
280
     0
281
     0
  0
CLASS
  1
SORTENTSTABLE
  2
AcDbSortentsTable
  3
ObjectDBX Classes
 90
        0
 91
        3
280
     0
281
     0
  0
CLASS
  1
LAYER_INDEX
  2
AcDbLayerIndex
  3
ObjectDBX Classes
 90
        0
 91
        3
280
     0
281
     0
  0
CLASS
  1
SPATIAL_INDEX
  2
AcDbSpatialIndex
  3
AutoCAD 2000
 90
        0
 91
        3
280
     0
281
     0
  0
CLASS
  1
OBJECT_PTR
  2
CAseDLPNTableRecord
  3
ASE-LPNTableRecord
 90
        1
 91
        3
280
     0
281
     0
  0
CLASS
  1
LAYOUT
  2
AcDbLayout
  3
ObjectDBX Classes
 90
        0
 91
        1
280
     0
281
     0
  0
CLASS
  1
PLOTSETTINGS
  2
AcDbPlotSettings
  3
ObjectDBX Classes
 90
        0
 91
        3
280
     0
281
     0
  0
CLASS
  1
ACDBDICTIONARYWDFLT
  2
AcDbDictionaryWithDefault
  3
ObjectDBX Classes
 90
        0
 91
        3
280
     0
281
     0
  0
CLASS
  1
ACDBPLACEHOLDER
  2
AcDbPlaceHolder
  3
ObjectDBX Classes
 90
        0
 91
        1
280
     0
281
     0
  0
CLASS
  1
SCALE
  2
AcDbScale
  3
ObjectDBX Classes
 90
     1153
 91
        3
280
     0
281
     0
  0
CLASS
  1
MATERIAL
  2
AcDbMaterial
  3
ObjectDBX Classes
 90
     1153
 91
        3
280
     0
281
     0
  0
CLASS
  1
VISUALSTYLE
  2
AcDbVisualStyle
  3
ObjectDBX Classes
 90
     4095
 91
        3
280
     0
281
     0
  0
CLASS
  1
TABLESTYLE
  2
AcDbTableStyle
  3
ObjectDBX Classes
 90
     4095
 91
        3
280
     0
281
     0
  0
CLASS
  1
DIMASSOC
  2
AcDbDimAssoc
  3
"AcDbDimAssoc|Product Desc:     AcDim ARX App For Dimension|Company:          Autodesk, Inc.|WEB Address:      www.autodesk.com"
 90
        0
 91
        3
280
     0
281
     0
  0
CLASS
  1
CELLSTYLEMAP
  2
AcDbCellStyleMap
  3
ObjectDBX Classes
 90
     1152
 91
        3
280
     0
281
     0
  0
CLASS
  1
SUN
  2
AcDbSun
  3
SCENEOE
 90
     1153
 91
        3
280
     0
281
     0
  0
CLASS
  1
MLEADERSTYLE
  2
AcDbMLeaderStyle
  3
ACDB_MLEADERSTYLE_CLASS
 90
     4095
 91
        3
280
     0
281
     0
  0
CLASS
  1
FIELD
  2
AcDbField
  3
ObjectDBX Classes
 90
     1152
 91
        3
280
     0
281
     0
  0
CLASS
  1
FIELDLIST
  2
AcDbFieldList
  3
ObjectDBX Classes
 90
     1152
 91
        3
280
     0
281
     0
  0
ENDSEC
  0
SECTION
  2
TABLES
  0
TABLE
  2
VPORT
  5
7
330
0
100
AcDbSymbolTable
 70
     1
  0
VPORT
  5
15
330
7
100
AcDbSymbolTableRecord
100
AcDbViewportTableRecord
  2
*ACTIVE
 70
     0
 10
0.0
 20
0.0
 11
1.0
 21
1.0
 12
406.0201356708992
 22
371.9012854698341
 13
0.0
 23
0.0
 14
1.0
 24
1.0
 15
0.0
 25
0.0
 16
0.0
 26
0.0
 36
1.0
 17
-91.02013567089915
 27
73.59871453016592
 37
-46.86809886248109
 40
908.82
 41
2.136546184738956
 42
50.0
 43
0.0
 44
0.0
 50
0.0
 51
0.0
 71
    16
 72
  2000
 73
     1
 74
     1
 75
     0
 76
     0
 77
     0
 78
     0
281
     0
 65
     1
110
0.0
120
0.0
130
0.0
111
1.0
121
0.0
131
0.0
112
0.0
122
1.0
132
0.0
 79
     0
146
0.0
348
3666
 60
     3
 61
     5
292
     1
282
     1
141
0.0
142
0.0
 63
   256
361
904
  0
ENDTAB
  0
TABLE
  2
LTYPE
  5
4
330
0
100
AcDbSymbolTable
 70
     3
  0
LTYPE
  5
11
330
4
100
AcDbSymbolTableRecord
100
AcDbLinetypeTableRecord
  2
ByBlock
 70
     0
  3

 72
    65
 73
     0
 40
0.0
  0
LTYPE
  5
12
330
4
100
AcDbSymbolTableRecord
100
AcDbLinetypeTableRecord
  2
ByLayer
 70
     0
  3

 72
    65
 73
     0
 40
0.0
  0
LTYPE
  5
13
330
4
100
AcDbSymbolTableRecord
100
AcDbLinetypeTableRecord
  2
Continuous
 70
     0
  3
Solid line
 72
    65
 73
     0
 40
0.0
  0
LTYPE
  5
D6C
330
4
100
AcDbSymbolTableRecord
100
AcDbLinetypeTableRecord
  2
BORDER
 70
     0
  3
Border __  __  . __  __  . __  __  . __  __  . 
 72
    65
 73
     6
 40
44.45
 49
12.7
 74
     0
 49
-6.35
 74
     0
 49
12.7
 74
     0
 49
-6.35
 74
     0
 49
0.0
 74
     0
 49
-6.35
 74
     0
  0
LTYPE
  5
D6D
330
4
100
AcDbSymbolTableRecord
100
AcDbLinetypeTableRecord
  2
HIDDEN
 70
     0
  3
Hidden _ _ _ _ _ _ _ _ _ _ _ _ _ _ _ _ _ _ _ _ 
 72
    65
 73
     2
 40
9.524999999999999
 49
6.35
 74
     0
 49
-3.175
 74
     0
  0
ENDTAB
  0
TABLE
  2
LAYER
  5
2
102
{ACAD_XDICTIONARY
360
2E1
102
}
330
0
100
AcDbSymbolTable
 70
     7
  0
LAYER
  5
14
330
2
100
AcDbSymbolTableRecord
100
AcDbLayerTableRecord
  2
0
 70
     0
 62
     7
  6
Continuous
370
    -3
390
1D
347
266
  0
LAYER
  5
4B
330
2
100
AcDbSymbolTableRecord
100
AcDbLayerTableRecord
  2
TEMPLATE
 70
     0
 62
     7
  6
Continuous
370
    20
390
1D
347
266
  0
LAYER
  5
4C
330
2
100
AcDbSymbolTableRecord
100
AcDbLayerTableRecord
  2
DIM
 70
     0
 62
     3
  6
Continuous
370
    13
390
1D
347
266
  0
LAYER
  5
4D
330
2
100
AcDbSymbolTableRecord
100
AcDbLayerTableRecord
  2
MODEL
 70
     0
 62
     7
  6
Continuous
370
    20
390
1D
347
266
  0
LAYER
  5
88C
330
2
100
AcDbSymbolTableRecord
100
AcDbLayerTableRecord
  2
HIDDEN
 70
     0
 62
     8
  6
HIDDEN
370
    20
390
1D
347
266
1001
AcAecLayerStandard
1000

1000

  0
LAYER
  5
D6B
330
2
100
AcDbSymbolTableRecord
100
AcDbLayerTableRecord
  2
BORDER
 70
     0
 62
     4
  6
BORDER
290
     0
370
    20
390
1D
347
266
1001
AcAecLayerStandard
1000

1000

  0
LAYER
  5
A5DF
330
2
100
AcDbSymbolTableRecord
100
AcDbLayerTableRecord
  2
Defpoints
 70
     0
 62
     7
  6
Continuous
290
     0
370
    -3
390
1D
347
266
  0
ENDTAB
  0
TABLE
  2
STYLE
  5
3
330
0
100
AcDbSymbolTable
 70
     2
  0
STYLE
  5
17
330
3
100
AcDbSymbolTableRecord
100
AcDbTextStyleTableRecord
  2
Standard
 70
     0
 40
0.0
 41
1.0
 50
0.0
 71
     0
 42
2.5
  3
txt
  4
BIGFONT.SHX
  0
STYLE
  5
39
330
3
100
AcDbSymbolTableRecord
100
AcDbTextStyleTableRecord
  2
ＭＳ ゴシック
 70
     0
 40
0.0
 41
1.0
 50
0.0
 71
     0
 42
2.5
  3
msgothic.ttc
  4
ＭＳ ゴシック
1001
ACAD
1000
ＭＳ ゴシック
1071
        0
  0
ENDTAB
  0
TABLE
  2
VIEW
  5
5
330
0
100
AcDbSymbolTable
 70
     0
  0
ENDTAB
  0
TABLE
  2
UCS
  5
6
330
0
100
AcDbSymbolTable
 70
     0
  0
ENDTAB
  0
TABLE
  2
APPID
  5
8
330
0
100
AcDbSymbolTable
 70
     4
  0
APPID
  5
16
330
8
100
AcDbSymbolTableRecord
100
AcDbRegAppTableRecord
  2
ACAD
 70
     0
  0
APPID
  5
7AC
330
8
100
AcDbSymbolTableRecord
100
AcDbRegAppTableRecord
  2
AcAecLayerStandard
 70
     0
  0
APPID
  5
E29
330
8
100
AcDbSymbolTableRecord
100
AcDbRegAppTableRecord
  2
ACAD_MLEADERVER
 70
     0
  0
APPID
  5
1796E
330
8
100
AcDbSymbolTableRecord
100
AcDbRegAppTableRecord
  2
PLOTTRANSPARENCY
 70
     0
  0
ENDTAB
  0
TABLE
  2
DIMSTYLE
  5
9
330
0
100
AcDbSymbolTable
 70
     6
100
AcDbDimStyleTable
  0
DIMSTYLE
105
18
330
9
100
AcDbSymbolTableRecord
100
AcDbDimStyleTableRecord
  2
Standard
 70
     0
178
     0
340
17
  0
DIMSTYLE
105
57
102
{ACAD_REACTORS
330
176BF
330
176C0
330
176C1
330
176C2
330
176C3
330
176C4
330
178E8
330
178EC
330
178EF
102
}
330
9
100
AcDbSymbolTableRecord
100
AcDbDimStyleTableRecord
  2
tfrom線あり
 70
     0
  3
<>
  4
[]
 41
3.0
 42
10.0
 43
0.9999999999999999
 44
0.0
 73
     0
 74
     0
 77
     1
 78
    11
140
8.0
141
0.0
143
1.0
147
6.0
171
     1
174
     1
178
     0
179
     2
271
     0
272
     1
276
     2
284
    11
285
    11
286
    11
289
     0
340
39
341
4E
342
4E
  0
DIMSTYLE
105
17409
330
9
100
AcDbSymbolTableRecord
100
AcDbDimStyleTableRecord
  2
DIMSTYLE_7
 70
     0
 41
2.2
 47
2.0
 48
2.0
 71
     1
 73
     0
 74
     0
 77
     1
 78
     8
140
2.5
144
2.0
271
     0
178
     5
271
     0
272
     0
284
     8
340
17
341
1740B
342
1740B
343
1740B
344
1740B
  0
DIMSTYLE
105
1740F
330
9
100
AcDbSymbolTableRecord
100
AcDbDimStyleTableRecord
  2
DIMSTYLE_8
 70
     0
 41
2.2
 47
0.3
 48
0.3
 73
     0
 74
     0
 77
     1
 78
     8
140
2.5
144
2.0
271
     0
178
     5
271
     0
272
     0
284
     8
340
17
341
1740B
342
1740B
343
1740B
344
1740B
  0
DIMSTYLE
105
17410
330
9
100
AcDbSymbolTableRecord
100
AcDbDimStyleTableRecord
  2
DIMSTYLE_9
 70
     0
 41
2.2
 47
0.1
 48
0.1
 73
     0
 74
     0
 77
     1
 78
     8
140
2.5
271
     2
178
     5
271
     2
272
     2
284
     8
340
17
341
1740B
342
1740B
343
1740B
344
1740B
  0
DIMSTYLE
105
17411
330
9
100
AcDbSymbolTableRecord
100
AcDbDimStyleTableRecord
  2
DIMSTYLE_10
 70
     0
 41
2.2
 47
0.1
 48
0.1
 73
     0
 74
     0
 77
     1
 78
     8
140
2.5
271
     1
178
     5
271
     1
272
     1
284
     8
340
17
341
1740B
342
1740B
343
1740B
344
1740B
  0
ENDTAB
  0
TABLE
  2
BLOCK_RECORD
  5
1
330
0
100
AcDbSymbolTable
 70
    27
  0
BLOCK_RECORD
  5
A
102
{ACAD_XDICTIONARY
360
1733E
102
}
330
1
100
AcDbSymbolTableRecord
100
AcDbBlockTableRecord
  2
*MODEL_SPACE
340
20
 70
     0
280
     1
281
     0
  0
BLOCK_RECORD
  5
B
330
1
100
AcDbSymbolTableRecord
100
AcDbBlockTableRecord
  2
*PAPER_SPACE
340
21
 70
     0
280
     1
281
     0
  0
BLOCK_RECORD
  5
4E
330
1
100
AcDbSymbolTableRecord
100
AcDbBlockTableRecord
  2
_DOT
340
0
102
{BLKREFS
331
17326
331
17327
331
17335
331
17336
331
173AB
331
173AC
331
173BA
331
173BB
331
173D8
331
173D9
331
173E4
331
173E5
331
1741C
331
1741D
331
17429
331
1742A
331
17436
331
17437
331
17442
331
17443
331
17451
331
17452
331
1745E
331
1745F
331
17690
331
17691
331
1769E
331
1769F
331
176AF
331
176B0
331
178FD
331
178FE
331
17909
331
1790A
331
17915
331
17916
331
17921
331
17922
331
1792F
331
17930
331
1793B
331
1793C
331
17947
331
17948
331
17953
331
17954
331
1795F
331
17960
102
}
 70
     0
280
     1
281
     0
  0
BLOCK_RECORD
  5
68D
330
1
100
AcDbSymbolTableRecord
100
AcDbBlockTableRecord
  2
block 2
340
0
102
{BLKREFS
331
68C
331
1343
102
}
 70
     0
280
     1
281
     0
  0
BLOCK_RECORD
  5
17320
330
1
100
AcDbSymbolTableRecord
100
AcDbBlockTableRecord
  2
*D2
340
0
 70
     0
280
     1
281
     0
  0
BLOCK_RECORD
  5
1732F
330
1
100
AcDbSymbolTableRecord
100
AcDbBlockTableRecord
  2
*D3
340
0
 70
     0
280
     1
281
     0
  0
BLOCK_RECORD
  5
173A6
330
1
100
AcDbSymbolTableRecord
100
AcDbBlockTableRecord
  2
*D4
340
0
 70
     0
280
     1
281
     0
  0
BLOCK_RECORD
  5
173B5
330
1
100
AcDbSymbolTableRecord
100
AcDbBlockTableRecord
  2
*D5
340
0
 70
     0
280
     1
281
     0
  0
BLOCK_RECORD
  5
173D2
330
1
100
AcDbSymbolTableRecord
100
AcDbBlockTableRecord
  2
*D6
340
0
 70
     0
280
     1
281
     0
  0
BLOCK_RECORD
  5
173DE
330
1
100
AcDbSymbolTableRecord
100
AcDbBlockTableRecord
  2
*D7
340
0
 70
     0
280
     1
281
     0
  0
BLOCK_RECORD
  5
1740B
330
1
100
AcDbSymbolTableRecord
100
AcDbBlockTableRecord
  2
_FILLED
340
0
 70
     0
280
     1
281
     0
  0
BLOCK_RECORD
  5
17417
330
1
100
AcDbSymbolTableRecord
100
AcDbBlockTableRecord
  2
*D9
340
0
 70
     0
280
     1
281
     0
  0
BLOCK_RECORD
  5
17424
330
1
100
AcDbSymbolTableRecord
100
AcDbBlockTableRecord
  2
*D10
340
0
 70
     0
280
     1
281
     0
  0
BLOCK_RECORD
  5
17431
330
1
100
AcDbSymbolTableRecord
100
AcDbBlockTableRecord
  2
*D11
340
0
 70
     0
280
     1
281
     0
  0
BLOCK_RECORD
  5
1743D
330
1
100
AcDbSymbolTableRecord
100
AcDbBlockTableRecord
  2
*D12
340
0
 70
     0
280
     1
281
     0
  0
BLOCK_RECORD
  5
1744A
330
1
100
AcDbSymbolTableRecord
100
AcDbBlockTableRecord
  2
*D13
340
0
 70
     0
280
     1
281
     0
  0
BLOCK_RECORD
  5
17459
330
1
100
AcDbSymbolTableRecord
100
AcDbBlockTableRecord
  2
*D14
340
0
 70
     0
280
     1
281
     0
  0
BLOCK_RECORD
  5
1768B
330
1
100
AcDbSymbolTableRecord
100
AcDbBlockTableRecord
  2
*D15
340
0
 70
     0
280
     1
281
     0
  0
BLOCK_RECORD
  5
17699
330
1
100
AcDbSymbolTableRecord
100
AcDbBlockTableRecord
  2
*D16
340
0
 70
     0
280
     1
281
     0
  0
BLOCK_RECORD
  5
176AA
330
1
100
AcDbSymbolTableRecord
100
AcDbBlockTableRecord
  2
*D17
340
0
 70
     0
280
     1
281
     0
  0
BLOCK_RECORD
  5
178F7
330
1
100
AcDbSymbolTableRecord
100
AcDbBlockTableRecord
  2
*D18
340
0
 70
     0
280
     1
281
     0
  0
BLOCK_RECORD
  5
17903
330
1
100
AcDbSymbolTableRecord
100
AcDbBlockTableRecord
  2
*D19
340
0
 70
     0
280
     1
281
     0
  0
BLOCK_RECORD
  5
1790F
330
1
100
AcDbSymbolTableRecord
100
AcDbBlockTableRecord
  2
*D20
340
0
 70
     0
280
     1
281
     0
  0
BLOCK_RECORD
  5
1791B
330
1
100
AcDbSymbolTableRecord
100
AcDbBlockTableRecord
  2
*D21
340
0
 70
     0
280
     1
281
     0
  0
BLOCK_RECORD
  5
17927
330
1
100
AcDbSymbolTableRecord
100
AcDbBlockTableRecord
  2
*D22
340
0
 70
     0
280
     1
281
     0
  0
BLOCK_RECORD
  5
17935
330
1
100
AcDbSymbolTableRecord
100
AcDbBlockTableRecord
  2
*D23
340
0
 70
     0
280
     1
281
     0
  0
BLOCK_RECORD
  5
17941
330
1
100
AcDbSymbolTableRecord
100
AcDbBlockTableRecord
  2
*D24
340
0
 70
     0
280
     1
281
     0
  0
BLOCK_RECORD
  5
1794D
330
1
100
AcDbSymbolTableRecord
100
AcDbBlockTableRecord
  2
*D25
340
0
 70
     0
280
     1
281
     0
  0
BLOCK_RECORD
  5
17959
330
1
100
AcDbSymbolTableRecord
100
AcDbBlockTableRecord
  2
*D26
340
0
 70
     0
280
     1
281
     0
  0
ENDTAB
  0
ENDSEC
  0
SECTION
  2
BLOCKS
  0
BLOCK
  5
D
330
A
100
AcDbEntity
  8
0
390
1D
100
AcDbBlockBegin
  2
*MODEL_SPACE
 70
     0
 10
0.0
 20
0.0
 30
0.0
  3
*MODEL_SPACE
  1
*MODEL_SPACE
  0
ENDBLK
  5
E
330
A
100
AcDbEntity
  8
0
390
1D
100
AcDbBlockEnd
  0
BLOCK
  5
F
330
B
100
AcDbEntity
 67
     1
  8
0
390
1D
100
AcDbBlockBegin
  2
*PAPER_SPACE
 70
     0
 10
0.0
 20
0.0
 30
0.0
  3
*PAPER_SPACE
  1
*PAPER_SPACE
  0
ENDBLK
  5
10
330
B
100
AcDbEntity
 67
     1
  8
0
390
1D
100
AcDbBlockEnd
  0
BLOCK
  5
369F
330
4E
100
AcDbEntity
  8
0
390
1D
100
AcDbBlockBegin
  2
_DOT
 70
     0
 10
0.0
 20
0.0
 30
0.0
  3
_DOT
  1
_DOT
  0
POLYLINE
  5
36A1
330
4E
100
AcDbEntity
  8
0
  6
ByBlock
 62
     0
370
    -2
390
1D
100
AcDb2dPolyline
 66
     1
 10
0.0
 20
0.0
 30
0.0
 70
     1
 40
0.5
 41
0.5
  0
VERTEX
  5
36A2
330
36A1
100
AcDbEntity
  8
0
  6
ByBlock
 62
     0
370
    -2
390
1D
100
AcDbVertex
100
AcDb2dVertex
 10
-0.25
 20
0.0
 30
0.0
 42
1.0
  0
VERTEX
  5
36A3
330
36A1
100
AcDbEntity
  8
0
  6
ByBlock
 62
     0
370
    -2
390
1D
100
AcDbVertex
100
AcDb2dVertex
 10
0.25
 20
0.0
 30
0.0
 42
1.0
  0
SEQEND
  5
36A4
330
36A1
100
AcDbEntity
  8
0
390
1D
  0
LINE
  5
36A5
330
4E
100
AcDbEntity
  8
0
  6
ByBlock
 62
     0
370
    -2
390
1D
100
AcDbLine
 10
-0.5
 20
0.0
 30
0.0
 11
-1.0
 21
0.0
 31
0.0
  0
ENDBLK
  5
36A6
330
4E
100
AcDbEntity
  8
0
390
1D
100
AcDbBlockEnd
  0
BLOCK
  5
68E
330
68D
100
AcDbEntity
  8
0
100
AcDbBlockBegin
  2
block 2
 70
     0
 10
0.0
 20
0.0
 30
0.0
  3
block 2
  1
block 2
  0
ENDBLK
  5
6B0
330
68D
100
AcDbEntity
  8
0
100
AcDbBlockEnd
  0
BLOCK
  5
17321
330
17320
100
AcDbEntity
  8
0
100
AcDbBlockBegin
  2
*D2
 70
     1
 10
0.0
 20
0.0
 30
0.0
  3
*D2
  1

  0
LINE
  5
17323
330
17320
100
AcDbEntity
  8
DIM
 62
     0
370
    -2
100
AcDbLine
 10
405.9245501690548
 20
309.7529598971253
 30
0.0
 11
405.9245501690548
 21
297.8784471131835
 31
0.0
  0
LINE
  5
17324
330
17320
100
AcDbEntity
  8
DIM
 62
     0
370
    -2
100
AcDbLine
 10
370.465565794055
 20
307.7217551386165
 30
0.0
 11
370.465565794055
 21
297.8784471131835
 31
0.0
  0
LINE
  5
17325
330
17320
100
AcDbEntity
  8
DIM
 62
     0
370
    -2
100
AcDbLine
 10
402.9245501690548
 20
297.8784471131835
 30
0.0
 11
373.465565794055
 21
297.8784471131835
 31
0.0
  0
INSERT
  5
17326
330
17320
100
AcDbEntity
  8
DIM
 62
     0
370
    -2
100
AcDbBlockReference
  2
_DOT
 10
405.9245501690548
 20
297.8784471131835
 30
0.0
 41
3.0
 42
3.0
 43
3.0
  0
INSERT
  5
17327
330
17320
100
AcDbEntity
  8
DIM
 62
     0
370
    -2
100
AcDbBlockReference
  2
_DOT
 10
370.465565794055
 20
297.8784471131835
 30
0.0
 41
3.0
 42
3.0
 43
3.0
 50
180.0
  0
MTEXT
  5
17328
330
17320
100
AcDbEntity
  8
DIM
 62
     0
100
AcDbMText
 10
388.1950579815549
 20
307.8784471131835
 30
0.0
 40
8.0
 41
0.0
 46
0.0
 71
     5
 72
     1
  1
\A1;35
  7
ＭＳ ゴシック
 73
     1
 44
1.0
  0
POINT
  5
17329
330
17320
100
AcDbEntity
  8
Defpoints
 62
     0
100
AcDbPoint
 10
405.9245501690548
 20
319.7529598971253
 30
0.0
  0
POINT
  5
1732A
330
17320
100
AcDbEntity
  8
Defpoints
 62
     0
100
AcDbPoint
 10
370.465565794055
 20
317.7217551386165
 30
0.0
  0
POINT
  5
1732B
330
17320
100
AcDbEntity
  8
Defpoints
 62
     0
100
AcDbPoint
 10
370.465565794055
 20
297.8784471131835
 30
0.0
  0
ENDBLK
  5
17322
330
17320
100
AcDbEntity
  8
0
100
AcDbBlockEnd
  0
BLOCK
  5
17330
330
1732F
100
AcDbEntity
  8
0
100
AcDbBlockBegin
  2
*D3
 70
     1
 10
0.0
 20
0.0
 30
0.0
  3
*D3
  1

  0
LINE
  5
17332
330
1732F
100
AcDbEntity
  8
DIM
 62
     0
370
    -2
100
AcDbLine
 10
336.4182475173941
 20
457.0429158371509
 30
0.0
 11
315.1384266419193
 21
457.0429158371509
 31
0.0
  0
LINE
  5
17333
330
1732F
100
AcDbEntity
  8
DIM
 62
     0
370
    -2
100
AcDbLine
 10
331.4592515249408
 20
386.1825642746509
 30
0.0
 11
315.1384266419193
 21
386.1825642746509
 31
0.0
  0
LINE
  5
17334
330
1732F
100
AcDbEntity
  8
DIM
 62
     0
370
    -2
100
AcDbLine
 10
315.1384266419193
 20
454.0429158371509
 30
0.0
 11
315.1384266419193
 21
389.1825642746509
 31
0.0
  0
INSERT
  5
17335
330
1732F
100
AcDbEntity
  8
DIM
 62
     0
370
    -2
100
AcDbBlockReference
  2
_DOT
 10
315.1384266419193
 20
457.0429158371509
 30
0.0
 41
3.0
 42
3.0
 43
3.0
 50
90.0
  0
INSERT
  5
17336
330
1732F
100
AcDbEntity
  8
DIM
 62
     0
370
    -2
100
AcDbBlockReference
  2
_DOT
 10
315.1384266419193
 20
386.1825642746509
 30
0.0
 41
3.0
 42
3.0
 43
3.0
 50
270.0
  0
MTEXT
  5
17337
330
1732F
100
AcDbEntity
  8
DIM
 62
     0
100
AcDbMText
 10
305.1384266419193
 20
421.6127400559009
 30
0.0
 40
8.0
 41
0.0
 46
0.0
 71
     5
 72
     1
  1
\A1;71
  7
ＭＳ ゴシック
 11
0.0
 21
1.0
 31
0.0
 73
     1
 44
1.0
  0
POINT
  5
17338
330
1732F
100
AcDbEntity
  8
Defpoints
 62
     0
100
AcDbPoint
 10
346.4182475173941
 20
457.0429158371509
 30
0.0
  0
POINT
  5
17339
330
1732F
100
AcDbEntity
  8
Defpoints
 62
     0
100
AcDbPoint
 10
341.4592515249408
 20
386.1825642746509
 30
0.0
  0
POINT
  5
1733A
330
1732F
100
AcDbEntity
  8
Defpoints
 62
     0
100
AcDbPoint
 10
315.1384266419193
 20
386.1825642746509
 30
0.0
  0
ENDBLK
  5
17331
330
1732F
100
AcDbEntity
  8
0
100
AcDbBlockEnd
  0
BLOCK
  5
173A7
330
173A6
100
AcDbEntity
  8
0
100
AcDbBlockBegin
  2
*D4
 70
     1
 10
0.0
 20
0.0
 30
0.0
  3
*D4
  1

  0
LINE
  5
173A8
330
173A6
100
AcDbEntity
  8
DIM
 62
     0
370
    -2
100
AcDbLine
 10
1.0
 20
135.0035410091185
 30
0.0
 11
1.0
 21
195.1497860279634
 31
0.0
  0
LINE
  5
173A9
330
173A6
100
AcDbEntity
  8
DIM
 62
     0
370
    -2
100
AcDbLine
 10
115.1779939209723
 20
135.0035410091185
 30
0.0
 11
115.1779939209723
 21
195.1497860279634
 31
0.0
  0
LINE
  5
173AA
330
173A6
100
AcDbEntity
  8
DIM
 62
     0
370
    -2
100
AcDbLine
 10
4.0
 20
195.1497860279634
 30
0.0
 11
112.1779939209723
 21
195.1497860279634
 31
0.0
  0
INSERT
  5
173AB
330
173A6
100
AcDbEntity
  8
DIM
 62
     0
370
    -2
100
AcDbBlockReference
  2
_DOT
 10
1.0
 20
195.1497860279634
 30
0.0
 41
3.0
 42
3.0
 43
3.0
 50
180.0
  0
INSERT
  5
173AC
330
173A6
100
AcDbEntity
  8
DIM
 62
     0
370
    -2
100
AcDbBlockReference
  2
_DOT
 10
115.1779939209723
 20
195.1497860279634
 30
0.0
 41
3.0
 42
3.0
 43
3.0
  0
MTEXT
  5
173AD
330
173A6
100
AcDbEntity
  8
DIM
 62
     0
100
AcDbMText
 10
58.08899696048616
 20
205.1497860279634
 30
0.0
 40
8.0
 41
0.0
 46
0.0
 71
     5
 72
     1
  1
\A1;114
  7
ＭＳ ゴシック
 73
     1
 44
1.0
  0
POINT
  5
173AE
330
173A6
100
AcDbEntity
  8
Defpoints
 62
     0
100
AcDbPoint
 10
1.0
 20
125.0035410091185
 30
0.0
  0
POINT
  5
173AF
330
173A6
100
AcDbEntity
  8
Defpoints
 62
     0
100
AcDbPoint
 10
115.1779939209723
 20
125.0035410091185
 30
0.0
  0
POINT
  5
173B0
330
173A6
100
AcDbEntity
  8
Defpoints
 62
     0
100
AcDbPoint
 10
115.1779939209723
 20
195.1497860279634
 30
0.0
  0
ENDBLK
  5
173B1
330
173A6
100
AcDbEntity
  8
0
100
AcDbBlockEnd
  0
BLOCK
  5
173B6
330
173B5
100
AcDbEntity
  8
0
100
AcDbBlockBegin
  2
*D5
 70
     1
 10
0.0
 20
0.0
 30
0.0
  3
*D5
  1

  0
LINE
  5
173B7
330
173B5
100
AcDbEntity
  8
DIM
 62
     0
370
    -2
100
AcDbLine
 10
20.20208557550177
 20
115.0035410091185
 30
0.0
 11
20.20208557550177
 21
38.30487537993926
 31
0.0
  0
LINE
  5
173B8
330
173B5
100
AcDbEntity
  8
DIM
 62
     0
370
    -2
100
AcDbLine
 10
95.97590834547054
 20
115.0035410091185
 30
0.0
 11
95.97590834547054
 21
38.30487537993926
 31
0.0
  0
LINE
  5
173B9
330
173B5
100
AcDbEntity
  8
DIM
 62
     0
370
    -2
100
AcDbLine
 10
23.20208557550177
 20
38.30487537993926
 30
0.0
 11
92.97590834547054
 21
38.30487537993926
 31
0.0
  0
INSERT
  5
173BA
330
173B5
100
AcDbEntity
  8
DIM
 62
     0
370
    -2
100
AcDbBlockReference
  2
_DOT
 10
20.20208557550177
 20
38.30487537993926
 30
0.0
 41
3.0
 42
3.0
 43
3.0
 50
180.0
  0
INSERT
  5
173BB
330
173B5
100
AcDbEntity
  8
DIM
 62
     0
370
    -2
100
AcDbBlockReference
  2
_DOT
 10
95.97590834547054
 20
38.30487537993926
 30
0.0
 41
3.0
 42
3.0
 43
3.0
  0
MTEXT
  5
173BC
330
173B5
100
AcDbEntity
  8
DIM
 62
     0
100
AcDbMText
 10
58.08899696048616
 20
48.30487537993926
 30
0.0
 40
8.0
 41
0.0
 46
0.0
 71
     5
 72
     1
  1
\A1;76
  7
ＭＳ ゴシック
 73
     1
 44
1.0
  0
POINT
  5
173BD
330
173B5
100
AcDbEntity
  8
Defpoints
 62
     0
100
AcDbPoint
 10
20.20208557550177
 20
125.0035410091185
 30
0.0
  0
POINT
  5
173BE
330
173B5
100
AcDbEntity
  8
Defpoints
 62
     0
100
AcDbPoint
 10
95.97590834547054
 20
125.0035410091185
 30
0.0
  0
POINT
  5
173BF
330
173B5
100
AcDbEntity
  8
Defpoints
 62
     0
100
AcDbPoint
 10
95.97590834547054
 20
38.30487537993926
 30
0.0
  0
ENDBLK
  5
173C0
330
173B5
100
AcDbEntity
  8
0
100
AcDbBlockEnd
  0
BLOCK
  5
173D3
330
173D2
100
AcDbEntity
  8
0
100
AcDbBlockBegin
  2
*D6
 70
     1
 10
0.0
 20
0.0
 30
0.0
  3
*D6
  1

  0
LINE
  5
173D5
330
173D2
100
AcDbEntity
  8
DIM
 62
     0
370
    -2
100
AcDbLine
 10
228.7947264437692
 20
485.5501747355622
 30
0.0
 11
228.7947264437692
 21
580.7695422638294
 31
0.0
  0
LINE
  5
173D6
330
173D2
100
AcDbEntity
  8
DIM
 62
     0
370
    -2
100
AcDbLine
 10
400.0617173252274
 20
485.5501747355622
 30
0.0
 11
400.0617173252274
 21
580.7695422638294
 31
0.0
  0
LINE
  5
173D7
330
173D2
100
AcDbEntity
  8
DIM
 62
     0
370
    -2
100
AcDbLine
 10
231.7947264437692
 20
580.7695422638294
 30
0.0
 11
397.0617173252274
 21
580.7695422638294
 31
0.0
  0
INSERT
  5
173D8
330
173D2
100
AcDbEntity
  8
DIM
 62
     0
370
    -2
100
AcDbBlockReference
  2
_DOT
 10
228.7947264437692
 20
580.7695422638294
 30
0.0
 41
3.0
 42
3.0
 43
3.0
 50
180.0
  0
INSERT
  5
173D9
330
173D2
100
AcDbEntity
  8
DIM
 62
     0
370
    -2
100
AcDbBlockReference
  2
_DOT
 10
400.0617173252274
 20
580.7695422638294
 30
0.0
 41
3.0
 42
3.0
 43
3.0
  0
MTEXT
  5
173DA
330
173D2
100
AcDbEntity
  8
DIM
 62
     0
100
AcDbMText
 10
314.4282218844983
 20
590.7695422638294
 30
0.0
 40
8.0
 41
0.0
 46
0.0
 71
     5
 72
     1
  1
\A1;171
  7
ＭＳ ゴシック
 73
     1
 44
1.0
  0
POINT
  5
173DB
330
173D2
100
AcDbEntity
  8
Defpoints
 62
     0
100
AcDbPoint
 10
228.7947264437692
 20
475.5501747355622
 30
0.0
  0
POINT
  5
173DC
330
173D2
100
AcDbEntity
  8
Defpoints
 62
     0
100
AcDbPoint
 10
400.0617173252274
 20
475.5501747355622
 30
0.0
  0
POINT
  5
173DD
330
173D2
100
AcDbEntity
  8
Defpoints
 62
     0
100
AcDbPoint
 10
400.0617173252274
 20
580.7695422638294
 30
0.0
  0
ENDBLK
  5
173D4
330
173D2
100
AcDbEntity
  8
0
100
AcDbBlockEnd
  0
BLOCK
  5
173DF
330
173DE
100
AcDbEntity
  8
0
100
AcDbBlockBegin
  2
*D7
 70
     1
 10
0.0
 20
0.0
 30
0.0
  3
*D7
  1

  0
LINE
  5
173E1
330
173DE
100
AcDbEntity
  8
DIM
 62
     0
370
    -2
100
AcDbLine
 10
257.5978548070218
 20
465.5501747355622
 30
0.0
 11
257.5978548070218
 21
345.5021762917933
 31
0.0
  0
LINE
  5
173E2
330
173DE
100
AcDbEntity
  8
DIM
 62
     0
370
    -2
100
AcDbLine
 10
371.2585889619747
 20
465.5501747355622
 30
0.0
 11
371.2585889619747
 21
345.5021762917933
 31
0.0
  0
LINE
  5
173E3
330
173DE
100
AcDbEntity
  8
DIM
 62
     0
370
    -2
100
AcDbLine
 10
260.5978548070218
 20
345.5021762917933
 30
0.0
 11
368.2585889619747
 21
345.5021762917933
 31
0.0
  0
INSERT
  5
173E4
330
173DE
100
AcDbEntity
  8
DIM
 62
     0
370
    -2
100
AcDbBlockReference
  2
_DOT
 10
257.5978548070218
 20
345.5021762917933
 30
0.0
 41
3.0
 42
3.0
 43
3.0
 50
180.0
  0
INSERT
  5
173E5
330
173DE
100
AcDbEntity
  8
DIM
 62
     0
370
    -2
100
AcDbBlockReference
  2
_DOT
 10
371.2585889619747
 20
345.5021762917933
 30
0.0
 41
3.0
 42
3.0
 43
3.0
  0
MTEXT
  5
173E6
330
173DE
100
AcDbEntity
  8
DIM
 62
     0
100
AcDbMText
 10
314.4282218844983
 20
355.5021762917933
 30
0.0
 40
8.0
 41
0.0
 46
0.0
 71
     5
 72
     1
  1
\A1;114
  7
ＭＳ ゴシック
 73
     1
 44
1.0
  0
POINT
  5
173E7
330
173DE
100
AcDbEntity
  8
Defpoints
 62
     0
100
AcDbPoint
 10
257.5978548070218
 20
475.5501747355622
 30
0.0
  0
POINT
  5
173E8
330
173DE
100
AcDbEntity
  8
Defpoints
 62
     0
100
AcDbPoint
 10
371.2585889619747
 20
475.5501747355622
 30
0.0
  0
POINT
  5
173E9
330
173DE
100
AcDbEntity
  8
Defpoints
 62
     0
100
AcDbPoint
 10
371.2585889619747
 20
345.5021762917933
 30
0.0
  0
ENDBLK
  5
173E0
330
173DE
100
AcDbEntity
  8
0
100
AcDbBlockEnd
  0
BLOCK
  5
1740C
330
1740B
100
AcDbEntity
  8
0
100
AcDbBlockBegin
  2
_FILLED
 70
     0
 10
0.0
 20
0.0
 30
0.0
  3
_FILLED
  1
_FILLED
  0
SOLID
  5
1740D
330
1740B
100
AcDbEntity
  8
0
  6
ByBlock
 62
     0
100
AcDbTrace
 10
0.0
 20
0.0
 30
0.0
 11
-1.0
 21
0.1818181818
 31
0.0
 12
-1.0
 22
-0.1818181818
 32
0.0
 13
-1.0
 23
-0.1818181818
 33
0.0
  0
ENDBLK
  5
1740E
330
1740B
100
AcDbEntity
  8
0
  6
ByBlock
 62
     0
100
AcDbBlockEnd
  0
BLOCK
  5
17418
330
17417
100
AcDbEntity
  8
0
100
AcDbBlockBegin
  2
*D9
 70
     1
 10
0.0
 20
0.0
 30
0.0
  3
*D9
  1
*D98
  0
LINE
  5
17419
330
17417
100
AcDbEntity
  8
DIM
  6
Continuous
 62
     0
370
    -2
100
AcDbLine
 10
30.133816396809
 20
238.6099973604545
 30
0.0
 11
30.13381639680898
 21
315.3569442568366
 31
0.0
  0
LINE
  5
1741A
330
17417
100
AcDbEntity
  8
DIM
  6
Continuous
 62
     0
370
    -2
100
AcDbLine
 10
265.1338163968091
 20
237.6099973606552
 30
0.0
 11
265.1338163968091
 21
315.3569442568366
 31
0.0
  0
LINE
  5
1741B
330
17417
100
AcDbEntity
  8
DIM
  6
Continuous
 62
     0
370
    -2
100
AcDbLine
 10
33.13381639680898
 20
315.3569442568366
 30
0.0
 11
262.1338163968091
 21
315.3569442568366
 31
0.0
  0
INSERT
  5
1741C
330
17417
100
AcDbEntity
  8
DIM
 62
     0
370
    -2
100
AcDbBlockReference
  2
_DOT
 10
30.13381639680898
 20
315.3569442568366
 30
0.0
 41
3.0
 42
3.0
 43
3.0
 50
180.0
  0
INSERT
  5
1741D
330
17417
100
AcDbEntity
  8
DIM
 62
     0
370
    -2
100
AcDbBlockReference
  2
_DOT
 10
265.1338163968091
 20
315.3569442568366
 30
0.0
 41
3.0
 42
3.0
 43
3.0
  0
MTEXT
  5
1741E
330
17417
100
AcDbEntity
  8
DIM
 62
     0
100
AcDbMText
 10
141.45255083727
 20
329.3603205229364
 30
0.0
 40
9.0
 41
0.0
 46
0.0
 71
     2
 72
     1
  1
\A1;235
  7
ＭＳ ゴシック
 73
     1
 44
1.0
  0
POINT
  5
1741F
330
17417
100
AcDbEntity
  8
Defpoints
 62
     0
100
AcDbPoint
 10
30.133816396809
 20
228.6099973604545
 30
0.0
  0
POINT
  5
17420
330
17417
100
AcDbEntity
  8
Defpoints
 62
     0
100
AcDbPoint
 10
265.1338163968091
 20
227.6099973606552
 30
0.0
  0
POINT
  5
17421
330
17417
100
AcDbEntity
  8
Defpoints
 62
     0
100
AcDbPoint
 10
265.1338163968091
 20
315.3569442568366
 30
0.0
  0
ENDBLK
  5
17422
330
17417
100
AcDbEntity
  8
0
100
AcDbBlockEnd
  0
BLOCK
  5
17425
330
17424
100
AcDbEntity
  8
0
100
AcDbBlockBegin
  2
*D10
 70
     1
 10
0.0
 20
0.0
 30
0.0
  3
*D10
  1
*D100
  0
LINE
  5
17426
330
17424
100
AcDbEntity
  8
DIM
  6
Continuous
 62
     0
370
    -2
100
AcDbLine
 10
45.93381639680393
 20
442.6336840253925
 30
0.0
 11
45.93381639680393
 21
418.2518918317821
 31
0.0
  0
LINE
  5
17427
330
17424
100
AcDbEntity
  8
DIM
  6
Continuous
 62
     0
370
    -2
100
AcDbLine
 10
249.3338163968036
 20
442.6336840253714
 30
0.0
 11
249.3338163968036
 21
418.2518918317821
 31
0.0
  0
LINE
  5
17428
330
17424
100
AcDbEntity
  8
DIM
  6
Continuous
 62
     0
370
    -2
100
AcDbLine
 10
48.93381639680393
 20
418.2518918317821
 30
0.0
 11
246.3338163968036
 21
418.2518918317821
 31
0.0
  0
INSERT
  5
17429
330
17424
100
AcDbEntity
  8
DIM
 62
     0
370
    -2
100
AcDbBlockReference
  2
_DOT
 10
45.93381639680393
 20
418.2518918317821
 30
0.0
 41
3.0
 42
3.0
 43
3.0
 50
180.0
  0
INSERT
  5
1742A
330
17424
100
AcDbEntity
  8
DIM
 62
     0
370
    -2
100
AcDbBlockReference
  2
_DOT
 10
249.3338163968036
 20
418.2518918317821
 30
0.0
 41
3.0
 42
3.0
 43
3.0
  0
MTEXT
  5
1742B
330
17424
100
AcDbEntity
  8
DIM
 62
     0
100
AcDbMText
 10
147.6338163968038
 20
432.2552680978819
 30
0.0
 40
9.0
 41
0.0
 46
0.0
 71
     2
 72
     1
  1
\A1;200
  7
ＭＳ ゴシック
 73
     1
 44
1.0
  0
POINT
  5
1742C
330
17424
100
AcDbEntity
  8
Defpoints
 62
     0
100
AcDbPoint
 10
45.93381639680392
 20
452.6336840253925
 30
0.0
  0
POINT
  5
1742D
330
17424
100
AcDbEntity
  8
Defpoints
 62
     0
100
AcDbPoint
 10
249.3338163968036
 20
452.6336840253714
 30
0.0
  0
POINT
  5
1742E
330
17424
100
AcDbEntity
  8
Defpoints
 62
     0
100
AcDbPoint
 10
249.3338163968036
 20
418.2518918317821
 30
0.0
  0
ENDBLK
  5
1742F
330
17424
100
AcDbEntity
  8
0
100
AcDbBlockEnd
  0
BLOCK
  5
17432
330
17431
100
AcDbEntity
  8
0
100
AcDbBlockBegin
  2
*D11
 70
     1
 10
0.0
 20
0.0
 30
0.0
  3
*D11
  1
*D101
  0
LINE
  5
17433
330
17431
100
AcDbEntity
  8
DIM
  6
Continuous
 62
     0
370
    -2
100
AcDbLine
 10
211.3070620778038
 20
223.6099973604727
 30
0.0
 11
201.5873523303511
 21
223.6099973604559
 31
0.0
  0
LINE
  5
17434
330
17431
100
AcDbEntity
  8
DIM
  6
Continuous
 62
     0
370
    -2
100
AcDbLine
 10
180.7338163968037
 20
187.1099973604726
 30
0.0
 11
201.5873523304147
 21
187.1099973605086
 31
0.0
  0
LINE
  5
17435
330
17431
100
AcDbEntity
  8
DIM
  6
Continuous
 62
     0
370
    -2
100
AcDbLine
 10
201.5873523303563
 20
220.6099973604559
 30
0.0
 11
201.5873523304095
 21
190.1099973605086
 31
0.0
  0
INSERT
  5
17436
330
17431
100
AcDbEntity
  8
DIM
 62
     0
370
    -2
100
AcDbBlockReference
  2
_DOT
 10
201.5873523303511
 20
223.6099973604559
 30
0.0
 41
3.0
 42
3.0
 43
3.0
 50
90.00000000009997
  0
INSERT
  5
17437
330
17431
100
AcDbEntity
  8
DIM
 62
     0
370
    -2
100
AcDbBlockReference
  2
_DOT
 10
201.5873523304147
 20
187.1099973605086
 30
0.0
 41
3.0
 42
3.0
 43
3.0
 50
270.0000000001
  0
MTEXT
  5
17438
330
17431
100
AcDbEntity
  8
DIM
 62
     0
100
AcDbMText
 10
187.5873523304037
 20
193.4123467818307
 30
0.0
 40
8.0
 41
0.0
 46
0.0
 71
     2
 72
     1
  1
\A1; 
  7
ＭＳ ゴシック
 11
-1.745015091332287E-12
 21
1.0
 31
0.0
 73
     1
 44
1.0
  0
POINT
  5
17439
330
17431
100
AcDbEntity
  8
Defpoints
 62
     0
100
AcDbPoint
 10
201.3070620778038
 20
223.6099973604554
 30
0.0
  0
POINT
  5
1743A
330
17431
100
AcDbEntity
  8
Defpoints
 62
     0
100
AcDbPoint
 10
170.7338163968037
 20
187.1099973604554
 30
0.0
  0
POINT
  5
176BD
330
17431
100
AcDbEntity
  8
Defpoints
 62
     0
100
AcDbPoint
 10
201.5873523304148
 20
187.1099973605093
 30
0.0
  0
ENDBLK
  5
1743B
330
17431
100
AcDbEntity
  8
0
100
AcDbBlockEnd
  0
BLOCK
  5
1743E
330
1743D
100
AcDbEntity
  8
0
100
AcDbBlockBegin
  2
*D12
 70
     1
 10
0.0
 20
0.0
 30
0.0
  3
*D12
  1
*D103
  0
LINE
  5
1743F
330
1743D
100
AcDbEntity
  8
DIM
  6
Continuous
 62
     0
370
    -2
100
AcDbLine
 10
360.4875367907126
 20
288.6099973604554
 30
0.0
 11
338.1578016055128
 21
288.6099973604554
 31
0.0
  0
LINE
  5
17440
330
1743D
100
AcDbEntity
  8
DIM
  6
Continuous
 62
     0
370
    -2
100
AcDbLine
 10
347.9875367907126
 20
228.6099973602554
 30
0.0
 11
338.1578016055128
 21
228.6099973602554
 31
0.0
  0
LINE
  5
17441
330
1743D
100
AcDbEntity
  8
DIM
  6
Continuous
 62
     0
370
    -2
100
AcDbLine
 10
338.1578016055128
 20
285.6099973604554
 30
0.0
 11
338.1578016055128
 21
231.6099973602554
 31
0.0
  0
INSERT
  5
17442
330
1743D
100
AcDbEntity
  8
DIM
 62
     0
370
    -2
100
AcDbBlockReference
  2
_DOT
 10
338.1578016055128
 20
288.6099973604554
 30
0.0
 41
3.0
 42
3.0
 43
3.0
 50
90.0
  0
INSERT
  5
17443
330
1743D
100
AcDbEntity
  8
DIM
 62
     0
370
    -2
100
AcDbBlockReference
  2
_DOT
 10
338.1578016055128
 20
228.6099973602554
 30
0.0
 41
3.0
 42
3.0
 43
3.0
 50
270.0
  0
MTEXT
  5
17444
330
1743D
100
AcDbEntity
  8
DIM
 62
     0
100
AcDbMText
 10
324.1578016055128
 20
254.7049933464554
 30
0.0
 40
9.0
 41
0.0
 46
0.0
 71
     2
 72
     1
  1
\A1;60
  7
ＭＳ ゴシック
 11
0.0
 21
1.0
 31
0.0
 73
     1
 44
1.0
  0
POINT
  5
17445
330
1743D
100
AcDbEntity
  8
Defpoints
 62
     0
100
AcDbPoint
 10
370.4875367907126
 20
288.6099973604554
 30
0.0
  0
POINT
  5
17446
330
1743D
100
AcDbEntity
  8
Defpoints
 62
     0
100
AcDbPoint
 10
357.9875367907126
 20
228.6099973602554
 30
0.0
  0
POINT
  5
17447
330
1743D
100
AcDbEntity
  8
Defpoints
 62
     0
100
AcDbPoint
 10
338.1578016055128
 20
228.6099973602554
 30
0.0
  0
ENDBLK
  5
17448
330
1743D
100
AcDbEntity
  8
0
100
AcDbBlockEnd
  0
BLOCK
  5
1744B
330
1744A
100
AcDbEntity
  8
0
100
AcDbBlockBegin
  2
*D13
 70
     1
 10
0.0
 20
0.0
 30
0.0
  3
*D13
  1
*D104
  0
LINE
  5
1744C
330
1744A
100
AcDbEntity
  8
DIM
  6
Continuous
 62
     0
370
    -2
100
AcDbLine
 10
347.9875367907126
 20
228.6099973602554
 30
0.0
 11
338.1578016055128
 21
228.6099973602554
 31
0.0
  0
LINE
  5
1744D
330
1744A
100
AcDbEntity
  8
DIM
  6
Continuous
 62
     0
370
    -2
100
AcDbLine
 10
347.9875367907126
 20
223.6099973602554
 30
0.0
 11
338.1578016055128
 21
223.6099973602554
 31
0.0
  0
LINE
  5
1744E
330
1744A
100
AcDbEntity
  8
DIM
  6
Continuous
 62
     0
370
    -2
100
AcDbLine
 10
338.1578016055128
 20
223.6099973602554
 30
0.0
 11
338.1578016055128
 21
192.7986661120683
 31
0.0
  0
LINE
  5
1744F
330
1744A
100
AcDbEntity
  8
DIM
  6
Continuous
 62
     0
370
    -2
100
AcDbLine
 10
338.1578016055128
 20
231.6099973602554
 30
0.0
 11
338.1578016055128
 21
234.6099973602554
 31
0.0
  0
LINE
  5
17450
330
1744A
100
AcDbEntity
  8
DIM
  6
Continuous
 62
     0
370
    -2
100
AcDbLine
 10
338.1578016055128
 20
220.6099973602554
 30
0.0
 11
338.1578016055128
 21
217.6099973602554
 31
0.0
  0
INSERT
  5
17451
330
1744A
100
AcDbEntity
  8
DIM
 62
     0
370
    -2
100
AcDbBlockReference
  2
_DOT
 10
338.1578016055128
 20
228.6099973602554
 30
0.0
 41
3.0
 42
3.0
 43
3.0
 50
270.0
  0
INSERT
  5
17452
330
1744A
100
AcDbEntity
  8
DIM
 62
     0
370
    -2
100
AcDbBlockReference
  2
_DOT
 10
338.1578016055128
 20
223.6099973602554
 30
0.0
 41
3.0
 42
3.0
 43
3.0
 50
90.0
  0
MTEXT
  5
17453
330
1744A
100
AcDbEntity
  8
DIM
 62
     0
100
AcDbMText
 10
324.1544253394131
 20
202.4534116416419
 30
0.0
 40
9.0
 41
0.0
 46
0.0
 71
     3
 72
     1
  1
\A1;5
  7
ＭＳ ゴシック
 11
0.0
 21
1.0
 31
0.0
 73
     1
 44
1.0
  0
POINT
  5
17454
330
1744A
100
AcDbEntity
  8
Defpoints
 62
     0
100
AcDbPoint
 10
357.9875367907126
 20
228.6099973602554
 30
0.0
  0
POINT
  5
17455
330
1744A
100
AcDbEntity
  8
Defpoints
 62
     0
100
AcDbPoint
 10
357.9875367907126
 20
223.6099973602554
 30
0.0
  0
POINT
  5
17456
330
1744A
100
AcDbEntity
  8
Defpoints
 62
     0
100
AcDbPoint
 10
338.1578016055128
 20
223.6099973602554
 30
0.0
  0
ENDBLK
  5
17457
330
1744A
100
AcDbEntity
  8
0
100
AcDbBlockEnd
  0
BLOCK
  5
1745A
330
17459
100
AcDbEntity
  8
0
100
AcDbBlockBegin
  2
*D14
 70
     1
 10
0.0
 20
0.0
 30
0.0
  3
*D14
  1
*D106
  0
LINE
  5
1745B
330
17459
100
AcDbEntity
  8
DIM
  6
Continuous
 62
     0
370
    -2
100
AcDbLine
 10
371.0875367907125
 20
298.6099973604554
 30
0.0
 11
371.0875367907125
 21
303.8220988357335
 31
0.0
  0
LINE
  5
1745C
330
17459
100
AcDbEntity
  8
DIM
  6
Continuous
 62
     0
370
    -2
100
AcDbLine
 10
396.0875367907125
 20
298.6697265338073
 30
0.0
 11
396.0875367907125
 21
303.8220988357335
 31
0.0
  0
LINE
  5
1745D
330
17459
100
AcDbEntity
  8
DIM
  6
Continuous
 62
     0
370
    -2
100
AcDbLine
 10
374.0875367907125
 20
303.8220988357335
 30
0.0
 11
393.0875367907125
 21
303.8220988357335
 31
0.0
  0
INSERT
  5
1745E
330
17459
100
AcDbEntity
  8
DIM
 62
     0
370
    -2
100
AcDbBlockReference
  2
_DOT
 10
371.0875367907125
 20
303.8220988357335
 30
0.0
 41
3.0
 42
3.0
 43
3.0
 50
180.0
  0
INSERT
  5
1745F
330
17459
100
AcDbEntity
  8
DIM
 62
     0
370
    -2
100
AcDbBlockReference
  2
_DOT
 10
396.0875367907125
 20
303.8220988357335
 30
0.0
 41
3.0
 42
3.0
 43
3.0
  0
MTEXT
  5
17460
330
17459
100
AcDbEntity
  8
DIM
 62
     0
100
AcDbMText
 10
378.9315414438398
 20
317.8254751018333
 30
0.0
 40
9.0
 41
0.0
 46
0.0
 71
     1
 72
     1
  1
\A1;25
  7
ＭＳ ゴシック
 73
     1
 44
1.0
  0
POINT
  5
17461
330
17459
100
AcDbEntity
  8
Defpoints
 62
     0
100
AcDbPoint
 10
371.0875367907125
 20
288.6099973604554
 30
0.0
  0
POINT
  5
17462
330
17459
100
AcDbEntity
  8
Defpoints
 62
     0
100
AcDbPoint
 10
396.0875367907125
 20
288.6697265338073
 30
0.0
  0
POINT
  5
17463
330
17459
100
AcDbEntity
  8
Defpoints
 62
     0
100
AcDbPoint
 10
396.0875367907125
 20
303.8220988357335
 30
0.0
  0
ENDBLK
  5
17464
330
17459
100
AcDbEntity
  8
0
100
AcDbBlockEnd
  0
BLOCK
  5
1768C
330
1768B
100
AcDbEntity
  8
0
100
AcDbBlockBegin
  2
*D15
 70
     1
 10
0.0
 20
0.0
 30
0.0
  3
*D15
  1
*D110
  0
LINE
  5
1768D
330
1768B
100
AcDbEntity
  8
DIM
  6
Continuous
 62
     0
370
    -2
100
AcDbLine
 10
274.1338163968038
 20
628.1336840253714
 30
0.0
 11
307.0977595753776
 21
628.1336840253714
 31
0.0
  0
LINE
  5
1768E
330
1768B
100
AcDbEntity
  8
DIM
  6
Continuous
 62
     0
370
    -2
100
AcDbLine
 10
256.3338163968036
 20
449.6336840253714
 30
0.0
 11
307.0977595753776
 21
449.6336840253714
 31
0.0
  0
LINE
  5
1768F
330
1768B
100
AcDbEntity
  8
DIM
  6
Continuous
 62
     0
370
    -2
100
AcDbLine
 10
307.0977595753776
 20
625.1336840253714
 30
0.0
 11
307.0977595753776
 21
452.6336840253714
 31
0.0
  0
INSERT
  5
17690
330
1768B
100
AcDbEntity
  8
DIM
 62
     0
370
    -2
100
AcDbBlockReference
  2
_DOT
 10
307.0977595753776
 20
628.1336840253714
 30
0.0
 41
3.0
 42
3.0
 43
3.0
 50
90.0
  0
INSERT
  5
17691
330
1768B
100
AcDbEntity
  8
DIM
 62
     0
370
    -2
100
AcDbBlockReference
  2
_DOT
 10
307.0977595753776
 20
449.6336840253714
 30
0.0
 41
3.0
 42
3.0
 43
3.0
 50
270.0
  0
MTEXT
  5
17692
330
1768B
100
AcDbEntity
  8
DIM
 62
     0
370
     0
100
AcDbMText
 10
297.5960714423277
 20
538.8836840253714
 30
0.0
 40
9.0
 41
0.0
 46
0.0
 71
     5
 72
     1
  1
\A1;178
  7
ＭＳ ゴシック
 11
0.0
 21
1.0
 31
0.0
 73
     1
 44
1.0
  0
POINT
  5
17693
330
1768B
100
AcDbEntity
  8
Defpoints
 62
     0
100
AcDbPoint
 10
264.1338163968038
 20
628.1336840253714
 30
0.0
  0
POINT
  5
17694
330
1768B
100
AcDbEntity
  8
Defpoints
 62
     0
100
AcDbPoint
 10
246.3338163968036
 20
449.6336840253714
 30
0.0
  0
POINT
  5
17695
330
1768B
100
AcDbEntity
  8
Defpoints
 62
     0
100
AcDbPoint
 10
307.0977595753776
 20
449.6336840253714
 30
0.0
  0
ENDBLK
  5
17696
330
1768B
100
AcDbEntity
  8
0
100
AcDbBlockEnd
  0
BLOCK
  5
1769A
330
17699
100
AcDbEntity
  8
0
100
AcDbBlockBegin
  2
*D16
 70
     1
 10
0.0
 20
0.0
 30
0.0
  3
*D16
  1
*D111
  0
LINE
  5
1769B
330
17699
100
AcDbEntity
  8
DIM
  6
Continuous
 62
     0
370
    -2
100
AcDbLine
 10
262.6338163968038
 20
283.8099973604552
 30
0.0
 11
290.8568915265432
 21
283.8099973604552
 31
0.0
  0
LINE
  5
1769C
330
17699
100
AcDbEntity
  8
DIM
  6
Continuous
 62
     0
370
    -2
100
AcDbLine
 10
262.6338163968038
 20
261.8099973604552
 30
0.0
 11
290.8568915265432
 21
261.8099973604552
 31
0.0
  0
LINE
  5
1769D
330
17699
100
AcDbEntity
  8
DIM
  6
Continuous
 62
     0
370
    -2
100
AcDbLine
 10
290.8568915265432
 20
280.8099973604552
 30
0.0
 11
290.8568915265432
 21
264.8099973604552
 31
0.0
  0
INSERT
  5
1769E
330
17699
100
AcDbEntity
  8
DIM
 62
     0
370
    -2
100
AcDbBlockReference
  2
_DOT
 10
290.8568915265432
 20
283.8099973604552
 30
0.0
 41
3.0
 42
3.0
 43
3.0
 50
90.0
  0
INSERT
  5
1769F
330
17699
100
AcDbEntity
  8
DIM
 62
     0
370
    -2
100
AcDbBlockReference
  2
_DOT
 10
290.8568915265432
 20
261.8099973604552
 30
0.0
 41
3.0
 42
3.0
 43
3.0
 50
270.0
  0
MTEXT
  5
176A0
330
17699
100
AcDbEntity
  8
DIM
 62
     0
370
     0
100
AcDbMText
 10
280.3552033934933
 20
272.8099973604552
 30
0.0
 40
9.0
 41
0.0
 46
0.0
 71
     5
 72
     1
  1
\A1;21
  7
ＭＳ ゴシック
 11
0.0
 21
1.0
 31
0.0
 73
     1
 44
1.0
  0
POINT
  5
176A1
330
17699
100
AcDbEntity
  8
Defpoints
 62
     0
100
AcDbPoint
 10
252.6338163968038
 20
283.8099973604552
 30
0.0
  0
POINT
  5
176A2
330
17699
100
AcDbEntity
  8
Defpoints
 62
     0
100
AcDbPoint
 10
252.6338163968038
 20
261.8099973604552
 30
0.0
  0
POINT
  5
176A3
330
17699
100
AcDbEntity
  8
Defpoints
 62
     0
100
AcDbPoint
 10
290.8568915265432
 20
261.8099973604552
 30
0.0
  0
ENDBLK
  5
176A4
330
17699
100
AcDbEntity
  8
0
100
AcDbBlockEnd
  0
BLOCK
  5
176AB
330
176AA
100
AcDbEntity
  8
0
100
AcDbBlockBegin
  2
*D17
 70
     1
 10
0.0
 20
0.0
 30
0.0
  3
*D17
  1
*D114
  0
LINE
  5
176AC
330
176AA
100
AcDbEntity
  8
DIM
  6
Continuous
 62
     0
370
    -2
100
AcDbLine
 10
21.13381639680374
 20
628.1336840253714
 30
0.0
 11
11.00506439914982
 21
628.1336840253714
 31
0.0
  0
LINE
  5
176AD
330
176AA
100
AcDbEntity
  8
DIM
  6
Continuous
 62
     0
370
    -2
100
AcDbLine
 10
21.13381639681101
 20
578.1336840253714
 30
0.0
 11
11.00506439914982
 21
578.1336840253714
 31
0.0
  0
LINE
  5
176AE
330
176AA
100
AcDbEntity
  8
DIM
  6
Continuous
 62
     0
370
    -2
100
AcDbLine
 10
11.00506439914982
 20
625.1336840253714
 30
0.0
 11
11.00506439914982
 21
581.1336840253714
 31
0.0
  0
INSERT
  5
176AF
330
176AA
100
AcDbEntity
  8
DIM
 62
     0
370
    -2
100
AcDbBlockReference
  2
_DOT
 10
11.00506439914982
 20
628.1336840253714
 30
0.0
 41
3.0
 42
3.0
 43
3.0
 50
90.0
  0
INSERT
  5
176B0
330
176AA
100
AcDbEntity
  8
DIM
 62
     0
370
    -2
100
AcDbBlockReference
  2
_DOT
 10
11.00506439914982
 20
578.1336840253714
 30
0.0
 41
3.0
 42
3.0
 43
3.0
 50
270.0
  0
MTEXT
  5
176B1
330
176AA
100
AcDbEntity
  8
DIM
 62
     0
370
     0
100
AcDbMText
 10
0.5033762660998935
 20
603.1336840253714
 30
0.0
 40
9.0
 41
0.0
 46
0.0
 71
     5
 72
     1
  1
\A1;50
  7
ＭＳ ゴシック
 11
7.105427357601002E-17
 21
1.0
 31
0.0
 73
     1
 44
1.0
  0
POINT
  5
176B2
330
176AA
100
AcDbEntity
  8
Defpoints
 62
     0
100
AcDbPoint
 10
31.13381639680374
 20
628.1336840253714
 30
0.0
  0
POINT
  5
176B3
330
176AA
100
AcDbEntity
  8
Defpoints
 62
     0
100
AcDbPoint
 10
31.13381639681101
 20
578.1336840253714
 30
0.0
  0
POINT
  5
176B4
330
176AA
100
AcDbEntity
  8
Defpoints
 62
     0
100
AcDbPoint
 10
11.00506439914982
 20
578.1336840253714
 30
0.0
  0
ENDBLK
  5
176B5
330
176AA
100
AcDbEntity
  8
0
100
AcDbBlockEnd
  0
BLOCK
  5
178F8
330
178F7
100
AcDbEntity
  8
0
100
AcDbBlockBegin
  2
*D18
 70
     1
 10
0.0
 20
0.0
 30
0.0
  3
*D18
  1

  0
LINE
  5
178FA
330
178F7
100
AcDbEntity
  8
DIM
  6
Continuous
 62
     0
370
    -2
100
AcDbLine
 10
81.98857197877295
 20
352.7674252005714
 30
0.0
 11
81.98857197877294
 21
429.5143720969536
 31
0.0
  0
LINE
  5
178FB
330
178F7
100
AcDbEntity
  8
DIM
  6
Continuous
 62
     0
370
    -2
100
AcDbLine
 10
316.9885719787731
 20
351.7674252007722
 30
0.0
 11
316.9885719787731
 21
429.5143720969536
 31
0.0
  0
LINE
  5
178FC
330
178F7
100
AcDbEntity
  8
DIM
  6
Continuous
 62
     0
370
    -2
100
AcDbLine
 10
84.98857197877294
 20
429.5143720969536
 30
0.0
 11
313.9885719787731
 21
429.5143720969536
 31
0.0
  0
INSERT
  5
178FD
330
178F7
100
AcDbEntity
  8
DIM
 62
     0
370
    -2
100
AcDbBlockReference
  2
_DOT
 10
81.98857197877294
 20
429.5143720969536
 30
0.0
 41
3.0
 42
3.0
 43
3.0
 50
180.0
  0
INSERT
  5
178FE
330
178F7
100
AcDbEntity
  8
DIM
 62
     0
370
    -2
100
AcDbBlockReference
  2
_DOT
 10
316.9885719787731
 20
429.5143720969536
 30
0.0
 41
3.0
 42
3.0
 43
3.0
  0
MTEXT
  5
178FF
330
178F7
100
AcDbEntity
  8
DIM
 62
     0
100
AcDbMText
 10
193.307306419234
 20
443.5177483630533
 30
0.0
 40
9.0
 41
0.0
 46
0.0
 71
     2
 72
     1
  1
\A1;235
  7
ＭＳ ゴシック
 73
     1
 44
1.0
  0
POINT
  5
17900
330
178F7
100
AcDbEntity
  8
Defpoints
 62
     0
100
AcDbPoint
 10
81.98857197877295
 20
342.7674252005714
 30
0.0
  0
POINT
  5
17901
330
178F7
100
AcDbEntity
  8
Defpoints
 62
     0
100
AcDbPoint
 10
316.9885719787731
 20
341.7674252007722
 30
0.0
  0
POINT
  5
17902
330
178F7
100
AcDbEntity
  8
Defpoints
 62
     0
100
AcDbPoint
 10
316.9885719787731
 20
429.5143720969536
 30
0.0
  0
ENDBLK
  5
178F9
330
178F7
100
AcDbEntity
  8
0
100
AcDbBlockEnd
  0
BLOCK
  5
17904
330
17903
100
AcDbEntity
  8
0
100
AcDbBlockBegin
  2
*D19
 70
     1
 10
0.0
 20
0.0
 30
0.0
  3
*D19
  1

  0
LINE
  5
17906
330
17903
100
AcDbEntity
  8
DIM
  6
Continuous
 62
     0
370
    -2
100
AcDbLine
 10
97.78857197876788
 20
556.7911118655095
 30
0.0
 11
97.78857197876789
 21
532.4093196718991
 31
0.0
  0
LINE
  5
17907
330
17903
100
AcDbEntity
  8
DIM
  6
Continuous
 62
     0
370
    -2
100
AcDbLine
 10
301.1885719787675
 20
556.7911118654883
 30
0.0
 11
301.1885719787675
 21
532.4093196718991
 31
0.0
  0
LINE
  5
17908
330
17903
100
AcDbEntity
  8
DIM
  6
Continuous
 62
     0
370
    -2
100
AcDbLine
 10
100.7885719787679
 20
532.4093196718991
 30
0.0
 11
298.1885719787675
 21
532.4093196718991
 31
0.0
  0
INSERT
  5
17909
330
17903
100
AcDbEntity
  8
DIM
 62
     0
370
    -2
100
AcDbBlockReference
  2
_DOT
 10
97.78857197876789
 20
532.4093196718991
 30
0.0
 41
3.0
 42
3.0
 43
3.0
 50
180.0
  0
INSERT
  5
1790A
330
17903
100
AcDbEntity
  8
DIM
 62
     0
370
    -2
100
AcDbBlockReference
  2
_DOT
 10
301.1885719787675
 20
532.4093196718991
 30
0.0
 41
3.0
 42
3.0
 43
3.0
  0
MTEXT
  5
1790B
330
17903
100
AcDbEntity
  8
DIM
 62
     0
100
AcDbMText
 10
199.4885719787677
 20
546.4126959379989
 30
0.0
 40
9.0
 41
0.0
 46
0.0
 71
     2
 72
     1
  1
\A1;200
  7
ＭＳ ゴシック
 73
     1
 44
1.0
  0
POINT
  5
1790C
330
17903
100
AcDbEntity
  8
Defpoints
 62
     0
100
AcDbPoint
 10
97.78857197876788
 20
566.7911118655095
 30
0.0
  0
POINT
  5
1790D
330
17903
100
AcDbEntity
  8
Defpoints
 62
     0
100
AcDbPoint
 10
301.1885719787675
 20
566.7911118654883
 30
0.0
  0
POINT
  5
1790E
330
17903
100
AcDbEntity
  8
Defpoints
 62
     0
100
AcDbPoint
 10
301.1885719787675
 20
532.4093196718991
 30
0.0
  0
ENDBLK
  5
17905
330
17903
100
AcDbEntity
  8
0
100
AcDbBlockEnd
  0
BLOCK
  5
17910
330
1790F
100
AcDbEntity
  8
0
100
AcDbBlockBegin
  2
*D20
 70
     1
 10
0.0
 20
0.0
 30
0.0
  3
*D20
  1

  0
LINE
  5
17912
330
1790F
100
AcDbEntity
  8
DIM
  6
Continuous
 62
     0
370
    -2
100
AcDbLine
 10
263.1618176597677
 20
337.7674252005906
 30
0.0
 11
253.442107912315
 21
337.7674252005729
 31
0.0
  0
LINE
  5
17913
330
1790F
100
AcDbEntity
  8
DIM
  6
Continuous
 62
     0
370
    -2
100
AcDbLine
 10
232.5885719787676
 20
301.2674252005906
 30
0.0
 11
253.4421079123787
 21
301.2674252006287
 31
0.0
  0
LINE
  5
17914
330
1790F
100
AcDbEntity
  8
DIM
  6
Continuous
 62
     0
370
    -2
100
AcDbLine
 10
253.4421079123202
 20
334.7674252005729
 30
0.0
 11
253.4421079123735
 21
304.2674252006287
 31
0.0
  0
INSERT
  5
17915
330
1790F
100
AcDbEntity
  8
DIM
 62
     0
370
    -2
100
AcDbBlockReference
  2
_DOT
 10
253.442107912315
 20
337.7674252005729
 30
0.0
 41
3.0
 42
3.0
 43
3.0
 50
90.00000000009997
  0
INSERT
  5
17916
330
1790F
100
AcDbEntity
  8
DIM
 62
     0
370
    -2
100
AcDbBlockReference
  2
_DOT
 10
253.4421079123787
 20
301.2674252006287
 30
0.0
 41
3.0
 42
3.0
 43
3.0
 50
270.0000000001
  0
MTEXT
  5
17917
330
1790F
100
AcDbEntity
  8
DIM
 62
     0
100
AcDbMText
 10
239.4421079123677
 20
307.5697746219477
 30
0.0
 40
8.0
 41
0.0
 46
0.0
 71
     2
 72
     1
  1
\A1; 
  7
ＭＳ ゴシック
 11
-1.745015091332286E-12
 21
1.0
 31
0.0
 73
     1
 44
1.0
  0
POINT
  5
17918
330
1790F
100
AcDbEntity
  8
Defpoints
 62
     0
100
AcDbPoint
 10
253.1618176597677
 20
337.7674252005723
 30
0.0
  0
POINT
  5
17919
330
1790F
100
AcDbEntity
  8
Defpoints
 62
     0
100
AcDbPoint
 10
222.5885719787676
 20
301.2674252005723
 30
0.0
  0
POINT
  5
1791A
330
1790F
100
AcDbEntity
  8
Defpoints
 62
     0
100
AcDbPoint
 10
253.4421079123787
 20
301.2674252006262
 30
0.0
  0
ENDBLK
  5
17911
330
1790F
100
AcDbEntity
  8
0
100
AcDbBlockEnd
  0
BLOCK
  5
1791C
330
1791B
100
AcDbEntity
  8
0
100
AcDbBlockBegin
  2
*D21
 70
     1
 10
0.0
 20
0.0
 30
0.0
  3
*D21
  1

  0
LINE
  5
1791E
330
1791B
100
AcDbEntity
  8
DIM
  6
Continuous
 62
     0
370
    -2
100
AcDbLine
 10
412.3422923726765
 20
402.7674252005723
 30
0.0
 11
390.0125571874768
 21
402.7674252005723
 31
0.0
  0
LINE
  5
1791F
330
1791B
100
AcDbEntity
  8
DIM
  6
Continuous
 62
     0
370
    -2
100
AcDbLine
 10
399.8422923726765
 20
342.7674252003724
 30
0.0
 11
390.0125571874768
 21
342.7674252003724
 31
0.0
  0
LINE
  5
17920
330
1791B
100
AcDbEntity
  8
DIM
  6
Continuous
 62
     0
370
    -2
100
AcDbLine
 10
390.0125571874768
 20
399.7674252005723
 30
0.0
 11
390.0125571874768
 21
345.7674252003724
 31
0.0
  0
INSERT
  5
17921
330
1791B
100
AcDbEntity
  8
DIM
 62
     0
370
    -2
100
AcDbBlockReference
  2
_DOT
 10
390.0125571874768
 20
402.7674252005723
 30
0.0
 41
3.0
 42
3.0
 43
3.0
 50
90.0
  0
INSERT
  5
17922
330
1791B
100
AcDbEntity
  8
DIM
 62
     0
370
    -2
100
AcDbBlockReference
  2
_DOT
 10
390.0125571874768
 20
342.7674252003724
 30
0.0
 41
3.0
 42
3.0
 43
3.0
 50
270.0
  0
MTEXT
  5
17923
330
1791B
100
AcDbEntity
  8
DIM
 62
     0
100
AcDbMText
 10
376.0125571874768
 20
368.8624211865724
 30
0.0
 40
9.0
 41
0.0
 46
0.0
 71
     2
 72
     1
  1
\A1;60
  7
ＭＳ ゴシック
 11
0.0
 21
1.0
 31
0.0
 73
     1
 44
1.0
  0
POINT
  5
17924
330
1791B
100
AcDbEntity
  8
Defpoints
 62
     0
100
AcDbPoint
 10
422.3422923726765
 20
402.7674252005723
 30
0.0
  0
POINT
  5
17925
330
1791B
100
AcDbEntity
  8
Defpoints
 62
     0
100
AcDbPoint
 10
409.8422923726765
 20
342.7674252003724
 30
0.0
  0
POINT
  5
17926
330
1791B
100
AcDbEntity
  8
Defpoints
 62
     0
100
AcDbPoint
 10
390.0125571874768
 20
342.7674252003724
 30
0.0
  0
ENDBLK
  5
1791D
330
1791B
100
AcDbEntity
  8
0
100
AcDbBlockEnd
  0
BLOCK
  5
17928
330
17927
100
AcDbEntity
  8
0
100
AcDbBlockBegin
  2
*D22
 70
     1
 10
0.0
 20
0.0
 30
0.0
  3
*D22
  1

  0
LINE
  5
1792A
330
17927
100
AcDbEntity
  8
DIM
  6
Continuous
 62
     0
370
    -2
100
AcDbLine
 10
399.8422923726765
 20
342.7674252003724
 30
0.0
 11
390.0125571874768
 21
342.7674252003724
 31
0.0
  0
LINE
  5
1792B
330
17927
100
AcDbEntity
  8
DIM
  6
Continuous
 62
     0
370
    -2
100
AcDbLine
 10
399.8422923726765
 20
337.7674252003724
 30
0.0
 11
390.0125571874768
 21
337.7674252003724
 31
0.0
  0
LINE
  5
1792C
330
17927
100
AcDbEntity
  8
DIM
  6
Continuous
 62
     0
370
    -2
100
AcDbLine
 10
390.0125571874768
 20
337.7674252003724
 30
0.0
 11
390.0125571874768
 21
306.9560939521853
 31
0.0
  0
LINE
  5
1792D
330
17927
100
AcDbEntity
  8
DIM
  6
Continuous
 62
     0
370
    -2
100
AcDbLine
 10
390.0125571874768
 20
345.7674252003724
 30
0.0
 11
390.0125571874768
 21
348.7674252003724
 31
0.0
  0
LINE
  5
1792E
330
17927
100
AcDbEntity
  8
DIM
  6
Continuous
 62
     0
370
    -2
100
AcDbLine
 10
390.0125571874768
 20
334.7674252003724
 30
0.0
 11
390.0125571874768
 21
331.7674252003724
 31
0.0
  0
INSERT
  5
1792F
330
17927
100
AcDbEntity
  8
DIM
 62
     0
370
    -2
100
AcDbBlockReference
  2
_DOT
 10
390.0125571874768
 20
342.7674252003724
 30
0.0
 41
3.0
 42
3.0
 43
3.0
 50
270.0
  0
INSERT
  5
17930
330
17927
100
AcDbEntity
  8
DIM
 62
     0
370
    -2
100
AcDbBlockReference
  2
_DOT
 10
390.0125571874768
 20
337.7674252003724
 30
0.0
 41
3.0
 42
3.0
 43
3.0
 50
90.0
  0
MTEXT
  5
17931
330
17927
100
AcDbEntity
  8
DIM
 62
     0
100
AcDbMText
 10
376.009180921377
 20
316.6108394817588
 30
0.0
 40
9.0
 41
0.0
 46
0.0
 71
     3
 72
     1
  1
\A1;5
  7
ＭＳ ゴシック
 11
0.0
 21
1.0
 31
0.0
 73
     1
 44
1.0
  0
POINT
  5
17932
330
17927
100
AcDbEntity
  8
Defpoints
 62
     0
100
AcDbPoint
 10
409.8422923726765
 20
342.7674252003724
 30
0.0
  0
POINT
  5
17933
330
17927
100
AcDbEntity
  8
Defpoints
 62
     0
100
AcDbPoint
 10
409.8422923726765
 20
337.7674252003724
 30
0.0
  0
POINT
  5
17934
330
17927
100
AcDbEntity
  8
Defpoints
 62
     0
100
AcDbPoint
 10
390.0125571874768
 20
337.7674252003724
 30
0.0
  0
ENDBLK
  5
17929
330
17927
100
AcDbEntity
  8
0
100
AcDbBlockEnd
  0
BLOCK
  5
17936
330
17935
100
AcDbEntity
  8
0
100
AcDbBlockBegin
  2
*D23
 70
     1
 10
0.0
 20
0.0
 30
0.0
  3
*D23
  1

  0
LINE
  5
17938
330
17935
100
AcDbEntity
  8
DIM
  6
Continuous
 62
     0
370
    -2
100
AcDbLine
 10
422.9422923726764
 20
412.7674252005723
 30
0.0
 11
422.9422923726764
 21
417.9795266758505
 31
0.0
  0
LINE
  5
17939
330
17935
100
AcDbEntity
  8
DIM
  6
Continuous
 62
     0
370
    -2
100
AcDbLine
 10
447.9422923726764
 20
412.8271543739243
 30
0.0
 11
447.9422923726764
 21
417.9795266758505
 31
0.0
  0
LINE
  5
1793A
330
17935
100
AcDbEntity
  8
DIM
  6
Continuous
 62
     0
370
    -2
100
AcDbLine
 10
425.9422923726764
 20
417.9795266758505
 30
0.0
 11
444.9422923726764
 21
417.9795266758505
 31
0.0
  0
INSERT
  5
1793B
330
17935
100
AcDbEntity
  8
DIM
 62
     0
370
    -2
100
AcDbBlockReference
  2
_DOT
 10
422.9422923726764
 20
417.9795266758505
 30
0.0
 41
3.0
 42
3.0
 43
3.0
 50
180.0
  0
INSERT
  5
1793C
330
17935
100
AcDbEntity
  8
DIM
 62
     0
370
    -2
100
AcDbBlockReference
  2
_DOT
 10
447.9422923726764
 20
417.9795266758505
 30
0.0
 41
3.0
 42
3.0
 43
3.0
  0
MTEXT
  5
1793D
330
17935
100
AcDbEntity
  8
DIM
 62
     0
100
AcDbMText
 10
430.7862970258038
 20
431.9829029419502
 30
0.0
 40
9.0
 41
0.0
 46
0.0
 71
     1
 72
     1
  1
\A1;25
  7
ＭＳ ゴシック
 73
     1
 44
1.0
  0
POINT
  5
1793E
330
17935
100
AcDbEntity
  8
Defpoints
 62
     0
100
AcDbPoint
 10
422.9422923726764
 20
402.7674252005723
 30
0.0
  0
POINT
  5
1793F
330
17935
100
AcDbEntity
  8
Defpoints
 62
     0
100
AcDbPoint
 10
447.9422923726764
 20
402.8271543739243
 30
0.0
  0
POINT
  5
17940
330
17935
100
AcDbEntity
  8
Defpoints
 62
     0
100
AcDbPoint
 10
447.9422923726764
 20
417.9795266758505
 30
0.0
  0
ENDBLK
  5
17937
330
17935
100
AcDbEntity
  8
0
100
AcDbBlockEnd
  0
BLOCK
  5
17942
330
17941
100
AcDbEntity
  8
0
100
AcDbBlockBegin
  2
*D24
 70
     1
 10
0.0
 20
0.0
 30
0.0
  3
*D24
  1

  0
LINE
  5
17944
330
17941
100
AcDbEntity
  8
DIM
  6
Continuous
 62
     0
370
    -2
100
AcDbLine
 10
325.9885719787678
 20
742.2911118654883
 30
0.0
 11
358.9525151573416
 21
742.2911118654883
 31
0.0
  0
LINE
  5
17945
330
17941
100
AcDbEntity
  8
DIM
  6
Continuous
 62
     0
370
    -2
100
AcDbLine
 10
308.1885719787675
 20
563.7911118654883
 30
0.0
 11
358.9525151573416
 21
563.7911118654883
 31
0.0
  0
LINE
  5
17946
330
17941
100
AcDbEntity
  8
DIM
  6
Continuous
 62
     0
370
    -2
100
AcDbLine
 10
358.9525151573416
 20
739.2911118654883
 30
0.0
 11
358.9525151573416
 21
566.7911118654883
 31
0.0
  0
INSERT
  5
17947
330
17941
100
AcDbEntity
  8
DIM
 62
     0
370
    -2
100
AcDbBlockReference
  2
_DOT
 10
358.9525151573416
 20
742.2911118654883
 30
0.0
 41
3.0
 42
3.0
 43
3.0
 50
90.0
  0
INSERT
  5
17948
330
17941
100
AcDbEntity
  8
DIM
 62
     0
370
    -2
100
AcDbBlockReference
  2
_DOT
 10
358.9525151573416
 20
563.7911118654883
 30
0.0
 41
3.0
 42
3.0
 43
3.0
 50
270.0
  0
MTEXT
  5
17949
330
17941
100
AcDbEntity
  8
DIM
 62
     0
370
     0
100
AcDbMText
 10
349.4508270242916
 20
653.0411118654883
 30
0.0
 40
9.0
 41
0.0
 46
0.0
 71
     5
 72
     1
  1
\A1;178
  7
ＭＳ ゴシック
 11
0.0
 21
1.0
 31
0.0
 73
     1
 44
1.0
  0
POINT
  5
1794A
330
17941
100
AcDbEntity
  8
Defpoints
 62
     0
100
AcDbPoint
 10
315.9885719787678
 20
742.2911118654883
 30
0.0
  0
POINT
  5
1794B
330
17941
100
AcDbEntity
  8
Defpoints
 62
     0
100
AcDbPoint
 10
298.1885719787675
 20
563.7911118654883
 30
0.0
  0
POINT
  5
1794C
330
17941
100
AcDbEntity
  8
Defpoints
 62
     0
100
AcDbPoint
 10
358.9525151573416
 20
563.7911118654883
 30
0.0
  0
ENDBLK
  5
17943
330
17941
100
AcDbEntity
  8
0
100
AcDbBlockEnd
  0
BLOCK
  5
1794E
330
1794D
100
AcDbEntity
  8
0
100
AcDbBlockBegin
  2
*D25
 70
     1
 10
0.0
 20
0.0
 30
0.0
  3
*D25
  1

  0
LINE
  5
17950
330
1794D
100
AcDbEntity
  8
DIM
  6
Continuous
 62
     0
370
    -2
100
AcDbLine
 10
314.4885719787678
 20
397.9674252005722
 30
0.0
 11
342.7116471085071
 21
397.9674252005722
 31
0.0
  0
LINE
  5
17951
330
1794D
100
AcDbEntity
  8
DIM
  6
Continuous
 62
     0
370
    -2
100
AcDbLine
 10
314.4885719787678
 20
375.9674252005722
 30
0.0
 11
342.7116471085071
 21
375.9674252005722
 31
0.0
  0
LINE
  5
17952
330
1794D
100
AcDbEntity
  8
DIM
  6
Continuous
 62
     0
370
    -2
100
AcDbLine
 10
342.7116471085071
 20
394.9674252005722
 30
0.0
 11
342.7116471085071
 21
378.9674252005722
 31
0.0
  0
INSERT
  5
17953
330
1794D
100
AcDbEntity
  8
DIM
 62
     0
370
    -2
100
AcDbBlockReference
  2
_DOT
 10
342.7116471085071
 20
397.9674252005722
 30
0.0
 41
3.0
 42
3.0
 43
3.0
 50
90.0
  0
INSERT
  5
17954
330
1794D
100
AcDbEntity
  8
DIM
 62
     0
370
    -2
100
AcDbBlockReference
  2
_DOT
 10
342.7116471085071
 20
375.9674252005722
 30
0.0
 41
3.0
 42
3.0
 43
3.0
 50
270.0
  0
MTEXT
  5
17955
330
1794D
100
AcDbEntity
  8
DIM
 62
     0
370
     0
100
AcDbMText
 10
332.2099589754573
 20
386.9674252005722
 30
0.0
 40
9.0
 41
0.0
 46
0.0
 71
     5
 72
     1
  1
\A1;21
  7
ＭＳ ゴシック
 11
0.0
 21
1.0
 31
0.0
 73
     1
 44
1.0
  0
POINT
  5
17956
330
1794D
100
AcDbEntity
  8
Defpoints
 62
     0
100
AcDbPoint
 10
304.4885719787678
 20
397.9674252005722
 30
0.0
  0
POINT
  5
17957
330
1794D
100
AcDbEntity
  8
Defpoints
 62
     0
100
AcDbPoint
 10
304.4885719787678
 20
375.9674252005722
 30
0.0
  0
POINT
  5
17958
330
1794D
100
AcDbEntity
  8
Defpoints
 62
     0
100
AcDbPoint
 10
342.7116471085071
 20
375.9674252005722
 30
0.0
  0
ENDBLK
  5
1794F
330
1794D
100
AcDbEntity
  8
0
100
AcDbBlockEnd
  0
BLOCK
  5
1795A
330
17959
100
AcDbEntity
  8
0
100
AcDbBlockBegin
  2
*D26
 70
     1
 10
0.0
 20
0.0
 30
0.0
  3
*D26
  1

  0
LINE
  5
1795C
330
17959
100
AcDbEntity
  8
DIM
  6
Continuous
 62
     0
370
    -2
100
AcDbLine
 10
72.9885719787677
 20
742.2911118654883
 30
0.0
 11
62.85981998111377
 21
742.2911118654883
 31
0.0
  0
LINE
  5
1795D
330
17959
100
AcDbEntity
  8
DIM
  6
Continuous
 62
     0
370
    -2
100
AcDbLine
 10
72.98857197877497
 20
692.2911118654883
 30
0.0
 11
62.85981998111377
 21
692.2911118654883
 31
0.0
  0
LINE
  5
1795E
330
17959
100
AcDbEntity
  8
DIM
  6
Continuous
 62
     0
370
    -2
100
AcDbLine
 10
62.85981998111377
 20
739.2911118654883
 30
0.0
 11
62.85981998111377
 21
695.2911118654883
 31
0.0
  0
INSERT
  5
1795F
330
17959
100
AcDbEntity
  8
DIM
 62
     0
370
    -2
100
AcDbBlockReference
  2
_DOT
 10
62.85981998111377
 20
742.2911118654883
 30
0.0
 41
3.0
 42
3.0
 43
3.0
 50
90.0
  0
INSERT
  5
17960
330
17959
100
AcDbEntity
  8
DIM
 62
     0
370
    -2
100
AcDbBlockReference
  2
_DOT
 10
62.85981998111377
 20
692.2911118654883
 30
0.0
 41
3.0
 42
3.0
 43
3.0
 50
270.0
  0
MTEXT
  5
17961
330
17959
100
AcDbEntity
  8
DIM
 62
     0
370
     0
100
AcDbMText
 10
52.35813184806385
 20
717.2911118654883
 30
0.0
 40
9.0
 41
0.0
 46
0.0
 71
     5
 72
     1
  1
\A1;50
  7
ＭＳ ゴシック
 11
0.0
 21
1.0
 31
0.0
 73
     1
 44
1.0
  0
POINT
  5
17962
330
17959
100
AcDbEntity
  8
Defpoints
 62
     0
100
AcDbPoint
 10
82.9885719787677
 20
742.2911118654883
 30
0.0
  0
POINT
  5
17963
330
17959
100
AcDbEntity
  8
Defpoints
 62
     0
100
AcDbPoint
 10
82.98857197877497
 20
692.2911118654883
 30
0.0
  0
POINT
  5
17964
330
17959
100
AcDbEntity
  8
Defpoints
 62
     0
100
AcDbPoint
 10
62.85981998111377
 20
692.2911118654883
 30
0.0
  0
ENDBLK
  5
1795B
330
17959
100
AcDbEntity
  8
0
100
AcDbBlockEnd
  0
ENDSEC
  0
SECTION
  2
ENTITIES
  0
MTEXT
  5
177
330
A
100
AcDbEntity
  8
TEMPLATE
390
1D
100
AcDbMText
 10
23.76064336431923
 20
103.1195254894285
 30
0.0
 40
4.886523437499998
 41
0.0
 46
0.0
 71
     1
 72
     1
  1
品名
  7
ＭＳ ゴシック
 73
     1
 44
0.7828267384257843
  0
MTEXT
  5
178
330
A
100
AcDbEntity
  8
TEMPLATE
390
1D
100
AcDbMText
 10
23.76064336431923
 20
77.6195254894284
 30
0.0
 40
4.886523437499998
 41
0.0
 46
0.0
 71
     1
 72
     1
  1
仕様
  7
ＭＳ ゴシック
 73
     1
 44
0.7828267384257843
  0
LINE
  5
179
330
A
100
AcDbEntity
  8
TEMPLATE
390
1D
100
AcDbLine
 10
606.6606433641745
 20
80.14400205192852
 30
0.0
 11
21.66064336417462
 21
80.14400205192852
 31
0.0
  0
LWPOLYLINE
  5
17A
330
A
100
AcDbEntity
  8
TEMPLATE
390
1D
100
AcDbPolyline
 90
        5
 70
   128
 43
0.0
 10
606.6606433641745
 20
869.1440020519278
 10
21.66064336417462
 20
869.1440020519278
 10
21.66064336417462
 20
29.14400205192847
 10
606.6606433641745
 20
29.14400205192847
 10
606.6606433641745
 20
869.1440020519278
  0
LINE
  5
17B
330
A
100
AcDbEntity
  8
TEMPLATE
390
1D
100
AcDbLine
 10
606.6606433641745
 20
105.6440020519285
 30
0.0
 11
21.66064336417462
 21
105.6440020519285
 31
0.0
  0
LINE
  5
17C
330
A
100
AcDbEntity
  8
TEMPLATE
390
1D
100
AcDbLine
 10
606.6606433643196
 20
54.64400205192847
 30
0.0
 11
380.760643364319
 21
54.64400205192847
 31
0.0
  0
MTEXT
  5
17E
330
A
100
AcDbEntity
  8
TEMPLATE
390
1D
100
AcDbMText
 10
389.7220652399973
 20
45.67088370993605
 30
0.0
 40
7.329785156250001
 41
0.0
 46
0.0
 71
     1
 72
     1
  1
大洋金物株式会社 ティーフォルム事業部
  7
ＭＳ ゴシック
 73
     1
 44
0.7828267384257843
  0
MTEXT
  5
180
330
A
100
AcDbEntity
  8
TEMPLATE
390
1D
100
AcDbMText
 10
549.360643364397
 20
69.04478720817846
 30
0.0
 40
7.329785156250001
 41
0.0
 46
7.329785156250001
 71
     1
 72
     1
  1
{1:3}
  7
ＭＳ ゴシック
 73
     1
 44
0.7828267384257843
1001
ACAD
1000
ACAD_MTEXT_DEFINED_HEIGHT_BEGIN
1070
    46
1040
7.329785156250001
1000
ACAD_MTEXT_DEFINED_HEIGHT_END
  0
MTEXT
  5
181
330
A
100
AcDbEntity
  8
TEMPLATE
390
1D
100
AcDbMText
 10
533.4606433643969
 20
77.6195254894284
 30
0.0
 40
4.886523437499998
 41
0.0
 46
0.0
 71
     1
 72
     1
  1
縮尺
  7
ＭＳ ゴシック
 73
     1
 44
0.7828267384257843
  0
LINE
  5
182
330
A
100
AcDbEntity
  8
TEMPLATE
390
1D
100
AcDbLine
 10
531.360643364397
 20
54.64400205192847
 30
0.0
 11
531.360643364397
 21
80.14400205192852
 31
0.0
  0
MTEXT
  5
183
330
A
100
AcDbEntity
  8
TEMPLATE
390
1D
100
AcDbMText
 10
458.1606433643969
 20
77.6195254894284
 30
0.0
 40
4.886523437499998
 41
0.0
 46
0.0
 71
     1
 72
     1
  1
容量
  7
ＭＳ ゴシック
 73
     1
 44
0.7828267384257843
  0
LINE
  5
184
330
A
100
AcDbEntity
  8
TEMPLATE
390
1D
100
AcDbLine
 10
456.060643364397
 20
54.64400205192847
 30
0.0
 11
456.060643364397
 21
80.14400205192852
 31
0.0
  0
MTEXT
  5
185
330
A
100
AcDbEntity
  8
TEMPLATE
390
1D
100
AcDbMText
 10
382.860643364397
 20
103.1195254894285
 30
0.0
 40
4.886523437499998
 41
0.0
 46
0.0
 71
     1
 72
     1
  1
品番
  7
ＭＳ ゴシック
 73
     1
 44
0.7828267384257843
  0
MTEXT
  5
186
330
A
100
AcDbEntity
  8
TEMPLATE
390
1D
100
AcDbMText
 10
382.860643364397
 20
77.6195254894284
 30
0.0
 40
4.886523437499998
 41
0.0
 46
0.0
 71
     1
 72
     1
  1
重量
  7
ＭＳ ゴシック
 73
     1
 44
0.7828267384257843
  0
MTEXT
  5
187
330
A
100
AcDbEntity
  8
TEMPLATE
390
1D
100
AcDbMText
 10
398.760643364397
 20
94.54478720817846
 30
0.0
 40
7.329785156250001
 41
0.0
 46
7.329785156250001
 71
     1
 72
     1
  1
{ALH73-2201}
  7
ＭＳ ゴシック
 73
     1
 44
0.7828267384257843
1001
ACAD
1000
ACAD_MTEXT_DEFINED_HEIGHT_BEGIN
1070
    46
1040
7.329785156250001
1000
ACAD_MTEXT_DEFINED_HEIGHT_END
  0
LINE
  5
188
330
A
100
AcDbEntity
  8
TEMPLATE
390
1D
100
AcDbLine
 10
380.760643364397
 20
29.14400205192847
 30
0.0
 11
380.760643364397
 21
105.6440020519285
 31
0.0
  0
MTEXT
  5
189
330
A
100
AcDbEntity
  8
TEMPLATE
390
1D
100
AcDbMText
 10
39.66064336431923
 20
94.54478720817846
 30
0.0
 40
7.329785156250001
 41
0.0
 46
8.261017083066307
 71
     1
 72
     1
  1
{吐水口　-ALMAR,Emotion-}
  7
ＭＳ ゴシック
 73
     1
 44
0.7828267384257843
1001
ACAD
1000
ACAD_MTEXT_DEFINED_HEIGHT_BEGIN
1070
    46
1040
8.261017083066307
1000
ACAD_MTEXT_DEFINED_HEIGHT_END
  0
INSERT
  5
68C
330
A
100
AcDbEntity
  8
TEMPLATE
100
AcDbBlockReference
  2
block 2
 10
367.7097207081031
 20
3.349230605734547
 30
0.0
 41
0.1524
 42
0.1524
 43
0.1524
  0
LWPOLYLINE
  5
D69
330
A
100
AcDbEntity
  8
BORDER
100
AcDbPolyline
 90
        4
 70
     1
 43
0.0
 10
0.0
 20
0.0
 10
0.0
 20
891.0
 10
630.0
 20
891.0
 10
630.0
 20
0.0
  0
INSERT
  5
1343
330
A
100
AcDbEntity
  8
TEMPLATE
100
AcDbBlockReference
  2
block 2
 10
838.6973883465873
 20
9.774128564918277
 30
0.0
 41
0.1524
 42
0.1524
 43
0.1524
  0
MTEXT
  5
36AC
102
{ACAD_XDICTIONARY
360
36AE
102
}
330
A
100
AcDbEntity
  8
TEMPLATE
 48
0.05
100
AcDbMText
 10
22.06848147481188
 20
25.15049698669364
 30
0.0
 40
7.0
 41
0.0
 46
7.0
 71
     1
 72
     1
  1
{20211013M}
  7
ＭＳ ゴシック
 73
     1
 44
1.0
1001
ACAD
1000
ACAD_MTEXT_DEFINED_HEIGHT_BEGIN
1070
    46
1040
7.0
1000
ACAD_MTEXT_DEFINED_HEIGHT_END
  0
HATCH
  5
172F9
102
{ACAD_REACTORS
330
1730A
102
}
330
A
100
AcDbEntity
  8
TEMPLATE
100
AcDbHatch
 10
0.0
 20
0.0
 30
0.0
210
0.0
220
0.0
230
1.0
  2
SOLID
 70
     1
 71
     1
 91
        6
 92
        1
 93
        8
 72
     1
 10
580.3195574690816
 20
45.81237511424545
 11
580.3195574690816
 21
44.03955282504737
 72
     1
 10
580.3195574690816
 20
44.03955282504737
 11
577.5113800039879
 21
44.03955282504737
 72
     1
 10
577.5113800039879
 20
44.03955282504737
 11
577.5113800039879
 21
36.81237511467916
 72
     1
 10
577.5113800039879
 20
36.81237511467916
 11
575.0415960580052
 21
36.81237511467916
 72
     1
 10
575.0415960580052
 20
36.81237511467916
 11
575.0415960580052
 21
44.03955282504737
 72
     1
 10
575.0415960580052
 20
44.03955282504737
 11
572.2831856276422
 21
44.03955282504737
 72
     1
 10
572.2831856276422
 20
44.03955282504737
 11
572.2831856276422
 21
45.81237511424545
 72
     1
 10
572.2831856276422
 20
45.81237511424545
 11
580.3195574690816
 21
45.81237511424545
 97
        1
330
172FA
 92
        1
 93
        1
 72
     4
 94
        3
 73
     0
 74
     1
 95
       56
 96
       52
 40
0.0
 40
0.0
 40
0.0
 40
0.0
 40
1.0
 40
1.0
 40
1.0
 40
2.0
 40
2.0
 40
2.0
 40
3.0
 40
3.0
 40
3.0
 40
4.0
 40
4.0
 40
4.0
 40
5.0
 40
5.0
 40
5.0
 40
6.0
 40
6.0
 40
6.0
 40
7.0
 40
7.0
 40
7.0
 40
8.0
 40
8.0
 40
8.0
 40
9.0
 40
9.0
 40
9.0
 40
10.0
 40
10.0
 40
10.0
 40
11.0
 40
11.0
 40
11.0
 40
12.0
 40
12.0
 40
12.0
 40
13.0
 40
13.0
 40
13.0
 40
14.0
 40
14.0
 40
14.0
 40
15.0
 40
15.0
 40
15.0
 40
16.0
 40
16.0
 40
16.0
 40
17.0
 40
17.0
 40
17.0
 40
17.0
 10
584.0822130993691
 20
45.59806442612169
 10
584.4283729539446
 20
45.69550069232489
 10
584.8752496819451
 20
45.61399880405779
 10
584.8752496819451
 20
45.61399880405779
 10
584.8752496819451
 20
45.61399880405779
 10
584.6605596038704
 20
44.96972771633077
 10
584.6605596038704
 20
44.96972771633077
 10
584.6605596038704
 20
44.96972771633077
 10
584.2218509183414
 20
45.07124800376958
 10
583.8834797162866
 20
44.80442528303579
 10
583.6205401632852
 20
44.59576081006296
 10
583.4501940753495
 20
44.04131587246591
 10
583.3848497355779
 20
43.83050896212374
 10
583.3848497355779
 20
43.83050896212374
 10
583.0935228874299
 20
42.93630916500408
 10
583.0935228874299
 20
42.93630916500408
 10
583.0935228874299
 20
42.93630916500408
 10
584.0487598325259
 20
42.93630916500408
 10
584.0487598325259
 20
42.93630916500408
 10
584.0487598325259
 20
42.93630916500408
 10
583.9001951911804
 20
42.37351764848811
 10
583.9001951911804
 20
42.37351764848811
 10
583.9001951911804
 20
42.37351764848811
 10
582.9371695935639
 20
42.37351764848811
 10
582.9371695935639
 20
42.37351764848811
 10
582.9371695935639
 20
42.37351764848811
 10
581.2141366561519
 20
36.81237511467916
 10
581.2141366561519
 20
36.81237511467916
 10
581.2141366561519
 20
36.81237511467916
 10
580.6746664630858
 20
36.81237511467916
 10
580.6746664630858
 20
36.81237511467916
 10
580.6746664630858
 20
36.81237511467916
 10
582.3992615944129
 20
42.37351764848811
 10
582.3992615944129
 20
42.37351764848811
 10
582.3992615944129
 20
42.37351764848811
 10
581.6886418993973
 20
42.37351764848811
 10
581.6886418993973
 20
42.37351764848811
 10
581.6886418993973
 20
42.37351764848811
 10
581.8376082477495
 20
42.93630916500408
 10
581.8376082477495
 20
42.93630916500408
 10
581.8376082477495
 20
42.93630916500408
 10
582.5556148882789
 20
42.93630916500408
 10
582.5556148882789
 20
42.93630916500408
 10
582.5556148882789
 20
42.93630916500408
 10
582.8095829847954
 20
43.71615636752356
 10
582.8095829847954
 20
43.71615636752356
 10
583.0149445334899
 20
44.36997915518985
 10
583.1891961062141
 20
44.72100412795849
 10
583.3385641615731
 20
44.98566209426688
 10
583.4863477059606
 20
45.25054323113452
 10
583.7788350410173
 20
45.51073778625616
 10
584.0822130993691
 20
45.59806442612169
 97
        1
330
17305
 92
        1
 93
        1
 72
     4
 94
        3
 73
     0
 74
     1
 95
       32
 96
       28
 40
0.0
 40
0.0
 40
0.0
 40
0.0
 40
1.0
 40
1.0
 40
1.0
 40
2.0
 40
2.0
 40
2.0
 40
3.0
 40
3.0
 40
3.0
 40
4.0
 40
4.0
 40
4.0
 40
5.0
 40
5.0
 40
5.0
 40
6.0
 40
6.0
 40
6.0
 40
7.0
 40
7.0
 40
7.0
 40
8.0
 40
8.0
 40
8.0
 40
9.0
 40
9.0
 40
9.0
 40
9.0
 10
585.394880012287
 20
42.5961972325865
 10
585.0701222143513
 20
42.17612328876155
 10
584.8200372855671
 20
41.79807236125814
 10
584.4151612568324
 20
40.60984535222244
 10
584.0429350809274
 20
39.52296009417805
 10
583.8060618492556
 20
38.73222216836346
 10
583.7702876085951
 20
37.76919657074652
 10
583.7430608003568
 20
37.0525512706291
 10
584.1794485120689
 20
36.81237511467916
 10
584.8192785056652
 20
36.81237511467916
 10
585.0950280487724
 20
36.81237511467916
 10
585.7908738527602
 20
36.82991632064248
 10
586.2864017626947
 20
37.44247487188884
 10
586.6332980801157
 20
37.87283697849896
 10
586.9530122234106
 20
38.3189549265978
 10
587.3816335996579
 20
39.78237355234214
 10
587.7383047875777
 20
41.00579455858404
 10
587.985265328531
 20
41.79651016734281
 10
587.9670099767781
 20
42.24671213667737
 10
587.9670099767781
 20
42.24671213667737
 10
587.9670099767781
 20
42.24671213667737
 10
587.9670099767781
 20
42.24671213667737
 10
587.8506934812557
 20
42.9977703370432
 10
587.305398536591
 20
43.1564669217822
 10
586.9938524357677
 20
43.1564669217822
 10
586.6869929166902
 20
43.1564669217822
 10
585.8647433078983
 20
43.20955919784658
 10
585.394880012287
 20
42.5961972325865
 97
        1
330
17308
 92
        1
 93
        1
 72
     4
 94
        3
 73
     0
 74
     1
 95
       38
 96
       34
 40
0.0
 40
0.0
 40
0.0
 40
0.0
 40
1.0
 40
1.0
 40
1.0
 40
2.0
 40
2.0
 40
2.0
 40
3.0
 40
3.0
 40
3.0
 40
4.0
 40
4.0
 40
4.0
 40
5.0
 40
5.0
 40
5.0
 40
6.0
 40
6.0
 40
6.0
 40
7.0
 40
7.0
 40
7.0
 40
8.0
 40
8.0
 40
8.0
 40
9.0
 40
9.0
 40
9.0
 40
10.0
 40
10.0
 40
10.0
 40
11.0
 40
11.0
 40
11.0
 40
11.0
 10
589.9393467460162
 20
42.91472857191693
 10
589.9393467460162
 20
42.91472857191693
 10
590.4939702200608
 20
42.91472857191693
 10
590.4939702200608
 20
42.91472857191693
 10
590.4939702200608
 20
42.91472857191693
 10
590.2462062650937
 20
42.12146881878184
 10
590.2462062650937
 20
42.12146881878184
 10
590.4344729489438
 20
42.34414840288034
 10
590.7316022316344
 20
42.6407197591727
 10
590.9867754491712
 20
42.79026635097919
 10
591.3679507645053
 20
43.01294593507769
 10
591.5857652304104
 20
43.04231518068534
 10
591.8253165087943
 20
43.03646811203098
 10
591.8253165087943
 20
43.03646811203098
 10
591.591210592058
 20
42.28639186212602
 10
591.591210592058
 20
42.28639186212602
 10
591.4387404659245
 20
42.35095510493986
 10
590.968877170313
 20
42.22805507791734
 10
590.6993317687555
 20
42.03416449597226
 10
590.4562543955343
 20
41.85933267979383
 10
590.2882069643596
 20
41.71056718494513
 10
590.0890941913261
 20
41.33657796162161
 10
589.8914989780961
 20
40.96203081189956
 10
589.735547391237
 20
40.36480407807901
 10
589.4671624765878
 20
39.49841133265191
 10
589.4671624765878
 20
39.49841133265191
 10
588.6289784898598
 20
36.81237511467916
 10
588.6289784898598
 20
36.81237511467916
 10
588.6289784898598
 20
36.81237511467916
 10
588.0906911007581
 20
36.81237511467916
 10
588.0906911007581
 20
36.81237511467916
 10
588.0906911007581
 20
36.81237511467916
 10
589.9393467460162
 20
42.91472857191693
 10
589.9393467460162
 20
42.91472857191693
 97
        1
330
17306
 92
        1
 93
        1
 72
     4
 94
        3
 73
     0
 74
     1
 95
      104
 96
      100
 40
0.0
 40
0.0
 40
0.0
 40
0.0
 40
1.0
 40
1.0
 40
1.0
 40
2.0
 40
2.0
 40
2.0
 40
3.0
 40
3.0
 40
3.0
 40
4.0
 40
4.0
 40
4.0
 40
5.0
 40
5.0
 40
5.0
 40
6.0
 40
6.0
 40
6.0
 40
7.0
 40
7.0
 40
7.0
 40
8.0
 40
8.0
 40
8.0
 40
9.0
 40
9.0
 40
9.0
 40
10.0
 40
10.0
 40
10.0
 40
11.0
 40
11.0
 40
11.0
 40
12.0
 40
12.0
 40
12.0
 40
13.0
 40
13.0
 40
13.0
 40
14.0
 40
14.0
 40
14.0
 40
15.0
 40
15.0
 40
15.0
 40
16.0
 40
16.0
 40
16.0
 40
17.0
 40
17.0
 40
17.0
 40
18.0
 40
18.0
 40
18.0
 40
19.0
 40
19.0
 40
19.0
 40
20.0
 40
20.0
 40
20.0
 40
21.0
 40
21.0
 40
21.0
 40
22.0
 40
22.0
 40
22.0
 40
23.0
 40
23.0
 40
23.0
 40
24.0
 40
24.0
 40
24.0
 40
25.0
 40
25.0
 40
25.0
 40
26.0
 40
26.0
 40
26.0
 40
27.0
 40
27.0
 40
27.0
 40
28.0
 40
28.0
 40
28.0
 40
29.0
 40
29.0
 40
29.0
 40
30.0
 40
30.0
 40
30.0
 40
31.0
 40
31.0
 40
31.0
 40
32.0
 40
32.0
 40
32.0
 40
33.0
 40
33.0
 40
33.0
 40
33.0
 10
592.9921860953021
 20
42.91803149619498
 10
592.9921860953021
 20
42.91803149619498
 10
593.4764215749343
 20
42.91803149619498
 10
593.4764215749343
 20
42.91803149619498
 10
593.4764215749343
 20
42.91803149619498
 10
593.2317820077977
 20
42.12401296315816
 10
593.2317820077977
 20
42.12401296315816
 10
593.4441064779436
 20
42.4569388035653
 10
593.6346941356106
 20
42.6053249084632
 10
593.8879034522253
 20
42.79707305303871
 10
594.1418715487417
 20
42.98609851679041
 10
594.4433303402833
 20
43.02461775533059
 10
594.6525750567104
 20
43.02461775533059
 10
594.9116314419795
 20
43.02461775533059
 10
595.1617163707637
 20
42.97346706313235
 10
595.2931638302083
 20
42.68952716049805
 10
595.3939030206897
 20
42.46686989345537
 10
595.3985896024354
 20
42.44060271862234
 10
595.369800600282
 20
42.0010906190797
 10
595.6330972261784
 20
42.451694295421
 10
595.8275680515779
 20
42.64578573086951
 10
596.1581729181679
 20
42.83226705024479
 10
596.5051138697007
 20
43.02461775533059
 10
596.7073510305648
 20
43.0390122564073
 10
596.9423049954265
 20
43.00437618559952
 10
597.2884425329456
 20
42.95324781045711
 10
597.5093813866816
 20
42.82974522292441
 10
597.6248944681903
 20
42.45441697624481
 10
597.7408092567058
 20
42.0802492164738
 10
597.678187597758
 20
41.87955193246919
 10
597.5350460010044
 20
41.28388739256386
 10
597.4697016612328
 20
41.01260126064356
 10
597.3751666123011
 20
40.68411651436711
 10
597.251485488321
 20
40.29325559675826
 10
597.251485488321
 20
40.29325559675826
 10
596.1581729181679
 20
36.81237511467916
 10
596.1581729181679
 20
36.81237511467916
 10
596.1581729181679
 20
36.81237511467916
 10
595.5895343329975
 20
36.81237511467916
 10
595.5895343329975
 20
36.81237511467916
 10
595.5895343329975
 20
36.81237511467916
 10
596.5467574960716
 20
39.85548422757834
 10
596.5467574960716
 20
39.85548422757834
 10
596.7466736831187
 20
40.49218983334411
 10
596.8820043102957
 20
40.95716569370618
 10
596.952035231813
 20
41.24869339535778
 10
597.0399197980768
 20
41.61234982178448
 10
597.0749129417799
 20
41.73234863153571
 10
597.0333139495209
 20
41.99702891489992
 10
596.9951964179876
 20
42.24340921239921
 10
596.8707118799938
 20
42.40384652750092
 10
596.6575839958344
 20
42.40384652750092
 10
596.4304410005492
 20
42.40384652750092
 10
596.2464591914385
 20
42.37856130312887
 10
595.9890096341963
 20
42.11992894192245
 10
595.7315154428426
 20
41.85933267979383
 10
595.5187446315782
 20
41.55343279412157
 10
595.3519023214238
 20
41.20162672439526
 10
595.1854170841642
 20
40.8476782172995
 10
595.0166108730879
 20
40.39903844188016
 10
594.8454836881943
 20
39.85548422757834
 10
594.8454836881943
 20
39.85548422757834
 10
593.8879034522253
 20
36.81237511467916
 10
593.8879034522253
 20
36.81237511467916
 10
593.8879034522253
 20
36.81237511467916
 10
593.3530975238492
 20
36.81237511467916
 10
593.3530975238492
 20
36.81237511467916
 10
593.3530975238492
 20
36.81237511467916
 10
594.4479722879174
 20
40.29169340284293
 10
594.4479722879174
 20
40.29169340284293
 10
594.5634853694261
 20
40.66197799488166
 10
594.6502540828932
 20
40.96379385931832
 10
594.7074303801934
 20
41.19968514052912
 10
594.804643475837
 20
41.60574397322828
 10
594.8318702840753
 20
41.88033302942674
 10
594.7583579018323
 20
42.12401296315816
 10
594.6860060064979
 20
42.36691179993202
 10
594.5588434217922
 20
42.42895321542549
 10
594.3464743175347
 20
42.42895321542549
 10
594.1683395770782
 20
42.42895321542549
 10
593.9944897113609
 20
42.3525172988552
 10
593.7961357182293
 20
42.20042656267251
 10
593.5464078623398
 20
42.00908012510374
 10
593.4464720858722
 20
41.85194573428019
 10
593.3239514488008
 20
41.66524124434543
 10
593.1586266984499
 20
41.41825838633597
 10
593.0812311484743
 20
41.25199631963583
 10
592.941615646558
 20
40.88715708924472
 10
592.8019555105301
 20
40.52017542148403
 10
592.6697492711836
 20
40.09311623915196
 10
592.5775351960687
 20
39.7977276868239
 10
592.5775351960687
 20
39.7977276868239
 10
591.6382549459648
 20
36.81237511467916
 10
591.6382549459648
 20
36.81237511467916
 10
591.6382549459648
 20
36.81237511467916
 10
591.0781861102724
 20
36.81237511467916
 10
591.0781861102724
 20
36.81237511467916
 10
591.0781861102724
 20
36.81237511467916
 10
592.9921860953021
 20
42.91803149619498
 10
592.9921860953021
 20
42.91803149619498
 97
        1
330
17307
 92
       16
 93
        1
 72
     4
 94
        3
 73
     0
 74
     1
 95
       29
 96
       25
 40
0.0
 40
0.0
 40
0.0
 40
0.0
 40
1.0
 40
1.0
 40
1.0
 40
2.0
 40
2.0
 40
2.0
 40
3.0
 40
3.0
 40
3.0
 40
4.0
 40
4.0
 40
4.0
 40
5.0
 40
5.0
 40
5.0
 40
6.0
 40
6.0
 40
6.0
 40
7.0
 40
7.0
 40
7.0
 40
8.0
 40
8.0
 40
8.0
 40
8.0
 10
584.3513791109762
 20
37.94925057801331
 10
584.3490135030473
 20
38.37439049353518
 10
584.4832282774277
 20
39.12973356864027
 10
584.82704484113
 20
40.1403837636178
 10
585.2953459428262
 20
41.50888795047954
 10
585.5761837746858
 20
42.00908012510374
 10
585.821939194619
 20
42.25255920533161
 10
586.1809759904676
 20
42.60708795588196
 10
586.6636492761844
 20
42.62476306418078
 10
586.8060320930364
 20
42.60708795588196
 10
587.0086709609071
 20
42.58276236491495
 10
587.2949095203024
 20
42.45013210150578
 10
587.3120043851471
 20
42.00363476345613
 10
587.325662423378
 20
41.621499814717
 10
587.2155500694051
 20
40.90583646506057
 10
586.8301345134438
 20
39.78237355234214
 10
586.3859358321553
 20
38.47687041437903
 10
586.1191131114214
 20
37.96366739614584
 10
585.9052264473606
 20
37.74000586158636
 10
585.5022696854361
 20
37.32071301471897
 10
585.0701222143513
 20
37.36097298362186
 10
585.006340068495
 20
37.36097298362186
 10
584.923499156872
 20
37.36097298362186
 10
584.3525395978846
 20
37.45086608491963
 10
584.3513791109762
 20
37.94925057801331
 97
        1
330
17309
 75
     0
 76
     1
 98
        1
 10
557.776987685974
 20
21.56103299246715
1001
ACAD
1010
0.0
1020
0.0
1030
0.0
  0
POLYLINE
  5
172FA
102
{ACAD_REACTORS
330
172F9
330
1730A
102
}
330
A
100
AcDbEntity
  8
TEMPLATE
100
AcDb2dPolyline
 66
     1
 10
0.0
 20
0.0
 30
0.0
  0
VERTEX
  5
172FB
330
172FA
100
AcDbEntity
  8
TEMPLATE
100
AcDbVertex
100
AcDb2dVertex
 10
580.3195574690816
 20
45.81237511424545
 30
0.0
  0
VERTEX
  5
172FC
330
172FA
100
AcDbEntity
  8
TEMPLATE
100
AcDbVertex
100
AcDb2dVertex
 10
580.3195574690816
 20
44.03955282504737
 30
0.0
  0
VERTEX
  5
172FD
330
172FA
100
AcDbEntity
  8
TEMPLATE
100
AcDbVertex
100
AcDb2dVertex
 10
577.5113800039879
 20
44.03955282504737
 30
0.0
  0
VERTEX
  5
172FE
330
172FA
100
AcDbEntity
  8
TEMPLATE
100
AcDbVertex
100
AcDb2dVertex
 10
577.5113800039879
 20
36.81237511467916
 30
0.0
  0
VERTEX
  5
172FF
330
172FA
100
AcDbEntity
  8
TEMPLATE
100
AcDbVertex
100
AcDb2dVertex
 10
575.0415960580052
 20
36.81237511467916
 30
0.0
  0
VERTEX
  5
17300
330
172FA
100
AcDbEntity
  8
TEMPLATE
100
AcDbVertex
100
AcDb2dVertex
 10
575.0415960580052
 20
44.03955282504737
 30
0.0
  0
VERTEX
  5
17301
330
172FA
100
AcDbEntity
  8
TEMPLATE
100
AcDbVertex
100
AcDb2dVertex
 10
572.2831856276422
 20
44.03955282504737
 30
0.0
  0
VERTEX
  5
17302
330
172FA
100
AcDbEntity
  8
TEMPLATE
100
AcDbVertex
100
AcDb2dVertex
 10
572.2831856276422
 20
45.81237511424545
 30
0.0
  0
VERTEX
  5
17303
330
172FA
100
AcDbEntity
  8
TEMPLATE
100
AcDbVertex
100
AcDb2dVertex
 10
580.3195574690816
 20
45.81237511424545
 30
0.0
  0
SEQEND
  5
17304
330
172FA
100
AcDbEntity
  8
TEMPLATE
  0
SPLINE
  5
17305
102
{ACAD_REACTORS
330
172F9
330
1730A
102
}
330
A
100
AcDbEntity
  8
TEMPLATE
100
AcDbSpline
210
0.0
220
0.0
230
1.0
 70
    11
 71
     3
 72
    56
 73
    52
 74
     0
 42
0.000000001
 43
0.0000000001
 40
0.0
 40
0.0
 40
0.0
 40
0.0
 40
1.0
 40
1.0
 40
1.0
 40
2.0
 40
2.0
 40
2.0
 40
3.0
 40
3.0
 40
3.0
 40
4.0
 40
4.0
 40
4.0
 40
5.0
 40
5.0
 40
5.0
 40
6.0
 40
6.0
 40
6.0
 40
7.0
 40
7.0
 40
7.0
 40
8.0
 40
8.0
 40
8.0
 40
9.0
 40
9.0
 40
9.0
 40
10.0
 40
10.0
 40
10.0
 40
11.0
 40
11.0
 40
11.0
 40
12.0
 40
12.0
 40
12.0
 40
13.0
 40
13.0
 40
13.0
 40
14.0
 40
14.0
 40
14.0
 40
15.0
 40
15.0
 40
15.0
 40
16.0
 40
16.0
 40
16.0
 40
17.0
 40
17.0
 40
17.0
 40
17.0
 10
584.0822130993691
 20
45.59806442612169
 30
0.0
 10
584.4283729539446
 20
45.69550069232489
 30
0.0
 10
584.8752496819451
 20
45.61399880405779
 30
0.0
 10
584.8752496819451
 20
45.61399880405779
 30
0.0
 10
584.8752496819451
 20
45.61399880405779
 30
0.0
 10
584.6605596038704
 20
44.96972771633077
 30
0.0
 10
584.6605596038704
 20
44.96972771633077
 30
0.0
 10
584.6605596038704
 20
44.96972771633077
 30
0.0
 10
584.2218509183414
 20
45.07124800376958
 30
0.0
 10
583.8834797162866
 20
44.80442528303579
 30
0.0
 10
583.6205401632852
 20
44.59576081006296
 30
0.0
 10
583.4501940753495
 20
44.04131587246591
 30
0.0
 10
583.3848497355779
 20
43.83050896212374
 30
0.0
 10
583.3848497355779
 20
43.83050896212374
 30
0.0
 10
583.0935228874299
 20
42.93630916500408
 30
0.0
 10
583.0935228874299
 20
42.93630916500408
 30
0.0
 10
583.0935228874299
 20
42.93630916500408
 30
0.0
 10
584.0487598325259
 20
42.93630916500408
 30
0.0
 10
584.0487598325259
 20
42.93630916500408
 30
0.0
 10
584.0487598325259
 20
42.93630916500408
 30
0.0
 10
583.9001951911804
 20
42.37351764848811
 30
0.0
 10
583.9001951911804
 20
42.37351764848811
 30
0.0
 10
583.9001951911804
 20
42.37351764848811
 30
0.0
 10
582.9371695935639
 20
42.37351764848811
 30
0.0
 10
582.9371695935639
 20
42.37351764848811
 30
0.0
 10
582.9371695935639
 20
42.37351764848811
 30
0.0
 10
581.2141366561519
 20
36.81237511467916
 30
0.0
 10
581.2141366561519
 20
36.81237511467916
 30
0.0
 10
581.2141366561519
 20
36.81237511467916
 30
0.0
 10
580.6746664630858
 20
36.81237511467916
 30
0.0
 10
580.6746664630858
 20
36.81237511467916
 30
0.0
 10
580.6746664630858
 20
36.81237511467916
 30
0.0
 10
582.3992615944129
 20
42.37351764848811
 30
0.0
 10
582.3992615944129
 20
42.37351764848811
 30
0.0
 10
582.3992615944129
 20
42.37351764848811
 30
0.0
 10
581.6886418993973
 20
42.37351764848811
 30
0.0
 10
581.6886418993973
 20
42.37351764848811
 30
0.0
 10
581.6886418993973
 20
42.37351764848811
 30
0.0
 10
581.8376082477495
 20
42.93630916500408
 30
0.0
 10
581.8376082477495
 20
42.93630916500408
 30
0.0
 10
581.8376082477495
 20
42.93630916500408
 30
0.0
 10
582.5556148882789
 20
42.93630916500408
 30
0.0
 10
582.5556148882789
 20
42.93630916500408
 30
0.0
 10
582.5556148882789
 20
42.93630916500408
 30
0.0
 10
582.8095829847954
 20
43.71615636752356
 30
0.0
 10
582.8095829847954
 20
43.71615636752356
 30
0.0
 10
583.0149445334899
 20
44.36997915518985
 30
0.0
 10
583.1891961062141
 20
44.72100412795849
 30
0.0
 10
583.3385641615731
 20
44.98566209426688
 30
0.0
 10
583.4863477059606
 20
45.25054323113452
 30
0.0
 10
583.7788350410173
 20
45.51073778625616
 30
0.0
 10
584.0822130993691
 20
45.59806442612169
 30
0.0
  0
SPLINE
  5
17306
102
{ACAD_REACTORS
330
172F9
330
1730A
102
}
330
A
100
AcDbEntity
  8
TEMPLATE
100
AcDbSpline
210
0.0
220
0.0
230
1.0
 70
    11
 71
     3
 72
    38
 73
    34
 74
     0
 42
0.000000001
 43
0.0000000001
 40
0.0
 40
0.0
 40
0.0
 40
0.0
 40
1.0
 40
1.0
 40
1.0
 40
2.0
 40
2.0
 40
2.0
 40
3.0
 40
3.0
 40
3.0
 40
4.0
 40
4.0
 40
4.0
 40
5.0
 40
5.0
 40
5.0
 40
6.0
 40
6.0
 40
6.0
 40
7.0
 40
7.0
 40
7.0
 40
8.0
 40
8.0
 40
8.0
 40
9.0
 40
9.0
 40
9.0
 40
10.0
 40
10.0
 40
10.0
 40
11.0
 40
11.0
 40
11.0
 40
11.0
 10
589.9393467460162
 20
42.91472857191693
 30
0.0
 10
589.9393467460162
 20
42.91472857191693
 30
0.0
 10
590.4939702200608
 20
42.91472857191693
 30
0.0
 10
590.4939702200608
 20
42.91472857191693
 30
0.0
 10
590.4939702200608
 20
42.91472857191693
 30
0.0
 10
590.2462062650937
 20
42.12146881878184
 30
0.0
 10
590.2462062650937
 20
42.12146881878184
 30
0.0
 10
590.4344729489438
 20
42.34414840288034
 30
0.0
 10
590.7316022316344
 20
42.6407197591727
 30
0.0
 10
590.9867754491712
 20
42.79026635097919
 30
0.0
 10
591.3679507645053
 20
43.01294593507769
 30
0.0
 10
591.5857652304104
 20
43.04231518068534
 30
0.0
 10
591.8253165087943
 20
43.03646811203098
 30
0.0
 10
591.8253165087943
 20
43.03646811203098
 30
0.0
 10
591.591210592058
 20
42.28639186212602
 30
0.0
 10
591.591210592058
 20
42.28639186212602
 30
0.0
 10
591.4387404659245
 20
42.35095510493986
 30
0.0
 10
590.968877170313
 20
42.22805507791734
 30
0.0
 10
590.6993317687555
 20
42.03416449597226
 30
0.0
 10
590.4562543955343
 20
41.85933267979383
 30
0.0
 10
590.2882069643596
 20
41.71056718494513
 30
0.0
 10
590.0890941913261
 20
41.33657796162161
 30
0.0
 10
589.8914989780961
 20
40.96203081189956
 30
0.0
 10
589.735547391237
 20
40.36480407807901
 30
0.0
 10
589.4671624765878
 20
39.49841133265191
 30
0.0
 10
589.4671624765878
 20
39.49841133265191
 30
0.0
 10
588.6289784898598
 20
36.81237511467916
 30
0.0
 10
588.6289784898598
 20
36.81237511467916
 30
0.0
 10
588.6289784898598
 20
36.81237511467916
 30
0.0
 10
588.0906911007581
 20
36.81237511467916
 30
0.0
 10
588.0906911007581
 20
36.81237511467916
 30
0.0
 10
588.0906911007581
 20
36.81237511467916
 30
0.0
 10
589.9393467460162
 20
42.91472857191693
 30
0.0
 10
589.9393467460162
 20
42.91472857191693
 30
0.0
  0
SPLINE
  5
17307
102
{ACAD_REACTORS
330
172F9
330
1730A
102
}
330
A
100
AcDbEntity
  8
TEMPLATE
100
AcDbSpline
210
0.0
220
0.0
230
1.0
 70
    11
 71
     3
 72
   104
 73
   100
 74
     0
 42
0.000000001
 43
0.0000000001
 40
0.0
 40
0.0
 40
0.0
 40
0.0
 40
1.0
 40
1.0
 40
1.0
 40
2.0
 40
2.0
 40
2.0
 40
3.0
 40
3.0
 40
3.0
 40
4.0
 40
4.0
 40
4.0
 40
5.0
 40
5.0
 40
5.0
 40
6.0
 40
6.0
 40
6.0
 40
7.0
 40
7.0
 40
7.0
 40
8.0
 40
8.0
 40
8.0
 40
9.0
 40
9.0
 40
9.0
 40
10.0
 40
10.0
 40
10.0
 40
11.0
 40
11.0
 40
11.0
 40
12.0
 40
12.0
 40
12.0
 40
13.0
 40
13.0
 40
13.0
 40
14.0
 40
14.0
 40
14.0
 40
15.0
 40
15.0
 40
15.0
 40
16.0
 40
16.0
 40
16.0
 40
17.0
 40
17.0
 40
17.0
 40
18.0
 40
18.0
 40
18.0
 40
19.0
 40
19.0
 40
19.0
 40
20.0
 40
20.0
 40
20.0
 40
21.0
 40
21.0
 40
21.0
 40
22.0
 40
22.0
 40
22.0
 40
23.0
 40
23.0
 40
23.0
 40
24.0
 40
24.0
 40
24.0
 40
25.0
 40
25.0
 40
25.0
 40
26.0
 40
26.0
 40
26.0
 40
27.0
 40
27.0
 40
27.0
 40
28.0
 40
28.0
 40
28.0
 40
29.0
 40
29.0
 40
29.0
 40
30.0
 40
30.0
 40
30.0
 40
31.0
 40
31.0
 40
31.0
 40
32.0
 40
32.0
 40
32.0
 40
33.0
 40
33.0
 40
33.0
 40
33.0
 10
592.9921860953021
 20
42.91803149619498
 30
0.0
 10
592.9921860953021
 20
42.91803149619498
 30
0.0
 10
593.4764215749343
 20
42.91803149619498
 30
0.0
 10
593.4764215749343
 20
42.91803149619498
 30
0.0
 10
593.4764215749343
 20
42.91803149619498
 30
0.0
 10
593.2317820077977
 20
42.12401296315816
 30
0.0
 10
593.2317820077977
 20
42.12401296315816
 30
0.0
 10
593.4441064779436
 20
42.4569388035653
 30
0.0
 10
593.6346941356106
 20
42.6053249084632
 30
0.0
 10
593.8879034522253
 20
42.79707305303871
 30
0.0
 10
594.1418715487417
 20
42.98609851679041
 30
0.0
 10
594.4433303402833
 20
43.02461775533059
 30
0.0
 10
594.6525750567104
 20
43.02461775533059
 30
0.0
 10
594.9116314419795
 20
43.02461775533059
 30
0.0
 10
595.1617163707637
 20
42.97346706313235
 30
0.0
 10
595.2931638302083
 20
42.68952716049805
 30
0.0
 10
595.3939030206897
 20
42.46686989345537
 30
0.0
 10
595.3985896024354
 20
42.44060271862234
 30
0.0
 10
595.369800600282
 20
42.0010906190797
 30
0.0
 10
595.6330972261784
 20
42.451694295421
 30
0.0
 10
595.8275680515779
 20
42.64578573086951
 30
0.0
 10
596.1581729181679
 20
42.83226705024479
 30
0.0
 10
596.5051138697007
 20
43.02461775533059
 30
0.0
 10
596.7073510305648
 20
43.0390122564073
 30
0.0
 10
596.9423049954265
 20
43.00437618559952
 30
0.0
 10
597.2884425329456
 20
42.95324781045711
 30
0.0
 10
597.5093813866816
 20
42.82974522292441
 30
0.0
 10
597.6248944681903
 20
42.45441697624481
 30
0.0
 10
597.7408092567058
 20
42.0802492164738
 30
0.0
 10
597.678187597758
 20
41.87955193246919
 30
0.0
 10
597.5350460010044
 20
41.28388739256386
 30
0.0
 10
597.4697016612328
 20
41.01260126064356
 30
0.0
 10
597.3751666123011
 20
40.68411651436711
 30
0.0
 10
597.251485488321
 20
40.29325559675826
 30
0.0
 10
597.251485488321
 20
40.29325559675826
 30
0.0
 10
596.1581729181679
 20
36.81237511467916
 30
0.0
 10
596.1581729181679
 20
36.81237511467916
 30
0.0
 10
596.1581729181679
 20
36.81237511467916
 30
0.0
 10
595.5895343329975
 20
36.81237511467916
 30
0.0
 10
595.5895343329975
 20
36.81237511467916
 30
0.0
 10
595.5895343329975
 20
36.81237511467916
 30
0.0
 10
596.5467574960716
 20
39.85548422757834
 30
0.0
 10
596.5467574960716
 20
39.85548422757834
 30
0.0
 10
596.7466736831187
 20
40.49218983334411
 30
0.0
 10
596.8820043102957
 20
40.95716569370618
 30
0.0
 10
596.952035231813
 20
41.24869339535778
 30
0.0
 10
597.0399197980768
 20
41.61234982178448
 30
0.0
 10
597.0749129417799
 20
41.73234863153571
 30
0.0
 10
597.0333139495209
 20
41.99702891489992
 30
0.0
 10
596.9951964179876
 20
42.24340921239921
 30
0.0
 10
596.8707118799938
 20
42.40384652750092
 30
0.0
 10
596.6575839958344
 20
42.40384652750092
 30
0.0
 10
596.4304410005492
 20
42.40384652750092
 30
0.0
 10
596.2464591914385
 20
42.37856130312887
 30
0.0
 10
595.9890096341963
 20
42.11992894192245
 30
0.0
 10
595.7315154428426
 20
41.85933267979383
 30
0.0
 10
595.5187446315782
 20
41.55343279412157
 30
0.0
 10
595.3519023214238
 20
41.20162672439526
 30
0.0
 10
595.1854170841642
 20
40.8476782172995
 30
0.0
 10
595.0166108730879
 20
40.39903844188016
 30
0.0
 10
594.8454836881943
 20
39.85548422757834
 30
0.0
 10
594.8454836881943
 20
39.85548422757834
 30
0.0
 10
593.8879034522253
 20
36.81237511467916
 30
0.0
 10
593.8879034522253
 20
36.81237511467916
 30
0.0
 10
593.8879034522253
 20
36.81237511467916
 30
0.0
 10
593.3530975238492
 20
36.81237511467916
 30
0.0
 10
593.3530975238492
 20
36.81237511467916
 30
0.0
 10
593.3530975238492
 20
36.81237511467916
 30
0.0
 10
594.4479722879174
 20
40.29169340284293
 30
0.0
 10
594.4479722879174
 20
40.29169340284293
 30
0.0
 10
594.5634853694261
 20
40.66197799488166
 30
0.0
 10
594.6502540828932
 20
40.96379385931832
 30
0.0
 10
594.7074303801934
 20
41.19968514052912
 30
0.0
 10
594.804643475837
 20
41.60574397322828
 30
0.0
 10
594.8318702840753
 20
41.88033302942674
 30
0.0
 10
594.7583579018323
 20
42.12401296315816
 30
0.0
 10
594.6860060064979
 20
42.36691179993202
 30
0.0
 10
594.5588434217922
 20
42.42895321542549
 30
0.0
 10
594.3464743175347
 20
42.42895321542549
 30
0.0
 10
594.1683395770782
 20
42.42895321542549
 30
0.0
 10
593.9944897113609
 20
42.3525172988552
 30
0.0
 10
593.7961357182293
 20
42.20042656267251
 30
0.0
 10
593.5464078623398
 20
42.00908012510374
 30
0.0
 10
593.4464720858722
 20
41.85194573428019
 30
0.0
 10
593.3239514488008
 20
41.66524124434543
 30
0.0
 10
593.1586266984499
 20
41.41825838633597
 30
0.0
 10
593.0812311484743
 20
41.25199631963583
 30
0.0
 10
592.941615646558
 20
40.88715708924472
 30
0.0
 10
592.8019555105301
 20
40.52017542148403
 30
0.0
 10
592.6697492711836
 20
40.09311623915196
 30
0.0
 10
592.5775351960687
 20
39.7977276868239
 30
0.0
 10
592.5775351960687
 20
39.7977276868239
 30
0.0
 10
591.6382549459648
 20
36.81237511467916
 30
0.0
 10
591.6382549459648
 20
36.81237511467916
 30
0.0
 10
591.6382549459648
 20
36.81237511467916
 30
0.0
 10
591.0781861102724
 20
36.81237511467916
 30
0.0
 10
591.0781861102724
 20
36.81237511467916
 30
0.0
 10
591.0781861102724
 20
36.81237511467916
 30
0.0
 10
592.9921860953021
 20
42.91803149619498
 30
0.0
 10
592.9921860953021
 20
42.91803149619498
 30
0.0
  0
SPLINE
  5
17308
102
{ACAD_REACTORS
330
172F9
330
1730A
102
}
330
A
100
AcDbEntity
  8
TEMPLATE
100
AcDbSpline
210
0.0
220
0.0
230
1.0
 70
    11
 71
     3
 72
    32
 73
    28
 74
     0
 42
0.000000001
 43
0.0000000001
 40
0.0
 40
0.0
 40
0.0
 40
0.0
 40
1.0
 40
1.0
 40
1.0
 40
2.0
 40
2.0
 40
2.0
 40
3.0
 40
3.0
 40
3.0
 40
4.0
 40
4.0
 40
4.0
 40
5.0
 40
5.0
 40
5.0
 40
6.0
 40
6.0
 40
6.0
 40
7.0
 40
7.0
 40
7.0
 40
8.0
 40
8.0
 40
8.0
 40
9.0
 40
9.0
 40
9.0
 40
9.0
 10
585.394880012287
 20
42.5961972325865
 30
0.0
 10
585.0701222143513
 20
42.17612328876155
 30
0.0
 10
584.8200372855671
 20
41.79807236125814
 30
0.0
 10
584.4151612568324
 20
40.60984535222244
 30
0.0
 10
584.0429350809274
 20
39.52296009417805
 30
0.0
 10
583.8060618492556
 20
38.73222216836346
 30
0.0
 10
583.7702876085951
 20
37.76919657074652
 30
0.0
 10
583.7430608003568
 20
37.0525512706291
 30
0.0
 10
584.1794485120689
 20
36.81237511467916
 30
0.0
 10
584.8192785056652
 20
36.81237511467916
 30
0.0
 10
585.0950280487724
 20
36.81237511467916
 30
0.0
 10
585.7908738527602
 20
36.82991632064248
 30
0.0
 10
586.2864017626947
 20
37.44247487188884
 30
0.0
 10
586.6332980801157
 20
37.87283697849896
 30
0.0
 10
586.9530122234106
 20
38.3189549265978
 30
0.0
 10
587.3816335996579
 20
39.78237355234214
 30
0.0
 10
587.7383047875777
 20
41.00579455858404
 30
0.0
 10
587.985265328531
 20
41.79651016734281
 30
0.0
 10
587.9670099767781
 20
42.24671213667737
 30
0.0
 10
587.9670099767781
 20
42.24671213667737
 30
0.0
 10
587.9670099767781
 20
42.24671213667737
 30
0.0
 10
587.9670099767781
 20
42.24671213667737
 30
0.0
 10
587.8506934812557
 20
42.9977703370432
 30
0.0
 10
587.305398536591
 20
43.1564669217822
 30
0.0
 10
586.9938524357677
 20
43.1564669217822
 30
0.0
 10
586.6869929166902
 20
43.1564669217822
 30
0.0
 10
585.8647433078983
 20
43.20955919784658
 30
0.0
 10
585.394880012287
 20
42.5961972325865
 30
0.0
  0
SPLINE
  5
17309
102
{ACAD_REACTORS
330
172F9
330
1730A
102
}
330
A
100
AcDbEntity
  8
TEMPLATE
100
AcDbSpline
210
0.0
220
0.0
230
1.0
 70
    11
 71
     3
 72
    29
 73
    25
 74
     0
 42
0.000000001
 43
0.0000000001
 40
0.0
 40
0.0
 40
0.0
 40
0.0
 40
1.0
 40
1.0
 40
1.0
 40
2.0
 40
2.0
 40
2.0
 40
3.0
 40
3.0
 40
3.0
 40
4.0
 40
4.0
 40
4.0
 40
5.0
 40
5.0
 40
5.0
 40
6.0
 40
6.0
 40
6.0
 40
7.0
 40
7.0
 40
7.0
 40
8.0
 40
8.0
 40
8.0
 40
8.0
 10
584.3513791109762
 20
37.94925057801331
 30
0.0
 10
584.3490135030473
 20
38.37439049353518
 30
0.0
 10
584.4832282774277
 20
39.12973356864027
 30
0.0
 10
584.82704484113
 20
40.1403837636178
 30
0.0
 10
585.2953459428262
 20
41.50888795047954
 30
0.0
 10
585.5761837746858
 20
42.00908012510374
 30
0.0
 10
585.821939194619
 20
42.25255920533161
 30
0.0
 10
586.1809759904676
 20
42.60708795588196
 30
0.0
 10
586.6636492761844
 20
42.62476306418078
 30
0.0
 10
586.8060320930364
 20
42.60708795588196
 30
0.0
 10
587.0086709609071
 20
42.58276236491495
 30
0.0
 10
587.2949095203024
 20
42.45013210150578
 30
0.0
 10
587.3120043851471
 20
42.00363476345613
 30
0.0
 10
587.325662423378
 20
41.621499814717
 30
0.0
 10
587.2155500694051
 20
40.90583646506057
 30
0.0
 10
586.8301345134438
 20
39.78237355234214
 30
0.0
 10
586.3859358321553
 20
38.47687041437903
 30
0.0
 10
586.1191131114214
 20
37.96366739614584
 30
0.0
 10
585.9052264473606
 20
37.74000586158636
 30
0.0
 10
585.5022696854361
 20
37.32071301471897
 30
0.0
 10
585.0701222143513
 20
37.36097298362186
 30
0.0
 10
585.006340068495
 20
37.36097298362186
 30
0.0
 10
584.923499156872
 20
37.36097298362186
 30
0.0
 10
584.3525395978846
 20
37.45086608491963
 30
0.0
 10
584.3513791109762
 20
37.94925057801331
 30
0.0
  0
DIMENSION
  5
176BF
330
A
100
AcDbEntity
  8
DIM
  6
Continuous
100
AcDbDimension
  2
*D18
 10
316.9885719787731
 20
429.5143720969536
 30
0.0
 11
193.307306419234
 21
429.5143720969536
 31
0.0
 70
   160
 71
     2
 42
235.0000000000001
 73
     0
 74
     0
 75
     0
  3
tfrom線あり
100
AcDbAlignedDimension
 13
81.98857197877295
 23
342.7674252005714
 33
0.0
 14
316.9885719787731
 24
341.7674252007722
 34
0.0
100
AcDbRotatedDimension
1001
ACAD
1000
DSTYLE
1002
{
1070
   147
1040
5.0
1070
   140
1040
9.0
1002
}
  0
DIMENSION
  5
176C0
330
A
100
AcDbEntity
  8
DIM
  6
Continuous
100
AcDbDimension
  2
*D19
 10
301.1885719787675
 20
532.4093196718991
 30
0.0
 11
199.4885719787677
 21
532.4093196718991
 31
0.0
 70
   160
  1
200
 71
     2
 42
203.3999999999996
 73
     0
 74
     0
 75
     0
  3
tfrom線あり
100
AcDbAlignedDimension
 13
97.78857197876788
 23
566.7911118655095
 33
0.0
 14
301.1885719787675
 24
566.7911118654883
 34
0.0
100
AcDbRotatedDimension
1001
ACAD
1000
DSTYLE
1002
{
1070
   147
1040
5.0
1070
   140
1040
9.0
1002
}
  0
DIMENSION
  5
176C1
330
A
100
AcDbEntity
  8
DIM
  6
Continuous
100
AcDbDimension
  2
*D20
 10
253.4421079123787
 20
301.2674252006287
 30
0.0
 11
253.4421079123677
 21
307.5697746219721
 31
0.0
 70
   160
  1
 
 71
     2
 42
36.49999999994665
 73
     0
 74
     0
 75
     0
  3
tfrom線あり
100
AcDbAlignedDimension
 13
253.1618176597677
 23
337.7674252005723
 33
0.0
 14
222.5885719787676
 24
301.2674252005723
 34
0.0
 50
-89.99999999990003
100
AcDbRotatedDimension
  0
DIMENSION
  5
176C2
330
A
100
AcDbEntity
  8
DIM
  6
Continuous
100
AcDbDimension
  2
*D21
 10
390.0125571874768
 20
342.7674252003724
 30
0.0
 11
390.0125571874768
 21
368.8624211865724
 31
0.0
 70
   160
 71
     2
 42
60.00000000019998
 73
     0
 74
     0
 75
     0
  3
tfrom線あり
100
AcDbAlignedDimension
 13
422.3422923726765
 23
402.7674252005723
 33
0.0
 14
409.8422923726765
 24
342.7674252003724
 34
0.0
 50
-90.00000000000001
100
AcDbRotatedDimension
1001
ACAD
1000
DSTYLE
1002
{
1070
   147
1040
5.0
1070
   140
1040
9.0
1002
}
  0
DIMENSION
  5
176C3
330
A
100
AcDbEntity
  8
DIM
  6
Continuous
100
AcDbDimension
  2
*D22
 10
390.0125571874768
 20
337.7674252003724
 30
0.0
 11
390.0125571874768
 21
314.283466716972
 31
0.0
 70
   160
 71
     3
 42
5.0
 73
     0
 74
     0
 75
     0
  3
tfrom線あり
100
AcDbAlignedDimension
 13
409.8422923726765
 23
342.7674252003724
 33
0.0
 14
409.8422923726765
 24
337.7674252003724
 34
0.0
 50
-90.00000000000001
100
AcDbRotatedDimension
1001
ACAD
1000
DSTYLE
1002
{
1070
   147
1040
5.0
1070
   140
1040
9.0
1002
}
  0
DIMENSION
  5
176C4
330
A
100
AcDbEntity
  8
DIM
  6
Continuous
100
AcDbDimension
  2
*D23
 10
447.9422923726764
 20
417.9795266758505
 30
0.0
 11
436.0172586364077
 21
417.9795266758505
 31
0.0
 70
   160
 71
     1
 42
25.0
 73
     0
 74
     0
 75
     0
  3
tfrom線あり
100
AcDbAlignedDimension
 13
422.9422923726764
 23
402.7674252005723
 33
0.0
 14
447.9422923726764
 24
402.8271543739243
 34
0.0
 50
-0.000000000000014
100
AcDbRotatedDimension
1001
ACAD
1000
DSTYLE
1002
{
1070
   147
1040
5.0
1070
   140
1040
9.0
1002
}
  0
LINE
  5
176C5
330
A
100
AcDbEntity
  8
MODEL
  6
Continuous
100
AcDbLine
 10
81.9885719787677
 20
341.7674252005723
 30
0.0
 11
81.9885719787677
 21
337.7674252005723
 31
0.0
  0
LINE
  5
176C6
330
A
100
AcDbEntity
  8
MODEL
  6
Continuous
100
AcDbLine
 10
82.9885719787677
 20
337.7674252005723
 30
0.0
 11
82.9885719787677
 21
342.7674252003724
 31
0.0
  0
LINE
  5
176C7
330
A
100
AcDbEntity
  8
MODEL
  6
Continuous
100
AcDbLine
 10
94.4885719787677
 20
401.7674252005723
 30
0.0
 11
94.4885719787677
 21
342.7674252005723
 31
0.0
  0
LINE
  5
176C8
330
A
100
AcDbEntity
  8
MODEL
  6
Continuous
100
AcDbLine
 10
95.4885719787677
 20
342.7674252005723
 30
0.0
 11
95.4885719787677
 21
402.7674252005723
 31
0.0
  0
LINE
  5
176C9
330
A
100
AcDbEntity
  8
MODEL
  6
Continuous
100
AcDbLine
 10
97.78857197876788
 20
394.9674252005722
 30
0.0
 11
97.78857197876788
 21
377.4674252005722
 31
0.0
  0
LINE
  5
176CA
330
A
100
AcDbEntity
  8
MODEL
  6
Continuous
100
AcDbLine
 10
100.7885719787679
 20
375.9674252005722
 30
0.0
 11
100.7885719787679
 21
397.9674252005722
 31
0.0
  0
LINE
  5
176CB
330
A
100
AcDbEntity
  8
MODEL
  6
Continuous
100
AcDbLine
 10
109.4885719787677
 20
386.0072483131723
 30
0.0
 11
109.4885719787677
 21
387.0072483131723
 31
0.0
  0
LINE
  5
176CC
330
A
100
AcDbEntity
  8
MODEL
  6
Continuous
100
AcDbLine
 10
109.4885719787677
 20
385.0174255819724
 30
0.0
 11
109.5349859477679
 21
385.7672481343724
 31
0.0
  0
LINE
  5
176CD
330
A
100
AcDbEntity
  8
MODEL
  6
Continuous
100
AcDbLine
 10
109.5283481991679
 20
384.3677786957724
 30
0.0
 11
109.4885719787677
 21
385.0174255819724
 31
0.0
  0
LINE
  5
176CE
330
A
100
AcDbEntity
  8
MODEL
  6
Continuous
100
AcDbLine
 10
208.2385719787677
 20
269.2674252005723
 30
0.0
 11
190.7385719787677
 21
269.2674252005723
 31
0.0
  0
LINE
  5
176CF
330
A
100
AcDbEntity
  8
MODEL
  6
Continuous
100
AcDbLine
 10
208.7385719787677
 20
269.7674252005723
 30
0.0
 11
190.2385719787677
 21
269.7674252005723
 31
0.0
  0
LINE
  5
176D0
330
A
100
AcDbEntity
  8
MODEL
  6
Continuous
100
AcDbLine
 10
208.8385719787676
 20
270.7674252005723
 30
0.0
 11
190.1385719787679
 21
270.7674252005723
 31
0.0
  0
LINE
  5
176D1
330
A
100
AcDbEntity
  8
MODEL
  6
Continuous
100
AcDbLine
 10
209.8385719787676
 20
271.7674252005723
 30
0.0
 11
189.1385719787679
 21
271.7674252005723
 31
0.0
  0
LINE
  5
176D2
330
A
100
AcDbEntity
  8
MODEL
  6
Continuous
100
AcDbLine
 10
190.7385719787677
 20
269.2674252005723
 30
0.0
 11
190.2385719787677
 21
269.7674252005723
 31
0.0
  0
LINE
  5
176D3
330
A
100
AcDbEntity
  8
MODEL
  6
Continuous
100
AcDbLine
 10
212.6385719787679
 20
287.2674252005723
 30
0.0
 11
186.3385719787676
 21
287.2674252005723
 31
0.0
  0
LINE
  5
176D4
330
A
100
AcDbEntity
  8
MODEL
  6
Continuous
100
AcDbLine
 10
213.1385719787679
 20
287.7674252005723
 30
0.0
 11
185.8385719787676
 21
287.7674252005723
 31
0.0
  0
LINE
  5
176D5
330
A
100
AcDbEntity
  8
MODEL
  6
Continuous
100
AcDbLine
 10
190.1385719787679
 20
270.7674252005723
 30
0.0
 11
189.1385719787679
 21
271.7674252005723
 31
0.0
  0
LINE
  5
176D6
330
A
100
AcDbEntity
  8
MODEL
  6
Continuous
100
AcDbLine
 10
162.1861846411676
 20
385.7672481343724
 30
0.0
 11
162.1814215395676
 21
385.6308507487722
 31
0.0
  0
LWPOLYLINE
  5
176D7
330
A
100
AcDbEntity
  8
MODEL
  6
Continuous
100
AcDbPolyline
 90
        4
 70
     0
 43
0.0
 10
214.4825108059677
 20
385.7672481343724
 10
214.4483599143678
 20
385.7547628787723
 10
214.3806735757676
 20
385.7304487833724
 10
214.3116578713676
 20
385.7061056215721
  0
LINE
  5
176D8
330
A
100
AcDbEntity
  8
MODEL
  6
Continuous
100
AcDbLine
 10
213.7968674793675
 20
385.5387548095721
 30
0.0
 11
213.8002985239679
 21
385.5399824365724
 31
0.0
  0
LWPOLYLINE
  5
176D9
330
A
100
AcDbEntity
  8
MODEL
  6
Continuous
100
AcDbPolyline
 90
        8
 70
     0
 43
0.0
 10
214.3116578713676
 20
385.7061056215721
 10
214.240933151568
 20
385.6816273307724
 10
214.1680155239679
 20
385.6568857845721
 10
214.0935104095676
 20
385.6321302333724
 10
214.0186660859677
 20
385.6078010991721
 10
213.943393094568
 20
385.5838810553722
 10
213.8679043593675
 20
385.5604579137721
 10
213.8002985239679
 20
385.5399824365724
  0
LWPOLYLINE
  5
176DA
330
A
100
AcDbEntity
  8
MODEL
  6
Continuous
100
AcDbPolyline
 90
        3
 70
     0
 43
0.0
 10
237.4412227631676
 20
385.7073058787722
 10
237.3193873755677
 20
385.6719855047724
 10
237.1972200807678
 20
385.6376519525724
  0
LINE
  5
176DB
330
A
100
AcDbEntity
  8
MODEL
  6
Continuous
100
AcDbLine
 10
217.4885719787677
 20
295.7674252005723
 30
0.0
 11
181.4885719787677
 21
295.7674252005723
 31
0.0
  0
LINE
  5
176DC
330
A
100
AcDbEntity
  8
MODEL
  6
Continuous
100
AcDbLine
 10
219.4885719787677
 20
297.7674252005723
 30
0.0
 11
179.4885719787677
 21
297.7674252005723
 31
0.0
  0
LINE
  5
176DD
330
A
100
AcDbEntity
  8
MODEL
  6
Continuous
100
AcDbLine
 10
179.4885719787677
 20
298.2674252005723
 30
0.0
 11
219.4885719787677
 21
298.2674252005723
 31
0.0
  0
LINE
  5
176DE
330
A
100
AcDbEntity
  8
MODEL
  6
Continuous
100
AcDbLine
 10
217.2184672491678
 20
298.2749763273722
 30
0.0
 11
181.7385719787677
 21
298.2749763273722
 31
0.0
  0
LINE
  5
176DF
330
A
100
AcDbEntity
  8
MODEL
  6
Continuous
100
AcDbLine
 10
217.5011631087679
 20
298.3494814407724
 30
0.0
 11
181.4759808487675
 21
298.3494814407724
 31
0.0
  0
LINE
  5
176E0
330
A
100
AcDbEntity
  8
MODEL
  6
Continuous
100
AcDbLine
 10
180.1092978571674
 20
299.1929200871722
 30
0.0
 11
218.8678461003676
 21
299.1929200871722
 31
0.0
  0
LINE
  5
176E1
330
A
100
AcDbEntity
  8
MODEL
  6
Continuous
100
AcDbLine
 10
220.9885719787677
 20
299.2674252005723
 30
0.0
 11
177.9885719787677
 21
299.2674252005723
 31
0.0
  0
LINE
  5
176E2
330
A
100
AcDbEntity
  8
MODEL
  6
Continuous
100
AcDbLine
 10
220.9885719787677
 20
299.7674252005723
 30
0.0
 11
177.9885719787677
 21
299.7674252005723
 31
0.0
  0
LINE
  5
176E3
330
A
100
AcDbEntity
  8
MODEL
  6
Continuous
100
AcDbLine
 10
181.4759808487675
 20
298.3494814407724
 30
0.0
 11
180.1092978571674
 21
299.1929200871722
 31
0.0
  0
LINE
  5
176E4
330
A
100
AcDbEntity
  8
MODEL
  6
Continuous
100
AcDbLine
 10
185.8385719787676
 20
287.7674252005723
 30
0.0
 11
186.3385719787676
 21
287.2674252005723
 31
0.0
  0
LWPOLYLINE
  5
176E5
330
A
100
AcDbEntity
  8
MODEL
  6
Continuous
100
AcDbPolyline
 90
       29
 70
     0
 43
0.0
 10
214.9142557549677
 20
385.6514170169723
 10
214.9129308701677
 20
385.6506253371723
 10
214.9095412081675
 20
385.6489768265724
 10
214.9047004059676
 20
385.6469630889724
 10
214.8986148231675
 20
385.6447108013723
 10
214.8909888173677
 20
385.6421424025722
 10
214.8820166231677
 20
385.6393509171724
 10
214.8717652181678
 20
385.6363684927724
 10
214.8601644385677
 20
385.6331837719724
 10
214.8472255281677
 20
385.6298085989724
 10
214.8329370609677
 20
385.6262471545723
 10
214.8172939457679
 20
385.6225043629722
 10
214.8003023125676
 20
385.6185868705724
 10
214.7819669895676
 20
385.6145002627724
 10
214.7622882063675
 20
385.6102492991721
 10
214.7412572805675
 20
385.6058368909723
 10
214.7187989675677
 20
385.6012649783723
 10
214.6946980763674
 20
385.5965239653723
 10
214.6686889931676
 20
385.5915917673723
 10
214.6405434863678
 20
385.5864505703722
 10
214.6100875417674
 20
385.5810936645722
 10
214.5771414353677
 20
385.5755136873722
 10
214.5415478961679
 20
385.5697058839723
 10
214.5031825259676
 20
385.5636715883724
 10
214.4620258003675
 20
385.5574468131724
 10
214.4181225569678
 20
385.5510855953723
 10
214.3715127455677
 20
385.5446373349721
 10
214.3222133163677
 20
385.5381413191723
 10
214.2702041045678
 20
385.5316289957722
  0
LINE
  5
176E6
330
A
100
AcDbEntity
  8
MODEL
  6
Continuous
100
AcDbLine
 10
177.9885719787677
 20
301.2674252005723
 30
0.0
 11
220.9885719787677
 21
301.2674252005723
 31
0.0
  0
LINE
  5
176E7
330
A
100
AcDbEntity
  8
MODEL
  6
Continuous
100
AcDbLine
 10
189.1385719787679
 20
307.9499889813724
 30
0.0
 11
190.4885719787677
 21
307.9499889813724
 31
0.0
  0
LINE
  5
176E8
330
A
100
AcDbEntity
  8
MODEL
  6
Continuous
100
AcDbLine
 10
208.4885719787677
 20
307.9499889813724
 30
0.0
 11
209.8385719787676
 21
307.9499889813724
 31
0.0
  0
LINE
  5
176E9
330
A
100
AcDbEntity
  8
MODEL
  6
Continuous
100
AcDbLine
 10
177.9885719787677
 20
337.7674252005723
 30
0.0
 11
177.9885719787677
 21
336.2674252005723
 31
0.0
  0
LINE
  5
176EA
330
A
100
AcDbEntity
  8
MODEL
  6
Continuous
100
AcDbLine
 10
177.9885719787677
 20
299.2674252005723
 30
0.0
 11
177.9885719787677
 21
301.2674252005723
 31
0.0
  0
LINE
  5
176EB
330
A
100
AcDbEntity
  8
MODEL
  6
Continuous
100
AcDbLine
 10
179.4885719787677
 20
298.2674252005723
 30
0.0
 11
179.4885719787677
 21
297.7674252005723
 31
0.0
  0
LINE
  5
176EC
330
A
100
AcDbEntity
  8
MODEL
  6
Continuous
100
AcDbLine
 10
209.8385719787676
 20
317.9499889813724
 30
0.0
 11
208.4885719787677
 21
317.9499889813724
 31
0.0
  0
LINE
  5
176ED
330
A
100
AcDbEntity
  8
MODEL
  6
Continuous
100
AcDbLine
 10
190.4885719787677
 20
317.9499889813724
 30
0.0
 11
189.1385719787679
 21
317.9499889813724
 31
0.0
  0
LINE
  5
176EE
330
A
100
AcDbEntity
  8
MODEL
  6
Continuous
100
AcDbLine
 10
184.7909593163677
 20
385.7672481343724
 30
0.0
 11
184.7946413791676
 21
385.6618076467722
 31
0.0
  0
LINE
  5
176EF
330
A
100
AcDbEntity
  8
MODEL
  6
Continuous
100
AcDbLine
 10
188.7909593163677
 20
385.7672481343724
 30
0.0
 11
188.7949427195678
 21
385.6531783883723
 31
0.0
  0
LINE
  5
176F0
330
A
100
AcDbEntity
  8
MODEL
  6
Continuous
100
AcDbLine
 10
185.8385719787676
 20
287.7674252005723
 30
0.0
 11
185.8385719787676
 21
295.7674252005723
 31
0.0
  0
LINE
  5
176F1
330
A
100
AcDbEntity
  8
MODEL
  6
Continuous
100
AcDbLine
 10
189.1385719787679
 20
334.7674252005723
 30
0.0
 11
189.1385719787679
 21
317.9499889813724
 31
0.0
  0
LINE
  5
176F2
330
A
100
AcDbEntity
  8
MODEL
  6
Continuous
100
AcDbLine
 10
189.1385719787679
 20
307.9499889813724
 30
0.0
 11
189.1385719787679
 21
301.2674252005723
 31
0.0
  0
LINE
  5
176F3
330
A
100
AcDbEntity
  8
MODEL
  6
Continuous
100
AcDbLine
 10
189.1385719787679
 20
287.2674252005723
 30
0.0
 11
189.1385719787679
 21
271.7674252005723
 31
0.0
  0
LINE
  5
176F4
330
A
100
AcDbEntity
  8
MODEL
  6
Continuous
100
AcDbLine
 10
190.1735719787677
 20
270.7674252005723
 30
0.0
 11
190.1735719787677
 21
287.2674252005723
 31
0.0
  0
LINE
  5
176F5
330
A
100
AcDbEntity
  8
MODEL
  6
Continuous
100
AcDbLine
 10
190.1735719787677
 20
301.2674252005723
 30
0.0
 11
190.1735719787677
 21
335.7674252005723
 31
0.0
  0
LINE
  5
176F6
330
A
100
AcDbEntity
  8
MODEL
  6
Continuous
100
AcDbLine
 10
190.1885719787675
 20
336.2674252005723
 30
0.0
 11
190.1885719787675
 21
335.7674252005723
 31
0.0
  0
LINE
  5
176F7
330
A
100
AcDbEntity
  8
MODEL
  6
Continuous
100
AcDbLine
 10
190.2385719787677
 20
270.7674252005723
 30
0.0
 11
190.2385719787677
 21
269.7674252005723
 31
0.0
  0
LINE
  5
176F8
330
A
100
AcDbEntity
  8
MODEL
  6
Continuous
100
AcDbLine
 10
190.4885719787677
 20
317.9499889813724
 30
0.0
 11
190.4885719787677
 21
307.9499889813724
 31
0.0
  0
LINE
  5
176F9
330
A
100
AcDbEntity
  8
MODEL
  6
Continuous
100
AcDbLine
 10
186.1861846411676
 20
385.7672481343724
 30
0.0
 11
186.1762878489677
 21
385.4838410815722
 31
0.0
  0
LINE
  5
176FA
330
A
100
AcDbEntity
  8
MODEL
  6
Continuous
100
AcDbLine
 10
199.4886877701675
 20
295.7674252005723
 30
0.0
 11
199.4886835287676
 21
287.2674252005723
 31
0.0
  0
LINE
  5
176FB
330
A
100
AcDbEntity
  8
MODEL
  6
Continuous
100
AcDbLine
 10
198.4082905717675
 20
385.7672481343724
 30
0.0
 11
198.3953306629679
 21
385.3960435055724
 31
0.0
  0
LINE
  5
176FC
330
A
100
AcDbEntity
  8
MODEL
  6
Continuous
100
AcDbLine
 10
190.1385719787679
 20
335.7674252005723
 30
0.0
 11
189.1385719787679
 21
334.7674252005723
 31
0.0
  0
LINE
  5
176FD
330
A
100
AcDbEntity
  8
MODEL
  6
Continuous
100
AcDbLine
 10
189.1385719787679
 20
334.7674252005723
 30
0.0
 11
209.8385719787676
 21
334.7674252005723
 31
0.0
  0
LINE
  5
176FE
330
A
100
AcDbEntity
  8
MODEL
  6
Continuous
100
AcDbLine
 10
190.1385719787679
 20
335.7674252005723
 30
0.0
 11
208.8385719787676
 21
335.7674252005723
 31
0.0
  0
LINE
  5
176FF
330
A
100
AcDbEntity
  8
MODEL
  6
Continuous
100
AcDbLine
 10
220.9885719787677
 20
336.2674252005723
 30
0.0
 11
177.9885719787677
 21
336.2674252005723
 31
0.0
  0
LINE
  5
17700
330
A
100
AcDbEntity
  8
MODEL
  6
Continuous
100
AcDbLine
 10
200.5818079995676
 20
385.3961951811722
 30
0.0
 11
200.5688533861676
 21
385.7672481343724
 31
0.0
  0
LINE
  5
17701
330
A
100
AcDbEntity
  8
MODEL
  6
Continuous
100
AcDbLine
 10
208.4885719787677
 20
307.9499889813724
 30
0.0
 11
208.4885719787677
 21
317.9499889813724
 31
0.0
  0
LINE
  5
17702
330
A
100
AcDbEntity
  8
MODEL
  6
Continuous
100
AcDbLine
 10
208.7385719787677
 20
269.7674252005723
 30
0.0
 11
208.7385719787677
 21
270.7674252005723
 31
0.0
  0
LINE
  5
17703
330
A
100
AcDbEntity
  8
MODEL
  6
Continuous
100
AcDbLine
 10
208.7885719787678
 20
336.2674252005723
 30
0.0
 11
208.7885719787678
 21
335.7674252005723
 31
0.0
  0
LINE
  5
17704
330
A
100
AcDbEntity
  8
MODEL
  6
Continuous
100
AcDbLine
 10
208.8035719787677
 20
270.7674252005723
 30
0.0
 11
208.8035719787677
 21
287.2674252005723
 31
0.0
  0
LINE
  5
17705
330
A
100
AcDbEntity
  8
MODEL
  6
Continuous
100
AcDbLine
 10
208.8035719787677
 20
301.2674252005723
 30
0.0
 11
208.8035719787677
 21
335.7674252005723
 31
0.0
  0
LINE
  5
17706
330
A
100
AcDbEntity
  8
MODEL
  6
Continuous
100
AcDbLine
 10
210.1861846411676
 20
385.7672481343724
 30
0.0
 11
210.1812398425678
 21
385.6256476265723
 31
0.0
  0
LINE
  5
17707
330
A
100
AcDbEntity
  8
MODEL
  6
Continuous
100
AcDbLine
 10
316.9885719787678
 20
337.7674252007722
 30
0.0
 11
81.9885719787677
 21
337.7674252005723
 31
0.0
  0
LINE
  5
17708
330
A
100
AcDbEntity
  8
MODEL
  6
Continuous
100
AcDbLine
 10
81.9885719787677
 20
341.7674252003724
 30
0.0
 11
316.9885719787678
 21
341.7674252007722
 31
0.0
  0
LINE
  5
17709
330
A
100
AcDbEntity
  8
MODEL
  6
Continuous
100
AcDbLine
 10
315.9885719787678
 20
342.7674252007722
 30
0.0
 11
82.9885719787677
 21
342.7674252005723
 31
0.0
  0
LINE
  5
1770A
330
A
100
AcDbEntity
  8
MODEL
  6
Continuous
100
AcDbLine
 10
209.8385719787676
 20
334.7674252005723
 30
0.0
 11
208.8385719787676
 21
335.7674252005723
 31
0.0
  0
LINE
  5
1770B
330
A
100
AcDbEntity
  8
MODEL
  6
Continuous
100
AcDbLine
 10
212.7909593163677
 20
385.7672481343724
 30
0.0
 11
212.8019674751677
 21
385.4520157091724
 31
0.0
  0
LINE
  5
1770C
330
A
100
AcDbEntity
  8
MODEL
  6
Continuous
100
AcDbLine
 10
209.8385719787676
 20
271.7674252005723
 30
0.0
 11
209.8385719787676
 21
287.2674252005723
 31
0.0
  0
LINE
  5
1770D
330
A
100
AcDbEntity
  8
MODEL
  6
Continuous
100
AcDbLine
 10
209.8385719787676
 20
301.2674252005723
 30
0.0
 11
209.8385719787676
 21
307.9499889813724
 31
0.0
  0
LINE
  5
1770E
330
A
100
AcDbEntity
  8
MODEL
  6
Continuous
100
AcDbLine
 10
209.8385719787676
 20
317.9499889813724
 30
0.0
 11
209.8385719787676
 21
334.7674252005723
 31
0.0
  0
LINE
  5
1770F
330
A
100
AcDbEntity
  8
MODEL
  6
Continuous
100
AcDbLine
 10
213.1385719787679
 20
287.7674252005723
 30
0.0
 11
213.1385719787679
 21
295.7674252005723
 31
0.0
  0
LINE
  5
17710
330
A
100
AcDbEntity
  8
MODEL
  6
Continuous
100
AcDbLine
 10
214.1861846411676
 20
385.7672481343724
 30
0.0
 11
214.1825023561674
 21
385.6618012849723
 31
0.0
  0
LINE
  5
17711
330
A
100
AcDbEntity
  8
MODEL
  6
Continuous
100
AcDbLine
 10
219.4885719787677
 20
298.2674252005723
 30
0.0
 11
219.4885719787677
 21
297.7674252005723
 31
0.0
  0
LINE
  5
17712
330
A
100
AcDbEntity
  8
MODEL
  6
Continuous
100
AcDbLine
 10
220.9885719787677
 20
299.2674252005723
 30
0.0
 11
220.9885719787677
 21
301.2674252005723
 31
0.0
  0
LINE
  5
17713
330
A
100
AcDbEntity
  8
MODEL
  6
Continuous
100
AcDbLine
 10
220.9885719787677
 20
336.2674252005723
 30
0.0
 11
220.9885719787677
 21
337.7674252005723
 31
0.0
  0
LINE
  5
17714
330
A
100
AcDbEntity
  8
MODEL
  6
Continuous
100
AcDbLine
 10
236.7909593163677
 20
385.7672481343724
 30
0.0
 11
236.7958842407675
 21
385.6262167475724
 31
0.0
  0
LINE
  5
17715
330
A
100
AcDbEntity
  8
MODEL
  6
Continuous
100
AcDbLine
 10
213.1385719787679
 20
287.7674252005723
 30
0.0
 11
212.6385719787679
 21
287.2674252005723
 31
0.0
  0
LINE
  5
17716
330
A
100
AcDbEntity
  8
MODEL
  6
Continuous
100
AcDbLine
 10
218.8678461003676
 20
299.1929200871722
 30
0.0
 11
217.5011631087679
 21
298.3494814407724
 31
0.0
  0
LWPOLYLINE
  5
17717
330
A
100
AcDbEntity
  8
MODEL
  6
Continuous
100
AcDbPolyline
 90
        9
 70
     0
 43
0.0
 10
240.9100252419676
 20
385.5323266233723
 10
240.8811520821678
 20
385.5297149749724
 10
240.8468756137677
 20
385.5270749535721
 10
240.8064227019677
 20
385.5244670721723
 10
240.7586494821678
 20
385.5219321489723
 10
240.7021096649675
 20
385.5195105569724
 10
240.6352848035677
 20
385.5172916769724
 10
240.5598228293675
 20
385.5154090283723
 10
240.4780572253677
 20
385.5139697385721
  0
LINE
  5
17718
330
A
100
AcDbEntity
  8
MODEL
  6
Continuous
100
AcDbLine
 10
100.3866481901674
 20
375.9674252005722
 30
0.0
 11
298.5904957673675
 21
375.9674252005722
 31
0.0
  0
LINE
  5
17719
330
A
100
AcDbEntity
  8
MODEL
  6
Continuous
100
AcDbLine
 10
97.78857197876788
 20
377.4674252005722
 30
0.0
 11
301.1885719787675
 21
377.4674252005722
 31
0.0
  0
LWPOLYLINE
  5
1771A
330
A
100
AcDbEntity
  8
MODEL
  6
Continuous
100
AcDbPolyline
 90
        6
 70
     0
 43
0.0
 10
161.8744269817676
 20
385.6132174621721
 10
161.7558402063679
 20
385.6457779141723
 10
161.6353865559677
 20
385.6798192465724
 10
161.5174415109678
 20
385.7140454653724
 10
161.402046648168
 20
385.7483320121723
 10
161.339688412968
 20
385.7672481343724
  0
LWPOLYLINE
  5
1771B
330
A
100
AcDbEntity
  8
MODEL
  6
Continuous
100
AcDbPolyline
 90
        4
 70
     0
 43
0.0
 10
185.1769076177677
 20
385.5399529081724
 10
185.1624362057679
 20
385.5442940621723
 10
185.0850058973675
 20
385.5679025965724
 10
185.0061725449679
 20
385.5925699011722
  0
LINE
  5
1771C
330
A
100
AcDbEntity
  8
MODEL
  6
Continuous
100
AcDbLine
 10
185.0061725449679
 20
385.5925699011722
 30
0.0
 11
184.9277989341678
 21
385.6176990913722
 31
0.0
  0
LWPOLYLINE
  5
1771D
330
A
100
AcDbEntity
  8
MODEL
  6
Continuous
100
AcDbPolyline
 90
        6
 70
     0
 43
0.0
 10
184.9277989341678
 20
385.6176990913722
 10
184.8501984459677
 20
385.6431648405724
 10
184.7731880493676
 20
385.6690065559724
 10
184.6979072983677
 20
385.6948109385723
 10
184.6249596929675
 20
385.7203300041723
 10
184.5538868601676
 20
385.7456818613721
  0
LINE
  5
1771E
330
A
100
AcDbEntity
  8
MODEL
  6
Continuous
100
AcDbLine
 10
185.1802779315677
 20
385.5387542127723
 30
0.0
 11
185.1769302909675
 21
385.5399456301722
 31
0.0
  0
LINE
  5
1771F
330
A
100
AcDbEntity
  8
MODEL
  6
Continuous
100
AcDbLine
 10
209.8385719787676
 20
271.7674252005723
 30
0.0
 11
208.8385719787676
 21
270.7674252005723
 31
0.0
  0
LINE
  5
17720
330
A
100
AcDbEntity
  8
MODEL
  6
Continuous
100
AcDbLine
 10
208.7385719787677
 20
269.7674252005723
 30
0.0
 11
208.2385719787677
 21
269.2674252005723
 31
0.0
  0
LINE
  5
17721
330
A
100
AcDbEntity
  8
MODEL
  6
Continuous
100
AcDbLine
 10
189.8657205759678
 20
385.7326361517723
 30
0.0
 11
189.596009037568
 21
385.6903461137724
 31
0.0
  0
LINE
  5
17722
330
A
100
AcDbEntity
  8
MODEL
  6
Continuous
100
AcDbLine
 10
189.596009037568
 20
385.6903461137724
 30
0.0
 11
189.5618469919679
 21
385.6852424017724
 31
0.0
  0
LINE
  5
17723
330
A
100
AcDbEntity
  8
MODEL
  6
Continuous
100
AcDbLine
 10
189.5618469919679
 20
385.6852424017724
 30
0.0
 11
189.5338205449676
 21
385.6811884063724
 31
0.0
  0
LINE
  5
17724
330
A
100
AcDbEntity
  8
MODEL
  6
Continuous
100
AcDbLine
 10
189.5338205449676
 20
385.6811884063724
 30
0.0
 11
189.5097661651676
 21
385.6778235703721
 31
0.0
  0
LINE
  5
17725
330
A
100
AcDbEntity
  8
MODEL
  6
Continuous
100
AcDbLine
 10
189.5097661651676
 20
385.6778235703721
 30
0.0
 11
189.4877809783681
 21
385.6748535695723
 31
0.0
  0
LINE
  5
17726
330
A
100
AcDbEntity
  8
MODEL
  6
Continuous
100
AcDbLine
 10
189.4877809783681
 20
385.6748535695723
 30
0.0
 11
189.4678374581677
 21
385.6722555953723
 31
0.0
  0
LINE
  5
17727
330
A
100
AcDbEntity
  8
MODEL
  6
Continuous
100
AcDbLine
 10
189.4678374581677
 20
385.6722555953723
 30
0.0
 11
189.4497895971678
 21
385.6699909313724
 31
0.0
  0
LWPOLYLINE
  5
17728
330
A
100
AcDbEntity
  8
MODEL
  6
Continuous
100
AcDbPolyline
 90
       16
 70
     0
 43
0.0
 10
214.2702041045678
 20
385.5316289957722
 10
214.2155727835676
 20
385.5251480245722
 10
214.1585219053678
 20
385.5187664691721
 10
214.0990548821679
 20
385.5125269711722
 10
214.0373151155678
 20
385.5064838035722
 10
213.9737235265677
 20
385.5007095639724
 10
213.9083780017679
 20
385.4952396821722
 10
213.8413285101676
 20
385.4901074591723
 10
213.773812087368
 20
385.4854053439723
 10
213.7059504351678
 20
385.4811648803724
 10
213.6371085455676
 20
385.4773969331724
 10
213.5673753385677
 20
385.4741348377723
 10
213.4956121291676
 20
385.4713375317723
 10
213.4211790095674
 20
385.4690006027721
 10
213.3453931357677
 20
385.4671455339724
 10
213.2688711779675
 20
385.4657071115721
  0
LINE
  5
17729
330
A
100
AcDbEntity
  8
MODEL
  6
Continuous
100
AcDbLine
 10
189.4497895971678
 20
385.6699909313724
 30
0.0
 11
189.4335548517676
 21
385.6680304757723
 31
0.0
  0
LINE
  5
1772A
330
A
100
AcDbEntity
  8
MODEL
  6
Continuous
100
AcDbLine
 10
189.4335548517676
 20
385.6680304757723
 30
0.0
 11
189.4190636833678
 21
385.6663472803722
 31
0.0
  0
LINE
  5
1772B
330
A
100
AcDbEntity
  8
MODEL
  6
Continuous
100
AcDbLine
 10
189.4190636833678
 20
385.6663472803722
 30
0.0
 11
189.4044139217677
 21
385.6647151483724
 31
0.0
  0
LINE
  5
1772C
330
A
100
AcDbEntity
  8
MODEL
  6
Continuous
100
AcDbLine
 10
189.4044139217677
 20
385.6647151483724
 30
0.0
 11
189.3914474579676
 21
385.6633339493724
 31
0.0
  0
LINE
  5
1772D
330
A
100
AcDbEntity
  8
MODEL
  6
Continuous
100
AcDbLine
 10
189.3914474579676
 20
385.6633339493724
 30
0.0
 11
189.3801586365676
 21
385.6621843447723
 31
0.0
  0
LINE
  5
1772E
330
A
100
AcDbEntity
  8
MODEL
  6
Continuous
100
AcDbLine
 10
189.3801586365676
 20
385.6621843447723
 30
0.0
 11
189.3685466283678
 21
385.6610581959724
 31
0.0
  0
LINE
  5
1772F
330
A
100
AcDbEntity
  8
MODEL
  6
Continuous
100
AcDbLine
 10
188.9305669967677
 20
385.5780710227722
 30
0.0
 11
188.8857842149678
 21
385.5739470405724
 31
0.0
  0
LINE
  5
17730
330
A
100
AcDbEntity
  8
MODEL
  6
Continuous
100
AcDbLine
 10
189.3685466283678
 20
385.6610581959724
 30
0.0
 11
189.3582910003676
 21
385.6601162173724
 31
0.0
  0
LINE
  5
17731
330
A
100
AcDbEntity
  8
MODEL
  6
Continuous
100
AcDbLine
 10
188.8857842149678
 20
385.5739470405724
 30
0.0
 11
188.8350409461679
 21
385.5695095801722
 31
0.0
  0
LINE
  5
17732
330
A
100
AcDbEntity
  8
MODEL
  6
Continuous
100
AcDbLine
 10
189.3582910003676
 20
385.6601162173724
 30
0.0
 11
189.3492144977677
 21
385.6593287427723
 31
0.0
  0
LINE
  5
17733
330
A
100
AcDbEntity
  8
MODEL
  6
Continuous
100
AcDbLine
 10
188.8350409461679
 20
385.5695095801722
 30
0.0
 11
188.770668903168
 21
385.5641676429722
 31
0.0
  0
LINE
  5
17734
330
A
100
AcDbEntity
  8
MODEL
  6
Continuous
100
AcDbLine
 10
189.3492144977677
 20
385.6593287427723
 30
0.0
 11
189.3423367285678
 21
385.6587646387724
 31
0.0
  0
LINE
  5
17735
330
A
100
AcDbEntity
  8
MODEL
  6
Continuous
100
AcDbLine
 10
188.770668903168
 20
385.5641676429722
 30
0.0
 11
188.6954971533675
 21
385.5582774217723
 31
0.0
  0
LINE
  5
17736
330
A
100
AcDbEntity
  8
MODEL
  6
Continuous
100
AcDbLine
 10
189.3423367285678
 20
385.6587646387724
 30
0.0
 11
189.3348172045676
 21
385.6581848815724
 31
0.0
  0
LINE
  5
17737
330
A
100
AcDbEntity
  8
MODEL
  6
Continuous
100
AcDbLine
 10
188.6954971533675
 20
385.5582774217723
 30
0.0
 11
188.6105027911677
 21
385.5520159651724
 31
0.0
  0
LINE
  5
17738
330
A
100
AcDbEntity
  8
MODEL
  6
Continuous
100
AcDbLine
 10
163.7986701793676
 20
385.7414469619721
 30
0.0
 11
163.1355712715678
 21
385.6942092039724
 31
0.0
  0
LINE
  5
17739
330
A
100
AcDbEntity
  8
MODEL
  6
Continuous
100
AcDbLine
 10
189.3348172045676
 20
385.6581848815724
 30
0.0
 11
189.3286350707677
 21
385.6577423155724
 31
0.0
  0
LINE
  5
1773A
330
A
100
AcDbEntity
  8
MODEL
  6
Continuous
100
AcDbLine
 10
109.5283481991679
 20
384.3677786957724
 30
0.0
 11
129.5421888593679
 21
385.7672481343724
 31
0.0
  0
LWPOLYLINE
  5
1773B
330
A
100
AcDbEntity
  8
MODEL
  6
Continuous
100
AcDbPolyline
 90
        5
 70
     0
 43
0.0
 10
163.1355712715678
 20
385.6942092039724
 10
162.8149530343677
 20
385.6718089557723
 10
162.4936588585675
 20
385.6503445391724
 10
162.1612280395676
 20
385.6295900157724
 10
161.8124076475675
 20
385.6096769769724
  0
LINE
  5
1773C
330
A
100
AcDbEntity
  8
MODEL
  6
Continuous
100
AcDbLine
 10
164.1696107105677
 20
385.7672481343724
 30
0.0
 11
163.7986701793676
 21
385.7414469619721
 31
0.0
  0
LINE
  5
1773D
330
A
100
AcDbEntity
  8
MODEL
  6
Continuous
100
AcDbLine
 10
188.6105027911677
 20
385.5520159651724
 30
0.0
 11
188.5162980599677
 21
385.5455149885722
 31
0.0
  0
LINE
  5
1773E
330
A
100
AcDbEntity
  8
MODEL
  6
Continuous
100
AcDbLine
 10
189.3286350707677
 20
385.6577423155724
 30
0.0
 11
189.3214779645678
 21
385.6572789597723
 31
0.0
  0
LINE
  5
1773F
330
A
100
AcDbEntity
  8
MODEL
  6
Continuous
100
AcDbLine
 10
188.5162980599677
 20
385.5455149885722
 30
0.0
 11
188.4135705343675
 21
385.5388955487724
 31
0.0
  0
LINE
  5
17740
330
A
100
AcDbEntity
  8
MODEL
  6
Continuous
100
AcDbLine
 10
188.4135705343675
 20
385.5388955487724
 30
0.0
 11
188.3029501443676
 21
385.5322657727723
 31
0.0
  0
LINE
  5
17741
330
A
100
AcDbEntity
  8
MODEL
  6
Continuous
100
AcDbLine
 10
188.3029501443676
 20
385.5322657727723
 30
0.0
 11
188.1659989531677
 21
385.5246833581721
 31
0.0
  0
LINE
  5
17742
330
A
100
AcDbEntity
  8
MODEL
  6
Continuous
100
AcDbLine
 10
189.3214779645678
 20
385.6572789597723
 30
0.0
 11
189.3173402377676
 21
385.6570464191722
 31
0.0
  0
LINE
  5
17743
330
A
100
AcDbEntity
  8
MODEL
  6
Continuous
100
AcDbLine
 10
161.8124076475675
 20
385.6096769769724
 30
0.0
 11
161.4436477227678
 21
385.5908076127721
 31
0.0
  0
LINE
  5
17744
330
A
100
AcDbEntity
  8
MODEL
  6
Continuous
100
AcDbLine
 10
188.1659989531677
 20
385.5246833581721
 30
0.0
 11
187.9694953339678
 21
385.5147021855722
 31
0.0
  0
LWPOLYLINE
  5
17745
330
A
100
AcDbEntity
  8
MODEL
  6
Continuous
100
AcDbPolyline
 90
        3
 70
     0
 43
0.0
 10
189.3173402377676
 20
385.6570464191722
 10
189.3162988055676
 20
385.6569953783724
 10
189.3162380643676
 20
385.6569926161724
  0
LWPOLYLINE
  5
17746
330
A
100
AcDbEntity
  8
MODEL
  6
Continuous
100
AcDbPolyline
 90
        3
 70
     0
 43
0.0
 10
161.4436477227678
 20
385.5908076127721
 10
161.0490786083674
 20
385.5730485899724
 10
160.6270363207678
 20
385.5566461191723
  0
LINE
  5
17747
330
A
100
AcDbEntity
  8
MODEL
  6
Continuous
100
AcDbLine
 10
187.9694953339678
 20
385.5147021855722
 30
0.0
 11
187.7904054575675
 21
385.5063391235723
 31
0.0
  0
LINE
  5
17748
330
A
100
AcDbEntity
  8
MODEL
  6
Continuous
100
AcDbLine
 10
187.7904054575675
 20
385.5063391235723
 30
0.0
 11
187.623272101168
 21
385.4992957337721
 31
0.0
  0
LINE
  5
17749
330
A
100
AcDbEntity
  8
MODEL
  6
Continuous
100
AcDbLine
 10
187.623272101168
 20
385.4992957337721
 30
0.0
 11
187.449278647368
 21
385.4927630541724
 31
0.0
  0
LINE
  5
1774A
330
A
100
AcDbEntity
  8
MODEL
  6
Continuous
100
AcDbLine
 10
160.6270363207678
 20
385.5566461191723
 30
0.0
 11
160.1779434939677
 21
385.5418501845724
 31
0.0
  0
LINE
  5
1774B
330
A
100
AcDbEntity
  8
MODEL
  6
Continuous
100
AcDbLine
 10
187.449278647368
 20
385.4927630541724
 30
0.0
 11
187.2603241849675
 21
385.4865054717724
 31
0.0
  0
LINE
  5
1774C
330
A
100
AcDbEntity
  8
MODEL
  6
Continuous
100
AcDbLine
 10
186.5373107925676
 20
385.4712338825722
 30
0.0
 11
186.4741673663676
 21
385.4692741321724
 31
0.0
  0
LINE
  5
1774D
330
A
100
AcDbEntity
  8
MODEL
  6
Continuous
100
AcDbLine
 10
160.1779434939677
 20
385.5418501845724
 30
0.0
 11
159.7012474739677
 21
385.5287943719724
 31
0.0
  0
LINE
  5
1774E
330
A
100
AcDbEntity
  8
MODEL
  6
Continuous
100
AcDbLine
 10
187.2603241849675
 20
385.4865054717724
 30
0.0
 11
187.0734192107676
 21
385.4810993445723
 31
0.0
  0
LINE
  5
1774F
330
A
100
AcDbEntity
  8
MODEL
  6
Continuous
100
AcDbLine
 10
186.4741673663676
 20
385.4692741321724
 30
0.0
 11
186.4152384233676
 21
385.4677223073724
 31
0.0
  0
LINE
  5
17750
330
A
100
AcDbEntity
  8
MODEL
  6
Continuous
100
AcDbLine
 10
187.0734192107676
 20
385.4810993445723
 30
0.0
 11
186.8818461727676
 21
385.4763210941724
 31
0.0
  0
LINE
  5
17751
330
A
100
AcDbEntity
  8
MODEL
  6
Continuous
100
AcDbLine
 10
186.4152384233676
 20
385.4677223073724
 30
0.0
 11
186.3845467815677
 21
385.4670448277722
 31
0.0
  0
LINE
  5
17752
330
A
100
AcDbEntity
  8
MODEL
  6
Continuous
100
AcDbLine
 10
159.5252661811679
 20
385.5245919773721
 30
0.0
 11
159.1973738501675
 21
385.5176119281721
 31
0.0
  0
LINE
  5
17753
330
A
100
AcDbEntity
  8
MODEL
  6
Continuous
100
AcDbLine
 10
159.1973738501675
 20
385.5176119281721
 30
0.0
 11
159.0208937553676
 21
385.5147241581723
 31
0.0
  0
LINE
  5
17754
330
A
100
AcDbEntity
  8
MODEL
  6
Continuous
100
AcDbLine
 10
186.3845467815677
 20
385.4670448277722
 30
0.0
 11
186.2752207079676
 21
385.4654546115723
 31
0.0
  0
LWPOLYLINE
  5
17755
330
A
100
AcDbEntity
  8
MODEL
  6
Continuous
100
AcDbPolyline
 90
        4
 70
     0
 43
0.0
 10
240.4780572253677
 20
385.5139697385721
 10
240.3908479589678
 20
385.5130119353722
 10
240.3006146743679
 20
385.5125549545724
 10
240.2127393927677
 20
385.5125605413722
  0
LINE
  5
17756
330
A
100
AcDbEntity
  8
MODEL
  6
Continuous
100
AcDbLine
 10
213.2688711779675
 20
385.4657071115721
 30
0.0
 11
213.1469007291676
 21
385.4641143763724
 31
0.0
  0
LINE
  5
17757
330
A
100
AcDbEntity
  8
MODEL
  6
Continuous
100
AcDbLine
 10
159.0208937553676
 20
385.5147241581723
 30
0.0
 11
158.9055964051677
 21
385.5134049171724
 31
0.0
  0
LINE
  5
17758
330
A
100
AcDbEntity
  8
MODEL
  6
Continuous
100
AcDbLine
 10
186.2752207079676
 20
385.4654546115723
 30
0.0
 11
186.1520022507676
 21
385.4641651757722
 31
0.0
  0
LINE
  5
17759
330
A
100
AcDbEntity
  8
MODEL
  6
Continuous
100
AcDbLine
 10
213.1425287833677
 20
385.4640712403722
 30
0.0
 11
213.0444424339676
 21
385.4634207337723
 31
0.0
  0
LINE
  5
1775A
330
A
100
AcDbEntity
  8
MODEL
  6
Continuous
100
AcDbLine
 10
158.9055964051677
 20
385.5134049171724
 30
0.0
 11
158.7928211093677
 21
385.5126597825724
 31
0.0
  0
LINE
  5
1775B
330
A
100
AcDbEntity
  8
MODEL
  6
Continuous
100
AcDbLine
 10
186.1520022507676
 20
385.4641651757722
 30
0.0
 11
186.0406715153677
 21
385.4635468769724
 31
0.0
  0
LINE
  5
1775C
330
A
100
AcDbEntity
  8
MODEL
  6
Continuous
100
AcDbLine
 10
158.7928211093677
 20
385.5126597825724
 30
0.0
 11
158.7074984179677
 21
385.5125045779721
 31
0.0
  0
LINE
  5
1775D
330
A
100
AcDbEntity
  8
MODEL
  6
Continuous
100
AcDbLine
 10
109.4885719787677
 20
382.5674252005724
 30
0.0
 11
289.4885719787678
 21
382.5674252005724
 31
0.0
  0
LINE
  5
1775E
330
A
100
AcDbEntity
  8
MODEL
  6
Continuous
100
AcDbLine
 10
289.4776588811679
 20
383.0174252005723
 30
0.0
 11
109.5136921739678
 21
383.0174252005723
 31
0.0
  0
LINE
  5
1775F
330
A
100
AcDbEntity
  8
MODEL
  6
Continuous
100
AcDbLine
 10
109.4885719787677
 20
384.0174252005723
 30
0.0
 11
289.4831441773678
 21
384.0174252005723
 31
0.0
  0
LINE
  5
17760
330
A
100
AcDbEntity
  8
MODEL
  6
Continuous
100
AcDbLine
 10
290.4907028503678
 20
385.0174255819724
 30
0.0
 11
289.4885719787678
 21
385.0174255819724
 31
0.0
  0
LINE
  5
17761
330
A
100
AcDbEntity
  8
MODEL
  6
Continuous
100
AcDbLine
 10
109.4885719787677
 20
385.0174255819724
 30
0.0
 11
108.4855961307677
 21
385.0174255819724
 31
0.0
  0
LINE
  5
17762
330
A
100
AcDbEntity
  8
MODEL
  6
Continuous
100
AcDbLine
 10
291.9819654059676
 20
385.1746169945724
 30
0.0
 11
291.4815539247675
 21
385.1746489199724
 31
0.0
  0
LINE
  5
17763
330
A
100
AcDbEntity
  8
MODEL
  6
Continuous
100
AcDbLine
 10
107.4955900327673
 20
385.1746489199724
 30
0.0
 11
106.9951785515674
 21
385.1746489199724
 31
0.0
  0
LINE
  5
17764
330
A
100
AcDbEntity
  8
MODEL
  6
Continuous
100
AcDbLine
 10
109.5349859477679
 20
385.7672481343724
 30
0.0
 11
289.4421580097675
 21
385.7672481343724
 31
0.0
  0
LINE
  5
17765
330
A
100
AcDbEntity
  8
MODEL
  6
Continuous
100
AcDbLine
 10
289.4885719787678
 20
386.0072483131723
 30
0.0
 11
109.4885719787677
 21
386.0072483131723
 31
0.0
  0
LINE
  5
17766
330
A
100
AcDbEntity
  8
MODEL
  6
Continuous
100
AcDbLine
 10
109.4885719787677
 20
387.0072483131723
 30
0.0
 11
289.4885719787678
 21
387.0072483131723
 31
0.0
  0
LINE
  5
17767
330
A
100
AcDbEntity
  8
MODEL
  6
Continuous
100
AcDbLine
 10
289.4885719787678
 20
387.5674252005724
 30
0.0
 11
109.4885719787677
 21
387.5674252005724
 31
0.0
  0
LINE
  5
17768
330
A
100
AcDbEntity
  8
MODEL
  6
Continuous
100
AcDbLine
 10
213.0444424339676
 20
385.4634207337723
 30
0.0
 11
212.9403160127677
 21
385.4633551397724
 31
0.0
  0
LINE
  5
17769
330
A
100
AcDbEntity
  8
MODEL
  6
Continuous
100
AcDbLine
 10
186.0406715153677
 20
385.4635468769724
 30
0.0
 11
185.9477425145674
 21
385.4634912171721
 31
0.0
  0
LINE
  5
1776A
330
A
100
AcDbEntity
  8
MODEL
  6
Continuous
100
AcDbLine
 10
158.7074984179677
 20
385.5125045779721
 30
0.0
 11
158.5968700979676
 21
385.5129051585724
 31
0.0
  0
LINE
  5
1776B
330
A
100
AcDbEntity
  8
MODEL
  6
Continuous
100
AcDbLine
 10
185.9477425145674
 20
385.4634912171721
 30
0.0
 11
185.8541829013676
 21
385.4639165465724
 31
0.0
  0
LINE
  5
1776C
330
A
100
AcDbEntity
  8
MODEL
  6
Continuous
100
AcDbLine
 10
212.9403160127677
 20
385.4633551397724
 30
0.0
 11
212.8308021559674
 21
385.4639285203722
 31
0.0
  0
LINE
  5
1776D
330
A
100
AcDbEntity
  8
MODEL
  6
Continuous
100
AcDbLine
 10
240.2127393927677
 20
385.5125605413722
 30
0.0
 11
240.0383900657677
 21
385.5137211699721
 31
0.0
  0
LWPOLYLINE
  5
1776E
330
A
100
AcDbEntity
  8
MODEL
  6
Continuous
100
AcDbPolyline
 90
        4
 70
     0
 43
0.0
 10
212.8308021559674
 20
385.4639285203722
 10
212.7355916259676
 20
385.4649501121723
 10
212.6141721901677
 20
385.4668315555721
 10
212.4992883551677
 20
385.4692285491723
  0
LINE
  5
1776F
330
A
100
AcDbEntity
  8
MODEL
  6
Continuous
100
AcDbLine
 10
158.5968700979676
 20
385.5129051585724
 30
0.0
 11
158.5236272319676
 21
385.5136267479724
 31
0.0
  0
LINE
  5
17770
330
A
100
AcDbEntity
  8
MODEL
  6
Continuous
100
AcDbLine
 10
185.8541829013676
 20
385.4639165465724
 30
0.0
 11
185.7603344573677
 21
385.4648526919722
 31
0.0
  0
LINE
  5
17771
330
A
100
AcDbEntity
  8
MODEL
  6
Continuous
100
AcDbLine
 10
240.0383900657677
 20
385.5137211699721
 30
0.0
 11
239.8432110493678
 21
385.5164589943721
 31
0.0
  0
LINE
  5
17772
330
A
100
AcDbEntity
  8
MODEL
  6
Continuous
100
AcDbLine
 10
158.5236272319676
 20
385.5136267479724
 30
0.0
 11
158.4564652199675
 21
385.5146433335723
 31
0.0
  0
LINE
  5
17773
330
A
100
AcDbEntity
  8
MODEL
  6
Continuous
100
AcDbLine
 10
185.7603344573677
 20
385.4648526919722
 30
0.0
 11
185.6930266847676
 21
385.4658763887724
 31
0.0
  0
LINE
  5
17774
330
A
100
AcDbEntity
  8
MODEL
  6
Continuous
100
AcDbLine
 10
239.8432110493678
 20
385.5164589943721
 30
0.0
 11
239.5860806743677
 21
385.5215461303724
 31
0.0
  0
LINE
  5
17775
330
A
100
AcDbEntity
  8
MODEL
  6
Continuous
100
AcDbLine
 10
158.4564652199675
 20
385.5146433335723
 30
0.0
 11
158.3956104365676
 21
385.5158891075721
 31
0.0
  0
LINE
  5
17776
330
A
100
AcDbEntity
  8
MODEL
  6
Continuous
100
AcDbLine
 10
185.6930266847676
 20
385.4658763887724
 30
0.0
 11
185.6108953543678
 21
385.4675833173724
 31
0.0
  0
LINE
  5
17777
330
A
100
AcDbEntity
  8
MODEL
  6
Continuous
100
AcDbLine
 10
239.6456090617676
 20
385.5203515289724
 30
0.0
 11
239.3648239949677
 21
385.5267885825723
 31
0.0
  0
LWPOLYLINE
  5
17778
330
A
100
AcDbEntity
  8
MODEL
  6
Continuous
100
AcDbPolyline
 90
        6
 70
     0
 43
0.0
 10
212.4992883551677
 20
385.4692285491723
 10
212.3896231493678
 20
385.4720999453722
 10
212.2838573929676
 20
385.4754204927723
 10
212.1806568149678
 20
385.4791792781721
 10
212.0783298677675
 20
385.4834216423724
 10
211.9757431529675
 20
385.4882087923723
  0
LINE
  5
17779
330
A
100
AcDbEntity
  8
MODEL
  6
Continuous
100
AcDbLine
 10
239.3648239949677
 20
385.5267885825723
 30
0.0
 11
239.0569900535675
 21
385.5347022275721
 31
0.0
  0
LINE
  5
1777A
330
A
100
AcDbEntity
  8
MODEL
  6
Continuous
100
AcDbLine
 10
185.6108953543678
 20
385.4675833173724
 30
0.0
 11
185.5487692011677
 21
385.4691857103724
 31
0.0
  0
LINE
  5
1777B
330
A
100
AcDbEntity
  8
MODEL
  6
Continuous
100
AcDbLine
 10
158.3956104365676
 20
385.5158891075721
 30
0.0
 11
158.3425262837678
 21
385.5172722315723
 31
0.0
  0
LINE
  5
1777C
330
A
100
AcDbEntity
  8
MODEL
  6
Continuous
100
AcDbLine
 10
239.0569900535675
 20
385.5347022275721
 30
0.0
 11
238.7615882505675
 21
385.5430072055723
 31
0.0
  0
LWPOLYLINE
  5
1777D
330
A
100
AcDbEntity
  8
MODEL
  6
Continuous
100
AcDbPolyline
 90
        3
 70
     0
 43
0.0
 10
239.4616567333674
 20
385.5246843791723
 10
239.3307186777675
 20
385.5286214231724
 10
239.1934292223679
 20
385.5333656551724
  0
LINE
  5
1777E
330
A
100
AcDbEntity
  8
MODEL
  6
Continuous
100
AcDbLine
 10
238.7615882505675
 20
385.5430072055723
 30
0.0
 11
238.4655676539674
 21
385.5521456509721
 31
0.0
  0
LINE
  5
1777F
330
A
100
AcDbEntity
  8
MODEL
  6
Continuous
100
AcDbLine
 10
185.5487692011677
 20
385.4691857103724
 30
0.0
 11
185.4879047555675
 21
385.4710468533723
 31
0.0
  0
LINE
  5
17780
330
A
100
AcDbEntity
  8
MODEL
  6
Continuous
100
AcDbLine
 10
158.3425262837678
 20
385.5172722315723
 30
0.0
 11
158.2972181009678
 21
385.5187167115721
 31
0.0
  0
LINE
  5
17781
330
A
100
AcDbEntity
  8
MODEL
  6
Continuous
100
AcDbLine
 10
238.4655676539674
 20
385.5521456509721
 30
0.0
 11
238.1742983063679
 21
385.5621527775724
 31
0.0
  0
LINE
  5
17782
330
A
100
AcDbEntity
  8
MODEL
  6
Continuous
100
AcDbLine
 10
185.4879047555675
 20
385.4710468533723
 30
0.0
 11
185.4289252219674
 21
385.4731583939724
 31
0.0
  0
LINE
  5
17783
330
A
100
AcDbEntity
  8
MODEL
  6
Continuous
100
AcDbLine
 10
158.2972181009678
 20
385.5187167115721
 30
0.0
 11
158.2583295909677
 21
385.5201809465722
 31
0.0
  0
LINE
  5
17784
330
A
100
AcDbEntity
  8
MODEL
  6
Continuous
100
AcDbLine
 10
238.1742983063679
 20
385.5621527775724
 30
0.0
 11
237.9425431935675
 21
385.5709094699721
 31
0.0
  0
LINE
  5
17785
330
A
100
AcDbEntity
  8
MODEL
  6
Continuous
100
AcDbLine
 10
236.2349261155678
 20
385.6700263701721
 30
0.0
 11
236.1784623953677
 21
385.6723422165724
 31
0.0
  0
LINE
  5
17786
330
A
100
AcDbEntity
  8
MODEL
  6
Continuous
100
AcDbLine
 10
239.1934292223679
 20
385.5333656551724
 30
0.0
 11
238.9487559599675
 21
385.5432255661723
 31
0.0
  0
LINE
  5
17787
330
A
100
AcDbEntity
  8
MODEL
  6
Continuous
100
AcDbLine
 10
237.9425431935675
 20
385.5709094699721
 30
0.0
 11
237.6934836267679
 21
385.5811710833722
 31
0.0
  0
LINE
  5
17788
330
A
100
AcDbEntity
  8
MODEL
  6
Continuous
100
AcDbLine
 10
185.4289252219674
 20
385.4731583939724
 30
0.0
 11
185.3718609561676
 21
385.4755202207721
 31
0.0
  0
LINE
  5
17789
330
A
100
AcDbEntity
  8
MODEL
  6
Continuous
100
AcDbLine
 10
158.2583295909677
 20
385.5201809465722
 30
0.0
 11
158.2258662499676
 21
385.5215929153724
 31
0.0
  0
LINE
  5
1778A
330
A
100
AcDbEntity
  8
MODEL
  6
Continuous
100
AcDbLine
 10
237.6934836267679
 20
385.5811710833722
 30
0.0
 11
237.4762373935678
 21
385.5908791471724
 31
0.0
  0
LINE
  5
1778B
330
A
100
AcDbEntity
  8
MODEL
  6
Continuous
100
AcDbLine
 10
185.3718609561676
 20
385.4755202207721
 30
0.0
 11
185.3164108171678
 21
385.4781366403721
 31
0.0
  0
LINE
  5
1778C
330
A
100
AcDbEntity
  8
MODEL
  6
Continuous
100
AcDbLine
 10
237.4762373935678
 20
385.5908791471724
 30
0.0
 11
237.2557113897676
 21
385.6014924761721
 31
0.0
  0
LINE
  5
1778D
330
A
100
AcDbEntity
  8
MODEL
  6
Continuous
100
AcDbLine
 10
236.1784623953677
 20
385.6723422165724
 30
0.0
 11
236.1465675311675
 21
385.6738819479723
 31
0.0
  0
LINE
  5
1778E
330
A
100
AcDbEntity
  8
MODEL
  6
Continuous
100
AcDbLine
 10
158.2258662499676
 20
385.5215929153724
 30
0.0
 11
158.1990870633678
 21
385.5229124645721
 31
0.0
  0
LINE
  5
1778F
330
A
100
AcDbEntity
  8
MODEL
  6
Continuous
100
AcDbLine
 10
237.2557113897676
 20
385.6014924761721
 30
0.0
 11
237.0344906397679
 21
385.6129401999723
 31
0.0
  0
LINE
  5
17790
330
A
100
AcDbEntity
  8
MODEL
  6
Continuous
100
AcDbLine
 10
236.1465675311675
 20
385.6738819479723
 30
0.0
 11
236.1016754043677
 21
385.6762522749722
 31
0.0
  0
LINE
  5
17791
330
A
100
AcDbEntity
  8
MODEL
  6
Continuous
100
AcDbLine
 10
185.3164108171678
 20
385.4781366403721
 30
0.0
 11
185.2620463107675
 21
385.4810150349723
 31
0.0
  0
LINE
  5
17792
330
A
100
AcDbEntity
  8
MODEL
  6
Continuous
100
AcDbLine
 10
158.1990870633678
 20
385.5229124645721
 30
0.0
 11
158.1768222759675
 21
385.5241352519721
 31
0.0
  0
LINE
  5
17793
330
A
100
AcDbEntity
  8
MODEL
  6
Continuous
100
AcDbLine
 10
237.0344906397679
 20
385.6129401999723
 30
0.0
 11
236.8133926557676
 21
385.6252087551724
 31
0.0
  0
LINE
  5
17794
330
A
100
AcDbEntity
  8
MODEL
  6
Continuous
100
AcDbLine
 10
236.1016754043677
 20
385.6762522749722
 30
0.0
 11
236.041365530368
 21
385.6797255575722
 31
0.0
  0
LWPOLYLINE
  5
17795
330
A
100
AcDbEntity
  8
MODEL
  6
Continuous
100
AcDbPolyline
 90
        3
 70
     0
 43
0.0
 10
185.2620463107675
 20
385.4810150349723
 10
185.2079032423677
 20
385.4841734513722
 10
185.1920088371676
 20
385.4851503323721
  0
LINE
  5
17796
330
A
100
AcDbEntity
  8
MODEL
  6
Continuous
100
AcDbLine
 10
158.1768222759675
 20
385.5241352519721
 30
0.0
 11
158.1650247387676
 21
385.5248351981724
 31
0.0
  0
LINE
  5
17797
330
A
100
AcDbEntity
  8
MODEL
  6
Continuous
100
AcDbLine
 10
209.8168604701679
 20
385.6422311501723
 30
0.0
 11
209.7976210391676
 21
385.6433980653724
 31
0.0
  0
LINE
  5
17798
330
A
100
AcDbEntity
  8
MODEL
  6
Continuous
100
AcDbLine
 10
236.8133926557676
 20
385.6252087551724
 30
0.0
 11
236.5916620235676
 21
385.6383528385724
 31
0.0
  0
LINE
  5
17799
330
A
100
AcDbEntity
  8
MODEL
  6
Continuous
100
AcDbLine
 10
236.041365530368
 20
385.6797255575722
 30
0.0
 11
235.9440368205674
 21
385.6858050135723
 31
0.0
  0
LINE
  5
1779A
330
A
100
AcDbEntity
  8
MODEL
  6
Continuous
100
AcDbLine
 10
236.5916620235676
 20
385.6383528385724
 30
0.0
 11
236.3681802423677
 21
385.6524387269724
 31
0.0
  0
LINE
  5
1779B
330
A
100
AcDbEntity
  8
MODEL
  6
Continuous
100
AcDbLine
 10
236.3681802423677
 20
385.6524387269724
 30
0.0
 11
236.1376921903677
 21
385.6678006471722
 31
0.0
  0
LWPOLYLINE
  5
1779C
330
A
100
AcDbEntity
  8
MODEL
  6
Continuous
100
AcDbPolyline
 90
        3
 70
     0
 43
0.0
 10
235.9440368205674
 20
385.6858050135723
 10
235.7510537349677
 20
385.6987858313722
 10
235.7416227733675
 20
385.6994391933724
  0
LINE
  5
1779D
330
A
100
AcDbEntity
  8
MODEL
  6
Continuous
100
AcDbLine
 10
235.7416227733675
 20
385.6994391933724
 30
0.0
 11
235.7131620131677
 21
385.7014184021722
 31
0.0
  0
LINE
  5
1779E
330
A
100
AcDbEntity
  8
MODEL
  6
Continuous
100
AcDbLine
 10
269.4349550981676
 20
385.7672481343724
 30
0.0
 11
289.4487957583676
 21
384.3677786957724
 31
0.0
  0
LINE
  5
1779F
330
A
100
AcDbEntity
  8
MODEL
  6
Continuous
100
AcDbLine
 10
236.1376921903677
 20
385.6678006471722
 30
0.0
 11
235.8865266015678
 21
385.6853795171724
 31
0.0
  0
LINE
  5
177A0
330
A
100
AcDbEntity
  8
MODEL
  6
Continuous
100
AcDbLine
 10
235.7131620131677
 20
385.7014184021722
 30
0.0
 11
235.3405977117678
 21
385.7278852487722
 31
0.0
  0
LINE
  5
177A1
330
A
100
AcDbEntity
  8
MODEL
  6
Continuous
100
AcDbLine
 10
235.8865266015678
 20
385.6853795171724
 30
0.0
 11
235.6072997223678
 21
385.7057521063721
 31
0.0
  0
LINE
  5
177A2
330
A
100
AcDbEntity
  8
MODEL
  6
Continuous
100
AcDbLine
 10
209.7976210391676
 20
385.6433980653724
 30
0.0
 11
209.7728916767679
 21
385.6451630717723
 31
0.0
  0
LINE
  5
177A3
330
A
100
AcDbEntity
  8
MODEL
  6
Continuous
100
AcDbLine
 10
235.6072997223678
 20
385.7057521063721
 30
0.0
 11
235.1606061375674
 21
385.7391525583721
 31
0.0
  0
LINE
  5
177A4
330
A
100
AcDbEntity
  8
MODEL
  6
Continuous
100
AcDbLine
 10
209.7728916767679
 20
385.6451630717723
 30
0.0
 11
209.7536336213676
 21
385.6466907751724
 31
0.0
  0
LINE
  5
177A5
330
A
100
AcDbEntity
  8
MODEL
  6
Continuous
100
AcDbLine
 10
209.7536336213676
 20
385.6466907751724
 30
0.0
 11
209.735771803568
 21
385.6482123107724
 31
0.0
  0
LINE
  5
177A6
330
A
100
AcDbEntity
  8
MODEL
  6
Continuous
100
AcDbLine
 10
209.735771803568
 20
385.6482123107724
 30
0.0
 11
209.7183915249676
 21
385.6497813887723
 31
0.0
  0
LINE
  5
177A7
330
A
100
AcDbEntity
  8
MODEL
  6
Continuous
100
AcDbLine
 10
209.7183915249676
 20
385.6497813887723
 30
0.0
 11
209.6956189939675
 21
385.6519591027724
 31
0.0
  0
LINE
  5
177A8
330
A
100
AcDbEntity
  8
MODEL
  6
Continuous
100
AcDbLine
 10
209.6956189939675
 20
385.6519591027724
 30
0.0
 11
209.6734037211679
 21
385.6542058717721
 31
0.0
  0
LINE
  5
177A9
330
A
100
AcDbEntity
  8
MODEL
  6
Continuous
100
AcDbLine
 10
209.6734037211679
 20
385.6542058717721
 30
0.0
 11
209.6516335041675
 21
385.6565145543722
 31
0.0
  0
LINE
  5
177AA
330
A
100
AcDbEntity
  8
MODEL
  6
Continuous
100
AcDbLine
 10
209.6516335041675
 20
385.6565145543722
 30
0.0
 11
209.6247929733677
 21
385.6594925235723
 31
0.0
  0
LINE
  5
177AB
330
A
100
AcDbEntity
  8
MODEL
  6
Continuous
100
AcDbLine
 10
209.6247929733677
 20
385.6594925235723
 30
0.0
 11
209.5982218393675
 21
385.6625683529724
 31
0.0
  0
LINE
  5
177AC
330
A
100
AcDbEntity
  8
MODEL
  6
Continuous
100
AcDbLine
 10
209.5982218393675
 20
385.6625683529724
 30
0.0
 11
209.5667530581678
 21
385.6663538509724
 31
0.0
  0
LINE
  5
177AD
330
A
100
AcDbEntity
  8
MODEL
  6
Continuous
100
AcDbLine
 10
208.9496201787675
 20
385.7477146975722
 30
0.0
 11
208.7904946053678
 21
385.7672481343724
 31
0.0
  0
LINE
  5
177AE
330
A
100
AcDbEntity
  8
MODEL
  6
Continuous
100
AcDbLine
 10
209.5667530581678
 20
385.6663538509724
 30
0.0
 11
209.5251789459678
 21
385.6715502017722
 31
0.0
  0
LINE
  5
177AF
330
A
100
AcDbEntity
  8
MODEL
  6
Continuous
100
AcDbLine
 10
209.0785963159676
 20
385.7312947363721
 30
0.0
 11
208.9496201787675
 21
385.7477146975722
 31
0.0
  0
LINE
  5
177B0
330
A
100
AcDbEntity
  8
MODEL
  6
Continuous
100
AcDbLine
 10
209.5251789459678
 20
385.6715502017722
 30
0.0
 11
209.4677121599676
 21
385.6790121235724
 31
0.0
  0
LINE
  5
177B1
330
A
100
AcDbEntity
  8
MODEL
  6
Continuous
100
AcDbLine
 10
209.2039362765677
 20
385.7147442993723
 30
0.0
 11
209.0785963159676
 21
385.7312947363721
 31
0.0
  0
LINE
  5
177B2
330
A
100
AcDbEntity
  8
MODEL
  6
Continuous
100
AcDbLine
 10
209.4677121599676
 20
385.6790121235724
 30
0.0
 11
209.2039362765677
 21
385.7147442993723
 31
0.0
  0
LINE
  5
177B3
330
A
100
AcDbEntity
  8
MODEL
  6
Continuous
100
AcDbLine
 10
118.0853652241677
 20
385.7672481343724
 30
0.0
 11
109.4885719787677
 21
385.0174255819724
 31
0.0
  0
LINE
  5
177B4
330
A
100
AcDbEntity
  8
MODEL
  6
Continuous
100
AcDbLine
 10
97.78857197876788
 20
394.9674252005722
 30
0.0
 11
301.1885719787675
 21
394.9674252005722
 31
0.0
  0
LINE
  5
177B5
330
A
100
AcDbEntity
  8
MODEL
  6
Continuous
100
AcDbLine
 10
298.1885719787675
 20
397.9674252005722
 30
0.0
 11
100.7885719787679
 21
397.9674252005722
 31
0.0
  0
LINE
  5
177B6
330
A
100
AcDbEntity
  8
MODEL
  6
Continuous
100
AcDbLine
 10
289.4885719787678
 20
385.0174255819724
 30
0.0
 11
280.8917787333676
 21
385.7672481343724
 31
0.0
  0
LINE
  5
177B7
330
A
100
AcDbEntity
  8
MODEL
  6
Continuous
100
AcDbLine
 10
94.4885719787677
 20
401.7674252005723
 30
0.0
 11
304.4885719787678
 21
401.7674252005723
 31
0.0
  0
LINE
  5
177B8
330
A
100
AcDbEntity
  8
MODEL
  6
Continuous
100
AcDbLine
 10
303.4885719787678
 20
402.7674252005723
 30
0.0
 11
95.4885719787677
 21
402.7674252005723
 31
0.0
  0
LINE
  5
177B9
330
A
100
AcDbEntity
  8
MODEL
  6
Continuous
100
AcDbLine
 10
289.4885719787678
 20
386.0072483131723
 30
0.0
 11
289.4885719787678
 21
387.0072483131723
 31
0.0
  0
LINE
  5
177BA
330
A
100
AcDbEntity
  8
MODEL
  6
Continuous
100
AcDbLine
 10
289.4885719787678
 20
385.0174255819724
 30
0.0
 11
289.4487957583676
 21
384.3677786957724
 31
0.0
  0
LINE
  5
177BB
330
A
100
AcDbEntity
  8
MODEL
  6
Continuous
100
AcDbLine
 10
289.4421580097675
 20
385.7672481343724
 30
0.0
 11
289.4885719787678
 21
385.0174255819724
 31
0.0
  0
LINE
  5
177BC
330
A
100
AcDbEntity
  8
MODEL
  6
Continuous
100
AcDbLine
 10
298.1885719787675
 20
397.9674252005722
 30
0.0
 11
298.1885719787675
 21
375.9674252005722
 31
0.0
  0
LINE
  5
177BD
330
A
100
AcDbEntity
  8
MODEL
  6
Continuous
100
AcDbLine
 10
301.1885719787675
 20
394.9674252005722
 30
0.0
 11
301.1885719787675
 21
377.4674252005722
 31
0.0
  0
LINE
  5
177BE
330
A
100
AcDbEntity
  8
MODEL
  6
Continuous
100
AcDbLine
 10
303.4885719787678
 20
402.7674252005723
 30
0.0
 11
303.4885719787678
 21
342.7674252005723
 31
0.0
  0
LINE
  5
177BF
330
A
100
AcDbEntity
  8
MODEL
  6
Continuous
100
AcDbLine
 10
304.4885719787678
 20
401.7674252005723
 30
0.0
 11
304.4885719787678
 21
342.7674252005723
 31
0.0
  0
LINE
  5
177C0
330
A
100
AcDbEntity
  8
MODEL
  6
Continuous
100
AcDbLine
 10
315.9885719787678
 20
342.7674252007722
 30
0.0
 11
315.9885719787678
 21
337.7674252007722
 31
0.0
  0
LINE
  5
177C1
330
A
100
AcDbEntity
  8
MODEL
  6
Continuous
100
AcDbLine
 10
316.9885719787678
 20
341.7674252007722
 30
0.0
 11
316.9885719787678
 21
337.7674252007722
 31
0.0
  0
LINE
  5
177C2
330
A
100
AcDbEntity
  8
MODEL
  6
Continuous
100
AcDbLine
 10
426.6922923726764
 20
269.2674252005723
 30
0.0
 11
426.1922923726764
 21
269.7674252005723
 31
0.0
  0
LINE
  5
177C3
330
A
100
AcDbEntity
  8
MODEL
  6
Continuous
100
AcDbLine
 10
426.0922923726765
 20
270.7674252005723
 30
0.0
 11
425.0922923726765
 21
271.7674252005723
 31
0.0
  0
LINE
  5
177C4
330
A
100
AcDbEntity
  8
MODEL
  6
Continuous
100
AcDbLine
 10
410.4422923726764
 20
341.7674252003724
 30
0.0
 11
410.4422923726764
 21
337.7674252003724
 31
0.0
  0
LINE
  5
177C5
330
A
100
AcDbEntity
  8
MODEL
  6
Continuous
100
AcDbLine
 10
411.4422923726764
 20
337.7674252003724
 30
0.0
 11
411.4422923726764
 21
342.7674252003724
 31
0.0
  0
LINE
  5
177C6
330
A
100
AcDbEntity
  8
MODEL
  6
Continuous
100
AcDbLine
 10
419.6805854552766
 20
287.7674252005723
 30
0.0
 11
420.2579373570765
 21
287.2674252005723
 31
0.0
  0
LINE
  5
177C7
330
A
100
AcDbEntity
  8
MODEL
  6
Continuous
100
AcDbLine
 10
413.9422923726764
 20
299.2674252005723
 30
0.0
 11
413.9422923726764
 21
301.2674252005723
 31
0.0
  0
LINE
  5
177C8
330
A
100
AcDbEntity
  8
MODEL
  6
Continuous
100
AcDbLine
 10
413.9422923726764
 20
336.2674252005723
 30
0.0
 11
413.9422923726764
 21
337.7674252005723
 31
0.0
  0
LINE
  5
177C9
330
A
100
AcDbEntity
  8
MODEL
  6
Continuous
100
AcDbLine
 10
415.4422923726764
 20
298.2674252005723
 30
0.0
 11
415.4422923726764
 21
297.7674252005723
 31
0.0
  0
LINE
  5
177CA
330
A
100
AcDbEntity
  8
MODEL
  6
Continuous
100
AcDbLine
 10
427.5615057664767
 20
287.7674252005723
 30
0.0
 11
427.8501792684768
 21
287.2674252005723
 31
0.0
  0
LINE
  5
177CB
330
A
100
AcDbEntity
  8
MODEL
  6
Continuous
100
AcDbLine
 10
419.6805854552766
 20
287.7674252005723
 30
0.0
 11
419.6805854552766
 21
295.7674252005723
 31
0.0
  0
LINE
  5
177CC
330
A
100
AcDbEntity
  8
MODEL
  6
Continuous
100
AcDbLine
 10
422.9422923726764
 20
401.7674252005723
 30
0.0
 11
422.9422923726764
 21
342.7674252005723
 31
0.0
  0
LINE
  5
177CD
330
A
100
AcDbEntity
  8
MODEL
  6
Continuous
100
AcDbLine
 10
423.9422923726764
 20
342.7674252005723
 30
0.0
 11
423.9422923726764
 21
402.7674252005723
 31
0.0
  0
LINE
  5
177CE
330
A
100
AcDbEntity
  8
MODEL
  6
Continuous
100
AcDbLine
 10
425.0922923726765
 20
334.7674252005723
 30
0.0
 11
425.0922923726765
 21
301.2674252005723
 31
0.0
  0
LINE
  5
177CF
330
A
100
AcDbEntity
  8
MODEL
  6
Continuous
100
AcDbLine
 10
425.0922923726765
 20
287.2674252005723
 30
0.0
 11
425.0922923726765
 21
271.7674252005723
 31
0.0
  0
LINE
  5
177D0
330
A
100
AcDbEntity
  8
MODEL
  6
Continuous
100
AcDbLine
 10
426.1272923726768
 20
270.7674252005723
 30
0.0
 11
426.1272923726768
 21
287.2674252005723
 31
0.0
  0
LINE
  5
177D1
330
A
100
AcDbEntity
  8
MODEL
  6
Continuous
100
AcDbLine
 10
426.1272923726768
 20
301.2674252005723
 30
0.0
 11
426.1272923726768
 21
335.7674252005723
 31
0.0
  0
LINE
  5
177D2
330
A
100
AcDbEntity
  8
MODEL
  6
Continuous
100
AcDbLine
 10
426.1422923726768
 20
336.2674252005723
 30
0.0
 11
426.1422923726768
 21
335.7674252005723
 31
0.0
  0
LINE
  5
177D3
330
A
100
AcDbEntity
  8
MODEL
  6
Continuous
100
AcDbLine
 10
426.1922923726764
 20
269.7674252005723
 30
0.0
 11
426.1922923726764
 21
270.7674252005723
 31
0.0
  0
LINE
  5
177D4
330
A
100
AcDbEntity
  8
MODEL
  6
Continuous
100
AcDbLine
 10
417.4297012426767
 20
298.3494814407724
 30
0.0
 11
416.0630182510766
 21
299.1929200871722
 31
0.0
  0
LINE
  5
177D5
330
A
100
AcDbEntity
  8
MODEL
  6
Continuous
100
AcDbLine
 10
427.5615057664767
 20
287.7674252005723
 30
0.0
 11
427.5615057664767
 21
295.7674252005723
 31
0.0
  0
LINE
  5
177D6
330
A
100
AcDbEntity
  8
MODEL
  6
Continuous
100
AcDbLine
 10
444.1919361138765
 20
269.2674252005723
 30
0.0
 11
426.6926482062767
 21
269.2674252005723
 31
0.0
  0
LINE
  5
177D7
330
A
100
AcDbEntity
  8
MODEL
  6
Continuous
100
AcDbLine
 10
444.6922923726764
 20
269.7674252005723
 30
0.0
 11
426.1922923726764
 21
269.7674252005723
 31
0.0
  0
LINE
  5
177D8
330
A
100
AcDbEntity
  8
MODEL
  6
Continuous
100
AcDbLine
 10
444.7919116846763
 20
270.7674252005723
 30
0.0
 11
426.0926726062766
 21
270.7674252005723
 31
0.0
  0
LINE
  5
177D9
330
A
100
AcDbEntity
  8
MODEL
  6
Continuous
100
AcDbLine
 10
445.7922923726769
 20
271.7674252005723
 30
0.0
 11
425.0922923726765
 21
271.7674252005723
 31
0.0
  0
LINE
  5
177DA
330
A
100
AcDbEntity
  8
MODEL
  6
Continuous
100
AcDbLine
 10
443.3232126838764
 20
287.7674252005723
 30
0.0
 11
443.3232126838764
 21
295.7674252005723
 31
0.0
  0
LINE
  5
177DB
330
A
100
AcDbEntity
  8
MODEL
  6
Continuous
100
AcDbLine
 10
444.6922923726764
 20
269.7674252005723
 30
0.0
 11
444.6922923726764
 21
270.7674252005723
 31
0.0
  0
LINE
  5
177DC
330
A
100
AcDbEntity
  8
MODEL
  6
Continuous
100
AcDbLine
 10
444.7422923726767
 20
336.2674252005723
 30
0.0
 11
444.7422923726767
 21
335.7674252005723
 31
0.0
  0
LINE
  5
177DD
330
A
100
AcDbEntity
  8
MODEL
  6
Continuous
100
AcDbLine
 10
444.7572923726764
 20
270.7674252005723
 30
0.0
 11
444.7572923726764
 21
287.2674252005723
 31
0.0
  0
LINE
  5
177DE
330
A
100
AcDbEntity
  8
MODEL
  6
Continuous
100
AcDbLine
 10
444.7572923726764
 20
301.2674252005723
 30
0.0
 11
444.7572923726764
 21
335.7674252005723
 31
0.0
  0
LINE
  5
177DF
330
A
100
AcDbEntity
  8
MODEL
  6
Continuous
100
AcDbLine
 10
445.7922923726769
 20
334.7674252005723
 30
0.0
 11
445.7922923726769
 21
301.2674252005723
 31
0.0
  0
LINE
  5
177E0
330
A
100
AcDbEntity
  8
MODEL
  6
Continuous
100
AcDbLine
 10
445.7922923726769
 20
287.2674252005723
 30
0.0
 11
445.7922923726769
 21
271.7674252005723
 31
0.0
  0
LINE
  5
177E1
330
A
100
AcDbEntity
  8
MODEL
  6
Continuous
100
AcDbLine
 10
446.9422923726764
 20
402.7674252005723
 30
0.0
 11
446.9422923726764
 21
342.7674252005723
 31
0.0
  0
LINE
  5
177E2
330
A
100
AcDbEntity
  8
MODEL
  6
Continuous
100
AcDbLine
 10
447.9422923726764
 20
342.7674252005723
 30
0.0
 11
447.9422923726764
 21
401.7674252005723
 31
0.0
  0
LINE
  5
177E3
330
A
100
AcDbEntity
  8
MODEL
  6
Continuous
100
AcDbLine
 10
426.0922923726765
 20
335.7674252005723
 30
0.0
 11
425.0922923726765
 21
334.7674252005723
 31
0.0
  0
LINE
  5
177E4
330
A
100
AcDbEntity
  8
MODEL
  6
Continuous
100
AcDbLine
 10
451.2039324370766
 20
287.7674252005723
 30
0.0
 11
451.2039324370766
 21
295.7674252005723
 31
0.0
  0
LINE
  5
177E5
330
A
100
AcDbEntity
  8
MODEL
  6
Continuous
100
AcDbLine
 10
455.4422923726764
 20
298.2674252005723
 30
0.0
 11
455.4422923726764
 21
297.7674252005723
 31
0.0
  0
LINE
  5
177E6
330
A
100
AcDbEntity
  8
MODEL
  6
Continuous
100
AcDbLine
 10
450.6265829842768
 20
287.2674252005723
 30
0.0
 11
420.2579373570765
 21
287.2674252005723
 31
0.0
  0
LINE
  5
177E7
330
A
100
AcDbEntity
  8
MODEL
  6
Continuous
100
AcDbLine
 10
419.6805854552766
 20
287.7674252005723
 30
0.0
 11
451.2039324370766
 21
287.7674252005723
 31
0.0
  0
LINE
  5
177E8
330
A
100
AcDbEntity
  8
MODEL
  6
Continuous
100
AcDbLine
 10
456.9422923726764
 20
299.2674252005723
 30
0.0
 11
456.9422923726764
 21
301.2674252005723
 31
0.0
  0
LINE
  5
177E9
330
A
100
AcDbEntity
  8
MODEL
  6
Continuous
100
AcDbLine
 10
456.9422923726764
 20
336.2674252005723
 30
0.0
 11
456.9422923726764
 21
337.7674252005723
 31
0.0
  0
LINE
  5
177EA
330
A
100
AcDbEntity
  8
MODEL
  6
Continuous
100
AcDbLine
 10
459.4422923726764
 20
342.7674252003724
 30
0.0
 11
459.4422923726764
 21
337.7674252005723
 31
0.0
  0
LINE
  5
177EB
330
A
100
AcDbEntity
  8
MODEL
  6
Continuous
100
AcDbLine
 10
460.4422923726764
 20
341.7674252005723
 30
0.0
 11
460.4422923726764
 21
337.7674252005723
 31
0.0
  0
LINE
  5
177EC
330
A
100
AcDbEntity
  8
MODEL
  6
Continuous
100
AcDbLine
 10
453.4421378118768
 20
295.7674252005723
 30
0.0
 11
417.4424469334766
 21
295.7674252005723
 31
0.0
  0
LINE
  5
177ED
330
A
100
AcDbEntity
  8
MODEL
  6
Continuous
100
AcDbLine
 10
455.4422923726764
 20
297.7674252005723
 30
0.0
 11
415.4422923726764
 21
297.7674252005723
 31
0.0
  0
LINE
  5
177EE
330
A
100
AcDbEntity
  8
MODEL
  6
Continuous
100
AcDbLine
 10
415.4424866734765
 20
298.2674252005723
 30
0.0
 11
455.4420979022764
 21
298.2674252005723
 31
0.0
  0
LINE
  5
177EF
330
A
100
AcDbEntity
  8
MODEL
  6
Continuous
100
AcDbLine
 10
453.1922923726764
 20
298.2749763273722
 30
0.0
 11
417.6922923726764
 21
298.2749763273722
 31
0.0
  0
LINE
  5
177F0
330
A
100
AcDbEntity
  8
MODEL
  6
Continuous
100
AcDbLine
 10
453.4548835026765
 20
298.3494814407724
 30
0.0
 11
417.4297012426767
 21
298.3494814407724
 31
0.0
  0
LINE
  5
177F1
330
A
100
AcDbEntity
  8
MODEL
  6
Continuous
100
AcDbLine
 10
416.0630182510766
 20
299.1929200871722
 30
0.0
 11
454.8215664944768
 21
299.1929200871722
 31
0.0
  0
LINE
  5
177F2
330
A
100
AcDbEntity
  8
MODEL
  6
Continuous
100
AcDbLine
 10
456.9420834994766
 20
299.2674252005723
 30
0.0
 11
413.9425014284764
 21
299.2674252005723
 31
0.0
  0
LINE
  5
177F3
330
A
100
AcDbEntity
  8
MODEL
  6
Continuous
100
AcDbLine
 10
444.7922923726769
 20
335.7674252005723
 30
0.0
 11
445.7786167670769
 21
334.7811008063724
 31
0.0
  0
LINE
  5
177F4
330
A
100
AcDbEntity
  8
MODEL
  6
Continuous
100
AcDbLine
 10
413.9425012458768
 20
299.7674252005723
 30
0.0
 11
456.9420833170764
 21
299.7674252005723
 31
0.0
  0
LINE
  5
177F5
330
A
100
AcDbEntity
  8
MODEL
  6
Continuous
100
AcDbLine
 10
413.9425014284764
 20
301.2674252005723
 30
0.0
 11
456.9420834994766
 21
301.2674252005723
 31
0.0
  0
LINE
  5
177F6
330
A
100
AcDbEntity
  8
MODEL
  6
Continuous
100
AcDbLine
 10
443.3232126838764
 20
287.7674252005723
 30
0.0
 11
443.0345342840769
 21
287.2674252005723
 31
0.0
  0
LINE
  5
177F7
330
A
100
AcDbEntity
  8
MODEL
  6
Continuous
100
AcDbLine
 10
425.0922923726765
 20
334.7674252005723
 30
0.0
 11
445.7922923726769
 21
334.7674252005723
 31
0.0
  0
LINE
  5
177F8
330
A
100
AcDbEntity
  8
MODEL
  6
Continuous
100
AcDbLine
 10
426.0926730608766
 20
335.7674252005723
 30
0.0
 11
444.7919121390768
 21
335.7674252005723
 31
0.0
  0
LINE
  5
177F9
330
A
100
AcDbEntity
  8
MODEL
  6
Continuous
100
AcDbLine
 10
456.9420833170764
 20
336.2674252005723
 30
0.0
 11
413.9425012458768
 21
336.2674252005723
 31
0.0
  0
LINE
  5
177FA
330
A
100
AcDbEntity
  8
MODEL
  6
Continuous
100
AcDbLine
 10
444.7922923726769
 20
270.7674252005723
 30
0.0
 11
445.7786167670769
 21
271.7537495949722
 31
0.0
  0
LINE
  5
177FB
330
A
100
AcDbEntity
  8
MODEL
  6
Continuous
100
AcDbLine
 10
444.1922923726764
 20
269.2674252005723
 30
0.0
 11
444.6800702130766
 21
269.7552030409722
 31
0.0
  0
LINE
  5
177FC
330
A
100
AcDbEntity
  8
MODEL
  6
Continuous
100
AcDbLine
 10
451.2039324370766
 20
287.7674252005723
 30
0.0
 11
450.6265829842768
 21
287.2674252005723
 31
0.0
  0
LINE
  5
177FD
330
A
100
AcDbEntity
  8
MODEL
  6
Continuous
100
AcDbLine
 10
453.4548835026765
 20
298.3494814407724
 30
0.0
 11
454.8215664944768
 21
299.1929200871722
 31
0.0
  0
LINE
  5
177FE
330
A
100
AcDbEntity
  8
MODEL
  6
Continuous
100
AcDbLine
 10
460.4422923726764
 20
337.7674252003724
 30
0.0
 11
410.4422923726764
 21
337.7674252003724
 31
0.0
  0
LINE
  5
177FF
330
A
100
AcDbEntity
  8
MODEL
  6
Continuous
100
AcDbLine
 10
410.4422923726764
 20
341.7674252003724
 30
0.0
 11
460.4422923726764
 21
341.7674252003724
 31
0.0
  0
LINE
  5
17800
330
A
100
AcDbEntity
  8
MODEL
  6
Continuous
100
AcDbLine
 10
459.4422923726764
 20
342.7674252005723
 30
0.0
 11
411.4422923726764
 21
342.7674252003724
 31
0.0
  0
LINE
  5
17801
330
A
100
AcDbEntity
  8
MODEL
  6
Continuous
100
AcDbLine
 10
447.9422923726764
 20
375.9674252005722
 30
0.0
 11
586.3442161612768
 21
375.9674252005722
 31
0.0
  0
LINE
  5
17802
330
A
100
AcDbEntity
  8
MODEL
  6
Continuous
100
AcDbLine
 10
447.9422923726764
 20
377.4674252005722
 30
0.0
 11
588.9422923726763
 21
377.4674252005722
 31
0.0
  0
LINE
  5
17803
330
A
100
AcDbEntity
  8
MODEL
  6
Continuous
100
AcDbLine
 10
589.4422923726763
 20
383.0174252005723
 30
0.0
 11
588.9422923726763
 21
383.0174252005723
 31
0.0
  0
LINE
  5
17804
330
A
100
AcDbEntity
  8
MODEL
  6
Continuous
100
AcDbLine
 10
589.4422923726763
 20
387.0072483131723
 30
0.0
 11
588.9422923726763
 21
387.0072483131723
 31
0.0
  0
LINE
  5
17805
330
A
100
AcDbEntity
  8
MODEL
  6
Continuous
100
AcDbLine
 10
447.9422923726764
 20
394.9674252005722
 30
0.0
 11
588.9422923726763
 21
394.9674252005722
 31
0.0
  0
LINE
  5
17806
330
A
100
AcDbEntity
  8
MODEL
  6
Continuous
100
AcDbLine
 10
590.4422923726763
 20
385.0174255819724
 30
0.0
 11
588.9422923726763
 21
385.0960372509724
 31
0.0
  0
LINE
  5
17807
330
A
100
AcDbEntity
  8
MODEL
  6
Continuous
100
AcDbLine
 10
585.9422923726763
 20
397.9674252005722
 30
0.0
 11
447.9422923726764
 21
397.9674252005722
 31
0.0
  0
LINE
  5
17808
330
A
100
AcDbEntity
  8
MODEL
  6
Continuous
100
AcDbLine
 10
422.9422923726764
 20
401.7674252005723
 30
0.0
 11
447.9422923726764
 21
401.7674252005723
 31
0.0
  0
LINE
  5
17809
330
A
100
AcDbEntity
  8
MODEL
  6
Continuous
100
AcDbLine
 10
446.9422923726764
 20
402.7674252005723
 30
0.0
 11
423.9422923726764
 21
402.7674252005723
 31
0.0
  0
LINE
  5
1780A
330
A
100
AcDbEntity
  8
MODEL
  6
Continuous
100
AcDbLine
 10
585.9422923726763
 20
397.9674252005722
 30
0.0
 11
585.9422923726763
 21
375.9674252005722
 31
0.0
  0
LINE
  5
1780B
330
A
100
AcDbEntity
  8
MODEL
  6
Continuous
100
AcDbLine
 10
588.9422923726763
 20
377.4674252005722
 30
0.0
 11
588.9422923726763
 21
394.9674252005722
 31
0.0
  0
LINE
  5
1780C
330
A
100
AcDbEntity
  8
MODEL
  6
Continuous
100
AcDbLine
 10
589.4422923726763
 20
387.0072483131723
 30
0.0
 11
589.4422670688766
 21
383.6578132609724
 31
0.0
  0
LINE
  5
1780D
330
A
100
AcDbEntity
  8
MODEL
  6
Continuous
100
AcDbLine
 10
589.4422670688766
 20
383.6578132609724
 30
0.0
 11
589.4423004380762
 21
383.0174252005723
 31
0.0
  0
LINE
  5
1780E
330
A
100
AcDbEntity
  8
MODEL
  6
Continuous
100
AcDbLine
 10
590.4422923726763
 20
384.0174252005723
 30
0.0
 11
590.4422923726763
 21
386.0072483131723
 31
0.0
  0
ARC
  5
1780F
330
A
100
AcDbEntity
  8
MODEL
  6
Continuous
100
AcDbCircle
 10
100.3866481901674
 20
378.9674252005722
 30
0.0
 40
3.0
100
AcDbArc
 50
210.000000000005
 51
270.0
  0
ARC
  5
17810
330
A
100
AcDbEntity
  8
MODEL
  6
Continuous
100
AcDbCircle
 10
109.4885719787677
 20
385.0674252005724
 30
0.0
 40
2.5
100
AcDbArc
 50
90.0
 51
270.0
  0
ARC
  5
17811
330
A
100
AcDbEntity
  8
MODEL
  6
Continuous
100
AcDbCircle
 10
109.5136821891679
 20
385.0457980075722
 30
0.0
 40
2.0283728068
100
AcDbArc
 50
176.3587974944008
 51
269.9999999964933
  0
ARC
  5
17812
330
A
100
AcDbEntity
  8
MODEL
  6
Continuous
100
AcDbCircle
 10
109.4885719787677
 20
385.0072483131723
 30
0.0
 40
2.0
100
AcDbArc
 50
90.0
 51
178.206777698299
  0
ARC
  5
17813
330
A
100
AcDbEntity
  8
MODEL
  6
Continuous
100
AcDbCircle
 10
82.9885719787677
 20
341.7674252005723
 30
0.0
 40
1.0
100
AcDbArc
 50
89.99999999940073
 51
180.0000000002997
  0
ARC
  5
17814
330
A
100
AcDbEntity
  8
MODEL
  6
Continuous
100
AcDbCircle
 10
109.4885719787677
 20
385.0072483131723
 30
0.0
 40
1.0
100
AcDbArc
 50
90.0
 51
179.4169841245028
  0
ARC
  5
17815
330
A
100
AcDbEntity
  8
MODEL
  6
Continuous
100
AcDbCircle
 10
100.7885719787679
 20
394.9674252005722
 30
0.0
 40
3.0
100
AcDbArc
 50
90.0
 51
180.0000000000999
  0
ARC
  5
17816
330
A
100
AcDbEntity
  8
MODEL
  6
Continuous
100
AcDbCircle
 10
95.4885719787677
 20
401.7674252005723
 30
0.0
 40
1.0
100
AcDbArc
 50
89.9999999992965
 51
179.9999999994984
  0
ARC
  5
17817
330
A
100
AcDbEntity
  8
MODEL
  6
Continuous
100
AcDbCircle
 10
185.515913474768
 20
392.0839602013722
 30
0.0
 40
6.6040107954
100
AcDbArc
 50
261.7831603821002
 51
263.3367573290002
  0
ARC
  5
17818
330
A
100
AcDbEntity
  8
MODEL
  6
Continuous
100
AcDbCircle
 10
185.351722128368
 20
390.9248083575724
 30
0.0
 40
5.4332932128
100
AcDbArc
 50
260.2122257862977
 51
261.7498373839009
  0
ARC
  5
17819
330
A
100
AcDbEntity
  8
MODEL
  6
Continuous
100
AcDbCircle
 10
158.4470528463676
 20
390.1972730779723
 30
0.0
 40
4.6809466022
100
AcDbArc
 50
266.5440600755015
 51
266.7713838442011
  0
ARC
  5
1781A
330
A
100
AcDbEntity
  8
MODEL
  6
Continuous
100
AcDbCircle
 10
181.4885719787677
 20
297.7674252005723
 30
0.0
 40
2.0
100
AcDbArc
 50
180.0
 51
270.0
  0
ARC
  5
1781B
330
A
100
AcDbEntity
  8
MODEL
  6
Continuous
100
AcDbCircle
 10
181.7385719787677
 20
298.7749763273722
 30
0.0
 40
0.5
100
AcDbArc
 50
238.3194862869651
 51
270.0
  0
ARC
  5
1781C
330
A
100
AcDbEntity
  8
MODEL
  6
Continuous
100
AcDbCircle
 10
179.8467067271677
 20
298.7674252005723
 30
0.0
 40
0.5
100
AcDbArc
 50
58.31948628702996
 51
79.43982876232849
  0
ARC
  5
1781D
330
A
100
AcDbEntity
  8
MODEL
  6
Continuous
100
AcDbCircle
 10
159.3100426725678
 20
385.0545990449722
 30
0.0
 40
0.465162326
100
AcDbArc
 50
86.52003064513346
 51
91.15038162529504
  0
ARC
  5
1781E
330
A
100
AcDbEntity
  8
MODEL
  6
Continuous
100
AcDbCircle
 10
157.193481357168
 20
488.7768640755722
 30
0.0
 40
103.2802340742
100
AcDbArc
 50
271.1899403171
 51
271.3890014386
  0
ARC
  5
1781F
330
A
100
AcDbEntity
  8
MODEL
  6
Continuous
100
AcDbCircle
 10
157.4342650337678
 20
478.8505569651725
 30
0.0
 40
93.351007034
100
AcDbArc
 50
271.3889421965002
 51
271.6030288119999
  0
ARC
  5
17820
330
A
100
AcDbEntity
  8
MODEL
  6
Continuous
100
AcDbCircle
 10
157.9896316985679
 20
459.9372999505722
 30
0.0
 40
74.4296204248
100
AcDbArc
 50
271.5829672809999
 51
272.80903185
  0
ARC
  5
17821
330
A
100
AcDbEntity
  8
MODEL
  6
Continuous
100
AcDbCircle
 10
185.4157201037675
 20
451.7397956519724
 30
0.0
 40
66.2810111156
100
AcDbArc
 50
271.0525598655002
 51
271.3020912575002
  0
ARC
  5
17822
330
A
100
AcDbEntity
  8
MODEL
  6
Continuous
100
AcDbCircle
 10
185.7211528407676
 20
438.5570521303721
 30
0.0
 40
53.0947313504
100
AcDbArc
 50
271.2958414790999
 51
271.8772743570003
  0
ARC
  5
17823
330
A
100
AcDbEntity
  8
MODEL
  6
Continuous
100
AcDbCircle
 10
158.4496027531678
 20
434.7205342399725
 30
0.0
 40
49.2096208254
100
AcDbArc
 50
270.6718262134
 51
270.9507121537999
  0
ARC
  5
17824
330
A
100
AcDbEntity
  8
MODEL
  6
Continuous
100
AcDbCircle
 10
185.9204151143678
 20
420.8164797795721
 30
0.0
 40
35.3556594706
100
AcDbArc
 50
271.0044828416994
 51
271.1552976844996
  0
ARC
  5
17825
330
A
100
AcDbEntity
  8
MODEL
  6
Continuous
100
AcDbCircle
 10
186.4132121133676
 20
417.6118592399721
 30
0.0
 40
32.1381094764
100
AcDbArc
 50
271.8673809632002
 51
273.4788729253
  0
ARC
  5
17826
330
A
100
AcDbEntity
  8
MODEL
  6
Continuous
100
AcDbCircle
 10
158.6831216119677
 20
412.9790436359724
 30
0.0
 40
27.4668593474
100
AcDbArc
 50
270.0800694397997
 51
270.6198670115003
  0
ARC
  5
17827
330
A
100
AcDbEntity
  8
MODEL
  6
Continuous
100
AcDbCircle
 10
186.3579149499674
 20
412.7331860535722
 30
0.0
 40
27.2785845826
100
AcDbArc
 50
266.6501027055002
 51
267.2193598541002
  0
ARC
  5
17828
330
A
100
AcDbEntity
  8
MODEL
  6
Continuous
100
AcDbCircle
 10
185.6730552711675
 20
406.2247390515721
 30
0.0
 40
20.7737354536
100
AcDbArc
 50
274.0127394557996
 51
274.7495277965998
  0
ARC
  5
17829
330
A
100
AcDbEntity
  8
MODEL
  6
Continuous
100
AcDbCircle
 10
158.7394242131678
 20
406.0249456753724
 30
0.0
 40
20.5150037622
100
AcDbArc
 50
269.9219103212004
 51
270.2304236419005
  0
ARC
  5
1782A
330
A
100
AcDbEntity
  8
MODEL
  6
Continuous
100
AcDbCircle
 10
167.0724011663675
 20
404.9861682953723
 30
0.0
 40
20.0631521114
100
AcDbArc
 50
253.3197473100001
 51
254.9387372287007
  0
ARC
  5
1782B
330
A
100
AcDbEntity
  8
MODEL
  6
Continuous
100
AcDbCircle
 10
185.9773377607676
 20
405.2412672091722
 30
0.0
 40
19.7808271888
100
AcDbArc
 50
269.4000798036997
 51
269.9734681041996
  0
ARC
  5
1782C
330
A
100
AcDbEntity
  8
MODEL
  6
Continuous
100
AcDbCircle
 10
158.7044742939675
 20
404.6007051271724
 30
0.0
 40
19.0885016164
100
AcDbArc
 50
269.9320786829998
 51
270.0511217126
  0
ARC
  5
1782D
330
A
100
AcDbEntity
  8
MODEL
  6
Continuous
100
AcDbCircle
 10
185.9590138429676
 20
402.1648386357723
 30
0.0
 40
16.7037769724
100
AcDbArc
 50
272.3207685287009
 51
274.0087855085997
  0
ARC
  5
1782E
330
A
100
AcDbEntity
  8
MODEL
  6
Continuous
100
AcDbCircle
 10
185.9450447379678
 20
402.0284859289724
 30
0.0
 40
16.567883955
100
AcDbArc
 50
268.4540332685007
 51
269.3954186972005
  0
ARC
  5
1782F
330
A
100
AcDbEntity
  8
MODEL
  6
Continuous
100
AcDbCircle
 10
186.049402006368
 20
400.1975678781721
 30
0.0
 40
14.7344634784
100
AcDbArc
 50
271.8869829496998
 51
272.2793499313
  0
ARC
  5
17830
330
A
100
AcDbEntity
  8
MODEL
  6
Continuous
100
AcDbCircle
 10
188.985825067568
 20
398.0857138847721
 30
0.0
 40
13.1118965544
100
AcDbArc
 50
250.5214628521987
 51
250.7153117924996
  0
ARC
  5
17831
330
A
100
AcDbEntity
  8
MODEL
  6
Continuous
100
AcDbCircle
 10
188.9411798665674
 20
397.9580647983722
 30
0.0
 40
12.9766653342
100
AcDbArc
 50
250.7152343586996
 51
250.9411884598998
  0
ARC
  5
17832
330
A
100
AcDbEntity
  8
MODEL
  6
Continuous
100
AcDbCircle
 10
188.8934756469677
 20
397.8200210123721
 30
0.0
 40
12.8306113056
100
AcDbArc
 50
250.9412449364012
 51
251.1271254814017
  0
ARC
  5
17833
330
A
100
AcDbEntity
  8
MODEL
  6
Continuous
100
AcDbCircle
 10
188.8329260633678
 20
397.6426900343724
 30
0.0
 40
12.6432279464
100
AcDbArc
 50
251.1268227376999
 51
251.4246241971007
  0
ARC
  5
17834
330
A
100
AcDbEntity
  8
MODEL
  6
Continuous
100
AcDbCircle
 10
188.7557484237678
 20
397.4129348255723
 30
0.0
 40
12.4008566548
100
AcDbArc
 50
251.4244769511003
 51
252.0463992975999
  0
ARC
  5
17835
330
A
100
AcDbEntity
  8
MODEL
  6
Continuous
100
AcDbCircle
 10
188.7084761875677
 20
397.2669532727721
 30
0.0
 40
12.2474119504
100
AcDbArc
 50
252.0462685432994
 51
252.6621802964989
  0
ARC
  5
17836
330
A
100
AcDbEntity
  8
MODEL
  6
Continuous
100
AcDbCircle
 10
188.6655237003675
 20
397.1297739579724
 30
0.0
 40
12.1036654174
100
AcDbArc
 50
252.6627520661005
 51
252.9349148589993
  0
ARC
  5
17837
330
A
100
AcDbEntity
  8
MODEL
  6
Continuous
100
AcDbCircle
 10
188.6313756195678
 20
397.0184423555723
 30
0.0
 40
11.987214499
100
AcDbArc
 50
252.9347880972992
 51
253.2678256416997
  0
ARC
  5
17838
330
A
100
AcDbEntity
  8
MODEL
  6
Continuous
100
AcDbCircle
 10
188.5225830421678
 20
396.6588972321724
 30
0.0
 40
11.611571135
100
AcDbArc
 50
253.2711609769007
 51
253.4409524213989
  0
ARC
  5
17839
330
A
100
AcDbEntity
  8
MODEL
  6
Continuous
100
AcDbCircle
 10
188.5203763831674
 20
396.6514031281724
 30
0.0
 40
11.6037589324
100
AcDbArc
 50
253.440850193802
 51
254.4457498101015
  0
ARC
  5
1783A
330
A
100
AcDbEntity
  8
MODEL
  6
Continuous
100
AcDbCircle
 10
185.7280475805679
 20
393.9464491151721
 30
0.0
 40
8.4785355446
100
AcDbArc
 50
263.373316820397
 51
266.4336061475968
  0
ARC
  5
1783B
330
A
100
AcDbEntity
  8
MODEL
  6
Continuous
100
AcDbCircle
 10
199.4885719787677
 20
-9729.382597581429
 30
0.0
 40
10114.1504594064
100
AcDbArc
 50
89.490376465
 51
90.509623535
  0
ARC
  5
1783C
330
A
100
AcDbEntity
  8
MODEL
  6
Continuous
100
AcDbCircle
 10
234.9107285907676
 20
324.5938539291724
 30
0.0
 40
61.0916638542
100
AcDbArc
 50
88.81106711569991
 51
88.95028830749997
  0
ARC
  5
1783D
330
A
100
AcDbEntity
  8
MODEL
  6
Continuous
100
AcDbCircle
 10
235.3303179885675
 20
345.0856664755722
 30
0.0
 40
40.5955572006
100
AcDbArc
 50
88.2017660133999
 51
88.80303383569998
  0
ARC
  5
1783E
330
A
100
AcDbEntity
  8
MODEL
  6
Continuous
100
AcDbCircle
 10
235.4174531853678
 20
348.2911092629721
 30
0.0
 40
37.3889611408
100
AcDbArc
 50
87.03352954690001
 51
88.1810869270998
  0
ARC
  5
1783F
330
A
100
AcDbEntity
  8
MODEL
  6
Continuous
100
AcDbCircle
 10
240.5551476499678
 20
389.4867856709722
 30
0.0
 40
3.9701783952
100
AcDbArc
 50
273.1859585084994
 51
275.1305807324981
  0
ARC
  5
17840
330
A
100
AcDbEntity
  8
MODEL
  6
Continuous
100
AcDbCircle
 10
217.4885719787677
 20
297.7674252005723
 30
0.0
 40
2.0
100
AcDbArc
 50
270.0
 51
0.0
  0
ARC
  5
17841
330
A
100
AcDbEntity
  8
MODEL
  6
Continuous
100
AcDbCircle
 10
217.2385719787677
 20
298.7749763273722
 30
0.0
 40
0.5
100
AcDbArc
 50
270.0
 51
301.6805137129701
  0
ARC
  5
17842
330
A
100
AcDbEntity
  8
MODEL
  6
Continuous
100
AcDbCircle
 10
219.1304372303676
 20
298.7674252005723
 30
0.0
 40
0.5
100
AcDbArc
 50
95.86639264788377
 51
121.6805137129701
  0
ARC
  5
17843
330
A
100
AcDbEntity
  8
MODEL
  6
Continuous
100
AcDbCircle
 10
242.7191006765675
 20
482.6100246913725
 30
0.0
 40
97.1691129756
100
AcDbArc
 50
265.8083789266
 51
266.1741334493999
  0
ARC
  5
17844
330
A
100
AcDbEntity
  8
MODEL
  6
Continuous
100
AcDbCircle
 10
240.9231286697678
 20
460.7410301973721
 30
0.0
 40
75.2319489322
100
AcDbArc
 50
267.3350888317998
 51
268.0660032429997
  0
ARC
  5
17845
330
A
100
AcDbEntity
  8
MODEL
  6
Continuous
100
AcDbCircle
 10
241.7732956367677
 20
450.0504411753723
 30
0.0
 40
64.5687270142
100
AcDbArc
 50
267.4919895001996
 51
267.7260220295998
  0
ARC
  5
17846
330
A
100
AcDbEntity
  8
MODEL
  6
Continuous
100
AcDbCircle
 10
240.3771907175674
 20
448.6499225485725
 30
0.0
 40
63.128536394
100
AcDbArc
 50
266.5654985752001
 51
267.3198184157
  0
ARC
  5
17847
330
A
100
AcDbEntity
  8
MODEL
  6
Continuous
100
AcDbCircle
 10
240.2152390625675
 20
445.8969756697725
 30
0.0
 40
60.3708319622
100
AcDbArc
 50
266.2202836010002
 51
266.5624033995002
  0
ARC
  5
17848
330
A
100
AcDbEntity
  8
MODEL
  6
Continuous
100
AcDbCircle
 10
240.6161010293677
 20
441.9046454079721
 30
0.0
 40
56.394204184
100
AcDbArc
 50
269.1964036492999
 51
269.5100753279
  0
ARC
  5
17849
330
A
100
AcDbEntity
  8
MODEL
  6
Continuous
100
AcDbCircle
 10
240.2959938947675
 20
432.0639060849724
 30
0.0
 40
46.5497579206
100
AcDbArc
 50
268.6239864841999
 51
269.0252094608998
  0
ARC
  5
1784A
330
A
100
AcDbEntity
  8
MODEL
  6
Continuous
100
AcDbCircle
 10
240.7334800137674
 20
426.6229652581724
 30
0.0
 40
41.1181928718
100
AcDbArc
 50
267.0819299542007
 51
267.5110172062003
  0
ARC
  5
1784B
330
A
100
AcDbEntity
  8
MODEL
  6
Continuous
100
AcDbCircle
 10
240.6482157327678
 20
421.5929055319723
 30
0.0
 40
36.0889605834
100
AcDbArc
 50
267.7181732423002
 51
267.9620107810996
  0
ARC
  5
1784C
330
A
100
AcDbEntity
  8
MODEL
  6
Continuous
100
AcDbCircle
 10
240.3807586909675
 20
414.0172762941725
 30
0.0
 40
28.505827862
100
AcDbArc
 50
269.6106072848
 51
269.8991468920998
  0
ARC
  5
1784D
330
A
100
AcDbEntity
  8
MODEL
  6
Continuous
100
AcDbCircle
 10
213.0645990821677
 20
411.1127870055723
 30
0.0
 40
25.651127193
100
AcDbArc
 50
268.8898341990991
 51
269.3852700019998
  0
ARC
  5
1784E
330
A
100
AcDbEntity
  8
MODEL
  6
Continuous
100
AcDbCircle
 10
212.9416523753677
 20
408.1338778723722
 30
0.0
 40
22.6710983842
100
AcDbArc
 50
269.6670344934002
 51
270.4846780886004
  0
ARC
  5
1784F
330
A
100
AcDbEntity
  8
MODEL
  6
Continuous
100
AcDbCircle
 10
231.2534540705676
 20
407.2029672127724
 30
0.0
 40
22.373595245
100
AcDbArc
 50
286.0049399787002
 51
286.6483162055999
  0
ARC
  5
17850
330
A
100
AcDbEntity
  8
MODEL
  6
Continuous
100
AcDbCircle
 10
240.2580183289675
 20
404.4016975257721
 30
0.0
 40
18.889541742
100
AcDbArc
 50
270.0801843192004
 51
270.6551928216994
  0
ARC
  5
17851
330
A
100
AcDbEntity
  8
MODEL
  6
Continuous
100
AcDbCircle
 10
232.2775411907674
 20
403.6376888129721
 30
0.0
 40
18.6641529362
100
AcDbArc
 50
285.3223119812014
 51
286.0007282113008
  0
ARC
  5
17852
330
A
100
AcDbEntity
  8
MODEL
  6
Continuous
100
AcDbCircle
 10
212.9776185653678
 20
403.8336321711721
 30
0.0
 40
18.3734349088
100
AcDbArc
 50
269.4130170425
 51
270.5662257009
  0
ARC
  5
17853
330
A
100
AcDbEntity
  8
MODEL
  6
Continuous
100
AcDbCircle
 10
213.3893110659679
 20
403.7197830283724
 30
0.0
 40
18.2448690664
100
AcDbArc
 50
272.7918037012
 51
273.1005864411994
  0
ARC
  5
17854
330
A
100
AcDbEntity
  8
MODEL
  6
Continuous
100
AcDbCircle
 10
209.9615810457677
 20
398.1699013821723
 30
0.0
 40
13.201170729
100
AcDbArc
 50
289.3169411572001
 51
289.4777655697992
  0
ARC
  5
17855
330
A
100
AcDbEntity
  8
MODEL
  6
Continuous
100
AcDbCircle
 10
210.0033923639676
 20
398.0505905383724
 30
0.0
 40
13.0747457958
100
AcDbArc
 50
289.1380950758996
 51
289.3169839721996
  0
ARC
  5
17856
330
A
100
AcDbEntity
  8
MODEL
  6
Continuous
100
AcDbCircle
 10
210.0549126555675
 20
397.9020755479723
 30
0.0
 40
12.9175483324
100
AcDbArc
 50
288.9306436298007
 51
289.1381715339999
  0
ARC
  5
17857
330
A
100
AcDbEntity
  8
MODEL
  6
Continuous
100
AcDbCircle
 10
210.1660210175675
 20
397.5770250315724
 30
0.0
 40
12.5740330102
100
AcDbArc
 50
288.3686520403012
 51
288.9322624011016
  0
ARC
  5
17858
330
A
100
AcDbEntity
  8
MODEL
  6
Continuous
100
AcDbCircle
 10
210.2410247175677
 20
397.3522009901724
 30
0.0
 40
12.3370281762
100
AcDbArc
 50
287.8639344337989
 51
288.3671037015004
  0
ARC
  5
17859
330
A
100
AcDbEntity
  8
MODEL
  6
Continuous
100
AcDbCircle
 10
210.2726944891675
 20
397.2539206803723
 30
0.0
 40
12.2337712458
100
AcDbArc
 50
287.4256559193011
 51
287.8639593958002
  0
ARC
  5
1785A
330
A
100
AcDbEntity
  8
MODEL
  6
Continuous
100
AcDbCircle
 10
210.3020316901676
 20
397.1605924917724
 30
0.0
 40
12.135940676
100
AcDbArc
 50
287.168412360802
 51
287.4254576386012
  0
ARC
  5
1785B
330
A
100
AcDbEntity
  8
MODEL
  6
Continuous
100
AcDbCircle
 10
210.3360808645676
 20
397.0501509909722
 30
0.0
 40
12.02036963
100
AcDbArc
 50
286.7328819950001
 51
287.1687378499997
  0
ARC
  5
1785C
330
A
100
AcDbEntity
  8
MODEL
  6
Continuous
100
AcDbCircle
 10
210.4567709511676
 20
396.6515810747724
 30
0.0
 40
11.6039324766
100
AcDbArc
 50
285.5587397949017
 51
286.7285409163998
  0
ARC
  5
1785D
330
A
100
AcDbEntity
  8
MODEL
  6
Continuous
100
AcDbCircle
 10
298.5904957673675
 20
378.9674252005722
 30
0.0
 40
3.0
100
AcDbArc
 50
270.0
 51
329.9999999999037
  0
ARC
  5
1785E
330
A
100
AcDbEntity
  8
MODEL
  6
Continuous
100
AcDbCircle
 10
289.4885719787678
 20
385.0674252005724
 30
0.0
 40
2.5
100
AcDbArc
 50
270.0
 51
90.0
  0
ARC
  5
1785F
330
A
100
AcDbEntity
  8
MODEL
  6
Continuous
100
AcDbCircle
 10
289.4776654907678
 20
385.0457980075722
 30
0.0
 40
2.0283728068
100
AcDbArc
 50
270.0000186698036
 51
3.641208952900859
  0
ARC
  5
17860
330
A
100
AcDbEntity
  8
MODEL
  6
Continuous
100
AcDbCircle
 10
289.4885719787678
 20
385.0072483131723
 30
0.0
 40
2.0
100
AcDbArc
 50
1.793250918500834
 51
90.0
  0
ARC
  5
17861
330
A
100
AcDbEntity
  8
MODEL
  6
Continuous
100
AcDbCircle
 10
289.4885719787678
 20
385.0072483131723
 30
0.0
 40
1.0
100
AcDbArc
 50
0.5830161445040346
 51
90.0
  0
ARC
  5
17862
330
A
100
AcDbEntity
  8
MODEL
  6
Continuous
100
AcDbCircle
 10
315.9885719787678
 20
341.7674252007722
 30
0.0
 40
1.0
100
AcDbArc
 50
0.0
 51
90.00000000080772
  0
ARC
  5
17863
330
A
100
AcDbEntity
  8
MODEL
  6
Continuous
100
AcDbCircle
 10
290.4904002631675
 20
402.2180753571721
 30
0.0
 40
17.2006418468
100
AcDbArc
 50
270.0010079250005
 51
270.4273627099008
  0
ARC
  5
17864
330
A
100
AcDbEntity
  8
MODEL
  6
Continuous
100
AcDbCircle
 10
298.1885719787675
 20
394.9674252005722
 30
0.0
 40
3.0
100
AcDbArc
 50
0.0
 51
90.00000000009554
  0
ARC
  5
17865
330
A
100
AcDbEntity
  8
MODEL
  6
Continuous
100
AcDbCircle
 10
303.4885719787678
 20
401.7674252005723
 30
0.0
 40
1.0
100
AcDbArc
 50
0.0
 51
90.00000000059926
  0
ARC
  5
17866
330
A
100
AcDbEntity
  8
MODEL
  6
Continuous
100
AcDbCircle
 10
417.4422923726764
 20
297.7674252005723
 30
0.0
 40
2.0
100
AcDbArc
 50
180.0
 51
270.0
  0
ARC
  5
17867
330
A
100
AcDbEntity
  8
MODEL
  6
Continuous
100
AcDbCircle
 10
417.6922923726764
 20
298.7749763273722
 30
0.0
 40
0.5
100
AcDbArc
 50
238.3194862870299
 51
270.0
  0
ARC
  5
17868
330
A
100
AcDbEntity
  8
MODEL
  6
Continuous
100
AcDbCircle
 10
415.8004271210766
 20
298.7674252005723
 30
0.0
 40
0.5
100
AcDbArc
 50
58.31948628696508
 51
90.0
  0
ARC
  5
17869
330
A
100
AcDbEntity
  8
MODEL
  6
Continuous
100
AcDbCircle
 10
411.4422923726764
 20
341.7674252003724
 30
0.0
 40
1.0
100
AcDbArc
 50
90.0
 51
179.9999999998046
  0
ARC
  5
1786A
330
A
100
AcDbEntity
  8
MODEL
  6
Continuous
100
AcDbCircle
 10
453.4422923726764
 20
297.7674252005723
 30
0.0
 40
2.0
100
AcDbArc
 50
270.0
 51
0.0
  0
ARC
  5
1786B
330
A
100
AcDbEntity
  8
MODEL
  6
Continuous
100
AcDbCircle
 10
453.1922923726764
 20
298.7749763273722
 30
0.0
 40
0.5
100
AcDbArc
 50
270.0
 51
301.6805137130349
  0
ARC
  5
1786C
330
A
100
AcDbEntity
  8
MODEL
  6
Continuous
100
AcDbCircle
 10
455.0841576242768
 20
298.7674252005723
 30
0.0
 40
0.5
100
AcDbArc
 50
90.0
 51
121.6805137130349
  0
ARC
  5
1786D
330
A
100
AcDbEntity
  8
MODEL
  6
Continuous
100
AcDbCircle
 10
459.4422923726764
 20
341.7674252005723
 30
0.0
 40
1.0
100
AcDbArc
 50
0.0
 51
90.0
  0
ARC
  5
1786E
330
A
100
AcDbEntity
  8
MODEL
  6
Continuous
100
AcDbCircle
 10
423.9422923726764
 20
401.7674252005723
 30
0.0
 40
1.0
100
AcDbArc
 50
90.0
 51
180.0
  0
ARC
  5
1786F
330
A
100
AcDbEntity
  8
MODEL
  6
Continuous
100
AcDbCircle
 10
446.9422923726764
 20
401.7674252005723
 30
0.0
 40
1.0
100
AcDbArc
 50
0.0
 51
90.0
  0
ARC
  5
17870
330
A
100
AcDbEntity
  8
MODEL
  6
Continuous
100
AcDbCircle
 10
586.3442161612768
 20
378.9674252005722
 30
0.0
 40
3.0
100
AcDbArc
 50
270.0
 51
329.9999999999987
  0
ARC
  5
17871
330
A
100
AcDbEntity
  8
MODEL
  6
Continuous
100
AcDbCircle
 10
585.9422923726763
 20
394.9674252005722
 30
0.0
 40
3.0
100
AcDbArc
 50
0.0
 51
90.0
  0
ARC
  5
17872
330
A
100
AcDbEntity
  8
MODEL
  6
Continuous
100
AcDbCircle
 10
589.4422923726763
 20
386.0072483131723
 30
0.0
 40
1.0
100
AcDbArc
 50
0.0
 51
90.0
  0
ARC
  5
17873
330
A
100
AcDbEntity
  8
MODEL
  6
Continuous
100
AcDbCircle
 10
589.4422923726763
 20
384.0174252005723
 30
0.0
 40
1.0
100
AcDbArc
 50
270.0000000002084
 51
359.9999999997981
  0
SPLINE
  5
17874
330
A
100
AcDbEntity
  8
MODEL
  6
Continuous
100
AcDbSpline
210
0.0
220
0.0
230
1.0
 70
     8
 71
     3
 72
    14
 73
    10
 74
     0
 42
0.000000001
 43
0.0000001
 40
0.0
 40
0.0
 40
0.0
 40
0.0
 40
0.3816099874
 40
0.5540427472
 40
0.705043896
 40
0.8290042719
 40
0.9213847985
 40
0.9785655101
 40
1.0
 40
1.0
 40
1.0
 40
1.0
 10
290.4886995237677
 20
385.0174255769721
 30
0.0
 10
290.616315312968
 20
385.0174255767721
 30
0.0
 10
290.8017584423674
 20
385.0191708147722
 30
0.0
 10
291.0370832787676
 20
385.0256708861722
 30
0.0
 10
291.1874492989679
 20
385.0317855055721
 30
0.0
 10
291.3076449677679
 20
385.0396352391723
 30
0.0
 10
291.4045785155677
 20
385.0471066347724
 30
0.0
 10
291.4504696811678
 20
385.0569548063723
 30
0.0
 10
291.4878164597678
 20
385.0626772109724
 30
0.0
 10
291.4875921513677
 20
385.0698416977722
 30
0.0
  0
SPLINE
  5
17875
330
A
100
AcDbEntity
  8
MODEL
  6
Continuous
100
AcDbSpline
210
0.0
220
0.0
230
1.0
 70
     8
 71
     3
 72
    11
 73
     7
 74
     0
 42
0.000000001
 43
0.0000001
 40
0.0
 40
0.0
 40
0.0
 40
0.0
 40
0.0726685585
 40
0.2665334633
 40
0.5797368697
 40
1.0
 40
1.0
 40
1.0
 40
1.0
 10
107.4895517743676
 20
385.0698416825724
 30
0.0
 10
107.4893273779677
 20
385.0626743819721
 30
0.0
 10
107.5266932291675
 20
385.0569535233723
 30
0.0
 10
107.5725840047676
 20
385.0470987339723
 30
0.0
 10
107.6696950225674
 20
385.0396459733722
 30
0.0
 10
107.7400522091676
 20
385.0349597839723
 30
0.0
 10
107.7814661343678
 20
385.0327873157722
 30
0.0
  0
LINE
  5
17876
330
A
100
AcDbEntity
  8
MODEL
  6
Continuous
100
AcDbLine
 10
108.4855961305676
 20
385.0174257601722
 30
0.0
 11
108.488443988968
 21
385.0174255769721
 31
0.0
  0
SPLINE
  5
17877
330
A
100
AcDbEntity
  8
MODEL
  6
Continuous
100
AcDbSpline
210
0.0
220
0.0
230
1.0
 70
     8
 71
     3
 72
    17
 73
    13
 74
     0
 42
0.000000001
 43
0.0000001
 40
0.0
 40
0.0
 40
0.0
 40
0.0
 40
0.3317065098
 40
0.4857507399
 40
0.6141314459
 40
0.6634448402
 40
0.7006651312
 40
0.7255304825
 40
0.7429625724
 40
0.7687924603
 40
0.8136400816
 40
1.0
 40
1.0
 40
1.0
 40
1.0
 10
240.4708497113675
 20
385.7517563177722
 30
0.0
 10
240.5747286115675
 20
385.7341472767721
 30
0.0
 10
240.7274018233675
 20
385.7122438419723
 30
0.0
 10
240.9205365987679
 20
385.6835488155722
 30
0.0
 10
241.0237683773676
 20
385.6639908043724
 30
0.0
 10
241.0900706991675
 20
385.6448240907721
 30
0.0
 10
241.1213448603676
 20
385.6305653727724
 30
0.0
 10
241.1450567959678
 20
385.6159776759721
 30
0.0
 10
241.1447767975674
 20
385.5910183113723
 30
0.0
 10
241.1192404747677
 20
385.5742225763722
 30
0.0
 10
241.0442809567676
 20
385.5461588319724
 30
0.0
 10
240.9691373211678
 20
385.5378513509723
 30
0.0
 10
240.9101844485677
 20
385.5325138845724
 30
0.0
  0
LINE
  5
17878
330
A
100
AcDbEntity
  8
MODEL
  6
Continuous
100
AcDbLine
 10
159.0266008485675
 20
385.5142962719723
 30
0.0
 11
158.9802720833678
 21
385.5137916979724
 31
0.0
  0
SPLINE
  5
17879
330
A
100
AcDbEntity
  8
MODEL
  6
Continuous
100
AcDbSpline
210
0.0
220
0.0
230
1.0
 70
     8
 71
     3
 72
     9
 73
     5
 74
     0
 42
0.000000001
 43
0.0000001
 40
0.0
 40
0.0
 40
0.0
 40
0.0
 40
0.3144295825
 40
1.0
 40
1.0
 40
1.0
 40
1.0
 10
158.6818458233676
 20
385.5122169231722
 30
0.0
 10
158.6295885311675
 20
385.5122794373723
 30
0.0
 10
158.4634010363677
 20
385.5131674299721
 30
0.0
 10
158.2971799781677
 20
385.5173348179724
 30
0.0
 10
158.1834211593678
 20
385.5237562621724
 30
0.0
  0
SPLINE
  5
1787A
330
A
100
AcDbEntity
  8
MODEL
  6
Continuous
100
AcDbSpline
210
0.0
220
0.0
230
1.0
 70
     8
 71
     3
 72
    17
 73
    13
 74
     0
 42
0.000000001
 43
0.0000001
 40
0.0
 40
0.0
 40
0.0
 40
0.0
 40
0.2235397181
 40
0.2709198308
 40
0.299395582
 40
0.3157079568
 40
0.3387773779
 40
0.374845301
 40
0.4231381325
 40
0.5476851034
 40
0.6934784086
 40
1.0
 40
1.0
 40
1.0
 40
1.0
 10
158.1648808797677
 20
385.5248390147723
 30
0.0
 10
158.0819317185674
 20
385.5298515521724
 30
0.0
 10
157.977338578568
 20
385.5336544641722
 30
0.0
 10
157.8749330577676
 20
385.5690077219723
 30
0.0
 10
157.8403978695674
 20
385.5839942387722
 30
0.0
 10
157.8363249717677
 20
385.6132934063723
 30
0.0
 10
157.8636670457677
 20
385.6297527599723
 30
0.0
 10
157.8989456567675
 20
385.6447164295721
 30
0.0
 10
157.9749507823677
 20
385.6653271607722
 30
0.0
 10
158.0909843345676
 20
385.6863072605722
 30
0.0
 10
158.3033067777674
 20
385.7183851367721
 30
0.0
 10
158.4688836565675
 20
385.7471306037723
 30
0.0
 10
158.5810462531678
 20
385.7672275715722
 30
0.0
  0
SPLINE
  5
1787B
330
A
100
AcDbEntity
  8
MODEL
  6
Continuous
100
AcDbSpline
210
0.0
220
0.0
230
1.0
 70
     8
 71
     3
 72
     9
 73
     5
 74
     0
 42
0.000000001
 43
0.0000001
 40
0.0
 40
0.0
 40
0.0
 40
0.0
 40
0.2784167
 40
1.0
 40
1.0
 40
1.0
 40
1.0
 10
238.6402385273678
 20
385.5580882327724
 30
0.0
 10
238.5206899299679
 20
385.5642165689724
 30
0.0
 10
238.0914143255678
 20
385.5883421931724
 30
0.0
 10
237.6622302107676
 20
385.6141187229721
 30
0.0
 10
237.3523898145679
 20
385.6299688523724
 30
0.0
  0
SPLINE
  5
1787C
330
A
100
AcDbEntity
  8
MODEL
  6
Continuous
100
AcDbSpline
210
0.0
220
0.0
230
1.0
 70
     8
 71
     3
 72
     9
 73
     5
 74
     0
 42
0.000000001
 43
0.0000001
 40
0.0
 40
0.0
 40
0.0
 40
0.0
 40
0.3754982244
 40
1.0
 40
1.0
 40
1.0
 40
1.0
 10
211.9757910587678
 20
385.4884065055724
 30
0.0
 10
211.7001080081678
 20
385.5026475427724
 30
0.0
 10
210.9669538201675
 20
385.5570278733724
 30
0.0
 10
210.2346997005676
 20
385.6286689455724
 30
0.0
 10
209.7758811619675
 20
385.6449597139723
 30
0.0
  0
SPLINE
  5
1787D
330
A
100
AcDbEntity
  8
MODEL
  6
Continuous
100
AcDbSpline
210
0.0
220
0.0
230
1.0
 70
     8
 71
     3
 72
     9
 73
     5
 74
     0
 42
0.000000001
 43
0.0000001
 40
0.0
 40
0.0
 40
0.0
 40
0.0
 40
0.2406783225
 40
1.0
 40
1.0
 40
1.0
 40
1.0
 10
209.7758811619675
 20
385.6449597139723
 30
0.0
 10
209.7304336371677
 20
385.6465733697723
 30
0.0
 10
209.5415895447678
 20
385.6527352131724
 30
0.0
 10
209.3528004839678
 20
385.6618758843724
 30
0.0
 10
209.2097104289674
 20
385.6723625881722
 30
0.0
  0
SPLINE
  5
1787E
330
A
100
AcDbEntity
  8
MODEL
  6
Continuous
100
AcDbSpline
210
0.0
220
0.0
230
1.0
 70
     8
 71
     3
 72
    14
 73
    10
 74
     0
 42
0.000000001
 43
0.0000001
 40
0.0
 40
0.0
 40
0.0
 40
0.0
 40
0.3645376751
 40
0.5390492461
 40
0.5969029221
 40
0.6180131672
 40
0.6639565316
 40
0.7510569736
 40
1.0
 40
1.0
 40
1.0
 40
1.0
 10
184.428066472568
 20
385.5706010991722
 30
0.0
 10
184.3632670519679
 20
385.5818088829724
 30
0.0
 10
184.2635519229676
 20
385.5980894611721
 30
0.0
 10
184.1677575717677
 20
385.6272193849724
 30
0.0
 10
184.1158194131677
 20
385.6394881567724
 30
0.0
 10
184.1112611223676
 20
385.6632915903723
 30
0.0
 10
184.0852410935677
 20
385.6783182287724
 30
0.0
 10
184.0282107811677
 20
385.7135576993724
 30
0.0
 10
183.9740061113677
 20
385.7429452573723
 30
0.0
 10
183.9360314055676
 20
385.7669182367724
 30
0.0
  0
SPLINE
  5
1787F
330
A
100
AcDbEntity
  8
MODEL
  6
Continuous
100
AcDbSpline
210
0.0
220
0.0
230
1.0
 70
     8
 71
     3
 72
     9
 73
     5
 74
     0
 42
0.000000001
 43
0.0000001
 40
0.0
 40
0.0
 40
0.0
 40
0.0
 40
0.389179814
 40
1.0
 40
1.0
 40
1.0
 40
1.0
 10
189.3591553791676
 20
385.6597236989724
 30
0.0
 10
189.2394890813677
 20
385.6640558961723
 30
0.0
 10
188.931520632968
 20
385.6709012069721
 30
0.0
 10
188.6246504951678
 20
385.6413334641724
 30
0.0
 10
188.437612330768
 20
385.6229435901721
 30
0.0
  0
SPLINE
  5
17880
330
A
100
AcDbEntity
  8
MODEL
  6
Continuous
100
AcDbSpline
210
0.0
220
0.0
230
1.0
 70
     8
 71
     3
 72
     9
 73
     5
 74
     0
 42
0.000000001
 43
0.0000001
 40
0.0
 40
0.0
 40
0.0
 40
0.0
 40
0.1992211481
 40
1.0
 40
1.0
 40
1.0
 40
1.0
 10
188.437612330768
 20
385.6229435901721
 30
0.0
 10
188.3682639025674
 20
385.6161251483724
 30
0.0
 10
188.0203089839675
 20
385.5805056129722
 30
0.0
 10
187.6722595511674
 20
385.5454382263724
 30
0.0
 10
187.3931204485676
 20
385.5223367637722
 30
0.0
  0
SPLINE
  5
17881
330
A
100
AcDbEntity
  8
MODEL
  6
Continuous
100
AcDbSpline
210
0.0
220
0.0
230
1.0
 70
     8
 71
     3
 72
     9
 73
     5
 74
     0
 42
0.000000001
 43
0.0000001
 40
0.0
 40
0.0
 40
0.0
 40
0.0
 40
0.2058514066
 40
1.0
 40
1.0
 40
1.0
 40
1.0
 10
240.7757975209676
 20
385.5227435263721
 30
0.0
 10
240.7551124203679
 20
385.5215767029724
 30
0.0
 10
240.6545891389674
 20
385.5165683607723
 30
0.0
 10
240.5539423581677
 20
385.5143421977722
 30
0.0
 10
240.4740206685675
 20
385.5133908199721
 30
0.0
  0
SPLINE
  5
17882
330
A
100
AcDbEntity
  8
MODEL
  6
Continuous
100
AcDbSpline
210
0.0
220
0.0
230
1.0
 70
     8
 71
     3
 72
    13
 73
     9
 74
     0
 42
0.000000001
 43
0.0000001
 40
0.0
 40
0.0
 40
0.0
 40
0.0
 40
0.0148647653
 40
0.0508447882
 40
0.1112896541
 40
0.2002519982
 40
0.4927719984
 40
1.0
 40
1.0
 40
1.0
 40
1.0
 10
200.5818080451678
 20
385.3961951785722
 30
0.0
 10
200.5819961267676
 20
385.3907451549724
 30
0.0
 10
200.559548761768
 20
385.3808880865721
 30
0.0
 10
200.5243425161676
 20
385.3729928151721
 30
0.0
 10
200.4544172435677
 20
385.3622263053724
 30
0.0
 10
200.2948348693677
 20
385.3468458909724
 30
0.0
 10
199.9674135483675
 20
385.3300378573724
 30
0.0
 10
199.6746529709677
 20
385.3288002009723
 30
0.0
 10
199.4885719787677
 20
385.3288008219724
 30
0.0
  0
SPLINE
  5
17883
330
A
100
AcDbEntity
  8
MODEL
  6
Continuous
100
AcDbSpline
210
0.0
220
0.0
230
1.0
 70
     8
 71
     3
 72
     9
 73
     5
 74
     0
 42
0.000000001
 43
0.0000001
 40
0.0
 40
0.0
 40
0.0
 40
0.0
 40
0.2839942988
 40
1.0
 40
1.0
 40
1.0
 40
1.0
 10
212.5676126969676
 20
385.4664747793722
 30
0.0
 10
212.4540423963678
 20
385.4686675703724
 30
0.0
 10
212.0541991141677
 20
385.4792685535723
 30
0.0
 10
211.6544697777678
 20
385.4938330961724
 30
0.0
 10
211.3683600953678
 20
385.5064222873722
 30
0.0
  0
SPLINE
  5
17884
330
A
100
AcDbEntity
  8
MODEL
  6
Continuous
100
AcDbSpline
210
0.0
220
0.0
230
1.0
 70
     8
 71
     3
 72
     9
 73
     5
 74
     0
 42
0.000000001
 43
0.0000001
 40
0.0
 40
0.0
 40
0.0
 40
0.0
 40
0.3222012991
 40
1.0
 40
1.0
 40
1.0
 40
1.0
 10
211.3683600953678
 20
385.5064222873722
 30
0.0
 10
211.1989980583676
 20
385.5138744329722
 30
0.0
 10
210.6735168093679
 20
385.5397373475721
 30
0.0
 10
210.1483845211674
 20
385.5771290135723
 30
0.0
 10
209.7938160573677
 20
385.6153556257722
 30
0.0
  0
SPLINE
  5
17885
330
A
100
AcDbEntity
  8
MODEL
  6
Continuous
100
AcDbSpline
210
0.0
220
0.0
230
1.0
 70
     8
 71
     3
 72
     9
 73
     5
 74
     0
 42
0.000000001
 43
0.0000001
 40
0.0
 40
0.0
 40
0.0
 40
0.0
 40
0.279096101
 40
1.0
 40
1.0
 40
1.0
 40
1.0
 10
209.7938160573677
 20
385.6153556257722
 30
0.0
 10
209.7367162339675
 20
385.6215116521722
 30
0.0
 10
209.5322514139676
 20
385.6447462263724
 30
0.0
 10
209.3283742399677
 20
385.6728298795724
 30
0.0
 10
209.1815415857678
 20
385.6939460291724
 30
0.0
  0
SPLINE
  5
17886
330
A
100
AcDbEntity
  8
MODEL
  6
Continuous
100
AcDbSpline
210
0.0
220
0.0
230
1.0
 70
     8
 71
     3
 72
     9
 73
     5
 74
     0
 42
0.000000001
 43
0.0000001
 40
0.0
 40
0.0
 40
0.0
 40
0.0
 40
0.2411133154
 40
1.0
 40
1.0
 40
1.0
 40
1.0
 10
209.1815415857678
 20
385.6939460291724
 30
0.0
 10
209.1390922899678
 20
385.7000507043724
 30
0.0
 10
208.9630734289677
 20
385.7256167311722
 30
0.0
 10
208.7868805483677
 20
385.7500261129724
 30
0.0
 10
208.6530033635677
 20
385.7672500277724
 30
0.0
  0
SPLINE
  5
17887
330
A
100
AcDbEntity
  8
MODEL
  6
Continuous
100
AcDbSpline
210
0.0
220
0.0
230
1.0
 70
     8
 71
     3
 72
     9
 73
     5
 74
     0
 42
0.000000001
 43
0.0000001
 40
0.0
 40
0.0
 40
0.0
 40
0.0
 40
0.5000894366
 40
1.0
 40
1.0
 40
1.0
 40
1.0
 10
212.7893922141676
 20
385.4631362113722
 30
0.0
 10
212.7918080179675
 20
385.4635475583722
 30
0.0
 10
212.7966995587677
 20
385.4639698073722
 30
0.0
 10
212.8015971521679
 20
385.4641959137721
 30
0.0
 10
212.8040467363676
 20
385.4641723193721
 30
0.0
  0
SPLINE
  5
17888
330
A
100
AcDbEntity
  8
MODEL
  6
Continuous
100
AcDbSpline
210
0.0
220
0.0
230
1.0
 70
     8
 71
     3
 72
     9
 73
     5
 74
     0
 42
0.000000001
 43
0.0000001
 40
0.0
 40
0.0
 40
0.0
 40
0.0
 40
0.5174476224
 40
1.0
 40
1.0
 40
1.0
 40
1.0
 10
213.1591930315677
 20
385.4630650447722
 30
0.0
 10
213.1563434075675
 20
385.4634907159722
 30
0.0
 10
213.1507816223676
 20
385.4639077077724
 30
0.0
 10
213.1452148347676
 20
385.4641027911721
 30
0.0
 10
213.1425280815675
 20
385.4640712319723
 30
0.0
  0
SPLINE
  5
17889
330
A
100
AcDbEntity
  8
MODEL
  6
Continuous
100
AcDbSpline
210
0.0
220
0.0
230
1.0
 70
     8
 71
     3
 72
    11
 73
     7
 74
     0
 42
0.000000001
 43
0.0000001
 40
0.0
 40
0.0
 40
0.0
 40
0.0
 40
0.0667796409
 40
0.1648085488
 40
0.3976010233
 40
1.0
 40
1.0
 40
1.0
 40
1.0
 10
215.4291904147677
 20
385.7672481431721
 30
0.0
 10
215.4156667155676
 20
385.7460299861722
 30
0.0
 10
215.4001542713679
 20
385.6825232523722
 30
0.0
 10
215.2627176935677
 20
385.5990589257723
 30
0.0
 10
214.9183634713679
 20
385.5378414901724
 30
0.0
 10
214.6027995921679
 20
385.5139130543721
 30
0.0
 10
214.3761583969678
 20
385.5016223199722
 30
0.0
  0
SPLINE
  5
1788A
330
A
100
AcDbEntity
  8
MODEL
  6
Continuous
100
AcDbSpline
210
0.0
220
0.0
230
1.0
 70
     8
 71
     3
 72
     9
 73
     5
 74
     0
 42
0.000000001
 43
0.0000001
 40
0.0
 40
0.0
 40
0.0
 40
0.0
 40
0.2068439519
 40
1.0
 40
1.0
 40
1.0
 40
1.0
 10
214.2779618543678
 20
385.4965685197724
 30
0.0
 10
214.2008803987679
 20
385.4928049163722
 30
0.0
 10
213.8281143219675
 20
385.4770205159721
 30
0.0
 10
213.4550978343678
 20
385.4665876323724
 30
0.0
 10
213.1591930315677
 20
385.4630650447722
 30
0.0
  0
SPLINE
  5
1788B
330
A
100
AcDbEntity
  8
MODEL
  6
Continuous
100
AcDbSpline
210
0.0
220
0.0
230
1.0
 70
     8
 71
     3
 72
     9
 73
     5
 74
     0
 42
0.000000001
 43
0.0000001
 40
0.0
 40
0.0
 40
0.0
 40
0.0
 40
0.2758175859
 40
1.0
 40
1.0
 40
1.0
 40
1.0
 10
109.4885717703679
 20
384.0174252005723
 30
0.0
 10
109.4880597173674
 20
383.9524138691723
 30
0.0
 10
109.4870514601676
 20
383.7167085123723
 30
0.0
 10
109.4883725491678
 20
383.4809596195722
 30
0.0
 10
109.492777316968
 20
383.3103184133721
 30
0.0
  0
SPLINE
  5
1788C
330
A
100
AcDbEntity
  8
MODEL
  6
Continuous
100
AcDbSpline
210
0.0
220
0.0
230
1.0
 70
     8
 71
     3
 72
    11
 73
     7
 74
     0
 42
0.000000001
 43
0.0000001
 40
0.0
 40
0.0
 40
0.0
 40
0.0
 40
0.4225221176
 40
0.7370575879
 40
0.9312059507
 40
1.0
 40
1.0
 40
1.0
 40
1.0
 10
109.492777316968
 20
383.3103184133721
 30
0.0
 10
109.4938787647676
 20
383.2688657855724
 30
0.0
 10
109.4970827451676
 20
383.1988320631723
 30
0.0
 10
109.4985699081677
 20
383.1004052973723
 30
0.0
 10
109.5088026289673
 20
383.0566834757723
 30
0.0
 10
109.5073233735676
 20
383.0174252005723
 30
0.0
 10
109.5140749743674
 20
383.0174252005723
 30
0.0
  0
SPLINE
  5
1788D
330
A
100
AcDbEntity
  8
MODEL
  6
Continuous
100
AcDbSpline
210
0.0
220
0.0
230
1.0
 70
     8
 71
     3
 72
    12
 73
     8
 74
     0
 42
0.000000001
 43
0.0000001
 40
0.0
 40
0.0
 40
0.0
 40
0.0
 40
0.5009384789
 40
0.6679748705
 40
0.7494074556
 40
0.8712435855
 40
1.0
 40
1.0
 40
1.0
 40
1.0
 10
215.0212541319675
 20
385.7670813839724
 30
0.0
 10
214.9886511285677
 20
385.7483001865724
 30
0.0
 10
214.9417153355676
 20
385.7224600481724
 30
0.0
 10
214.8982849831679
 20
385.6978360893723
 30
0.0
 10
214.8689152349676
 20
385.6751768143724
 30
0.0
 10
214.9045063885674
 20
385.6647221681724
 30
0.0
 10
214.9305656291677
 20
385.6703221569724
 30
0.0
 10
214.9316227791674
 20
385.6607091757724
 30
0.0
  0
SPLINE
  5
1788E
330
A
100
AcDbEntity
  8
MODEL
  6
Continuous
100
AcDbSpline
210
0.0
220
0.0
230
1.0
 70
     8
 71
     3
 72
     8
 73
     4
 74
     0
 42
0.000000001
 43
0.0000001
 40
0.0
 40
0.0
 40
0.0
 40
0.0
 40
1.0
 40
1.0
 40
1.0
 40
1.0
 10
185.0346144377679
 20
385.4867210367722
 30
0.0
 10
185.087047361568
 20
385.4886230991723
 30
0.0
 10
185.1396423211679
 20
385.4884026159722
 30
0.0
 10
185.1920088371676
 20
385.4851503323721
 30
0.0
  0
SPLINE
  5
1788F
330
A
100
AcDbEntity
  8
MODEL
  6
Continuous
100
AcDbSpline
210
0.0
220
0.0
230
1.0
 70
     8
 71
     3
 72
     8
 73
     4
 74
     0
 42
0.000000001
 43
0.0000001
 40
0.0
 40
0.0
 40
0.0
 40
0.0
 40
1.0
 40
1.0
 40
1.0
 40
1.0
 10
186.6332676593675
 20
385.4699690647723
 30
0.0
 10
186.6013823611675
 20
385.4723707951721
 30
0.0
 10
186.569309253368
 20
385.4722189107724
 30
0.0
 10
186.5373490295675
 20
385.4712266179724
 30
0.0
  0
SPLINE
  5
17890
330
A
100
AcDbEntity
  8
MODEL
  6
Continuous
100
AcDbSpline
210
0.0
220
0.0
230
1.0
 70
     8
 71
     3
 72
     9
 73
     5
 74
     0
 42
0.000000001
 43
0.0000001
 40
0.0
 40
0.0
 40
0.0
 40
0.0
 40
0.2951202027
 40
1.0
 40
1.0
 40
1.0
 40
1.0
 10
157.7855327761677
 20
385.7672476887723
 30
0.0
 10
157.7607478755677
 20
385.7596997215724
 30
0.0
 10
157.6774413561676
 20
385.7331442609722
 30
0.0
 10
157.5909028151679
 20
385.7088402919724
 30
0.0
 10
157.5389493939675
 20
385.6752219685724
 30
0.0
  0
SPLINE
  5
17891
330
A
100
AcDbEntity
  8
MODEL
  6
Continuous
100
AcDbSpline
210
0.0
220
0.0
230
1.0
 70
     8
 71
     3
 72
     8
 73
     4
 74
     0
 42
0.000000001
 43
0.0000001
 40
0.0
 40
0.0
 40
0.0
 40
0.0
 40
1.0
 40
1.0
 40
1.0
 40
1.0
 10
157.5389493939675
 20
385.6752219685724
 30
0.0
 10
157.5288991189678
 20
385.6687185779723
 30
0.0
 10
157.5183751673677
 20
385.6611064367723
 30
0.0
 10
157.5129731159678
 20
385.6504237425723
 30
0.0
  0
SPLINE
  5
17892
330
A
100
AcDbEntity
  8
MODEL
  6
Continuous
100
AcDbSpline
210
0.0
220
0.0
230
1.0
 70
     8
 71
     3
 72
     9
 73
     5
 74
     0
 42
0.000000001
 43
0.0000001
 40
0.0
 40
0.0
 40
0.0
 40
0.0
 40
0.5113293002
 40
1.0
 40
1.0
 40
1.0
 40
1.0
 10
157.5129731159678
 20
385.6504237425723
 30
0.0
 10
157.5117430199676
 20
385.6479911967723
 30
0.0
 10
157.5099651135675
 20
385.6428279801723
 30
0.0
 10
157.5104326899678
 20
385.6373368867723
 30
0.0
 10
157.5111673433676
 20
385.6348375347724
 30
0.0
  0
SPLINE
  5
17893
330
A
100
AcDbEntity
  8
MODEL
  6
Continuous
100
AcDbSpline
210
0.0
220
0.0
230
1.0
 70
     8
 71
     3
 72
     8
 73
     4
 74
     0
 42
0.000000001
 43
0.0000001
 40
0.0
 40
0.0
 40
0.0
 40
0.0
 40
1.0
 40
1.0
 40
1.0
 40
1.0
 10
157.5111673433676
 20
385.6348375347724
 30
0.0
 10
157.5139884605674
 20
385.6252398593723
 30
0.0
 10
157.5231076069678
 20
385.6181627197722
 30
0.0
 10
157.5315711249679
 20
385.6128295273724
 30
0.0
  0
SPLINE
  5
17894
330
A
100
AcDbEntity
  8
MODEL
  6
Continuous
100
AcDbSpline
210
0.0
220
0.0
230
1.0
 70
     8
 71
     3
 72
    11
 73
     7
 74
     0
 42
0.000000001
 43
0.0000001
 40
0.0
 40
0.0
 40
0.0
 40
0.0
 40
0.0721611001
 40
0.1981158721
 40
0.4332128165
 40
1.0
 40
1.0
 40
1.0
 40
1.0
 10
157.5315711249679
 20
385.6128295273724
 30
0.0
 10
157.5557834375678
 20
385.5975724063724
 30
0.0
 10
157.6331084639674
 20
385.5762481693721
 30
0.0
 10
157.8007853777677
 20
385.5432265847724
 30
0.0
 10
158.1689531723678
 20
385.5126824059721
 30
0.0
 10
158.4866813303675
 20
385.5102819169724
 30
0.0
 10
158.7114638717677
 20
385.5099609671722
 30
0.0
  0
SPLINE
  5
17895
330
A
100
AcDbEntity
  8
MODEL
  6
Continuous
100
AcDbSpline
210
0.0
220
0.0
230
1.0
 70
     8
 71
     3
 72
     9
 73
     5
 74
     0
 42
0.000000001
 43
0.0000001
 40
0.0
 40
0.0
 40
0.0
 40
0.0
 40
0.2649188965
 40
1.0
 40
1.0
 40
1.0
 40
1.0
 10
158.8219281807674
 20
385.5101078145723
 30
0.0
 10
158.8642486993677
 20
385.5102752675721
 30
0.0
 10
159.0239961285675
 20
385.5113588139724
 30
0.0
 10
159.183727400568
 20
385.5141860511724
 30
0.0
 10
159.3011276487678
 20
385.5168007593724
 30
0.0
  0
LINE
  5
17896
330
A
100
AcDbEntity
  8
MODEL
  6
Continuous
100
AcDbLine
 10
159.3011276487678
 20
385.5168007593724
 30
0.0
 11
159.338288600568
 21
385.5176440965721
 31
0.0
  0
SPLINE
  5
17897
330
A
100
AcDbEntity
  8
MODEL
  6
Continuous
100
AcDbSpline
210
0.0
220
0.0
230
1.0
 70
     8
 71
     3
 72
     9
 73
     5
 74
     0
 42
0.000000001
 43
0.0000001
 40
0.0
 40
0.0
 40
0.0
 40
0.0
 40
0.2819823952
 40
1.0
 40
1.0
 40
1.0
 40
1.0
 10
161.6372202215676
 20
385.5971123361724
 30
0.0
 10
161.8837086255676
 20
385.6094371901723
 30
0.0
 10
162.7575875301678
 20
385.6584047275724
 30
0.0
 10
163.6303161909678
 20
385.7249989635724
 30
0.0
 10
164.2572562379679
 20
385.7681404163724
 30
0.0
  0
SPLINE
  5
17898
330
A
100
AcDbEntity
  8
MODEL
  6
Continuous
100
AcDbSpline
210
0.0
220
0.0
230
1.0
 70
     8
 71
     3
 72
    11
 73
     7
 74
     0
 42
0.000000001
 43
0.0000001
 40
0.0
 40
0.0
 40
0.0
 40
0.0
 40
0.220809976
 40
0.4016074369
 40
0.620974555
 40
1.0
 40
1.0
 40
1.0
 40
1.0
 10
183.5578584703677
 20
385.7684004783721
 30
0.0
 10
183.5746940949676
 20
385.7571872227724
 30
0.0
 10
183.6048677647678
 20
385.7348303491723
 30
0.0
 10
183.6355120055678
 20
385.6862995029724
 30
0.0
 10
183.6911847925678
 20
385.6393975633721
 30
0.0
 10
183.7444754165678
 20
385.6223118219722
 30
0.0
 10
183.7778361841675
 20
385.6126850531721
 30
0.0
  0
SPLINE
  5
17899
330
A
100
AcDbEntity
  8
MODEL
  6
Continuous
100
AcDbSpline
210
0.0
220
0.0
230
1.0
 70
     8
 71
     3
 72
     9
 73
     5
 74
     0
 42
0.000000001
 43
0.0000001
 40
0.0
 40
0.0
 40
0.0
 40
0.0
 40
0.1594861274
 40
1.0
 40
1.0
 40
1.0
 40
1.0
 10
183.7778361841675
 20
385.6126850531721
 30
0.0
 10
183.805436359568
 20
385.6047205929723
 30
0.0
 10
183.9811326783675
 20
385.5641525705722
 30
0.0
 10
184.1611604251676
 20
385.5471261527721
 30
0.0
 10
184.3119518739678
 20
385.5336577081721
 30
0.0
  0
SPLINE
  5
1789A
330
A
100
AcDbEntity
  8
MODEL
  6
Continuous
100
AcDbSpline
210
0.0
220
0.0
230
1.0
 70
     8
 71
     3
 72
     9
 73
     5
 74
     0
 42
0.000000001
 43
0.0000001
 40
0.0
 40
0.0
 40
0.0
 40
0.0
 40
0.2172020867
 40
1.0
 40
1.0
 40
1.0
 40
1.0
 10
184.3119518739678
 20
385.5336577081721
 30
0.0
 10
184.3446305099674
 20
385.5307389059723
 30
0.0
 10
184.4951525679676
 20
385.5180766895724
 30
0.0
 10
184.6458938963675
 20
385.5081411233721
 30
0.0
 10
184.7639336045679
 20
385.5012121937722
 30
0.0
  0
SPLINE
  5
1789B
330
A
100
AcDbEntity
  8
MODEL
  6
Continuous
100
AcDbSpline
210
0.0
220
0.0
230
1.0
 70
     8
 71
     3
 72
     9
 73
     5
 74
     0
 42
0.000000001
 43
0.0000001
 40
0.0
 40
0.0
 40
0.0
 40
0.0
 40
0.2223418971
 40
1.0
 40
1.0
 40
1.0
 40
1.0
 10
185.0346175297678
 20
385.4848225337722
 30
0.0
 10
185.0689481531678
 20
385.4830880597723
 30
0.0
 10
185.2233783267677
 20
385.4758150743723
 30
0.0
 10
185.3778775535677
 20
385.4698802097721
 30
0.0
 10
185.4980608621677
 20
385.4666326461723
 30
0.0
  0
SPLINE
  5
1789C
330
A
100
AcDbEntity
  8
MODEL
  6
Continuous
100
AcDbSpline
210
0.0
220
0.0
230
1.0
 70
     8
 71
     3
 72
     9
 73
     5
 74
     0
 42
0.000000001
 43
0.0000001
 40
0.0
 40
0.0
 40
0.0
 40
0.0
 40
0.2614175344
 40
1.0
 40
1.0
 40
1.0
 40
1.0
 10
185.9681778743677
 20
385.4604421411722
 30
0.0
 10
186.0180283835676
 20
385.4604095961721
 30
0.0
 10
186.2087222449678
 20
385.4610074983722
 30
0.0
 10
186.3994014481679
 20
385.4637779321724
 30
0.0
 10
186.5402222691678
 20
385.4662535327722
 30
0.0
  0
SPLINE
  5
1789D
330
A
100
AcDbEntity
  8
MODEL
  6
Continuous
100
AcDbSpline
210
0.0
220
0.0
230
1.0
 70
     8
 71
     3
 72
     9
 73
     5
 74
     0
 42
0.000000001
 43
0.0000001
 40
0.0
 40
0.0
 40
0.0
 40
0.0
 40
0.3604926606
 40
1.0
 40
1.0
 40
1.0
 40
1.0
 10
188.3633682203677
 20
385.5329725405724
 30
0.0
 10
188.5480420483678
 20
385.5442351509721
 30
0.0
 10
189.0601147307676
 20
385.5789167723723
 30
0.0
 10
189.5700640449678
 20
385.6436870727721
 30
0.0
 10
189.8933908193677
 20
385.7001314279722
 30
0.0
  0
SPLINE
  5
1789E
330
A
100
AcDbEntity
  8
MODEL
  6
Continuous
100
AcDbSpline
210
0.0
220
0.0
230
1.0
 70
     8
 71
     3
 72
     9
 73
     5
 74
     0
 42
0.000000001
 43
0.0000001
 40
0.0
 40
0.0
 40
0.0
 40
0.0
 40
0.2404547844
 40
1.0
 40
1.0
 40
1.0
 40
1.0
 10
189.8933908193677
 20
385.7001314279722
 30
0.0
 10
189.9261951619679
 20
385.7058582037721
 30
0.0
 10
190.0625773569678
 20
385.7299111961722
 30
0.0
 10
190.1991529207676
 20
385.7529858717724
 30
0.0
 10
190.3031969167678
 20
385.7684642663723
 30
0.0
  0
LINE
  5
1789F
330
A
100
AcDbEntity
  8
MODEL
  6
Continuous
100
AcDbLine
 10
235.0837583211674
 20
385.7404977717724
 30
0.0
 11
235.4875777499676
 21
385.7103275957724
 31
0.0
  0
LINE
  5
178A0
330
A
100
AcDbEntity
  8
MODEL
  6
Continuous
100
AcDbLine
 10
235.4875777499676
 20
385.7103275957724
 30
0.0
 11
235.6167819377675
 21
385.7008219033723
 31
0.0
  0
LINE
  5
178A1
330
A
100
AcDbEntity
  8
MODEL
  6
Continuous
100
AcDbLine
 10
238.3841856871678
 20
385.5519358505724
 30
0.0
 11
238.6181873107676
 21
385.5441351521724
 31
0.0
  0
SPLINE
  5
178A2
330
A
100
AcDbEntity
  8
MODEL
  6
Continuous
100
AcDbSpline
210
0.0
220
0.0
230
1.0
 70
     8
 71
     3
 72
     9
 73
     5
 74
     0
 42
0.000000001
 43
0.0000001
 40
0.0
 40
0.0
 40
0.0
 40
0.0
 40
0.2410436644
 40
1.0
 40
1.0
 40
1.0
 40
1.0
 10
238.6181873107676
 20
385.5441351521724
 30
0.0
 10
238.6631761581676
 20
385.5426709799723
 30
0.0
 10
238.8498191987679
 20
385.5366414741724
 30
0.0
 10
239.0364773131674
 20
385.5309983097724
 30
0.0
 10
239.1781639343677
 20
385.5275716929722
 30
0.0
  0
LINE
  5
178A3
330
A
100
AcDbEntity
  8
MODEL
  6
Continuous
100
AcDbLine
 10
239.5040668979678
 20
385.5208849743723
 30
0.0
 11
239.6346520801677
 21
385.5187638859724
 31
0.0
  0
LINE
  5
178A4
330
A
100
AcDbEntity
  8
MODEL
  6
Continuous
100
AcDbLine
 10
239.6346520801677
 20
385.5187638859724
 30
0.0
 11
239.8251755665675
 21
385.5159878387723
 31
0.0
  0
SPLINE
  5
178A5
330
A
100
AcDbEntity
  8
MODEL
  6
Continuous
100
AcDbSpline
210
0.0
220
0.0
230
1.0
 70
     8
 71
     3
 72
     9
 73
     5
 74
     0
 42
0.000000001
 43
0.0000001
 40
0.0
 40
0.0
 40
0.0
 40
0.0
 40
0.2758176608
 40
1.0
 40
1.0
 40
1.0
 40
1.0
 10
289.4831441773678
 20
384.0174252005723
 30
0.0
 10
289.4829480805676
 20
383.9524143761721
 30
0.0
 10
289.4825088241674
 20
383.7167106791724
 30
0.0
 10
289.4838772737676
 20
383.4810093543724
 30
0.0
 10
289.4844820997678
 20
383.3103182917721
 30
0.0
  0
SPLINE
  5
178A6
330
A
100
AcDbEntity
  8
MODEL
  6
Continuous
100
AcDbSpline
210
0.0
220
0.0
230
1.0
 70
     8
 71
     3
 72
    11
 73
     7
 74
     0
 42
0.000000001
 43
0.0000001
 40
0.0
 40
0.0
 40
0.0
 40
0.0
 40
0.4224573799
 40
0.7367034404
 40
0.9300158507
 40
1.0
 40
1.0
 40
1.0
 40
1.0
 10
289.4844820997678
 20
383.3103182917721
 30
0.0
 10
289.4849209537675
 20
383.2688749383723
 30
0.0
 10
289.4847668905679
 20
383.1986831037722
 30
0.0
 10
289.4876380895677
 20
383.1009086231724
 30
0.0
 10
289.4856321647678
 20
383.0559541073724
 30
0.0
 10
289.4845313677675
 20
383.0174252005723
 30
0.0
 10
289.4776654907678
 20
383.0174252005723
 30
0.0
  0
SPLINE
  5
178A7
330
A
100
AcDbEntity
  8
MODEL
  6
Continuous
100
AcDbSpline
210
0.0
220
0.0
230
1.0
 70
     8
 71
     3
 72
     9
 73
     5
 74
     0
 42
0.000000001
 43
0.0000001
 40
0.0
 40
0.0
 40
0.0
 40
0.0
 40
0.4993904183
 40
1.0
 40
1.0
 40
1.0
 40
1.0
 10
109.4885719787677
 20
384.0174252005723
 30
0.0
 10
109.2344470565677
 20
384.0141101929723
 30
0.0
 10
108.7092741773677
 20
384.2422336709723
 30
0.0
 10
108.4913740187677
 20
384.7627241171723
 30
0.0
 10
108.4855961307677
 20
385.0174255819724
 30
0.0
  0
SPLINE
  5
178A8
330
A
100
AcDbEntity
  8
MODEL
  6
Continuous
100
AcDbSpline
210
0.0
220
0.0
230
1.0
 70
     8
 71
     3
 72
    11
 73
     7
 74
     0
 42
0.000000001
 43
0.0000001
 40
0.0
 40
0.0
 40
0.0
 40
0.0
 40
0.2498493891
 40
0.4998313447
 40
0.7497726574
 40
1.0
 40
1.0
 40
1.0
 40
1.0
 10
290.4907028503678
 20
385.0174255821722
 30
0.0
 10
290.4913912015679
 20
384.8871280477724
 30
0.0
 10
290.4434481743675
 20
384.6216441073722
 30
0.0
 10
290.2101776243678
 20
384.2948704969723
 30
0.0
 10
289.8759737631677
 20
384.0736504667722
 30
0.0
 10
289.6134479673676
 20
384.0245138045722
 30
0.0
 10
289.4831441773678
 20
384.0174252005723
 30
0.0
  0
SPLINE
  5
178A9
330
A
100
AcDbEntity
  8
MODEL
  6
Continuous
100
AcDbSpline
210
0.0
220
0.0
230
1.0
 70
     8
 71
     3
 72
    13
 73
     9
 74
     0
 42
0.000000001
 43
0.0000001
 40
0.0
 40
0.0
 40
0.0
 40
0.0
 40
0.5053337887
 40
0.79839241
 40
0.8879986305
 40
0.9489871402
 40
0.9851252864
 40
1.0
 40
1.0
 40
1.0
 40
1.0
 10
199.4885719787677
 20
385.3288008219724
 30
0.0
 10
199.3031898191676
 20
385.3288014405721
 30
0.0
 10
199.0109239457676
 20
385.3298038205724
 30
0.0
 10
198.6837814139677
 20
385.3468236841724
 30
0.0
 10
198.5235727631676
 20
385.3620913031722
 30
0.0
 10
198.4531142011675
 20
385.3728416727721
 30
0.0
 10
198.4176793577677
 20
385.3807160603724
 30
0.0
 10
198.3951393465678
 20
385.3905900587724
 30
0.0
 10
198.3953306847677
 20
385.3960435055724
 30
0.0
  0
SPLINE
  5
178AA
330
A
100
AcDbEntity
  8
MODEL
  6
Continuous
100
AcDbSpline
210
0.0
220
0.0
230
1.0
 70
     8
 71
     3
 72
     8
 73
     4
 74
     0
 42
0.000000001
 43
0.0000001
 40
0.0
 40
0.0
 40
0.0
 40
0.0
 40
1.0
 40
1.0
 40
1.0
 40
1.0
 10
291.5058955915675
 20
385.0698499059724
 30
0.0
 10
291.4929040513676
 20
385.0644450525723
 30
0.0
 10
291.4788779525675
 20
385.0617929475724
 30
0.0
 10
291.4650473817679
 20
385.0592029931722
 30
0.0
  0
SPLINE
  5
178AB
330
A
100
AcDbEntity
  8
MODEL
  6
Continuous
100
AcDbSpline
210
0.0
220
0.0
230
1.0
 70
     8
 71
     3
 72
     9
 73
     5
 74
     0
 42
0.000000001
 43
0.0000001
 40
0.0
 40
0.0
 40
0.0
 40
0.0
 40
0.3608446086
 40
1.0
 40
1.0
 40
1.0
 40
1.0
 10
291.4650473817679
 20
385.0592029931722
 30
0.0
 10
291.3648185205677
 20
385.0404338349724
 30
0.0
 10
291.0812454375679
 20
385.0273021351724
 30
0.0
 10
290.7993106627678
 20
385.0192574339724
 30
0.0
 10
290.6186967069676
 20
385.0179119869724
 30
0.0
  0
SPLINE
  5
178AC
330
A
100
AcDbEntity
  8
MODEL
  6
Continuous
100
AcDbSpline
210
0.0
220
0.0
230
1.0
 70
     8
 71
     3
 72
    14
 73
    10
 74
     0
 42
0.000000001
 43
0.0000001
 40
0.0
 40
0.0
 40
0.0
 40
0.0
 40
0.3802740598
 40
0.5532007447
 40
0.7050311489
 40
0.8287754864
 40
0.9205980694
 40
0.9779948442
 40
1.0
 40
1.0
 40
1.0
 40
1.0
 10
108.4855961307677
 20
385.0174277313724
 30
0.0
 10
108.3582813963677
 20
385.0174279923723
 30
0.0
 10
108.1729139175673
 20
385.0192398335721
 30
0.0
 10
107.9373115965678
 20
385.0256934441724
 30
0.0
 10
107.7864229065677
 20
385.0317290495722
 30
0.0
 10
107.6659933371676
 20
385.0397492387723
 30
0.0
 10
107.5693567471677
 20
385.0470716721724
 30
0.0
 10
107.5230391537676
 20
385.0573789625722
 30
0.0
 10
107.4855069407677
 20
385.0624715079721
 30
0.0
 10
107.4854518535677
 20
385.0698385691724
 30
0.0
  0
LINE
  5
178AD
330
A
100
AcDbEntity
  8
MODEL
  6
Continuous
100
AcDbLine
 10
240.1338914225676
 20
385.5125028751723
 30
0.0
 11
240.1870293035677
 21
385.5121067451722
 31
0.0
  0
SPLINE
  5
178AE
330
A
100
AcDbEntity
  8
MODEL
  6
Continuous
100
AcDbSpline
210
0.0
220
0.0
230
1.0
 70
     8
 71
     3
 72
     9
 73
     5
 74
     0
 42
0.000000001
 43
0.0000001
 40
0.0
 40
0.0
 40
0.0
 40
0.0
 40
0.775624096
 40
1.0
 40
1.0
 40
1.0
 40
1.0
 10
240.3305822227678
 20
385.5114925929722
 30
0.0
 10
240.6132889727674
 20
385.5110268669721
 30
0.0
 10
240.9779388951675
 20
385.5127106935722
 30
0.0
 10
241.3408889553676
 20
385.5710717953722
 30
0.0
 10
241.4180161367677
 20
385.5982713447723
 30
0.0
  0
SPLINE
  5
178AF
330
A
100
AcDbEntity
  8
MODEL
  6
Continuous
100
AcDbSpline
210
0.0
220
0.0
230
1.0
 70
     8
 71
     3
 72
     9
 73
     5
 74
     0
 42
0.000000001
 43
0.0000001
 40
0.0
 40
0.0
 40
0.0
 40
0.0
 40
0.5100795246
 40
1.0
 40
1.0
 40
1.0
 40
1.0
 10
241.4180161367677
 20
385.5982713447723
 30
0.0
 10
241.4409998481675
 20
385.6063767441723
 30
0.0
 10
241.5078968885678
 20
385.6433805409724
 30
0.0
 10
241.4432288589674
 20
385.6801327973724
 30
0.0
 10
241.4221217061677
 20
385.6902529243721
 30
0.0
  0
SPLINE
  5
178B0
330
A
100
AcDbEntity
  8
MODEL
  6
Continuous
100
AcDbSpline
210
0.0
220
0.0
230
1.0
 70
     8
 71
     3
 72
     9
 73
     5
 74
     0
 42
0.000000001
 43
0.0000001
 40
0.0
 40
0.0
 40
0.0
 40
0.0
 40
0.2066687084
 40
1.0
 40
1.0
 40
1.0
 40
1.0
 10
241.4221217061677
 20
385.6902529243721
 30
0.0
 10
241.4072225003675
 20
385.6973965621723
 30
0.0
 10
241.3330276591674
 20
385.7274674765724
 30
0.0
 10
241.2560925623677
 20
385.7497270917723
 30
0.0
 10
241.1951332035674
 20
385.7672474787722
 30
0.0
  0
SPLINE
  5
178B1
330
A
100
AcDbEntity
  8
MODEL
  6
Continuous
100
AcDbSpline
210
0.0
220
0.0
230
1.0
 70
     8
 71
     3
 72
    11
 73
     7
 74
     0
 42
0.000000001
 43
0.0000001
 40
0.0
 40
0.0
 40
0.0
 40
0.0
 40
0.0463195297
 40
0.197608109
 40
0.4865429932
 40
1.0
 40
1.0
 40
1.0
 40
1.0
 10
214.9316227791674
 20
385.6607091757724
 30
0.0
 10
214.9322379219676
 20
385.6551154975721
 30
0.0
 10
214.8996934011676
 20
385.6463220987721
 30
0.0
 10
214.8539529193677
 20
385.6290547083722
 30
0.0
 10
214.7331370987677
 20
385.6036620705723
 30
0.0
 10
214.6402983617678
 20
385.5860001713723
 30
0.0
 10
214.5787720033678
 20
385.5757135521724
 30
0.0
  0
LINE
  5
178B2
330
A
100
AcDbEntity
  8
MODEL
  6
Continuous
100
AcDbLine
 10
81.9885719787677
 20
741.2911118654883
 30
0.0
 11
81.9885719787677
 21
693.2911118654883
 31
0.0
  0
LINE
  5
178B3
330
A
100
AcDbEntity
  8
MODEL
  6
Continuous
100
AcDbLine
 10
82.9885719787677
 20
692.2911118654883
 30
0.0
 11
82.9885719787677
 21
742.2911118654883
 31
0.0
  0
LINE
  5
178B4
330
A
100
AcDbEntity
  8
MODEL
  6
Continuous
100
AcDbLine
 10
94.4885719787677
 20
728.7911118654883
 30
0.0
 11
94.4885719787677
 21
705.7911118654883
 31
0.0
  0
LINE
  5
178B5
330
A
100
AcDbEntity
  8
MODEL
  6
Continuous
100
AcDbLine
 10
95.4885719787677
 20
704.7911118654883
 30
0.0
 11
95.4885719787677
 21
729.7911118654883
 31
0.0
  0
LINE
  5
178B6
330
A
100
AcDbEntity
  8
MODEL
  6
Continuous
100
AcDbLine
 10
97.78857197876788
 20
704.7911118654883
 30
0.0
 11
97.78857197876788
 21
566.7911118654883
 31
0.0
  0
LINE
  5
178B7
330
A
100
AcDbEntity
  8
MODEL
  6
Continuous
100
AcDbLine
 10
100.7885719787679
 20
563.7911118654883
 30
0.0
 11
100.7885719787679
 21
704.7911118654883
 31
0.0
  0
LINE
  5
178B8
330
A
100
AcDbEntity
  8
MODEL
  6
Continuous
100
AcDbLine
 10
107.4853093823677
 20
563.2911317016883
 30
0.0
 11
107.4853141947675
 21
563.7911118654883
 31
0.0
  0
LINE
  5
178B9
330
A
100
AcDbEntity
  8
MODEL
  6
Continuous
100
AcDbLine
 10
109.4885719787677
 20
562.2911118654883
 30
0.0
 11
109.4885719787677
 21
563.7911118654883
 31
0.0
  0
LINE
  5
178BA
330
A
100
AcDbEntity
  8
MODEL
  6
Continuous
100
AcDbLine
 10
108.4886237569677
 20
562.2911118654883
 30
0.0
 11
290.4885202005676
 21
562.2911118654883
 31
0.0
  0
LINE
  5
178BB
330
A
100
AcDbEntity
  8
MODEL
  6
Continuous
100
AcDbLine
 10
291.5058958815677
 20
563.2911226498884
 30
0.0
 11
291.5060382975677
 21
563.2911226506883
 31
0.0
  0
LINE
  5
178BC
330
A
100
AcDbEntity
  8
MODEL
  6
Continuous
100
AcDbLine
 10
107.4895514405676
 20
563.2911118654883
 30
0.0
 11
291.4875924855675
 21
563.2911118654883
 31
0.0
  0
LINE
  5
178BD
102
{ACAD_REACTORS
330
178EA
102
}
330
A
100
AcDbEntity
  8
MODEL
  6
Continuous
100
AcDbLine
 10
100.7885719787679
 20
563.7911118654883
 30
0.0
 11
298.1885719787675
 21
563.7911118654883
 31
0.0
  0
LINE
  5
178BE
330
A
100
AcDbEntity
  8
MODEL
  6
Continuous
100
AcDbLine
 10
107.4854518037678
 20
563.2911313878883
 30
0.0
 11
107.4853093823677
 21
563.2911317670885
 31
0.0
  0
LINE
  5
178BF
330
A
100
AcDbEntity
  8
MODEL
  6
Continuous
100
AcDbLine
 10
301.1885719787675
 20
566.7911118654883
 30
0.0
 11
97.78857197876788
 21
566.7911118654883
 31
0.0
  0
LINE
  5
178C0
330
A
100
AcDbEntity
  8
MODEL
  6
Continuous
100
AcDbLine
 10
315.9885719787678
 20
692.2911118654883
 30
0.0
 11
301.1885719787675
 21
692.2911118654883
 31
0.0
  0
LINE
  5
178C1
330
A
100
AcDbEntity
  8
MODEL
  6
Continuous
100
AcDbLine
 10
97.78857197876788
 20
692.2911118654883
 30
0.0
 11
82.9885719787677
 21
692.2911118654883
 31
0.0
  0
LINE
  5
178C2
330
A
100
AcDbEntity
  8
MODEL
  6
Continuous
100
AcDbLine
 10
316.9885719787678
 20
693.2911118654883
 30
0.0
 11
301.1885719787675
 21
693.2911118654883
 31
0.0
  0
LINE
  5
178C3
330
A
100
AcDbEntity
  8
MODEL
  6
Continuous
100
AcDbLine
 10
97.78857197876788
 20
693.2911118654883
 30
0.0
 11
81.9885719787677
 21
693.2911118654883
 31
0.0
  0
LINE
  5
178C4
330
A
100
AcDbEntity
  8
MODEL
  6
Continuous
100
AcDbLine
 10
95.4885719787677
 20
704.7911118654883
 30
0.0
 11
303.4885719787678
 21
704.7911118654883
 31
0.0
  0
LINE
  5
178C5
330
A
100
AcDbEntity
  8
MODEL
  6
Continuous
100
AcDbLine
 10
304.4885719787678
 20
705.7911118654883
 30
0.0
 11
94.4885719787677
 21
705.7911118654883
 31
0.0
  0
LINE
  5
178C6
330
A
100
AcDbEntity
  8
MODEL
  6
Continuous
100
AcDbLine
 10
94.4885719787677
 20
728.7911118654883
 30
0.0
 11
304.4885719787678
 21
728.7911118654883
 31
0.0
  0
LINE
  5
178C7
330
A
100
AcDbEntity
  8
MODEL
  6
Continuous
100
AcDbLine
 10
303.4885719787678
 20
729.7911118654883
 30
0.0
 11
95.4885719787677
 21
729.7911118654883
 31
0.0
  0
LINE
  5
178C8
330
A
100
AcDbEntity
  8
MODEL
  6
Continuous
100
AcDbLine
 10
289.4885719787678
 20
562.2911118654883
 30
0.0
 11
289.4885719787678
 21
563.7911118654883
 31
0.0
  0
LINE
  5
178C9
330
A
100
AcDbEntity
  8
MODEL
  6
Continuous
100
AcDbLine
 10
81.9885719787677
 20
741.2911118654883
 30
0.0
 11
316.9885719787678
 21
741.2911118654883
 31
0.0
  0
LINE
  5
178CA
102
{ACAD_REACTORS
330
178EA
330
178F1
102
}
330
A
100
AcDbEntity
  8
MODEL
  6
Continuous
100
AcDbLine
 10
315.9885719787678
 20
742.2911118654883
 30
0.0
 11
82.9885719787677
 21
742.2911118654883
 31
0.0
  0
LINE
  5
178CB
330
A
100
AcDbEntity
  8
MODEL
  6
Continuous
100
AcDbLine
 10
291.5060382975677
 20
563.2911226506883
 30
0.0
 11
291.5060351119678
 21
563.7911118654883
 31
0.0
  0
LINE
  5
178CC
330
A
100
AcDbEntity
  8
MODEL
  6
Continuous
100
AcDbLine
 10
298.1885719787675
 20
704.7911118654883
 30
0.0
 11
298.1885719787675
 21
563.7911118654883
 31
0.0
  0
LINE
  5
178CD
330
A
100
AcDbEntity
  8
MODEL
  6
Continuous
100
AcDbLine
 10
301.1885719787675
 20
704.7911118654883
 30
0.0
 11
301.1885719787675
 21
566.7911118654883
 31
0.0
  0
LINE
  5
178CE
330
A
100
AcDbEntity
  8
MODEL
  6
Continuous
100
AcDbLine
 10
303.4885719787678
 20
729.7911118654883
 30
0.0
 11
303.4885719787678
 21
704.7911118654883
 31
0.0
  0
LINE
  5
178CF
330
A
100
AcDbEntity
  8
MODEL
  6
Continuous
100
AcDbLine
 10
304.4885719787678
 20
728.7911118654883
 30
0.0
 11
304.4885719787678
 21
705.7911118654883
 31
0.0
  0
LINE
  5
178D0
330
A
100
AcDbEntity
  8
MODEL
  6
Continuous
100
AcDbLine
 10
315.9885719787678
 20
742.2911118654883
 30
0.0
 11
315.9885719787678
 21
692.2911118654883
 31
0.0
  0
LINE
  5
178D1
330
A
100
AcDbEntity
  8
MODEL
  6
Continuous
100
AcDbLine
 10
316.9885719787678
 20
741.2911118654883
 30
0.0
 11
316.9885719787678
 21
693.2911118654883
 31
0.0
  0
ARC
  5
178D2
330
A
100
AcDbEntity
  8
MODEL
  6
Continuous
100
AcDbCircle
 10
100.7885719787679
 20
566.7911118654883
 30
0.0
 40
3.0
100
AcDbArc
 50
179.9999999995962
 51
270.0000000003995
  0
ARC
  5
178D3
330
A
100
AcDbEntity
  8
MODEL
  6
Continuous
100
AcDbCircle
 10
108.4852634539676
 20
563.2909234314884
 30
0.0
 40
0.9998116218
100
AcDbArc
 50
179.9880953017012
 51
270.0190645744125
  0
ARC
  5
178D4
330
A
100
AcDbEntity
  8
MODEL
  6
Continuous
100
AcDbCircle
 10
108.4882666707677
 20
563.2898276894884
 30
0.0
 40
0.998715939
100
AcDbArc
 50
179.9172184882009
 51
270.0101726458146
  0
ARC
  5
178D5
330
A
100
AcDbEntity
  8
MODEL
  6
Continuous
100
AcDbCircle
 10
95.4885719787677
 20
705.7911118654883
 30
0.0
 40
1.0
100
AcDbArc
 50
179.9999999997916
 51
270.0000000001043
  0
ARC
  5
178D6
330
A
100
AcDbEntity
  8
MODEL
  6
Continuous
100
AcDbCircle
 10
95.4885719787677
 20
728.7911118654883
 30
0.0
 40
1.0
100
AcDbArc
 50
89.99999999950495
 51
180.0000000002997
  0
ARC
  5
178D7
102
{ACAD_REACTORS
330
178F1
102
}
330
A
100
AcDbEntity
  8
MODEL
  6
Continuous
100
AcDbCircle
 10
82.9885719787677
 20
693.2911118654883
 30
0.0
 40
1.0
100
AcDbArc
 50
180.0000000001954
 51
270.0000000004169
  0
ARC
  5
178D8
330
A
100
AcDbEntity
  8
MODEL
  6
Continuous
100
AcDbCircle
 10
82.9885719787677
 20
741.2911118654883
 30
0.0
 40
1.0
100
AcDbArc
 50
89.99999999940073
 51
180.0000000002997
  0
ARC
  5
178D9
330
A
100
AcDbEntity
  8
MODEL
  6
Continuous
100
AcDbCircle
 10
298.1885719787675
 20
566.7911118654883
 30
0.0
 40
3.0
100
AcDbArc
 50
269.9999999996005
 51
0.0
  0
ARC
  5
178DA
330
A
100
AcDbEntity
  8
MODEL
  6
Continuous
100
AcDbCircle
 10
290.1094816555674
 20
563.4662222824884
 30
0.0
 40
1.4073490298
100
AcDbArc
 50
344.409059082305
 51
352.8529045254971
  0
ARC
  5
178DB
330
A
100
AcDbEntity
  8
MODEL
  6
Continuous
100
AcDbCircle
 10
290.4859434179676
 20
563.2905337532884
 30
0.0
 40
1.0016490048
100
AcDbArc
 50
348.3157551417966
 51
0.042167881792455
  0
ARC
  5
178DC
330
A
100
AcDbEntity
  8
MODEL
  6
Continuous
100
AcDbCircle
 10
290.4882490397678
 20
563.2831603814884
 30
0.0
 40
0.9920487172
100
AcDbArc
 50
270.0260177024996
 51
277.5591620742001
  0
ARC
  5
178DD
330
A
100
AcDbEntity
  8
MODEL
  6
Continuous
100
AcDbCircle
 10
303.4885719787678
 20
705.7911118654883
 30
0.0
 40
1.0
100
AcDbArc
 50
270.0
 51
0.0
  0
ARC
  5
178DE
330
A
100
AcDbEntity
  8
MODEL
  6
Continuous
100
AcDbCircle
 10
303.4885719787678
 20
728.7911118654883
 30
0.0
 40
1.0
100
AcDbArc
 50
0.0
 51
90.00000000020843
  0
ARC
  5
178DF
330
A
100
AcDbEntity
  8
MODEL
  6
Continuous
100
AcDbCircle
 10
315.9885719787678
 20
693.2911118654883
 30
0.0
 40
1.0
100
AcDbArc
 50
269.9999999994007
 51
0.0
  0
ARC
  5
178E0
330
A
100
AcDbEntity
  8
MODEL
  6
Continuous
100
AcDbCircle
 10
315.9885719787678
 20
741.2911118654883
 30
0.0
 40
1.0
100
AcDbArc
 50
0.0000000005992674
 51
89.99999999869725
  0
SPLINE
  5
178E1
330
A
100
AcDbEntity
  8
MODEL
  6
Continuous
100
AcDbSpline
210
0.0
220
0.0
230
1.0
 70
     8
 71
     3
 72
     9
 73
     5
 74
     0
 42
0.000000001
 43
0.0000001
 40
0.0
 40
0.0
 40
0.0
 40
0.0
 40
0.5002568974
 40
1.0
 40
1.0
 40
1.0
 40
1.0
 10
290.6187529113677
 20
562.2997330090884
 30
0.0
 10
290.8196528971677
 20
562.3263293342884
 30
0.0
 10
291.2147518127678
 20
562.5087081876884
 30
0.0
 10
291.4259106839679
 20
562.8894170384883
 30
0.0
 10
291.4668367887676
 20
563.0876817780884
 30
0.0
  0
LINE
  5
178E2
330
A
100
AcDbEntity
  8
MODEL
  6
Continuous
100
AcDbLine
 10
291.4866001207675
 20
563.7911118804884
 30
0.0
 11
291.4875921513677
 21
563.2912709350883
 31
0.0
  0
LINE
  5
178E3
330
A
100
AcDbEntity
  8
MODEL
  6
Continuous
100
AcDbLine
 10
107.4895517743676
 20
563.2912706436884
 30
0.0
 11
107.4905438267675
 21
563.7911118804884
 31
0.0
  0
ELLIPSE
  5
178E4
330
A
100
AcDbEntity
  8
MODEL
  6
Continuous
100
AcDbEllipse
 10
109.5136777747676
 20
562.8324899928884
 30
0.0
 11
0.0003735592000000017
 21
38.7036587818
 31
0.0
210
0.0
220
0.0
230
1.0
 40
0.0524077793
 41
1.5460260499
 42
1.5589464768
  0
ELLIPSE
  5
178E5
330
A
100
AcDbEntity
  8
MODEL
  6
Continuous
100
AcDbEllipse
 10
289.4776684129675
 20
562.8324899928884
 30
0.0
 11
-0.0002472802
 21
38.7036587818
 31
0.0
210
0.0
220
0.0
230
1.0
 40
0.0524077793
 41
4.724238830879584
 42
4.737159428279584
  0
MTEXT
  5
178E6
330
A
100
AcDbEntity
  8
DIM
 62
     7
390
1D
100
AcDbMText
 10
424.3776222630964
 20
249.7227409634154
 30
0.0
 40
9.0
 41
0.0
 46
9.0
 71
     1
 72
     1
  1
{G1/2"}
  7
ＭＳ ゴシック
 73
     1
 44
0.6
1001
ACAD
1000
ACAD_MTEXT_DEFINED_HEIGHT_BEGIN
1070
    46
1040
9.0
1000
ACAD_MTEXT_DEFINED_HEIGHT_END
  0
MTEXT
  5
178E7
330
A
100
AcDbEntity
  8
DIM
 62
     7
390
1D
100
AcDbMText
 10
430.3021458843368
 20
264.4308488197267
 30
0.0
 40
9.0
 41
0.0
 46
12.21630859375
 71
     1
 72
     1
  1
{▲}
  7
ＭＳ ゴシック
 73
     1
 44
0.6
1001
ACAD
1000
ACAD_MTEXT_DEFINED_HEIGHT_BEGIN
1070
    46
1040
12.21630859375
1000
ACAD_MTEXT_DEFINED_HEIGHT_END
  0
DIMENSION
  5
178E8
102
{ACAD_REACTORS
330
178EA
102
}
102
{ACAD_XDICTIONARY
360
178E9
102
}
330
A
100
AcDbEntity
  8
DIM
  6
Continuous
370
     0
100
AcDbDimension
  2
*D24
 10
358.9525151573416
 20
563.7911118654883
 30
0.0
 11
358.9525151573416
 21
653.0411118654883
 31
0.0
 70
   160
  1
178
 71
     5
 42
178.5
 73
     0
 74
     0
 75
     0
  3
tfrom線あり
100
AcDbAlignedDimension
 13
315.9885719787678
 23
742.2911118654883
 33
0.0
 14
298.1885719787675
 24
563.7911118654883
 34
0.0
 50
90.0
100
AcDbRotatedDimension
1001
ACAD
1000
DSTYLE
1002
{
1070
   147
1040
5.0
1070
   140
1040
9.0
1002
}
  0
MTEXT
  5
178EB
330
A
100
AcDbEntity
  8
DIM
 62
     7
390
1D
100
AcDbMText
 10
256.8741622301735
 20
302.0615987120893
 30
0.0
 40
9.0
 41
0.0
 46
9.0
 71
     1
 72
     1
  1
{max 40}
  7
ＭＳ ゴシック
 11
6.123233995736766E-17
 21
1.0
 31
0.0
 73
     1
 44
0.6
1001
ACAD
1000
ACAD_MTEXT_DEFINED_HEIGHT_BEGIN
1070
    46
1040
9.0
1000
ACAD_MTEXT_DEFINED_HEIGHT_END
  0
DIMENSION
  5
178EC
330
A
100
AcDbEntity
  8
DIM
  6
Continuous
370
     0
100
AcDbDimension
  2
*D25
 10
342.7116471085071
 20
375.9674252005722
 30
0.0
 11
332.2099589754573
 21
386.9674252005722
 31
0.0
 70
    32
  1
21
 71
     5
 42
22.0
 73
     0
 74
     0
 75
     0
  3
tfrom線あり
100
AcDbAlignedDimension
 13
304.4885719787678
 23
397.9674252005722
 33
0.0
 14
304.4885719787678
 24
375.9674252005722
 34
0.0
 50
90.0
100
AcDbRotatedDimension
1001
ACAD
1000
DSTYLE
1002
{
1070
   140
1040
9.0
1002
}
  0
MTEXT
  5
178ED
330
A
100
AcDbEntity
  8
DIM
 62
     7
390
1D
100
AcDbMText
 10
187.7931591288735
 20
249.8817727511583
 30
0.0
 40
9.0
 41
0.0
 46
9.0
 71
     1
 72
     1
  1
{G1/2"}
  7
ＭＳ ゴシック
 73
     1
 44
0.6
1001
ACAD
1000
ACAD_MTEXT_DEFINED_HEIGHT_BEGIN
1070
    46
1040
9.0
1000
ACAD_MTEXT_DEFINED_HEIGHT_END
  0
MTEXT
  5
178EE
330
A
100
AcDbEntity
  8
DIM
 62
     7
390
1D
100
AcDbMText
 10
193.7176827501139
 20
264.5898806074697
 30
0.0
 40
9.0
 41
0.0
 46
12.21630859375
 71
     1
 72
     1
  1
{▲}
  7
ＭＳ ゴシック
 73
     1
 44
0.6
1001
ACAD
1000
ACAD_MTEXT_DEFINED_HEIGHT_BEGIN
1070
    46
1040
12.21630859375
1000
ACAD_MTEXT_DEFINED_HEIGHT_END
  0
DIMENSION
  5
178EF
102
{ACAD_REACTORS
330
178F1
102
}
102
{ACAD_XDICTIONARY
360
178F0
102
}
330
A
100
AcDbEntity
  8
DIM
  6
Continuous
370
     0
100
AcDbDimension
  2
*D26
 10
62.85981998111377
 20
692.2911118654883
 30
0.0
 11
52.35813184806385
 21
717.2911118654883
 31
0.0
 70
    32
 71
     5
 42
50.0
 73
     0
 74
     0
 75
     0
  3
tfrom線あり
100
AcDbAlignedDimension
 13
82.9885719787677
 23
742.2911118654883
 33
0.0
 14
82.98857197877497
 24
692.2911118654883
 34
0.0
 50
90.0
100
AcDbRotatedDimension
1001
ACAD
1000
DSTYLE
1002
{
1070
   140
1040
9.0
1002
}
  0
MTEXT
  5
178F2
102
{ACAD_REACTORS
330
17965
102
}
330
A
100
AcDbEntity
  8
TEMPLATE
390
1D
100
AcDbMText
 10
399.7431648612173
 20
128.5166052219543
 30
0.0
 40
7.0
 41
0.0
 46
7.819307240215081
 71
     1
 72
     1
  1
{ALH73-2201-0GB (ブラッシュドガンメタル)}
  7
ＭＳ ゴシック
 73
     1
 44
0.4285714285714285
1001
ACAD
1000
ACAD_MTEXT_DEFINED_HEIGHT_BEGIN
1070
    46
1040
7.819307240215081
1000
ACAD_MTEXT_DEFINED_HEIGHT_END
  0
MTEXT
  5
178F3
102
{ACAD_REACTORS
330
17965
102
}
330
A
100
AcDbEntity
  8
TEMPLATE
390
1D
100
AcDbMText
 10
399.7165302348476
 20
138.6943244704477
 30
0.0
 40
7.0
 41
0.0
 46
7.819307240215081
 71
     1
 72
     1
  1
{ALH73-2201-0CP (ブラッシュドコッパー)}
  7
ＭＳ ゴシック
 73
     1
 44
0.4285714285714285
1001
ACAD
1000
ACAD_MTEXT_DEFINED_HEIGHT_BEGIN
1070
    46
1040
7.819307240215081
1000
ACAD_MTEXT_DEFINED_HEIGHT_END
  0
MTEXT
  5
178F4
102
{ACAD_REACTORS
330
17965
102
}
330
A
100
AcDbEntity
  8
TEMPLATE
390
1D
100
AcDbMText
 10
399.7456337936103
 20
148.6792878537469
 30
0.0
 40
7.0
 41
0.0
 46
7.819307240215081
 71
     1
 72
     1
  1
{ALH73-2201-0MB (マットブラック)}
  7
ＭＳ ゴシック
 73
     1
 44
0.4285714285714285
1001
ACAD
1000
ACAD_MTEXT_DEFINED_HEIGHT_BEGIN
1070
    46
1040
7.819307240215081
1000
ACAD_MTEXT_DEFINED_HEIGHT_END
  0
MTEXT
  5
178F5
102
{ACAD_REACTORS
330
17965
102
}
330
A
100
AcDbEntity
  8
TEMPLATE
390
1D
100
AcDbMText
 10
399.7424370620587
 20
157.7479616682085
 30
0.0
 40
7.0
 41
0.0
 46
7.819307240215081
 71
     1
 72
     1
  1
{ALH73-2201-001 (クローム)}
  7
ＭＳ ゴシック
 73
     1
 44
0.4285714285714285
1001
ACAD
1000
ACAD_MTEXT_DEFINED_HEIGHT_BEGIN
1070
    46
1040
7.819307240215081
1000
ACAD_MTEXT_DEFINED_HEIGHT_END
  0
MTEXT
  5
178F6
102
{ACAD_REACTORS
330
17965
102
}
330
A
100
AcDbEntity
  8
TEMPLATE
390
1D
100
AcDbMText
 10
399.7456337936103
 20
117.8655036828333
 30
0.0
 40
7.0
 41
0.0
 46
7.819307240215081
 71
     1
 72
     1
  1
{ALH73-2201-0HB (ブラッシュドハイブラス)}
  7
ＭＳ ゴシック
 73
     1
 44
0.4285714285714285
1001
ACAD
1000
ACAD_MTEXT_DEFINED_HEIGHT_BEGIN
1070
    46
1040
7.819307240215081
1000
ACAD_MTEXT_DEFINED_HEIGHT_END
  0
MTEXT
  5
1799C
330
A
100
AcDbEntity
  8
TEMPLATE
390
1D
100
AcDbMText
 10
37.94130928886722
 20
121.9465005015903
 30
0.0
 40
7.0
 41
0.0
 46
7.994372889833688
 71
     1
 72
     1
  1
{■流量 0.3Mpa時 27L/min}
  7
ＭＳ ゴシック
 73
     1
 44
0.7828267384257843
1001
ACAD
1000
ACAD_MTEXT_DEFINED_HEIGHT_BEGIN
1070
    46
1040
7.994372889833688
1000
ACAD_MTEXT_DEFINED_HEIGHT_END
  0
VIEWPORT
  5
349
330
B
100
AcDbEntity
 67
     1
  8
0
100
AcDbViewport
 10
202.5
 20
128.5
 30
0.0
 40
486.0
 41
308.4
 68
     1
 69
     1
 12
202.5
 22
128.5
 13
0.0
 23
0.0
 14
0.5
 24
0.5
 15
0.0
 25
0.0
 16
0.0
 26
0.0
 36
1.0
 17
0.0
 27
0.0
 37
0.0
 42
50.0
 43
0.0
 44
0.0
 45
308.4
 50
0.0
 51
0.0
 72
   100
 90
   557152
  1

281
     0
 71
     1
 74
     0
110
0.0
120
0.0
130
0.0
111
1.0
121
0.0
131
0.0
112
0.0
122
1.0
132
0.0
 79
     0
146
0.0
170
     0
 61
     5
348
26C
292
     1
282
     1
141
0.0
142
0.0
 63
   256
  0
VIEWPORT
  5
34A
330
B
100
AcDbEntity
 67
     1
  8
0
100
AcDbViewport
 10
202.5
 20
128.5
 30
0.0
 40
324.0
 41
205.6
 68
     2
 69
     2
 12
986.6781359294573
 22
1427.077061889956
 13
0.0
 23
0.0
 14
0.5
 24
0.5
 15
0.0
 25
0.0
 16
0.0
 26
0.0
 36
1.0
 17
0.0
 27
0.0
 37
0.0
 42
50.0
 43
0.0
 44
0.0
 45
2890.021615685494
 50
0.0
 51
0.0
 72
   100
 90
   557152
  1

281
     0
 71
     1
 74
     0
110
0.0
120
0.0
130
0.0
111
1.0
121
0.0
131
0.0
112
0.0
122
1.0
132
0.0
 79
     0
146
0.0
170
     0
 61
     5
348
26C
292
     1
282
     1
141
0.0
142
0.0
 63
   256
  0
ENDSEC
  0
SECTION
  2
OBJECTS
  0
DICTIONARY
  5
19
330
0
100
AcDbDictionary
281
     1
  3
ACAD_COLOR
350
674
  3
ACAD_DETAILVIEWSTYLE
350
BBF
  3
ACAD_FIELDLIST
350
36B0
  3
ACAD_GROUP
350
1A
  3
ACAD_IMAGE_VARS
350
27B
  3
ACAD_LAYOUT
350
1E
  3
ACAD_MATERIAL
350
263
  3
ACAD_MLEADERSTYLE
350
336
  3
ACAD_MLINESTYLE
350
1B
  3
ACAD_PLOTSETTINGS
350
22
  3
ACAD_PLOTSTYLENAME
350
1F
  3
ACAD_SCALELIST
350
241
  3
ACAD_SECTIONVIEWSTYLE
350
BC0
  3
ACAD_TABLESTYLE
350
278
  3
ACAD_VISUALSTYLE
350
267
  3
ACDB_RECOMPOSE_DATA
350
179A8
  3
AcDbVariableDictionary
350
330
  3
APPDATA
350
27A
  3
CENTERLINE
350
366B
  3
DimOffsetDictionary
350
E38
  0
SUN
  5
904
330
15
100
AcDbSun
 90
        1
290
     0
 63
     7
421
 16777215
 40
1.0
291
     1
 91
  2455826
 92
 54000000
292
     0
 70
     2
 71
   256
280
     1
  0
DICTIONARY
  5
2E1
330
2
100
AcDbDictionary
280
     1
281
     1
  3
ACAD_LAYERSTATES
360
2E2
  3
ACLYDICTIONARY
360
DDE
  0
DICTIONARY
  5
1733E
330
A
100
AcDbDictionary
280
     1
281
     1
  3
ACAD_SORTENTS
360
1733F
  0
DICTIONARY
  5
36AE
330
36AC
100
AcDbDictionary
280
     1
281
     1
  3
ACAD_FIELD
360
17967
  0
DICTIONARY
  5
178E9
330
178E8
100
AcDbDictionary
280
     1
281
     1
  3
ACAD_DIMASSOC
360
178EA
  0
DICTIONARY
  5
178F0
330
178EF
100
AcDbDictionary
280
     1
281
     1
  3
ACAD_DIMASSOC
360
178F1
  0
DICTIONARY
  5
674
102
{ACAD_REACTORS
330
19
102
}
330
19
100
AcDbDictionary
281
     1
  0
DICTIONARY
  5
BBF
102
{ACAD_REACTORS
330
19
102
}
330
19
100
AcDbDictionary
281
     1
  0
FIELDLIST
  5
36B0
102
{ACAD_REACTORS
330
19
102
}
330
19
100
AcDbIdSet
 90
        2
330
36B1
330
36AD
100
AcDbFieldList
  0
DICTIONARY
  5
1A
102
{ACAD_REACTORS
330
19
102
}
330
19
100
AcDbDictionary
281
     1
  3
*A1
350
1730A
  3
*A2
350
17965
  0
RASTERVARIABLES
  5
27B
102
{ACAD_REACTORS
330
19
102
}
330
19
100
AcDbRasterVariables
 90
        0
 70
     1
 71
     1
 72
     1
  0
DICTIONARY
  5
1E
102
{ACAD_REACTORS
330
19
102
}
330
19
100
AcDbDictionary
281
     1
  3
Layout1
350
21
  3
Model
350
20
  0
DICTIONARY
  5
263
102
{ACAD_REACTORS
330
19
102
}
330
19
100
AcDbDictionary
281
     1
  3
ByBlock
350
265
  3
ByLayer
350
264
  3
Global
350
266
  0
DICTIONARY
  5
336
102
{ACAD_REACTORS
330
19
102
}
330
19
100
AcDbDictionary
281
     1
  3
Standard
350
D59
  0
DICTIONARY
  5
1B
102
{ACAD_REACTORS
330
19
102
}
330
19
100
AcDbDictionary
281
     1
  3
Standard
350
1C
  0
DICTIONARY
  5
22
102
{ACAD_REACTORS
330
19
102
}
330
19
100
AcDbDictionary
281
     1
  0
ACDBDICTIONARYWDFLT
  5
1F
102
{ACAD_REACTORS
330
19
102
}
330
19
100
AcDbDictionary
281
     1
  3
Normal
350
1D
100
AcDbDictionaryWithDefault
340
1D
  0
DICTIONARY
  5
241
102
{ACAD_REACTORS
330
19
102
}
330
19
100
AcDbDictionary
281
     1
  3
A0
350
242
  3
A1
350
243
  3
A2
350
244
  3
A3
350
245
  3
A4
350
246
  3
A5
350
247
  3
A6
350
248
  3
A7
350
249
  3
A8
350
24A
  3
A9
350
24B
  3
B0
350
24C
  3
B1
350
24D
  3
B2
350
24E
  3
B3
350
24F
  3
B4
350
250
  3
B5
350
251
  3
B6
350
252
  3
B7
350
253
  3
B8
350
254
  3
B9
350
255
  3
C0
350
256
  3
C1
350
257
  3
C2
350
258
  3
C3
350
259
  3
C4
350
25A
  3
C5
350
25B
  3
C6
350
25C
  3
C7
350
25D
  3
C8
350
25E
  3
C9
350
25F
  3
D0
350
260
  3
D1
350
261
  3
D2
350
262
  0
DICTIONARY
  5
BC0
102
{ACAD_REACTORS
330
19
102
}
330
19
100
AcDbDictionary
281
     1
  0
DICTIONARY
  5
278
102
{ACAD_REACTORS
330
19
102
}
330
19
100
AcDbDictionary
281
     1
  3
Standard
350
279
  0
DICTIONARY
  5
267
102
{ACAD_REACTORS
330
19
102
}
330
19
100
AcDbDictionary
281
     1
  3
*A1
350
3666
  3
2dWireframe
350
26C
  3
3D Hidden
350
26E
  3
3dWireframe
350
26D
  3
Basic
350
26F
  3
Brighten
350
273
  3
ColorChange
350
277
  3
Conceptual
350
271
  3
Dim
350
272
  3
EdgeColorOff
350
8FE
  3
Facepattern
350
276
  3
Flat
350
268
  3
FlatWithEdges
350
269
  3
Gouraud
350
26A
  3
GouraudWithEdges
350
26B
  3
Hidden
350
8FB
  3
JitterOff
350
8FC
  3
Linepattern
350
275
  3
OverhangOff
350
8FD
  3
Realistic
350
270
  3
Shaded
350
903
  3
Shaded with edges
350
902
  3
Shades of Gray
350
8FF
  3
Sketchy
350
900
  3
Thicken
350
274
  3
Wireframe
350
8FA
  3
X-Ray
350
901
  0
XRECORD
  5
179A8
102
{ACAD_REACTORS
330
19
102
}
330
19
100
AcDbXrecord
280
     1
 90
        1
330
279
  0
DICTIONARY
  5
330
102
{ACAD_REACTORS
330
19
102
}
330
19
100
AcDbDictionary
281
     1
  3
CANNOSCALE
350
331
  3
CMLEADERSTYLE
350
D5E
  3
CTABLESTYLE
350
335
  3
HPTRANSPARENCY
350
D52
  3
XCLIPFRAME
350
896
  0
DICTIONARY
  5
27A
102
{ACAD_REACTORS
330
19
102
}
330
19
100
AcDbDictionary
281
     1
  0
DICTIONARY
  5
366B
102
{ACAD_REACTORS
330
19
102
}
330
19
100
AcDbDictionary
281
     1
  3
CLEXTENSION
350
36AB
  0
DICTIONARY
  5
E38
102
{ACAD_REACTORS
330
19
102
}
330
19
100
AcDbDictionary
281
     1
  3
DIMRAILANGLE
350
36A9
  3
DIMRAILFIRSTOFFSET
350
36A7
  3
DIMRAILOFFSET
350
36A8
  3
DIMRAILSENABLED
350
36AA
  0
DICTIONARY
  5
2E2
102
{ACAD_REACTORS
330
2E1
102
}
330
2E1
100
AcDbDictionary
281
     1
  0
DICTIONARY
  5
DDE
102
{ACAD_REACTORS
330
2E1
102
}
330
2E1
100
AcDbDictionary
281
     1
1001
ACAD
1000
<All
  0
SORTENTSTABLE
  5
1733F
102
{ACAD_REACTORS
330
1733E
102
}
330
1733E
100
AcDbSortentsTable
330
A
331
172F9
  5
172B7
331
172FA
  5
172F8
331
17305
  5
172F9
331
17306
  5
172FA
331
17307
  5
17305
331
17308
  5
17306
331
17309
  5
17307
  0
DICTIONARY
  5
17967
102
{ACAD_REACTORS
330
36AE
102
}
330
36AE
100
AcDbDictionary
280
     1
281
     1
  3
TEXT
360
36AD
  0
DIMASSOC
  5
178EA
102
{ACAD_REACTORS
330
178E9
102
}
330
178E9
100
AcDbDimAssoc
330
178E8
 90
        3
 70
     0
 71
     1
  1
AcDbOsnapPointRef
 72
    13
331
178CA
 73
     0
 91
        0
 40
0.0
 10
0.0
 20
0.0
 30
0.0
 75
     0
  1
AcDbOsnapPointRef
 72
     1
331
178BD
 73
     0
 91
        0
 40
0.0
 10
0.0
 20
0.0
 30
0.0
 75
     0
  0
DIMASSOC
  5
178F1
102
{ACAD_REACTORS
330
178F0
102
}
330
178F0
100
AcDbDimAssoc
330
178EF
 90
        3
 70
     0
 71
     1
  1
AcDbOsnapPointRef
 72
     1
331
178CA
 73
     0
 91
        0
 40
0.0
 10
0.0
 20
0.0
 30
0.0
 75
     0
  1
AcDbOsnapPointRef
 72
     1
331
178D7
 73
     0
 91
        0
 40
0.0
 10
0.0
 20
0.0
 30
0.0
 75
     0
  0
GROUP
  5
1730A
102
{ACAD_REACTORS
330
1A
102
}
330
1A
100
AcDbGroup
300

 70
     1
 71
     1
340
172F9
340
172FA
340
17305
340
17306
340
17307
340
17308
340
17309
  0
GROUP
  5
17965
102
{ACAD_REACTORS
330
1A
102
}
330
1A
100
AcDbGroup
300

 70
     1
 71
     1
340
178F2
340
178F3
340
178F4
340
178F5
340
178F6
  0
LAYOUT
  5
21
102
{ACAD_REACTORS
330
1E
102
}
330
1E
100
AcDbPlotSettings
  1

  2
none_device
  4
ISO_A3_(420.00_x_297.00_MM)
  6

 40
7.5
 41
20.0
 42
7.5
 43
20.0
 44
420.0
 45
297.0
 46
0.0
 47
0.0
 48
0.0
 49
0.0
140
0.0
141
0.0
142
1.0
143
1.0
 70
     0
 72
     1
 73
     0
 74
     0
  7

 75
     0
 76
     0
 77
     2
 78
   300
147
1.0
148
0.0
149
0.0
100
AcDbLayout
  1
Layout1
 70
     0
 71
     0
 10
-7.5
 20
-20.0
 11
412.5
 21
277.0
 12
0.0
 22
0.0
 32
0.0
 14
0.0
 24
0.0
 34
0.0
 15
0.0
 25
0.0
 35
0.0
146
0.0
 13
0.0
 23
0.0
 33
0.0
 16
0.0
 26
0.0
 36
0.0
 17
0.0
 27
0.0
 37
0.0
 76
     0
330
B
331
349
  0
LAYOUT
  5
20
102
{ACAD_REACTORS
330
1E
102
}
330
1E
100
AcDbPlotSettings
  1

  2
Adobe PDF
  4
A4
  6

 40
0.0
 41
0.0400000000000205
 42
0.0600000000000023
 43
0.0
 44
210.0
 45
297.0
 46
0.0
 47
0.0
 48
0.0
 49
0.0
140
0.0
141
0.0
142
1.0
143
3.000857387825093
 70
  1712
 72
     1
 73
     0
 74
     2
  7
monochrome.ctb
 75
     0
 76
   110
 77
     2
 78
   300
147
0.3332380952380952
148
-406.0201356708992
149
-371.9012854698341
100
AcDbLayout
  1
Model
 70
     0
 71
     1
 10
0.0
 20
0.0
 11
630.0
 21
891.0
 12
0.0
 22
0.0
 32
0.0
 14
0.0
 24
0.0
 34
-0.0000000000000071
 15
630.0
 25
891.0
 35
0.0000000000000071
146
0.0
 13
0.0
 23
0.0
 33
0.0
 16
0.0
 26
0.0
 36
0.0
 17
0.0
 27
0.0
 37
0.0
 76
     0
330
A
331
15
1001
PLOTTRANSPARENCY
1071
        0
  0
MATERIAL
  5
265
102
{ACAD_REACTORS
330
263
102
}
330
263
100
AcDbMaterial
  1
ByBlock
 72
     1
 94
      127
  0
MATERIAL
  5
264
102
{ACAD_REACTORS
330
263
102
}
330
263
100
AcDbMaterial
  1
ByLayer
 72
     1
 94
      127
  0
MATERIAL
  5
266
102
{ACAD_REACTORS
330
263
102
}
330
263
100
AcDbMaterial
  1
Global
 72
     1
 94
      127
  0
MLEADERSTYLE
  5
D59
102
{ACAD_REACTORS
330
336
102
}
330
336
100
AcDbMLeaderStyle
170
     2
171
     1
172
     0
 90
        2
 40
0.0
 41
0.0
173
     1
 91
-1056964608
340
11
 92
       -2
290
     1
 42
2.0
291
     1
 43
8.0
  3
Standard
341
0
 44
4.0
300

342
17
174
     1
178
     6
175
     1
176
     0
 93
-1056964608
 45
4.0
292
     0
297
     0
 46
4.0
343
0
 94
-1056964608
 47
1.0
 49
1.0
140
1.0
293
     1
141
0.0
294
     1
177
     0
142
1.0
295
     0
296
     0
143
3.75
1001
ACAD_MLEADERVER
1070
     2
  0
MLINESTYLE
  5
1C
102
{ACAD_REACTORS
330
1B
102
}
330
1B
100
AcDbMlineStyle
  2
Standard
 70
     0
  3

 62
     0
 51
90.0
 52
90.0
 71
     2
 49
0.5
 62
   256
  6
BYLAYER
 49
-0.5
 62
   256
  6
BYLAYER
  0
ACDBPLACEHOLDER
  5
1D
102
{ACAD_REACTORS
330
1F
102
}
330
1F
  0
SCALE
  5
242
102
{ACAD_REACTORS
330
241
102
}
330
241
100
AcDbScale
 70
     0
300
1:1
140
1.0
141
1.0
290
     1
  0
SCALE
  5
243
102
{ACAD_REACTORS
330
241
102
}
330
241
100
AcDbScale
 70
     0
300
1:2
140
1.0
141
2.0
290
     0
  0
SCALE
  5
244
102
{ACAD_REACTORS
330
241
102
}
330
241
100
AcDbScale
 70
     0
300
1:4
140
1.0
141
4.0
290
     0
  0
SCALE
  5
245
102
{ACAD_REACTORS
330
241
102
}
330
241
100
AcDbScale
 70
     0
300
1:5
140
1.0
141
5.0
290
     0
  0
SCALE
  5
246
102
{ACAD_REACTORS
330
241
102
}
330
241
100
AcDbScale
 70
     0
300
1:8
140
1.0
141
8.0
290
     0
  0
SCALE
  5
247
102
{ACAD_REACTORS
330
241
102
}
330
241
100
AcDbScale
 70
     0
300
1:10
140
1.0
141
10.0
290
     0
  0
SCALE
  5
248
102
{ACAD_REACTORS
330
241
102
}
330
241
100
AcDbScale
 70
     0
300
1:16
140
1.0
141
16.0
290
     0
  0
SCALE
  5
249
102
{ACAD_REACTORS
330
241
102
}
330
241
100
AcDbScale
 70
     0
300
1:20
140
1.0
141
20.0
290
     0
  0
SCALE
  5
24A
102
{ACAD_REACTORS
330
241
102
}
330
241
100
AcDbScale
 70
     0
300
1:30
140
1.0
141
30.0
290
     0
  0
SCALE
  5
24B
102
{ACAD_REACTORS
330
241
102
}
330
241
100
AcDbScale
 70
     0
300
1:40
140
1.0
141
40.0
290
     0
  0
SCALE
  5
24C
102
{ACAD_REACTORS
330
241
102
}
330
241
100
AcDbScale
 70
     0
300
1:50
140
1.0
141
50.0
290
     0
  0
SCALE
  5
24D
102
{ACAD_REACTORS
330
241
102
}
330
241
100
AcDbScale
 70
     0
300
1:100
140
1.0
141
100.0
290
     0
  0
SCALE
  5
24E
102
{ACAD_REACTORS
330
241
102
}
330
241
100
AcDbScale
 70
     0
300
2:1
140
2.0
141
1.0
290
     0
  0
SCALE
  5
24F
102
{ACAD_REACTORS
330
241
102
}
330
241
100
AcDbScale
 70
     0
300
4:1
140
4.0
141
1.0
290
     0
  0
SCALE
  5
250
102
{ACAD_REACTORS
330
241
102
}
330
241
100
AcDbScale
 70
     0
300
8:1
140
8.0
141
1.0
290
     0
  0
SCALE
  5
251
102
{ACAD_REACTORS
330
241
102
}
330
241
100
AcDbScale
 70
     0
300
10:1
140
10.0
141
1.0
290
     0
  0
SCALE
  5
252
102
{ACAD_REACTORS
330
241
102
}
330
241
100
AcDbScale
 70
     0
300
100:1
140
100.0
141
1.0
290
     0
  0
SCALE
  5
253
102
{ACAD_REACTORS
330
241
102
}
330
241
100
AcDbScale
 70
     0
300
1/128" = 1'-0"
140
0.0078125
141
12.0
290
     0
  0
SCALE
  5
254
102
{ACAD_REACTORS
330
241
102
}
330
241
100
AcDbScale
 70
     0
300
1/64" = 1'-0"
140
0.015625
141
12.0
290
     0
  0
SCALE
  5
255
102
{ACAD_REACTORS
330
241
102
}
330
241
100
AcDbScale
 70
     0
300
1/32" = 1'-0"
140
0.03125
141
12.0
290
     0
  0
SCALE
  5
256
102
{ACAD_REACTORS
330
241
102
}
330
241
100
AcDbScale
 70
     0
300
1/16" = 1'-0"
140
0.0625
141
12.0
290
     0
  0
SCALE
  5
257
102
{ACAD_REACTORS
330
241
102
}
330
241
100
AcDbScale
 70
     0
300
3/32" = 1'-0"
140
0.09375
141
12.0
290
     0
  0
SCALE
  5
258
102
{ACAD_REACTORS
330
241
102
}
330
241
100
AcDbScale
 70
     0
300
1/8" = 1'-0"
140
0.125
141
12.0
290
     0
  0
SCALE
  5
259
102
{ACAD_REACTORS
330
241
102
}
330
241
100
AcDbScale
 70
     0
300
3/16" = 1'-0"
140
0.1875
141
12.0
290
     0
  0
SCALE
  5
25A
102
{ACAD_REACTORS
330
241
102
}
330
241
100
AcDbScale
 70
     0
300
1/4" = 1'-0"
140
0.25
141
12.0
290
     0
  0
SCALE
  5
25B
102
{ACAD_REACTORS
330
241
102
}
330
241
100
AcDbScale
 70
     0
300
3/8" = 1'-0"
140
0.375
141
12.0
290
     0
  0
SCALE
  5
25C
102
{ACAD_REACTORS
330
241
102
}
330
241
100
AcDbScale
 70
     0
300
1/2" = 1'-0"
140
0.5
141
12.0
290
     0
  0
SCALE
  5
25D
102
{ACAD_REACTORS
330
241
102
}
330
241
100
AcDbScale
 70
     0
300
3/4" = 1'-0"
140
0.75
141
12.0
290
     0
  0
SCALE
  5
25E
102
{ACAD_REACTORS
330
241
102
}
330
241
100
AcDbScale
 70
     0
300
1" = 1'-0"
140
1.0
141
12.0
290
     0
  0
SCALE
  5
25F
102
{ACAD_REACTORS
330
241
102
}
330
241
100
AcDbScale
 70
     0
300
1-1/2" = 1'-0"
140
1.5
141
12.0
290
     0
  0
SCALE
  5
260
102
{ACAD_REACTORS
330
241
102
}
330
241
100
AcDbScale
 70
     0
300
3" = 1'-0"
140
3.0
141
12.0
290
     0
  0
SCALE
  5
261
102
{ACAD_REACTORS
330
241
102
}
330
241
100
AcDbScale
 70
     0
300
6" = 1'-0"
140
6.0
141
12.0
290
     0
  0
SCALE
  5
262
102
{ACAD_REACTORS
330
241
102
}
330
241
100
AcDbScale
 70
     0
300
1'-0" = 1'-0"
140
12.0
141
12.0
290
     0
  0
TABLESTYLE
  5
279
102
{ACAD_REACTORS
330
278
102
}
102
{ACAD_XDICTIONARY
360
179A6
102
}
330
278
100
AcDbTableStyle
  3
Standard
 70
     0
 71
     0
 40
0.06
 41
0.06
280
     0
281
     0
  7
Standard
140
4.5
170
     2
 62
     0
 63
   257
283
     0
 90
        4
 91
        0
  1

274
    -2
284
     1
 64
     0
275
    -2
285
     1
 65
     0
276
    -2
286
     1
 66
     0
277
    -2
287
     1
 67
     0
278
    -2
288
     1
 68
     0
279
    -2
289
     1
 69
     0
  7
Standard
140
6.0
170
     5
 62
     0
 63
   257
283
     0
 90
        4
 91
        0
  1

274
    -2
284
     1
 64
     0
275
    -2
285
     1
 65
     0
276
    -2
286
     1
 66
     0
277
    -2
287
     1
 67
     0
278
    -2
288
     1
 68
     0
279
    -2
289
     1
 69
     0
  7
Standard
140
4.5
170
     5
 62
     0
 63
   257
283
     0
 90
        4
 91
        0
  1

274
    -2
284
     1
 64
     0
275
    -2
285
     1
 65
     0
276
    -2
286
     1
 66
     0
277
    -2
287
     1
 67
     0
278
    -2
288
     1
 68
     0
279
    -2
289
     1
 69
     0
  0
VISUALSTYLE
  5
3666
102
{ACAD_REACTORS
330
267
102
}
330
267
100
AcDbVisualStyle
  2
*
 70
    10
 71
     0
 72
     2
 73
     0
 90
        0
 40
-0.6
 41
-30.0
 62
     5
 63
     7
421
 16777215
 74
     1
 91
        4
 64
     7
 65
   257
 75
     1
175
     1
 42
1.0
 92
        8
 66
     7
 43
1.0
 76
     1
 77
     6
 78
     2
 67
     7
 79
     5
170
     0
171
     0
290
     0
174
     0
 93
        1
 44
0.0
173
     0
291
     0
 45
0.0
  0
VISUALSTYLE
  5
26C
102
{ACAD_REACTORS
330
267
102
}
330
267
100
AcDbVisualStyle
  2
2dWireframe
 70
     4
 71
     0
 72
     2
 73
     0
 90
        0
 40
-0.6
 41
-30.0
 62
     5
 63
     7
421
 16777215
 74
     1
 91
        4
 64
     7
 65
   257
 75
     1
175
     1
 42
1.0
 92
        0
 66
   257
 43
1.0
 76
     1
 77
     6
 78
     2
 67
     7
 79
     5
170
     0
171
     0
290
     0
174
     0
 93
        1
 44
0.0
173
     0
291
     0
 45
0.0
  0
VISUALSTYLE
  5
26E
102
{ACAD_REACTORS
330
267
102
}
330
267
100
AcDbVisualStyle
  2
3D Hidden
 70
     6
 71
     1
 72
     2
 73
     2
 90
        0
 40
-0.6
 41
-30.0
 62
     5
 63
     7
421
 16777215
 74
     2
 91
        2
 64
     7
 65
   257
 75
     2
175
     1
 42
40.0
 92
        0
 66
   257
 43
1.0
 76
     1
 77
     6
 78
     2
 67
     7
 79
     3
170
     0
171
     0
290
     0
174
     0
 93
        1
 44
0.0
173
     0
291
     0
 45
0.0
  0
VISUALSTYLE
  5
26D
102
{ACAD_REACTORS
330
267
102
}
330
267
100
AcDbVisualStyle
  2
3dWireframe
 70
     5
 71
     0
 72
     2
 73
     0
 90
        0
 40
-0.6
 41
-30.0
 62
     5
 63
     7
421
 16777215
 74
     1
 91
        4
 64
     7
 65
   257
 75
     1
175
     1
 42
1.0
 92
        0
 66
   257
 43
1.0
 76
     1
 77
     6
 78
     2
 67
     7
 79
     5
170
     0
171
     0
290
     0
174
     0
 93
        1
 44
0.0
173
     0
291
     0
 45
0.0
  0
VISUALSTYLE
  5
26F
102
{ACAD_REACTORS
330
267
102
}
330
267
100
AcDbVisualStyle
  2
Basic
 70
     7
 71
     1
 72
     0
 73
     1
 90
        0
 40
-0.6
 41
-30.0
 62
     5
 63
     7
421
 16777215
 74
     0
 91
        4
 64
     7
 65
   257
 75
     1
175
     1
 42
1.0
 92
        8
 66
     7
 43
1.0
 76
     1
 77
     6
 78
     2
 67
     7
 79
     5
170
     0
171
     0
290
     0
174
     0
 93
        1
 44
0.0
173
     0
291
     1
 45
0.0
  0
VISUALSTYLE
  5
273
102
{ACAD_REACTORS
330
267
102
}
330
267
100
AcDbVisualStyle
  2
Brighten
 70
    12
 71
     2
 72
     2
 73
     0
 90
        0
 40
-0.6
 41
-30.0
 62
     5
 63
     7
421
 16777215
 74
     1
 91
        4
 64
     7
 65
   257
 75
     1
175
     1
 42
1.0
 92
        8
 66
     7
 43
1.0
 76
     1
 77
     6
 78
     2
 67
     7
 79
     5
170
     0
171
     0
290
     0
174
     0
 93
        1
 44
50.0
173
     0
291
     1
 45
0.0
  0
VISUALSTYLE
  5
277
102
{ACAD_REACTORS
330
267
102
}
330
267
100
AcDbVisualStyle
  2
ColorChange
 70
    16
 71
     2
 72
     2
 73
     3
 90
        0
 40
-0.6
 41
-30.0
 62
     5
 63
     8
421
  8421504
 74
     1
 91
        4
 64
     7
 65
   257
 75
     1
175
     1
 42
1.0
 92
        8
 66
     8
424
  8421504
 43
1.0
 76
     1
 77
     6
 78
     2
 67
     7
 79
     5
170
     0
171
     0
290
     0
174
     0
 93
        1
 44
0.0
173
     0
291
     1
 45
0.0
  0
VISUALSTYLE
  5
271
102
{ACAD_REACTORS
330
267
102
}
330
267
100
AcDbVisualStyle
  2
Conceptual
 70
     9
 71
     3
 72
     2
 73
     0
 90
        0
 40
-0.6
 41
-30.0
 62
     5
 63
     7
421
 16777215
 74
     2
 91
        2
 64
     7
 65
   257
 75
     1
175
     1
 42
40.0
 92
        8
 66
     7
 43
1.0
 76
     1
 77
     6
 78
     2
 67
     7
 79
     3
170
     0
171
     0
290
     0
174
     0
 93
        1
 44
0.0
173
     0
291
     0
 45
0.0
  0
VISUALSTYLE
  5
272
102
{ACAD_REACTORS
330
267
102
}
330
267
100
AcDbVisualStyle
  2
Dim
 70
    11
 71
     2
 72
     2
 73
     0
 90
        0
 40
-0.6
 41
-30.0
 62
     5
 63
     7
421
 16777215
 74
     1
 91
        4
 64
     7
 65
   257
 75
     1
175
     1
 42
1.0
 92
        8
 66
     7
 43
1.0
 76
     1
 77
     6
 78
     2
 67
     7
 79
     5
170
     0
171
     0
290
     0
174
     0
 93
        1
 44
-50.0
173
     0
291
     1
 45
0.0
  0
VISUALSTYLE
  5
8FE
102
{ACAD_REACTORS
330
267
102
}
330
267
100
AcDbVisualStyle
  2
EdgeColorOff
 70
    22
 71
     2
 72
     2
 73
     0
 90
        0
 40
0.6
 41
30.0
 62
     5
 63
     7
421
 16777215
 74
     1
 91
        4
 64
     7
 65
   257
 75
     1
175
     1
 42
1.0
 92
        8
 66
     7
 43
1.0
 76
     1
 77
     6
 78
     2
 67
     7
 79
     5
170
     0
171
     0
290
     0
174
     0
 93
        1
 44
0.0
173
     0
291
     1
 45
0.0
  0
VISUALSTYLE
  5
276
102
{ACAD_REACTORS
330
267
102
}
330
267
100
AcDbVisualStyle
  2
Facepattern
 70
    15
 71
     2
 72
     2
 73
     0
 90
        0
 40
-0.6
 41
-30.0
 62
     5
 63
     7
421
 16777215
 74
     1
 91
        4
 64
     7
 65
   257
 75
     1
175
     1
 42
1.0
 92
        8
 66
     7
 43
1.0
 76
     1
 77
     6
 78
     2
 67
     7
 79
     5
170
     0
171
     0
290
     0
174
     0
 93
        1
 44
0.0
173
     0
291
     1
 45
0.0
  0
VISUALSTYLE
  5
268
102
{ACAD_REACTORS
330
267
102
}
330
267
100
AcDbVisualStyle
  2
Flat
 70
     0
 71
     2
 72
     1
 73
     1
 90
        2
 40
-0.6
 41
30.0
 62
     5
 63
     7
421
 16777215
 74
     0
 91
        4
 64
     7
 65
   257
 75
     1
175
     1
 42
1.0
 92
        8
 66
     7
 43
1.0
 76
     1
 77
     6
 78
     2
 67
     7
 79
     5
170
     0
171
     0
290
     0
174
     0
 93
       13
 44
0.0
173
     0
291
     1
 45
0.0
  0
VISUALSTYLE
  5
269
102
{ACAD_REACTORS
330
267
102
}
330
267
100
AcDbVisualStyle
  2
FlatWithEdges
 70
     1
 71
     2
 72
     1
 73
     1
 90
        2
 40
-0.6
 41
30.0
 62
     5
 63
     7
421
 16777215
 74
     1
 91
        4
 64
     7
 65
   257
 75
     1
175
     1
 42
1.0
 92
        0
 66
   257
 43
1.0
 76
     1
 77
     6
 78
     2
 67
     7
 79
     5
170
     0
171
     0
290
     0
174
     0
 93
       13
 44
0.0
173
     0
291
     1
 45
0.0
  0
VISUALSTYLE
  5
26A
102
{ACAD_REACTORS
330
267
102
}
330
267
100
AcDbVisualStyle
  2
Gouraud
 70
     2
 71
     2
 72
     2
 73
     1
 90
        2
 40
-0.6
 41
30.0
 62
     5
 63
     7
421
 16777215
 74
     0
 91
        4
 64
     7
 65
   257
 75
     1
175
     1
 42
1.0
 92
        0
 66
     7
 43
1.0
 76
     1
 77
     6
 78
     2
 67
     7
 79
     5
170
     0
171
     0
290
     0
174
     0
 93
       13
 44
0.0
173
     0
291
     1
 45
0.0
  0
VISUALSTYLE
  5
26B
102
{ACAD_REACTORS
330
267
102
}
330
267
100
AcDbVisualStyle
  2
GouraudWithEdges
 70
     3
 71
     2
 72
     2
 73
     1
 90
        2
 40
-0.6
 41
30.0
 62
     5
 63
     7
421
 16777215
 74
     1
 91
        4
 64
     7
 65
   257
 75
     1
175
     1
 42
1.0
 92
        0
 66
   257
 43
1.0
 76
     1
 77
     6
 78
     2
 67
     7
 79
     5
170
     0
171
     0
290
     0
174
     0
 93
       13
 44
0.0
173
     0
291
     1
 45
0.0
  0
VISUALSTYLE
  5
8FB
102
{ACAD_REACTORS
330
267
102
}
330
267
100
AcDbVisualStyle
  2
Hidden
 70
     6
 71
     1
 72
     2
 73
     2
 90
        0
 40
0.6
 41
30.0
 62
     5
 63
     7
421
 16777215
 74
     2
 91
        2
 64
     7
 65
   257
 75
     2
175
     1
 42
40.0
 92
        0
 66
   257
 43
1.0
 76
     1
 77
     6
 78
     2
 67
     7
 79
     3
170
     0
171
     0
290
     0
174
     0
 93
        1
 44
0.0
173
     0
291
     0
 45
0.0
  0
VISUALSTYLE
  5
8FC
102
{ACAD_REACTORS
330
267
102
}
330
267
100
AcDbVisualStyle
  2
JitterOff
 70
    20
 71
     2
 72
     2
 73
     0
 90
        0
 40
0.6
 41
30.0
 62
     5
 63
     7
421
 16777215
 74
     1
 91
        4
 64
     7
 65
   257
 75
     1
175
     1
 42
1.0
 92
       10
 66
     7
 43
1.0
 76
     1
 77
     6
 78
     2
 67
     7
 79
     5
170
     0
171
     0
290
     0
174
     0
 93
        1
 44
0.0
173
     0
291
     1
 45
0.0
  0
VISUALSTYLE
  5
275
102
{ACAD_REACTORS
330
267
102
}
330
267
100
AcDbVisualStyle
  2
Linepattern
 70
    14
 71
     2
 72
     2
 73
     0
 90
        0
 40
-0.6
 41
-30.0
 62
     5
 63
     7
421
 16777215
 74
     1
 91
        4
 64
     7
 65
   257
 75
     7
175
     7
 42
1.0
 92
        8
 66
     7
 43
1.0
 76
     1
 77
     6
 78
     2
 67
     7
 79
     5
170
     0
171
     0
290
     0
174
     0
 93
        1
 44
0.0
173
     0
291
     1
 45
0.0
  0
VISUALSTYLE
  5
8FD
102
{ACAD_REACTORS
330
267
102
}
330
267
100
AcDbVisualStyle
  2
OverhangOff
 70
    21
 71
     2
 72
     2
 73
     0
 90
        0
 40
0.6
 41
30.0
 62
     5
 63
     7
421
 16777215
 74
     1
 91
        4
 64
     7
 65
   257
 75
     1
175
     1
 42
1.0
 92
        9
 66
     7
 43
1.0
 76
     1
 77
     6
 78
     2
 67
     7
 79
     5
170
     0
171
     0
290
     0
174
     0
 93
        1
 44
0.0
173
     0
291
     1
 45
0.0
  0
VISUALSTYLE
  5
270
102
{ACAD_REACTORS
330
267
102
}
330
267
100
AcDbVisualStyle
  2
Realistic
 70
     8
 71
     2
 72
     2
 73
     0
 90
        0
 40
-0.6
 41
-30.0
 62
     5
 63
     7
421
 16777215
 74
     1
 91
        0
 64
     7
 65
   257
 75
     1
175
     1
 42
1.0
 92
        8
 66
     8
424
  7895160
 43
1.0
 76
     1
 77
     6
 78
     2
 67
     7
 79
     5
170
     0
171
     0
290
     0
174
     0
 93
       13
 44
0.0
173
     0
291
     0
 45
0.0
  0
VISUALSTYLE
  5
903
102
{ACAD_REACTORS
330
267
102
}
330
267
100
AcDbVisualStyle
  2
Shaded
 70
    27
 71
     2
 72
     2
 73
     1
 90
        2
 40
0.6
 41
30.0
 62
     5
 63
     7
421
 16777215
 74
     0
 91
        4
 64
     7
 65
   257
 75
     1
175
     1
 42
1.0
 92
        8
 66
   257
 43
1.0
 76
     1
 77
     6
 78
     2
 67
     8
425
  7895160
 79
     3
170
     0
171
     0
290
     0
174
     0
 93
        5
 44
0.0
173
     0
291
     0
 45
0.0
  0
VISUALSTYLE
  5
902
102
{ACAD_REACTORS
330
267
102
}
330
267
100
AcDbVisualStyle
  2
Shaded with edges
 70
    26
 71
     2
 72
     2
 73
     1
 90
        2
 40
0.6
 41
30.0
 62
     5
 63
     7
421
 16777215
 74
     1
 91
       10
 64
     7
 65
   257
 75
     2
175
     1
 42
1.0
 92
        8
 66
   257
 43
1.0
 76
     1
 77
     6
 78
     2
 67
     7
 79
     3
170
     0
171
     0
290
     0
174
     0
 93
        5
 44
0.0
173
     0
291
     0
 45
0.0
  0
VISUALSTYLE
  5
8FF
102
{ACAD_REACTORS
330
267
102
}
330
267
100
AcDbVisualStyle
  2
Shades of Gray
 70
    23
 71
     2
 72
     2
 73
     3
 90
        0
 40
0.6
 41
30.0
 62
     5
 63
     7
421
 16777215
 74
     2
 91
        2
 64
     7
 65
     7
 75
     1
175
     1
 42
40.0
 92
        8
 66
     7
 43
1.0
 76
     1
 77
     6
 78
     2
 67
     7
 79
     3
170
     0
171
     0
290
     0
174
     0
 93
        1
 44
0.0
173
     0
291
     0
 45
0.0
  0
VISUALSTYLE
  5
900
102
{ACAD_REACTORS
330
267
102
}
330
267
100
AcDbVisualStyle
  2
Sketchy
 70
    24
 71
     1
 72
     2
 73
     2
 90
        0
 40
0.6
 41
30.0
 62
     5
 63
     7
421
 16777215
 74
     2
 91
        2
 64
     7
 65
     7
 75
     1
175
     1
 42
40.0
 92
       11
 66
     7
 43
1.0
 76
     1
 77
     6
 78
     2
 67
     7
 79
     6
170
     0
171
     0
290
     0
174
     0
 93
        1
 44
0.0
173
     0
291
     0
 45
0.0
  0
VISUALSTYLE
  5
274
102
{ACAD_REACTORS
330
267
102
}
330
267
100
AcDbVisualStyle
  2
Thicken
 70
    13
 71
     2
 72
     2
 73
     0
 90
        0
 40
-0.6
 41
-30.0
 62
     5
 63
     7
421
 16777215
 74
     1
 91
        4
 64
     7
 65
   257
 75
     1
175
     1
 42
1.0
 92
       12
 66
     7
 43
1.0
 76
     1
 77
     6
 78
     2
 67
     7
 79
     5
170
     0
171
     0
290
     0
174
     0
 93
        1
 44
0.0
173
     0
291
     1
 45
0.0
  0
VISUALSTYLE
  5
8FA
102
{ACAD_REACTORS
330
267
102
}
330
267
100
AcDbVisualStyle
  2
Wireframe
 70
     5
 71
     0
 72
     2
 73
     0
 90
        0
 40
0.6
 41
30.0
 62
     5
 63
     7
421
 16777215
 74
     1
 91
        4
 64
     7
 65
   257
 75
     1
175
     1
 42
1.0
 92
        0
 66
   257
 43
1.0
 76
     1
 77
     6
 78
     2
 67
     7
 79
     3
170
     0
171
     0
290
     0
174
     0
 93
        1
 44
0.0
173
     0
291
     0
 45
0.0
  0
VISUALSTYLE
  5
901
102
{ACAD_REACTORS
330
267
102
}
330
267
100
AcDbVisualStyle
  2
X-Ray
 70
    25
 71
     2
 72
     2
 73
     1
 90
        1
 40
0.5
 41
30.0
 62
     5
 63
     7
421
 16777215
 74
     1
 91
        0
 64
     7
 65
   257
 75
     1
175
     1
 42
1.0
 92
        8
 66
     7
 43
1.0
 76
     1
 77
     6
 78
     2
 67
     7
 79
     3
170
     0
171
     0
290
     0
174
     0
 93
       13
 44
0.0
173
     0
291
     0
 45
0.0
  0
DICTIONARYVAR
  5
331
102
{ACAD_REACTORS
330
330
102
}
330
330
100
DictionaryVariables
280
     0
  1
1:1
  0
DICTIONARYVAR
  5
D5E
102
{ACAD_REACTORS
330
330
102
}
330
330
100
DictionaryVariables
280
     0
  1
Standard
  0
DICTIONARYVAR
  5
335
102
{ACAD_REACTORS
330
330
102
}
330
330
100
DictionaryVariables
280
     0
  1
Standard
  0
DICTIONARYVAR
  5
D52
102
{ACAD_REACTORS
330
330
102
}
330
330
100
DictionaryVariables
280
     0
  1
ByLayer
  0
DICTIONARYVAR
  5
896
102
{ACAD_REACTORS
330
330
102
}
330
330
100
DictionaryVariables
280
     0
  1
0
  0
DICTIONARYVAR
  5
36AB
102
{ACAD_REACTORS
330
366B
102
}
330
366B
100
DictionaryVariables
280
     0
  1
0.250000
  0
DICTIONARYVAR
  5
36A9
102
{ACAD_REACTORS
330
E38
102
}
330
E38
100
DictionaryVariables
280
     0
  1
0.261799
  0
DICTIONARYVAR
  5
36A7
102
{ACAD_REACTORS
330
E38
102
}
330
E38
100
DictionaryVariables
280
     0
  1
0.400000
  0
DICTIONARYVAR
  5
36A8
102
{ACAD_REACTORS
330
E38
102
}
330
E38
100
DictionaryVariables
280
     0
  1
0.250000
  0
DICTIONARYVAR
  5
36AA
102
{ACAD_REACTORS
330
E38
102
}
330
E38
100
DictionaryVariables
280
     0
  1
1
  0
FIELD
  5
36AD
102
{ACAD_REACTORS
330
17967
102
}
330
17967
100
AcDbField
  1
_text
  2
{%<\_FldIdx 0>%M}
 90
        1
360
36B1
 97
        0
 91
       63
 92
        0
 94
       11
 95
        2
 96
        0
300

 93
        1
  6
ACFD_FIELDTEXT_CHECKSUM
 93
        2
 90
        2
140
4438.0
 94
        0
300

302

304
ACVALUE_END
  7
ACFD_FIELD_VALUE
 93
        6
 90
        4
  1
{20211013M}
 94
        0
300

302

304
ACVALUE_END
301
{20211013M}
 98
       11
  0
DICTIONARY
  5
179A6
330
279
100
AcDbDictionary
280
     1
281
     1
  3
ACAD_ROUNDTRIP_2008_TABLESTYLE_CELLSTYLEMAP
360
179A7
  0
FIELD
  5
36B1
330
36AD
100
AcDbField
  1
AcVar
  2
\AcVar Date \f "yyyyMMdd"
 90
        0
 97
        0
 91
       63
 92
        0
 94
        8
 95
       64
 96
        0
300
Variable not supported
 93
        1
  6
Variable
 93
        2
 90
        4
  1
Date
 94
        0
300

302

304
ACVALUE_END
  7
ACFD_FIELD_VALUE
 93
        6
 90
        8
 92
       16
310
E5070A0000000D000600310010000000
 94
        0
300
yyyyMMdd
302

304
ACVALUE_END
301
20211013
 98
        8
  0
CELLSTYLEMAP
  5
179A7
102
{ACAD_REACTORS
330
179A6
102
}
330
179A6
100
AcDbCellStyleMap
 90
        3
300
CELLSTYLE
  1
TABLEFORMAT_BEGIN
 90
        5
170
     1
 91
        0
 92
    32768
 62
   257
 93
        1
300
CONTENTFORMAT
  1
CONTENTFORMAT_BEGIN
 90
        0
 91
        0
 92
        4
 93
        0
300

 40
0.0
140
1.0
 94
        5
 62
     0
340
17
144
6.0
309
CONTENTFORMAT_END
171
     1
301
MARGIN
  1
CELLMARGIN_BEGIN
 40
0.06
 40
0.06
 40
0.06
 40
0.06
 40
0.18
 40
0.18
309
CELLMARGIN_END
 94
        6
 95
        1
302
GRIDFORMAT
  1
GRIDFORMAT_BEGIN
 90
        0
 91
        1
 62
     0
 92
       -2
340
0
 93
        0
 40
0.045
309
GRIDFORMAT_END
 95
        2
302
GRIDFORMAT
  1
GRIDFORMAT_BEGIN
 90
        0
 91
        1
 62
     0
 92
       -2
340
0
 93
        0
 40
0.045
309
GRIDFORMAT_END
 95
        4
302
GRIDFORMAT
  1
GRIDFORMAT_BEGIN
 90
        0
 91
        1
 62
     0
 92
       -2
340
0
 93
        0
 40
0.045
309
GRIDFORMAT_END
 95
        8
302
GRIDFORMAT
  1
GRIDFORMAT_BEGIN
 90
        0
 91
        1
 62
     0
 92
       -2
340
0
 93
        0
 40
0.045
309
GRIDFORMAT_END
 95
       16
302
GRIDFORMAT
  1
GRIDFORMAT_BEGIN
 90
        0
 91
        1
 62
     0
 92
       -2
340
0
 93
        0
 40
0.045
309
GRIDFORMAT_END
 95
       32
302
GRIDFORMAT
  1
GRIDFORMAT_BEGIN
 90
        0
 91
        1
 62
     0
 92
       -2
340
0
 93
        0
 40
0.045
309
GRIDFORMAT_END
309
TABLEFORMAT_END
  1
CELLSTYLE_BEGIN
 90
        1
 91
        1
300
_TITLE
309
CELLSTYLE_END
300
CELLSTYLE
  1
TABLEFORMAT_BEGIN
 90
        5
170
     1
 91
        0
 92
        0
 62
   257
 93
        1
300
CONTENTFORMAT
  1
CONTENTFORMAT_BEGIN
 90
        0
 91
        0
 92
        4
 93
        0
300

 40
0.0
140
1.0
 94
        5
 62
     0
340
17
144
4.5
309
CONTENTFORMAT_END
171
     1
301
MARGIN
  1
CELLMARGIN_BEGIN
 40
0.06
 40
0.06
 40
0.06
 40
0.06
 40
0.18
 40
0.18
309
CELLMARGIN_END
 94
        6
 95
        1
302
GRIDFORMAT
  1
GRIDFORMAT_BEGIN
 90
        0
 91
        1
 62
     0
 92
       -2
340
0
 93
        0
 40
0.045
309
GRIDFORMAT_END
 95
        2
302
GRIDFORMAT
  1
GRIDFORMAT_BEGIN
 90
        0
 91
        1
 62
     0
 92
       -2
340
0
 93
        0
 40
0.045
309
GRIDFORMAT_END
 95
        4
302
GRIDFORMAT
  1
GRIDFORMAT_BEGIN
 90
        0
 91
        1
 62
     0
 92
       -2
340
0
 93
        0
 40
0.045
309
GRIDFORMAT_END
 95
        8
302
GRIDFORMAT
  1
GRIDFORMAT_BEGIN
 90
        0
 91
        1
 62
     0
 92
       -2
340
0
 93
        0
 40
0.045
309
GRIDFORMAT_END
 95
       16
302
GRIDFORMAT
  1
GRIDFORMAT_BEGIN
 90
        0
 91
        1
 62
     0
 92
       -2
340
0
 93
        0
 40
0.045
309
GRIDFORMAT_END
 95
       32
302
GRIDFORMAT
  1
GRIDFORMAT_BEGIN
 90
        0
 91
        1
 62
     0
 92
       -2
340
0
 93
        0
 40
0.045
309
GRIDFORMAT_END
309
TABLEFORMAT_END
  1
CELLSTYLE_BEGIN
 90
        2
 91
        1
300
_HEADER
309
CELLSTYLE_END
300
CELLSTYLE
  1
TABLEFORMAT_BEGIN
 90
        5
170
     1
 91
        0
 92
        0
 62
   257
 93
        1
300
CONTENTFORMAT
  1
CONTENTFORMAT_BEGIN
 90
        0
 91
        0
 92
        4
 93
        0
300

 40
0.0
140
1.0
 94
        2
 62
     0
340
17
144
4.5
309
CONTENTFORMAT_END
171
     1
301
MARGIN
  1
CELLMARGIN_BEGIN
 40
0.06
 40
0.06
 40
0.06
 40
0.06
 40
0.18
 40
0.18
309
CELLMARGIN_END
 94
        6
 95
        1
302
GRIDFORMAT
  1
GRIDFORMAT_BEGIN
 90
        0
 91
        1
 62
     0
 92
       -2
340
0
 93
        0
 40
0.045
309
GRIDFORMAT_END
 95
        2
302
GRIDFORMAT
  1
GRIDFORMAT_BEGIN
 90
        0
 91
        1
 62
     0
 92
       -2
340
0
 93
        0
 40
0.045
309
GRIDFORMAT_END
 95
        4
302
GRIDFORMAT
  1
GRIDFORMAT_BEGIN
 90
        0
 91
        1
 62
     0
 92
       -2
340
0
 93
        0
 40
0.045
309
GRIDFORMAT_END
 95
        8
302
GRIDFORMAT
  1
GRIDFORMAT_BEGIN
 90
        0
 91
        1
 62
     0
 92
       -2
340
0
 93
        0
 40
0.045
309
GRIDFORMAT_END
 95
       16
302
GRIDFORMAT
  1
GRIDFORMAT_BEGIN
 90
        0
 91
        1
 62
     0
 92
       -2
340
0
 93
        0
 40
0.045
309
GRIDFORMAT_END
 95
       32
302
GRIDFORMAT
  1
GRIDFORMAT_BEGIN
 90
        0
 91
        1
 62
     0
 92
       -2
340
0
 93
        0
 40
0.045
309
GRIDFORMAT_END
309
TABLEFORMAT_END
  1
CELLSTYLE_BEGIN
 90
        3
 91
        2
300
_DATA
309
CELLSTYLE_END
  0
ENDSEC
  0
EOF
