  0
SECTION
  2
HEADER
  9
$ACADVER
  1
AC1021
  9
$ACADMAINTVER
 70
    25
  9
$DWGCODEPAGE
  3
ANSI_932
  9
$LASTSAVEDBY
  1
tform
  9
$INSBASE
 10
0.0
 20
0.0
 30
0.0
  9
$EXTMIN
 10
0.0
 20
0.0
 30
-0.0000000000000071
  9
$EXTMAX
 10
210.0
 20
297.0
 30
0.0000000000000071
  9
$LIMMIN
 10
0.0
 20
0.0
  9
$LIMMAX
 10
210.0
 20
297.0
  9
$ORTHOMODE
 70
     1
  9
$REGENMODE
 70
     1
  9
$FILLMODE
 70
     1
  9
$QTEXTMODE
 70
     0
  9
$MIRRTEXT
 70
     1
  9
$LTSCALE
 40
0.5
  9
$ATTMODE
 70
     1
  9
$TEXTSIZE
 40
2.5
  9
$TRACEWID
 40
1.0
  9
$TEXTSTYLE
  7
ＭＳ ゴシック
  9
$CLAYER
  8
DIM
  9
$CELTYPE
  6
ByLayer
  9
$CECOLOR
 62
   256
  9
$CELTSCALE
 40
1.0
  9
$DISPSILH
 70
     0
  9
$DIMSCALE
 40
1.0
  9
$DIMASZ
 40
1.0
  9
$DIMEXO
 40
2.0
  9
$DIMDLI
 40
0.9999999999999999
  9
$DIMRND
 40
0.0
  9
$DIMDLE
 40
0.0
  9
$DIMEXE
 40
0.0
  9
$DIMTP
 40
0.0
  9
$DIMTM
 40
0.0
  9
$DIMTXT
 40
3.0
  9
$DIMCEN
 40
0.0
  9
$DIMTSZ
 40
0.0
  9
$DIMTOL
 70
     0
  9
$DIMLIM
 70
     0
  9
$DIMTIH
 70
     0
  9
$DIMTOH
 70
     0
  9
$DIMSE1
 70
     0
  9
$DIMSE2
 70
     0
  9
$DIMTAD
 70
     1
  9
$DIMZIN
 70
    11
  9
$DIMBLK
  1
DOT
  9
$DIMASO
 70
     1
  9
$DIMSHO
 70
     1
  9
$DIMPOST
  1
<>
  9
$DIMAPOST
  1
[]
  9
$DIMALT
 70
     0
  9
$DIMALTD
 70
     1
  9
$DIMALTF
 40
1.0
  9
$DIMLFAC
 40
1.0
  9
$DIMTOFL
 70
     0
  9
$DIMTVP
 40
0.0
  9
$DIMTIX
 70
     1
  9
$DIMSOXD
 70
     0
  9
$DIMSAH
 70
     0
  9
$DIMBLK1
  1

  9
$DIMBLK2
  1

  9
$DIMSTYLE
  2
tfrom線あり
  9
$DIMCLRD
 70
     0
  9
$DIMCLRE
 70
     0
  9
$DIMCLRT
 70
     0
  9
$DIMTFAC
 40
1.0
  9
$DIMGAP
 40
1.0
  9
$DIMJUST
 70
     0
  9
$DIMSD1
 70
     0
  9
$DIMSD2
 70
     0
  9
$DIMTOLJ
 70
     1
  9
$DIMTZIN
 70
    11
  9
$DIMALTZ
 70
    11
  9
$DIMALTTZ
 70
    11
  9
$DIMUPT
 70
     0
  9
$DIMDEC
 70
     0
  9
$DIMTDEC
 70
     1
  9
$DIMALTU
 70
     2
  9
$DIMALTTD
 70
     2
  9
$DIMTXSTY
  7
ＭＳ ゴシック
  9
$DIMAUNIT
 70
     0
  9
$DIMADEC
 70
     2
  9
$DIMALTRND
 40
0.0
  9
$DIMAZIN
 70
     0
  9
$DIMDSEP
 70
    46
  9
$DIMATFIT
 70
     0
  9
$DIMFRAC
 70
     2
  9
$DIMLDRBLK
  1
DOT
  9
$DIMLUNIT
 70
     2
  9
$DIMLWD
 70
    -2
  9
$DIMLWE
 70
    -2
  9
$DIMTMOVE
 70
     0
  9
$DIMFXL
 40
1.0
  9
$DIMFXLON
 70
     0
  9
$DIMJOGANG
 40
0.7853981633974483
  9
$DIMTFILL
 70
     0
  9
$DIMTFILLCLR
 70
     0
  9
$DIMARCSYM
 70
     0
  9
$DIMLTYPE
  6

  9
$DIMLTEX1
  6

  9
$DIMLTEX2
  6

  9
$LUNITS
 70
     2
  9
$LUPREC
 70
     0
  9
$SKETCHINC
 40
0.1
  9
$FILLETRAD
 40
0.0
  9
$AUNITS
 70
     0
  9
$AUPREC
 70
     0
  9
$MENU
  1
acad
  9
$ELEVATION
 40
0.0
  9
$PELEVATION
 40
0.0
  9
$THICKNESS
 40
0.0
  9
$LIMCHECK
 70
     0
  9
$CHAMFERA
 40
0.0
  9
$CHAMFERB
 40
0.0
  9
$CHAMFERC
 40
0.0
  9
$CHAMFERD
 40
0.0
  9
$SKPOLY
 70
     0
  9
$TDCREATE
 40
2447893.375
  9
$TDUCREATE
 40
0.0
  9
$TDUPDATE
 40
2460881.573081308
  9
$TDUUPDATE
 40
2460881.198081308
  9
$TDINDWG
 40
0.0250963773
  9
$TDUSRTIMER
 40
0.0174774769
  9
$USRTIMER
 70
     1
  9
$ANGBASE
 50
0.0
  9
$ANGDIR
 70
     0
  9
$PDMODE
 70
     1
  9
$PDSIZE
 40
-2.0
  9
$PLINEWID
 40
0.0
  9
$SPLFRAME
 70
     0
  9
$SPLINETYPE
 70
     6
  9
$SPLINESEGS
 70
     8
  9
$HANDSEED
  5
253F
  9
$SURFTAB1
 70
     6
  9
$SURFTAB2
 70
     6
  9
$SURFTYPE
 70
     6
  9
$SURFU
 70
     6
  9
$SURFV
 70
     6
  9
$UCSBASE
  2

  9
$UCSNAME
  2

  9
$UCSORG
 10
0.0
 20
0.0
 30
0.0
  9
$UCSXDIR
 10
1.0
 20
0.0
 30
0.0
  9
$UCSYDIR
 10
0.0
 20
1.0
 30
0.0
  9
$UCSORTHOREF
  2

  9
$UCSORTHOVIEW
 70
     0
  9
$UCSORGTOP
 10
0.0
 20
0.0
 30
0.0
  9
$UCSORGBOTTOM
 10
0.0
 20
0.0
 30
0.0
  9
$UCSORGLEFT
 10
0.0
 20
0.0
 30
0.0
  9
$UCSORGRIGHT
 10
0.0
 20
0.0
 30
0.0
  9
$UCSORGFRONT
 10
0.0
 20
0.0
 30
0.0
  9
$UCSORGBACK
 10
0.0
 20
0.0
 30
0.0
  9
$PUCSBASE
  2

  9
$PUCSNAME
  2

  9
$PUCSORG
 10
0.0
 20
0.0
 30
0.0
  9
$PUCSXDIR
 10
1.0
 20
0.0
 30
0.0
  9
$PUCSYDIR
 10
0.0
 20
1.0
 30
0.0
  9
$PUCSORTHOREF
  2

  9
$PUCSORTHOVIEW
 70
     0
  9
$PUCSORGTOP
 10
0.0
 20
0.0
 30
0.0
  9
$PUCSORGBOTTOM
 10
0.0
 20
0.0
 30
0.0
  9
$PUCSORGLEFT
 10
0.0
 20
0.0
 30
0.0
  9
$PUCSORGRIGHT
 10
0.0
 20
0.0
 30
0.0
  9
$PUCSORGFRONT
 10
0.0
 20
0.0
 30
0.0
  9
$PUCSORGBACK
 10
0.0
 20
0.0
 30
0.0
  9
$USERI1
 70
     0
  9
$USERI2
 70
     0
  9
$USERI3
 70
     0
  9
$USERI4
 70
     0
  9
$USERI5
 70
     0
  9
$USERR1
 40
0.0
  9
$USERR2
 40
0.0
  9
$USERR3
 40
0.0
  9
$USERR4
 40
0.0
  9
$USERR5
 40
0.0
  9
$WORLDVIEW
 70
     1
  9
$SHADEDGE
 70
     3
  9
$SHADEDIF
 70
    70
  9
$TILEMODE
 70
     1
  9
$MAXACTVP
 70
    64
  9
$PINSBASE
 10
0.0
 20
0.0
 30
0.0
  9
$PLIMCHECK
 70
     0
  9
$PEXTMIN
 10
0.0
 20
0.0
 30
0.0
  9
$PEXTMAX
 10
0.0
 20
0.0
 30
0.0
  9
$PLIMMIN
 10
-7.5
 20
-20.0
  9
$PLIMMAX
 10
412.5
 20
277.0
  9
$UNITMODE
 70
     0
  9
$VISRETAIN
 70
     0
  9
$PLINEGEN
 70
     1
  9
$PSLTSCALE
 70
     0
  9
$TREEDEPTH
 70
  3020
  9
$CMLSTYLE
  2
Standard
  9
$CMLJUST
 70
     0
  9
$CMLSCALE
 40
1.0
  9
$PROXYGRAPHICS
 70
     0
  9
$MEASUREMENT
 70
     1
  9
$CELWEIGHT
370
    -1
  9
$ENDCAPS
280
     0
  9
$JOINSTYLE
280
     0
  9
$LWDISPLAY
290
     1
  9
$INSUNITS
 70
     4
  9
$HYPERLINKBASE
  1

  9
$STYLESHEET
  1

  9
$XEDIT
290
     1
  9
$CEPSNTYPE
380
     0
  9
$PSTYLEMODE
290
     1
  9
$FINGERPRINTGUID
  2

  9
$VERSIONGUID
  2

  9
$EXTNAMES
290
     1
  9
$PSVPSCALE
 40
0.0
  9
$OLESTARTUP
290
     0
  9
$SORTENTS
280
   127
  9
$INDEXCTL
280
     0
  9
$HIDETEXT
280
     1
  9
$XCLIPFRAME
290
     0
  9
$HALOGAP
280
     0
  9
$OBSCOLOR
 70
   257
  9
$OBSLTYPE
280
     0
  9
$INTERSECTIONDISPLAY
280
     0
  9
$INTERSECTIONCOLOR
 70
   257
  9
$DIMASSOC
280
     2
  9
$PROJECTNAME
  1

  9
$CAMERADISPLAY
290
     0
  9
$LENSLENGTH
 40
50.0
  9
$CAMERAHEIGHT
 40
0.0
  9
$STEPSPERSEC
 40
2.0
  9
$STEPSIZE
 40
6.0
  9
$3DDWFPREC
 40
2.0
  9
$PSOLWIDTH
 40
0.25
  9
$PSOLHEIGHT
 40
4.0
  9
$LOFTANG1
 40
1.570796326794897
  9
$LOFTANG2
 40
1.570796326794897
  9
$LOFTMAG1
 40
0.0
  9
$LOFTMAG2
 40
0.0
  9
$LOFTPARAM
 70
     7
  9
$LOFTNORMALS
280
     1
  9
$LATITUDE
 40
37.795
  9
$LONGITUDE
 40
-122.394
  9
$NORTHDIRECTION
 40
0.0
  9
$TIMEZONE
 70
 -8000
  9
$LIGHTGLYPHDISPLAY
280
     1
  9
$TILEMODELIGHTSYNCH
280
     1
  9
$SOLIDHIST
280
     1
  9
$SHOWHIST
280
     1
  9
$DWFFRAME
280
     2
  9
$DGNFRAME
280
     2
  9
$REALWORLDSCALE
290
     1
  9
$INTERFERECOLOR
 62
   256
  9
$CSHADOW
280
     0
  9
$SHADOWPLANELOCATION
 40
0.0
  0
ENDSEC
  0
SECTION
  2
CLASSES
  0
CLASS
  1
LWPOLYLINE
  2
AcDbPolyline
  3
ObjectDBX Classes
 90
        0
 91
        1
280
     0
281
     1
  0
CLASS
  1
IMAGE
  2
AcDbRasterImage
  3
ISM
 90
      127
 91
        4
280
     0
281
     1
  0
CLASS
  1
OLE2FRAME
  2
AcDbOle2Frame
  3
ObjectDBX Classes
 90
        0
 91
        1
280
     0
281
     1
  0
CLASS
  1
HATCH
  2
AcDbHatch
  3
ObjectDBX Classes
 90
        0
 91
        1
280
     0
281
     1
  0
CLASS
  1
DICTIONARYVAR
  2
AcDbDictionaryVar
  3
ObjectDBX Classes
 90
        0
 91
        3
280
     0
281
     0
  0
CLASS
  1
RASTERVARIABLES
  2
AcDbRasterVariables
  3
ISM
 90
        0
 91
        3
280
     0
281
     0
  0
CLASS
  1
IMAGEDEF
  2
AcDbRasterImageDef
  3
ISM
 90
        0
 91
        3
280
     0
281
     0
  0
CLASS
  1
IMAGEDEF_REACTOR
  2
AcDbRasterImageDefReactor
  3
ISM
 90
        1
 91
        3
280
     0
281
     0
  0
CLASS
  1
IDBUFFER
  2
AcDbIdBuffer
  3
ObjectDBX Classes
 90
        0
 91
        3
280
     0
281
     0
  0
CLASS
  1
SPATIAL_FILTER
  2
AcDbSpatialFilter
  3
ObjectDBX Classes
 90
        0
 91
        3
280
     0
281
     0
  0
CLASS
  1
XRECORD
  2
AcDbXrecord
  3
ObjectDBX Classes
 90
        0
 91
        1
280
     0
281
     0
  0
CLASS
  1
SORTENTSTABLE
  2
AcDbSortentsTable
  3
ObjectDBX Classes
 90
        0
 91
        3
280
     0
281
     0
  0
CLASS
  1
LAYER_INDEX
  2
AcDbLayerIndex
  3
ObjectDBX Classes
 90
        0
 91
        3
280
     0
281
     0
  0
CLASS
  1
SPATIAL_INDEX
  2
AcDbSpatialIndex
  3
AutoCAD 2000
 90
        0
 91
        3
280
     0
281
     0
  0
CLASS
  1
OBJECT_PTR
  2
CAseDLPNTableRecord
  3
ASE-LPNTableRecord
 90
        1
 91
        3
280
     0
281
     0
  0
CLASS
  1
LAYOUT
  2
AcDbLayout
  3
ObjectDBX Classes
 90
        0
 91
        1
280
     0
281
     0
  0
CLASS
  1
PLOTSETTINGS
  2
AcDbPlotSettings
  3
ObjectDBX Classes
 90
        0
 91
        3
280
     0
281
     0
  0
CLASS
  1
ACDBDICTIONARYWDFLT
  2
AcDbDictionaryWithDefault
  3
ObjectDBX Classes
 90
        0
 91
        3
280
     0
281
     0
  0
CLASS
  1
ACDBPLACEHOLDER
  2
AcDbPlaceHolder
  3
ObjectDBX Classes
 90
        0
 91
        1
280
     0
281
     0
  0
CLASS
  1
SCALE
  2
AcDbScale
  3
ObjectDBX Classes
 90
     1153
 91
        3
280
     0
281
     0
  0
CLASS
  1
MATERIAL
  2
AcDbMaterial
  3
ObjectDBX Classes
 90
     1153
 91
        3
280
     0
281
     0
  0
CLASS
  1
VISUALSTYLE
  2
AcDbVisualStyle
  3
ObjectDBX Classes
 90
     4095
 91
        3
280
     0
281
     0
  0
CLASS
  1
TABLESTYLE
  2
AcDbTableStyle
  3
ObjectDBX Classes
 90
     4095
 91
        3
280
     0
281
     0
  0
CLASS
  1
DIMASSOC
  2
AcDbDimAssoc
  3
"AcDbDimAssoc|Product Desc:     AcDim ARX App For Dimension|Company:          Autodesk, Inc.|WEB Address:      www.autodesk.com"
 90
        0
 91
        3
280
     0
281
     0
  0
CLASS
  1
CELLSTYLEMAP
  2
AcDbCellStyleMap
  3
ObjectDBX Classes
 90
     1152
 91
        3
280
     0
281
     0
  0
CLASS
  1
SUN
  2
AcDbSun
  3
SCENEOE
 90
     1153
 91
        3
280
     0
281
     0
  0
CLASS
  1
MLEADERSTYLE
  2
AcDbMLeaderStyle
  3
ACDB_MLEADERSTYLE_CLASS
 90
     4095
 91
        3
280
     0
281
     0
  0
CLASS
  1
FIELD
  2
AcDbField
  3
ObjectDBX Classes
 90
     1152
 91
        3
280
     0
281
     0
  0
CLASS
  1
FIELDLIST
  2
AcDbFieldList
  3
ObjectDBX Classes
 90
     1152
 91
        3
280
     0
281
     0
  0
ENDSEC
  0
SECTION
  2
TABLES
  0
TABLE
  2
VPORT
  5
7
330
0
100
AcDbSymbolTable
 70
     1
  0
VPORT
  5
15
330
7
100
AcDbSymbolTableRecord
100
AcDbViewportTableRecord
  2
*ACTIVE
 70
     0
 10
0.0
 20
0.0
 11
1.0
 21
1.0
 12
196.0201356709
 22
74.90128546983397
 13
0.0
 23
0.0
 14
1.0
 24
1.0
 15
0.0
 25
0.0
 16
0.0
 26
0.0
 36
1.0
 17
-91.02013567090003
 27
73.59871453016603
 37
-46.86809886248109
 40
302.94
 41
2.052208835341366
 42
50.0
 43
0.0
 44
0.0
 50
0.0
 51
0.0
 71
    16
 72
  2000
 73
     1
 74
     1
 75
     0
 76
     0
 77
     0
 78
     0
281
     0
 65
     1
110
0.0
120
0.0
130
0.0
111
1.0
121
0.0
131
0.0
112
0.0
122
1.0
132
0.0
 79
     0
146
0.0
348
26C
 60
     3
 61
     5
292
     1
282
     1
141
0.0
142
0.0
 63
   256
361
904
  0
ENDTAB
  0
TABLE
  2
LTYPE
  5
4
330
0
100
AcDbSymbolTable
 70
     4
  0
LTYPE
  5
11
330
4
100
AcDbSymbolTableRecord
100
AcDbLinetypeTableRecord
  2
ByBlock
 70
     0
  3

 72
    65
 73
     0
 40
0.0
  0
LTYPE
  5
12
330
4
100
AcDbSymbolTableRecord
100
AcDbLinetypeTableRecord
  2
ByLayer
 70
     0
  3

 72
    65
 73
     0
 40
0.0
  0
LTYPE
  5
13
330
4
100
AcDbSymbolTableRecord
100
AcDbLinetypeTableRecord
  2
Continuous
 70
     0
  3
Solid line
 72
    65
 73
     0
 40
0.0
  0
LTYPE
  5
D6C
330
4
100
AcDbSymbolTableRecord
100
AcDbLinetypeTableRecord
  2
BORDER
 70
     0
  3
Border __  __  . __  __  . __  __  . __  __  . 
 72
    65
 73
     6
 40
44.45
 49
12.7
 74
     0
 49
-6.35
 74
     0
 49
12.7
 74
     0
 49
-6.35
 74
     0
 49
0.0
 74
     0
 49
-6.35
 74
     0
  0
LTYPE
  5
D6D
330
4
100
AcDbSymbolTableRecord
100
AcDbLinetypeTableRecord
  2
HIDDEN
 70
     0
  3
Hidden _ _ _ _ _ _ _ _ _ _ _ _ _ _ _ _ _ _ _ _ 
 72
    65
 73
     2
 40
9.524999999999999
 49
6.35
 74
     0
 49
-3.175
 74
     0
  0
LTYPE
  5
2163
330
4
100
AcDbSymbolTableRecord
100
AcDbLinetypeTableRecord
  2
CENTER
 70
     0
  3
 Center _____  _  _____  _  _____  _  _____  _ 
 72
    65
 73
     4
 40
50.8
 49
31.75
 74
     0
 49
-6.35
 74
     0
 49
6.35
 74
     0
 49
-6.35
 74
     0
  0
ENDTAB
  0
TABLE
  2
LAYER
  5
2
102
{ACAD_XDICTIONARY
360
2E1
102
}
330
0
100
AcDbSymbolTable
 70
     7
  0
LAYER
  5
14
330
2
100
AcDbSymbolTableRecord
100
AcDbLayerTableRecord
  2
0
 70
     0
 62
     7
  6
Continuous
370
    -3
390
1D
347
266
  0
LAYER
  5
4B
330
2
100
AcDbSymbolTableRecord
100
AcDbLayerTableRecord
  2
TEMPLATE
 70
     0
 62
     7
  6
Continuous
370
    20
390
1D
347
266
  0
LAYER
  5
4C
330
2
100
AcDbSymbolTableRecord
100
AcDbLayerTableRecord
  2
DIM
 70
     0
 62
     3
  6
Continuous
370
    13
390
1D
347
266
  0
LAYER
  5
4D
330
2
100
AcDbSymbolTableRecord
100
AcDbLayerTableRecord
  2
MODEL
 70
     0
 62
     7
  6
Continuous
370
    20
390
1D
347
266
  0
LAYER
  5
88C
330
2
100
AcDbSymbolTableRecord
100
AcDbLayerTableRecord
  2
HIDDEN
 70
     0
 62
     8
  6
HIDDEN
370
    20
390
1D
347
266
1001
AcAecLayerStandard
1000

1000

  0
LAYER
  5
D6B
330
2
100
AcDbSymbolTableRecord
100
AcDbLayerTableRecord
  2
BORDER
 70
     0
 62
     4
  6
BORDER
290
     0
370
    20
390
1D
347
266
1001
AcAecLayerStandard
1000

1000

  0
LAYER
  5
D8C
330
2
100
AcDbSymbolTableRecord
100
AcDbLayerTableRecord
  2
Defpoints
 70
     0
 62
     7
  6
Continuous
290
     0
370
    -3
390
1D
347
266
  0
ENDTAB
  0
TABLE
  2
STYLE
  5
3
330
0
100
AcDbSymbolTable
 70
     2
  0
STYLE
  5
17
330
3
100
AcDbSymbolTableRecord
100
AcDbTextStyleTableRecord
  2
Standard
 70
     0
 40
0.0
 41
1.0
 50
0.0
 71
     0
 42
2.5
  3
txt
  4
BIGFONT.SHX
  0
STYLE
  5
39
330
3
100
AcDbSymbolTableRecord
100
AcDbTextStyleTableRecord
  2
ＭＳ ゴシック
 70
     0
 40
0.0
 41
1.0
 50
0.0
 71
     0
 42
2.5
  3
msgothic.ttc
  4
ＭＳ ゴシック
1001
ACAD
1000
ＭＳ ゴシック
1071
        0
  0
ENDTAB
  0
TABLE
  2
VIEW
  5
5
330
0
100
AcDbSymbolTable
 70
     0
  0
ENDTAB
  0
TABLE
  2
UCS
  5
6
330
0
100
AcDbSymbolTable
 70
     0
  0
ENDTAB
  0
TABLE
  2
APPID
  5
8
330
0
100
AcDbSymbolTable
 70
     4
  0
APPID
  5
16
330
8
100
AcDbSymbolTableRecord
100
AcDbRegAppTableRecord
  2
ACAD
 70
     0
  0
APPID
  5
7AC
330
8
100
AcDbSymbolTableRecord
100
AcDbRegAppTableRecord
  2
AcAecLayerStandard
 70
     0
  0
APPID
  5
E29
330
8
100
AcDbSymbolTableRecord
100
AcDbRegAppTableRecord
  2
ACAD_MLEADERVER
 70
     0
  0
APPID
  5
227F
330
8
100
AcDbSymbolTableRecord
100
AcDbRegAppTableRecord
  2
PLOTTRANSPARENCY
 70
     0
  0
ENDTAB
  0
TABLE
  2
DIMSTYLE
  5
9
330
0
100
AcDbSymbolTable
 70
     2
100
AcDbDimStyleTable
  0
DIMSTYLE
105
18
330
9
100
AcDbSymbolTableRecord
100
AcDbDimStyleTableRecord
  2
Standard
 70
     0
178
     0
340
17
  0
DIMSTYLE
105
57
102
{ACAD_REACTORS
330
21F9
330
21FC
330
21FF
330
2203
330
243C
102
}
330
9
100
AcDbSymbolTableRecord
100
AcDbDimStyleTableRecord
  2
tfrom線あり
 70
     0
  3
<>
  4
[]
 41
1.0
 42
2.0
 43
0.9999999999999999
 44
0.0
 73
     0
 74
     0
 77
     1
 78
    11
140
3.0
141
0.0
143
1.0
147
1.0
171
     1
174
     1
178
     0
179
     2
271
     0
272
     1
276
     2
284
    11
285
    11
286
    11
289
     0
340
39
341
4E
342
4E
  0
ENDTAB
  0
TABLE
  2
BLOCK_RECORD
  5
1
330
0
100
AcDbSymbolTable
 70
    52
  0
BLOCK_RECORD
  5
A
102
{ACAD_XDICTIONARY
360
2109
102
}
330
1
100
AcDbSymbolTableRecord
100
AcDbBlockTableRecord
  2
*MODEL_SPACE
340
20
 70
     0
280
     1
281
     0
  0
BLOCK_RECORD
  5
B
330
1
100
AcDbSymbolTableRecord
100
AcDbBlockTableRecord
  2
*PAPER_SPACE
340
21
 70
     0
280
     1
281
     0
  0
BLOCK_RECORD
  5
4E
330
1
100
AcDbSymbolTableRecord
100
AcDbBlockTableRecord
  2
_DOT
340
0
102
{BLKREFS
331
13EE
331
13EF
331
13F9
331
13FA
331
1405
331
1406
331
1411
331
1412
331
141E
331
141F
331
142A
331
142B
331
1436
331
1437
331
1442
331
1443
331
144E
331
144F
331
145A
331
145B
331
1466
331
1467
331
1472
331
1473
331
147E
331
147F
331
148A
331
148B
331
1496
331
1497
331
14A2
331
14A3
331
20F2
331
20F3
331
2101
331
2102
331
218F
331
2190
331
219E
331
219F
331
21AF
331
21B0
331
21BD
331
21BE
331
21CC
331
21CD
331
2220
331
2221
331
222C
331
222D
331
2238
331
2239
331
2246
331
2247
331
2252
331
2253
331
226A
331
226B
331
22B4
331
22B5
331
22C3
331
22C4
331
22D2
331
22D3
331
22E1
331
22E2
331
22F0
331
22F1
331
2300
331
2301
331
230D
331
230E
331
2322
331
2323
331
2332
331
2333
331
2342
331
2343
331
23B8
331
23B9
331
23D8
331
23D9
331
23E7
331
23E8
331
23F6
331
23F7
331
2405
331
2406
331
2414
331
2415
331
2430
331
2431
331
2445
331
2446
331
24DD
331
24DE
331
24EA
331
24EB
331
24FB
331
24FC
102
}
 70
     0
280
     1
281
     0
  0
BLOCK_RECORD
  5
68D
330
1
100
AcDbSymbolTableRecord
100
AcDbBlockTableRecord
  2
block 2
340
0
102
{BLKREFS
331
68C
331
1343
102
}
 70
     0
280
     1
281
     0
  0
BLOCK_RECORD
  5
13E8
330
1
100
AcDbSymbolTableRecord
100
AcDbBlockTableRecord
  2
*D2
340
0
 70
     0
280
     1
281
     0
  0
BLOCK_RECORD
  5
13F3
330
1
100
AcDbSymbolTableRecord
100
AcDbBlockTableRecord
  2
*D3
340
0
 70
     0
280
     1
281
     0
  0
BLOCK_RECORD
  5
13FF
330
1
100
AcDbSymbolTableRecord
100
AcDbBlockTableRecord
  2
*D4
340
0
 70
     0
280
     1
281
     0
  0
BLOCK_RECORD
  5
140B
330
1
100
AcDbSymbolTableRecord
100
AcDbBlockTableRecord
  2
*D5
340
0
 70
     0
280
     1
281
     0
  0
BLOCK_RECORD
  5
1418
330
1
100
AcDbSymbolTableRecord
100
AcDbBlockTableRecord
  2
*D6
340
0
 70
     0
280
     1
281
     0
  0
BLOCK_RECORD
  5
1424
330
1
100
AcDbSymbolTableRecord
100
AcDbBlockTableRecord
  2
*D7
340
0
 70
     0
280
     1
281
     0
  0
BLOCK_RECORD
  5
1430
330
1
100
AcDbSymbolTableRecord
100
AcDbBlockTableRecord
  2
*D8
340
0
 70
     0
280
     1
281
     0
  0
BLOCK_RECORD
  5
143C
330
1
100
AcDbSymbolTableRecord
100
AcDbBlockTableRecord
  2
*D9
340
0
 70
     0
280
     1
281
     0
  0
BLOCK_RECORD
  5
1448
330
1
100
AcDbSymbolTableRecord
100
AcDbBlockTableRecord
  2
*D10
340
0
 70
     0
280
     1
281
     0
  0
BLOCK_RECORD
  5
1454
330
1
100
AcDbSymbolTableRecord
100
AcDbBlockTableRecord
  2
*D11
340
0
 70
     0
280
     1
281
     0
  0
BLOCK_RECORD
  5
1460
330
1
100
AcDbSymbolTableRecord
100
AcDbBlockTableRecord
  2
*D12
340
0
 70
     0
280
     1
281
     0
  0
BLOCK_RECORD
  5
146C
330
1
100
AcDbSymbolTableRecord
100
AcDbBlockTableRecord
  2
*D13
340
0
 70
     0
280
     1
281
     0
  0
BLOCK_RECORD
  5
1478
330
1
100
AcDbSymbolTableRecord
100
AcDbBlockTableRecord
  2
*D14
340
0
 70
     0
280
     1
281
     0
  0
BLOCK_RECORD
  5
1484
330
1
100
AcDbSymbolTableRecord
100
AcDbBlockTableRecord
  2
*D15
340
0
 70
     0
280
     1
281
     0
  0
BLOCK_RECORD
  5
1490
330
1
100
AcDbSymbolTableRecord
100
AcDbBlockTableRecord
  2
*D16
340
0
 70
     0
280
     1
281
     0
  0
BLOCK_RECORD
  5
149C
330
1
100
AcDbSymbolTableRecord
100
AcDbBlockTableRecord
  2
*D17
340
0
 70
     0
280
     1
281
     0
  0
BLOCK_RECORD
  5
20EC
330
1
100
AcDbSymbolTableRecord
100
AcDbBlockTableRecord
  2
*D18
340
0
 70
     0
280
     1
281
     0
  0
BLOCK_RECORD
  5
20FB
330
1
100
AcDbSymbolTableRecord
100
AcDbBlockTableRecord
  2
*D19
340
0
 70
     0
280
     1
281
     0
  0
BLOCK_RECORD
  5
218A
330
1
100
AcDbSymbolTableRecord
100
AcDbBlockTableRecord
  2
*D20
340
0
 70
     0
280
     1
281
     0
  0
BLOCK_RECORD
  5
2199
330
1
100
AcDbSymbolTableRecord
100
AcDbBlockTableRecord
  2
*D21
340
0
 70
     0
280
     1
281
     0
  0
BLOCK_RECORD
  5
21A8
330
1
100
AcDbSymbolTableRecord
100
AcDbBlockTableRecord
  2
*D22
340
0
 70
     0
280
     1
281
     0
  0
BLOCK_RECORD
  5
21B8
330
1
100
AcDbSymbolTableRecord
100
AcDbBlockTableRecord
  2
*D23
340
0
 70
     0
280
     1
281
     0
  0
BLOCK_RECORD
  5
21C7
330
1
100
AcDbSymbolTableRecord
100
AcDbBlockTableRecord
  2
*D24
340
0
 70
     0
280
     1
281
     0
  0
BLOCK_RECORD
  5
221A
330
1
100
AcDbSymbolTableRecord
100
AcDbBlockTableRecord
  2
*D25
340
0
 70
     0
280
     1
281
     0
  0
BLOCK_RECORD
  5
2226
330
1
100
AcDbSymbolTableRecord
100
AcDbBlockTableRecord
  2
*D26
340
0
 70
     0
280
     1
281
     0
  0
BLOCK_RECORD
  5
2232
330
1
100
AcDbSymbolTableRecord
100
AcDbBlockTableRecord
  2
*D27
340
0
 70
     0
280
     1
281
     0
  0
BLOCK_RECORD
  5
2240
330
1
100
AcDbSymbolTableRecord
100
AcDbBlockTableRecord
  2
*D28
340
0
 70
     0
280
     1
281
     0
  0
BLOCK_RECORD
  5
224C
330
1
100
AcDbSymbolTableRecord
100
AcDbBlockTableRecord
  2
*D29
340
0
 70
     0
280
     1
281
     0
  0
BLOCK_RECORD
  5
2264
330
1
100
AcDbSymbolTableRecord
100
AcDbBlockTableRecord
  2
*D30
340
0
 70
     0
280
     1
281
     0
  0
BLOCK_RECORD
  5
22AF
330
1
100
AcDbSymbolTableRecord
100
AcDbBlockTableRecord
  2
*D31
340
0
 70
     0
280
     1
281
     0
  0
BLOCK_RECORD
  5
22BE
330
1
100
AcDbSymbolTableRecord
100
AcDbBlockTableRecord
  2
*D32
340
0
 70
     0
280
     1
281
     0
  0
BLOCK_RECORD
  5
22CD
330
1
100
AcDbSymbolTableRecord
100
AcDbBlockTableRecord
  2
*D33
340
0
 70
     0
280
     1
281
     0
  0
BLOCK_RECORD
  5
22DC
330
1
100
AcDbSymbolTableRecord
100
AcDbBlockTableRecord
  2
*D34
340
0
 70
     0
280
     1
281
     0
  0
BLOCK_RECORD
  5
22EB
330
1
100
AcDbSymbolTableRecord
100
AcDbBlockTableRecord
  2
*D35
340
0
 70
     0
280
     1
281
     0
  0
BLOCK_RECORD
  5
22FB
330
1
100
AcDbSymbolTableRecord
100
AcDbBlockTableRecord
  2
*D36
340
0
 70
     0
280
     1
281
     0
  0
BLOCK_RECORD
  5
2308
330
1
100
AcDbSymbolTableRecord
100
AcDbBlockTableRecord
  2
*D37
340
0
 70
     0
280
     1
281
     0
  0
BLOCK_RECORD
  5
231D
330
1
100
AcDbSymbolTableRecord
100
AcDbBlockTableRecord
  2
*D38
340
0
 70
     0
280
     1
281
     0
  0
BLOCK_RECORD
  5
232D
330
1
100
AcDbSymbolTableRecord
100
AcDbBlockTableRecord
  2
*D39
340
0
 70
     0
280
     1
281
     0
  0
BLOCK_RECORD
  5
233D
330
1
100
AcDbSymbolTableRecord
100
AcDbBlockTableRecord
  2
*D40
340
0
 70
     0
280
     1
281
     0
  0
BLOCK_RECORD
  5
23B3
330
1
100
AcDbSymbolTableRecord
100
AcDbBlockTableRecord
  2
*D41
340
0
 70
     0
280
     1
281
     0
  0
BLOCK_RECORD
  5
23D3
330
1
100
AcDbSymbolTableRecord
100
AcDbBlockTableRecord
  2
*D42
340
0
 70
     0
280
     1
281
     0
  0
BLOCK_RECORD
  5
23E2
330
1
100
AcDbSymbolTableRecord
100
AcDbBlockTableRecord
  2
*D43
340
0
 70
     0
280
     1
281
     0
  0
BLOCK_RECORD
  5
23F1
330
1
100
AcDbSymbolTableRecord
100
AcDbBlockTableRecord
  2
*D44
340
0
 70
     0
280
     1
281
     0
  0
BLOCK_RECORD
  5
2400
330
1
100
AcDbSymbolTableRecord
100
AcDbBlockTableRecord
  2
*D45
340
0
 70
     0
280
     1
281
     0
  0
BLOCK_RECORD
  5
240F
330
1
100
AcDbSymbolTableRecord
100
AcDbBlockTableRecord
  2
*D46
340
0
 70
     0
280
     1
281
     0
  0
BLOCK_RECORD
  5
242B
330
1
100
AcDbSymbolTableRecord
100
AcDbBlockTableRecord
  2
*D47
340
0
 70
     0
280
     1
281
     0
  0
BLOCK_RECORD
  5
243F
330
1
100
AcDbSymbolTableRecord
100
AcDbBlockTableRecord
  2
*D48
340
0
 70
     0
280
     1
281
     0
  0
BLOCK_RECORD
  5
24D7
330
1
100
AcDbSymbolTableRecord
100
AcDbBlockTableRecord
  2
*D49
340
0
 70
     0
280
     1
281
     0
  0
BLOCK_RECORD
  5
24E4
330
1
100
AcDbSymbolTableRecord
100
AcDbBlockTableRecord
  2
*D50
340
0
 70
     0
280
     1
281
     0
  0
BLOCK_RECORD
  5
24F5
330
1
100
AcDbSymbolTableRecord
100
AcDbBlockTableRecord
  2
*D51
340
0
 70
     0
280
     1
281
     0
  0
ENDTAB
  0
ENDSEC
  0
SECTION
  2
BLOCKS
  0
BLOCK
  5
D
330
A
100
AcDbEntity
  8
0
390
1D
100
AcDbBlockBegin
  2
*MODEL_SPACE
 70
     0
 10
0.0
 20
0.0
 30
0.0
  3
*MODEL_SPACE
  1
*MODEL_SPACE
  0
ENDBLK
  5
E
330
A
100
AcDbEntity
  8
0
390
1D
100
AcDbBlockEnd
  0
BLOCK
  5
F
330
B
100
AcDbEntity
 67
     1
  8
0
390
1D
100
AcDbBlockBegin
  2
*PAPER_SPACE
 70
     0
 10
0.0
 20
0.0
 30
0.0
  3
*PAPER_SPACE
  1
*PAPER_SPACE
  0
ENDBLK
  5
10
330
B
100
AcDbEntity
 67
     1
  8
0
390
1D
100
AcDbBlockEnd
  0
BLOCK
  5
1DF2
330
4E
100
AcDbEntity
  8
0
390
1D
100
AcDbBlockBegin
  2
_DOT
 70
     0
 10
0.0
 20
0.0
 30
0.0
  3
_DOT
  1
_DOT
  0
POLYLINE
  5
1DF4
330
4E
100
AcDbEntity
  8
0
  6
ByBlock
 62
     0
370
    -2
390
1D
100
AcDb2dPolyline
 66
     1
 10
0.0
 20
0.0
 30
0.0
 70
     1
 40
0.5
 41
0.5
  0
VERTEX
  5
1DF5
330
1DF4
100
AcDbEntity
  8
0
  6
ByBlock
 62
     0
370
    -2
390
1D
100
AcDbVertex
100
AcDb2dVertex
 10
-0.25
 20
0.0
 30
0.0
 42
1.0
  0
VERTEX
  5
1DF6
330
1DF4
100
AcDbEntity
  8
0
  6
ByBlock
 62
     0
370
    -2
390
1D
100
AcDbVertex
100
AcDb2dVertex
 10
0.25
 20
0.0
 30
0.0
 42
1.0
  0
SEQEND
  5
1DF7
330
1DF4
100
AcDbEntity
  8
0
390
1D
  0
LINE
  5
1DF8
330
4E
100
AcDbEntity
  8
0
  6
ByBlock
 62
     0
370
    -2
390
1D
100
AcDbLine
 10
-0.5
 20
0.0
 30
0.0
 11
-1.0
 21
0.0
 31
0.0
  0
ENDBLK
  5
1DF9
330
4E
100
AcDbEntity
  8
0
390
1D
100
AcDbBlockEnd
  0
BLOCK
  5
68E
330
68D
100
AcDbEntity
  8
0
100
AcDbBlockBegin
  2
block 2
 70
     0
 10
0.0
 20
0.0
 30
0.0
  3
block 2
  1
block 2
  0
ENDBLK
  5
6B0
330
68D
100
AcDbEntity
  8
0
100
AcDbBlockEnd
  0
BLOCK
  5
13E9
330
13E8
100
AcDbEntity
  8
0
100
AcDbBlockBegin
  2
*D2
 70
     1
 10
0.0
 20
0.0
 30
0.0
  3
*D2
  1
*D26
  0
LINE
  5
13EB
330
13E8
100
AcDbEntity
  8
DIM
  6
Continuous
 62
     0
370
    -2
100
AcDbLine
 10
160.8504527155619
 20
94.68499299115805
 30
0.0
 11
160.8504527155619
 21
116.3903860182371
 31
0.0
  0
LINE
  5
13EC
330
13E8
100
AcDbEntity
  8
DIM
  6
Continuous
 62
     0
370
    -2
100
AcDbLine
 10
160.8504527155619
 20
93.68499299115805
 30
0.0
 11
160.8504527155619
 21
80.56462231345041
 31
0.0
  0
LINE
  5
13ED
330
13E8
100
AcDbEntity
  8
DIM
  6
Continuous
 62
     0
370
    -2
100
AcDbLine
 10
160.8504527155619
 20
93.68499299115805
 30
0.0
 11
160.8504527155619
 21
92.68499299115805
 31
0.0
  0
INSERT
  5
13EE
330
13E8
100
AcDbEntity
  8
DIM
 62
     0
370
    -2
100
AcDbBlockReference
  2
_DOT
 10
160.8504527155619
 20
94.68499299115805
 30
0.0
 50
90.0
  0
INSERT
  5
13EF
330
13E8
100
AcDbEntity
  8
DIM
 62
     0
370
    -2
100
AcDbBlockReference
  2
_DOT
 10
160.8504527155619
 20
79.56462231345041
 30
0.0
 50
270.0
  0
MTEXT
  5
13F0
330
13E8
100
AcDbEntity
  8
DIM
 62
     0
100
AcDbMText
 10
158.0849527155619
 20
108.169386018237
 30
0.0
 40
3.0
 41
0.0
 46
0.0
 71
     5
 72
     1
  1
\A1;75(深さ)
  7
ＭＳ ゴシック
 11
0.0
 21
1.0
 31
0.0
 73
     1
 44
1.0
  0
POINT
  5
13F1
330
13E8
100
AcDbEntity
  8
Defpoints
 62
     0
100
AcDbPoint
 10
165.4727047119166
 20
94.68499299115805
 30
0.0
  0
POINT
  5
13F2
330
13E8
100
AcDbEntity
  8
Defpoints
 62
     0
100
AcDbPoint
 10
160.8504527155619
 20
79.56462231345041
 30
0.0
  0
POINT
  5
20DD
330
13E8
100
AcDbEntity
  8
Defpoints
 62
     0
100
AcDbPoint
 10
160.8504527155619
 20
79.56462231345041
 30
0.0
  0
ENDBLK
  5
13EA
330
13E8
100
AcDbEntity
  8
0
100
AcDbBlockEnd
  0
BLOCK
  5
13F4
330
13F3
100
AcDbEntity
  8
0
100
AcDbBlockBegin
  2
*D3
 70
     1
 10
0.0
 20
0.0
 30
0.0
  3
*D3
  1
*D27
  0
LINE
  5
13F6
330
13F3
100
AcDbEntity
  8
DIM
  6
Continuous
 62
     0
370
    -2
100
AcDbLine
 10
164.5873884140496
 20
201.8694324265103
 30
0.0
 11
189.4367442684029
 21
201.8694324265103
 31
0.0
  0
LINE
  5
13F7
330
13F3
100
AcDbEntity
  8
DIM
  6
Continuous
 62
     0
370
    -2
100
AcDbLine
 10
164.5873884140496
 20
234.8694324265103
 30
0.0
 11
189.4367442684029
 21
234.8694324265103
 31
0.0
  0
LINE
  5
13F8
330
13F3
100
AcDbEntity
  8
DIM
  6
Continuous
 62
     0
370
    -2
100
AcDbLine
 10
189.4367442684029
 20
202.8694324265103
 30
0.0
 11
189.4367442684029
 21
233.8694324265103
 31
0.0
  0
INSERT
  5
13F9
330
13F3
100
AcDbEntity
  8
DIM
 62
     0
370
    -2
100
AcDbBlockReference
  2
_DOT
 10
189.4367442684029
 20
201.8694324265103
 30
0.0
 50
270.0
  0
INSERT
  5
13FA
330
13F3
100
AcDbEntity
  8
DIM
 62
     0
370
    -2
100
AcDbBlockReference
  2
_DOT
 10
189.4367442684029
 20
234.8694324265103
 30
0.0
 50
90.0
  0
MTEXT
  5
13FB
330
13F3
100
AcDbEntity
  8
DIM
 62
     0
100
AcDbMText
 10
186.9367442684029
 20
218.3694324265103
 30
0.0
 40
3.0
 41
0.0
 46
0.0
 71
     5
 72
     1
  1
\A1;33
  7
ＭＳ ゴシック
 11
0.0
 21
1.0
 31
0.0
 73
     1
 44
1.0
  0
POINT
  5
13FC
330
13F3
100
AcDbEntity
  8
Defpoints
 62
     0
100
AcDbPoint
 10
162.5873884140496
 20
201.8694324265103
 30
0.0
  0
POINT
  5
13FD
330
13F3
100
AcDbEntity
  8
Defpoints
 62
     0
100
AcDbPoint
 10
162.5873884140496
 20
234.8694324265103
 30
0.0
  0
POINT
  5
13FE
330
13F3
100
AcDbEntity
  8
Defpoints
 62
     0
100
AcDbPoint
 10
189.4367442684029
 20
234.8694324265103
 30
0.0
  0
ENDBLK
  5
13F5
330
13F3
100
AcDbEntity
  8
0
100
AcDbBlockEnd
  0
BLOCK
  5
1400
330
13FF
100
AcDbEntity
  8
0
100
AcDbBlockBegin
  2
*D4
 70
     1
 10
0.0
 20
0.0
 30
0.0
  3
*D4
  1
*D28
  0
LINE
  5
1402
330
13FF
100
AcDbEntity
  8
DIM
  6
Continuous
 62
     0
370
    -2
100
AcDbLine
 10
142.5873884140496
 20
199.8694324265103
 30
0.0
 11
142.5873884140496
 21
173.9698845440222
 31
0.0
  0
LINE
  5
1403
330
13FF
100
AcDbEntity
  8
DIM
  6
Continuous
 62
     0
370
    -2
100
AcDbLine
 10
162.5873884140496
 20
199.8694324265103
 30
0.0
 11
162.5873884140496
 21
173.9698845440222
 31
0.0
  0
LINE
  5
1404
330
13FF
100
AcDbEntity
  8
DIM
  6
Continuous
 62
     0
370
    -2
100
AcDbLine
 10
143.5873884140496
 20
173.9698845440222
 30
0.0
 11
161.5873884140496
 21
173.9698845440222
 31
0.0
  0
INSERT
  5
1405
330
13FF
100
AcDbEntity
  8
DIM
 62
     0
370
    -2
100
AcDbBlockReference
  2
_DOT
 10
142.5873884140496
 20
173.9698845440222
 30
0.0
 50
180.0
  0
INSERT
  5
1406
330
13FF
100
AcDbEntity
  8
DIM
 62
     0
370
    -2
100
AcDbBlockReference
  2
_DOT
 10
162.5873884140496
 20
173.9698845440222
 30
0.0
  0
MTEXT
  5
1407
330
13FF
100
AcDbEntity
  8
DIM
 62
     0
100
AcDbMText
 10
152.5873884140496
 20
176.4698845440222
 30
0.0
 40
3.0
 41
0.0
 46
0.0
 71
     5
 72
     1
  1
\A1;20
  7
ＭＳ ゴシック
 73
     1
 44
1.0
  0
POINT
  5
1408
330
13FF
100
AcDbEntity
  8
Defpoints
 62
     0
100
AcDbPoint
 10
142.5873884140496
 20
201.8694324265103
 30
0.0
  0
POINT
  5
1409
330
13FF
100
AcDbEntity
  8
Defpoints
 62
     0
100
AcDbPoint
 10
162.5873884140496
 20
201.8694324265103
 30
0.0
  0
POINT
  5
140A
330
13FF
100
AcDbEntity
  8
Defpoints
 62
     0
100
AcDbPoint
 10
162.5873884140496
 20
173.9698845440222
 30
0.0
  0
ENDBLK
  5
1401
330
13FF
100
AcDbEntity
  8
0
100
AcDbBlockEnd
  0
BLOCK
  5
140C
330
140B
100
AcDbEntity
  8
0
100
AcDbBlockBegin
  2
*D5
 70
     1
 10
0.0
 20
0.0
 30
0.0
  3
*D5
  1
*D29
  0
LINE
  5
140E
330
140B
100
AcDbEntity
  8
DIM
  6
Continuous
 62
     0
370
    -2
100
AcDbLine
 10
164.5873884140496
 20
234.8694324265103
 30
0.0
 11
189.4367442684029
 21
234.8694324265103
 31
0.0
  0
LINE
  5
140F
330
140B
100
AcDbEntity
  8
DIM
  6
Continuous
 62
     0
370
    -2
100
AcDbLine
 10
164.5873884140496
 20
237.8694324265103
 30
0.0
 11
189.4367442684029
 21
237.8694324265103
 31
0.0
  0
LINE
  5
1410
330
140B
100
AcDbEntity
  8
DIM
  6
Continuous
 62
     0
370
    -2
100
AcDbLine
 10
189.4367442684029
 20
235.8694324265103
 30
0.0
 11
189.4367442684029
 21
236.8694324265103
 31
0.0
  0
INSERT
  5
1411
330
140B
100
AcDbEntity
  8
DIM
 62
     0
370
    -2
100
AcDbBlockReference
  2
_DOT
 10
189.4367442684029
 20
234.8694324265103
 30
0.0
 50
270.0
  0
INSERT
  5
1412
330
140B
100
AcDbEntity
  8
DIM
 62
     0
370
    -2
100
AcDbBlockReference
  2
_DOT
 10
189.4367442684029
 20
237.8694324265103
 30
0.0
 50
90.0
  0
MTEXT
  5
1413
330
140B
100
AcDbEntity
  8
DIM
 62
     0
100
AcDbMText
 10
186.9367442684029
 20
236.3694324265103
 30
0.0
 40
3.0
 41
0.0
 46
0.0
 71
     5
 72
     1
  1
\A1;3
  7
ＭＳ ゴシック
 11
0.0
 21
1.0
 31
0.0
 73
     1
 44
1.0
  0
POINT
  5
1414
330
140B
100
AcDbEntity
  8
Defpoints
 62
     0
100
AcDbPoint
 10
162.5873884140496
 20
234.8694324265103
 30
0.0
  0
POINT
  5
1415
330
140B
100
AcDbEntity
  8
Defpoints
 62
     0
100
AcDbPoint
 10
162.5873884140496
 20
237.8694324265103
 30
0.0
  0
POINT
  5
1416
330
140B
100
AcDbEntity
  8
Defpoints
 62
     0
100
AcDbPoint
 10
189.4367442684029
 20
237.8694324265103
 30
0.0
  0
ENDBLK
  5
140D
330
140B
100
AcDbEntity
  8
0
100
AcDbBlockEnd
  0
BLOCK
  5
1419
330
1418
100
AcDbEntity
  8
0
100
AcDbBlockBegin
  2
*D6
 70
     1
 10
0.0
 20
0.0
 30
0.0
  3
*D6
  1
*D30
  0
LINE
  5
141B
330
1418
100
AcDbEntity
  8
DIM
  6
Continuous
 62
     0
370
    -2
100
AcDbLine
 10
30.63133342099295
 20
239.8694324265103
 30
0.0
 11
30.63133342099295
 21
251.1730368051067
 31
0.0
  0
LINE
  5
141C
330
1418
100
AcDbEntity
  8
DIM
  6
Continuous
 62
     0
370
    -2
100
AcDbLine
 10
86.63133342099295
 20
239.8694324265103
 30
0.0
 11
86.63133342099295
 21
251.1730368051067
 31
0.0
  0
LINE
  5
141D
330
1418
100
AcDbEntity
  8
DIM
  6
Continuous
 62
     0
370
    -2
100
AcDbLine
 10
31.63133342099295
 20
251.1730368051067
 30
0.0
 11
85.63133342099295
 21
251.1730368051067
 31
0.0
  0
INSERT
  5
141E
330
1418
100
AcDbEntity
  8
DIM
 62
     0
370
    -2
100
AcDbBlockReference
  2
_DOT
 10
30.63133342099295
 20
251.1730368051067
 30
0.0
 50
180.0
  0
INSERT
  5
141F
330
1418
100
AcDbEntity
  8
DIM
 62
     0
370
    -2
100
AcDbBlockReference
  2
_DOT
 10
86.63133342099295
 20
251.1730368051067
 30
0.0
  0
MTEXT
  5
1420
330
1418
100
AcDbEntity
  8
DIM
 62
     0
100
AcDbMText
 10
58.63133342099295
 20
253.6730368051067
 30
0.0
 40
3.0
 41
0.0
 46
0.0
 71
     5
 72
     1
  1
\A1;56
  7
ＭＳ ゴシック
 73
     1
 44
1.0
  0
POINT
  5
1421
330
1418
100
AcDbEntity
  8
Defpoints
 62
     0
100
AcDbPoint
 10
30.63133342099295
 20
237.8694324265103
 30
0.0
  0
POINT
  5
1422
330
1418
100
AcDbEntity
  8
Defpoints
 62
     0
100
AcDbPoint
 10
86.63133342099295
 20
237.8694324265103
 30
0.0
  0
POINT
  5
1423
330
1418
100
AcDbEntity
  8
Defpoints
 62
     0
100
AcDbPoint
 10
86.63133342099295
 20
251.1730368051067
 30
0.0
  0
ENDBLK
  5
141A
330
1418
100
AcDbEntity
  8
0
100
AcDbBlockEnd
  0
BLOCK
  5
1425
330
1424
100
AcDbEntity
  8
0
100
AcDbBlockBegin
  2
*D7
 70
     1
 10
0.0
 20
0.0
 30
0.0
  3
*D7
  1
*D31
  0
LINE
  5
1427
330
1424
100
AcDbEntity
  8
DIM
  6
Continuous
 62
     0
370
    -2
100
AcDbLine
 10
88.63133342099295
 20
237.8694324265103
 30
0.0
 11
99.01296324483735
 21
237.8694324265103
 31
0.0
  0
LINE
  5
1428
330
1424
100
AcDbEntity
  8
DIM
  6
Continuous
 62
     0
370
    -2
100
AcDbLine
 10
88.63133342099295
 20
183.8694324265103
 30
0.0
 11
99.01296324483735
 21
183.8694324265103
 31
0.0
  0
LINE
  5
1429
330
1424
100
AcDbEntity
  8
DIM
  6
Continuous
 62
     0
370
    -2
100
AcDbLine
 10
99.01296324483735
 20
236.8694324265103
 30
0.0
 11
99.01296324483735
 21
184.8694324265103
 31
0.0
  0
INSERT
  5
142A
330
1424
100
AcDbEntity
  8
DIM
 62
     0
370
    -2
100
AcDbBlockReference
  2
_DOT
 10
99.01296324483735
 20
237.8694324265103
 30
0.0
 50
90.0
  0
INSERT
  5
142B
330
1424
100
AcDbEntity
  8
DIM
 62
     0
370
    -2
100
AcDbBlockReference
  2
_DOT
 10
99.01296324483735
 20
183.8694324265103
 30
0.0
 50
270.0
  0
MTEXT
  5
142C
330
1424
100
AcDbEntity
  8
DIM
 62
     0
100
AcDbMText
 10
96.51296324483735
 20
210.8694324265103
 30
0.0
 40
3.0
 41
0.0
 46
0.0
 71
     5
 72
     1
  1
\A1;54
  7
ＭＳ ゴシック
 11
0.0
 21
1.0
 31
0.0
 73
     1
 44
1.0
  0
POINT
  5
142D
330
1424
100
AcDbEntity
  8
Defpoints
 62
     0
100
AcDbPoint
 10
86.63133342099295
 20
237.8694324265103
 30
0.0
  0
POINT
  5
142E
330
1424
100
AcDbEntity
  8
Defpoints
 62
     0
100
AcDbPoint
 10
86.63133342099295
 20
183.8694324265103
 30
0.0
  0
POINT
  5
142F
330
1424
100
AcDbEntity
  8
Defpoints
 62
     0
100
AcDbPoint
 10
99.01296324483735
 20
183.8694324265103
 30
0.0
  0
ENDBLK
  5
1426
330
1424
100
AcDbEntity
  8
0
100
AcDbBlockEnd
  0
BLOCK
  5
1431
330
1430
100
AcDbEntity
  8
0
100
AcDbBlockBegin
  2
*D8
 70
     1
 10
0.0
 20
0.0
 30
0.0
  3
*D8
  1
*D32
  0
LINE
  5
1433
330
1430
100
AcDbEntity
  8
DIM
  6
Continuous
 62
     0
370
    -2
100
AcDbLine
 10
34.63133342099295
 20
182.7131847378114
 30
0.0
 11
34.63133342099295
 21
173.0437748838474
 31
0.0
  0
LINE
  5
1434
330
1430
100
AcDbEntity
  8
DIM
  6
Continuous
 62
     0
370
    -2
100
AcDbLine
 10
82.63133342099295
 20
182.7131847606861
 30
0.0
 11
82.63133342099295
 21
173.0437748838474
 31
0.0
  0
LINE
  5
1435
330
1430
100
AcDbEntity
  8
DIM
  6
Continuous
 62
     0
370
    -2
100
AcDbLine
 10
35.63133342099295
 20
173.0437748838474
 30
0.0
 11
81.63133342099295
 21
173.0437748838474
 31
0.0
  0
INSERT
  5
1436
330
1430
100
AcDbEntity
  8
DIM
 62
     0
370
    -2
100
AcDbBlockReference
  2
_DOT
 10
34.63133342099295
 20
173.0437748838474
 30
0.0
 50
180.0
  0
INSERT
  5
1437
330
1430
100
AcDbEntity
  8
DIM
 62
     0
370
    -2
100
AcDbBlockReference
  2
_DOT
 10
82.63133342099295
 20
173.0437748838474
 30
0.0
  0
MTEXT
  5
1438
330
1430
100
AcDbEntity
  8
DIM
 62
     0
100
AcDbMText
 10
58.63133342099295
 20
175.5437748838474
 30
0.0
 40
3.0
 41
0.0
 46
0.0
 71
     5
 72
     1
  1
\A1;48
  7
ＭＳ ゴシック
 73
     1
 44
1.0
  0
POINT
  5
1439
330
1430
100
AcDbEntity
  8
Defpoints
 62
     0
100
AcDbPoint
 10
34.63133342099295
 20
184.7131847378114
 30
0.0
  0
POINT
  5
143A
330
1430
100
AcDbEntity
  8
Defpoints
 62
     0
100
AcDbPoint
 10
82.63133342099295
 20
184.7131847606861
 30
0.0
  0
POINT
  5
143B
330
1430
100
AcDbEntity
  8
Defpoints
 62
     0
100
AcDbPoint
 10
82.63133342099295
 20
173.0437748838474
 30
0.0
  0
ENDBLK
  5
1432
330
1430
100
AcDbEntity
  8
0
100
AcDbBlockEnd
  0
BLOCK
  5
143D
330
143C
100
AcDbEntity
  8
0
100
AcDbBlockBegin
  2
*D9
 70
     1
 10
0.0
 20
0.0
 30
0.0
  3
*D9
  1
*D33
  0
LINE
  5
143F
330
143C
100
AcDbEntity
  8
DIM
  6
Continuous
 62
     0
370
    -2
100
AcDbLine
 10
27.33919413060795
 20
221.8694324265103
 30
0.0
 11
18.67327436304345
 21
221.8694324265103
 31
0.0
  0
LINE
  5
1440
330
143C
100
AcDbEntity
  8
DIM
  6
Continuous
 62
     0
370
    -2
100
AcDbLine
 10
27.33919413060795
 20
187.8694324265103
 30
0.0
 11
18.67327436304345
 21
187.8694324265103
 31
0.0
  0
LINE
  5
1441
330
143C
100
AcDbEntity
  8
DIM
  6
Continuous
 62
     0
370
    -2
100
AcDbLine
 10
18.67327436304345
 20
220.8694324265103
 30
0.0
 11
18.67327436304345
 21
188.8694324265103
 31
0.0
  0
INSERT
  5
1442
330
143C
100
AcDbEntity
  8
DIM
 62
     0
370
    -2
100
AcDbBlockReference
  2
_DOT
 10
18.67327436304345
 20
221.8694324265103
 30
0.0
 50
90.0
  0
INSERT
  5
1443
330
143C
100
AcDbEntity
  8
DIM
 62
     0
370
    -2
100
AcDbBlockReference
  2
_DOT
 10
18.67327436304345
 20
187.8694324265103
 30
0.0
 50
270.0
  0
MTEXT
  5
1444
330
143C
100
AcDbEntity
  8
DIM
 62
     0
100
AcDbMText
 10
16.17327436304345
 20
204.8694324265103
 30
0.0
 40
3.0
 41
0.0
 46
0.0
 71
     5
 72
     1
  1
\A1;34
  7
ＭＳ ゴシック
 11
1.044915787882500E-16
 21
1.0
 31
0.0
 73
     1
 44
1.0
  0
POINT
  5
1445
330
143C
100
AcDbEntity
  8
Defpoints
 62
     0
100
AcDbPoint
 10
29.33919413060795
 20
221.8694324265103
 30
0.0
  0
POINT
  5
1446
330
143C
100
AcDbEntity
  8
Defpoints
 62
     0
100
AcDbPoint
 10
29.33919413060795
 20
187.8694324265103
 30
0.0
  0
POINT
  5
1447
330
143C
100
AcDbEntity
  8
Defpoints
 62
     0
100
AcDbPoint
 10
18.67327436304345
 20
187.8694324265103
 30
0.0
  0
ENDBLK
  5
143E
330
143C
100
AcDbEntity
  8
0
100
AcDbBlockEnd
  0
BLOCK
  5
1449
330
1448
100
AcDbEntity
  8
0
100
AcDbBlockBegin
  2
*D10
 70
     1
 10
0.0
 20
0.0
 30
0.0
  3
*D10
  1
*D34
  0
LINE
  5
144B
330
1448
100
AcDbEntity
  8
DIM
  6
Continuous
 62
     0
370
    -2
100
AcDbLine
 10
184.8513502852471
 20
74.68499299115798
 30
0.0
 11
184.8513502852471
 21
64.19061452582989
 31
0.0
  0
LINE
  5
144C
330
1448
100
AcDbEntity
  8
DIM
  6
Continuous
 62
     0
370
    -2
100
AcDbLine
 10
160.8513502852472
 20
70.88499299115804
 30
0.0
 11
160.8513502852472
 21
64.19061452582989
 31
0.0
  0
LINE
  5
144D
330
1448
100
AcDbEntity
  8
DIM
  6
Continuous
 62
     0
370
    -2
100
AcDbLine
 10
183.8513502852471
 20
64.19061452582989
 30
0.0
 11
161.8513502852472
 21
64.19061452582989
 31
0.0
  0
INSERT
  5
144E
330
1448
100
AcDbEntity
  8
DIM
 62
     0
370
    -2
100
AcDbBlockReference
  2
_DOT
 10
184.8513502852471
 20
64.19061452582989
 30
0.0
  0
INSERT
  5
144F
330
1448
100
AcDbEntity
  8
DIM
 62
     0
370
    -2
100
AcDbBlockReference
  2
_DOT
 10
160.8513502852472
 20
64.19061452582989
 30
0.0
 50
180.0
  0
MTEXT
  5
1450
330
1448
100
AcDbEntity
  8
DIM
 62
     0
100
AcDbMText
 10
172.8513502852471
 20
66.69061452582989
 30
0.0
 40
3.0
 41
0.0
 46
0.0
 71
     5
 72
     1
  1
\A1;24
  7
ＭＳ ゴシック
 73
     1
 44
1.0
  0
POINT
  5
1451
330
1448
100
AcDbEntity
  8
Defpoints
 62
     0
100
AcDbPoint
 10
184.8513502852471
 20
76.68499299115798
 30
0.0
  0
POINT
  5
1452
330
1448
100
AcDbEntity
  8
Defpoints
 62
     0
100
AcDbPoint
 10
160.8513502852472
 20
72.88499299115804
 30
0.0
  0
POINT
  5
1453
330
1448
100
AcDbEntity
  8
Defpoints
 62
     0
100
AcDbPoint
 10
160.8513502852472
 20
64.19061452582989
 30
0.0
  0
ENDBLK
  5
144A
330
1448
100
AcDbEntity
  8
0
100
AcDbBlockEnd
  0
BLOCK
  5
1455
330
1454
100
AcDbEntity
  8
0
100
AcDbBlockBegin
  2
*D11
 70
     1
 10
0.0
 20
0.0
 30
0.0
  3
*D11
  1
*D35
  0
LINE
  5
1457
330
1454
100
AcDbEntity
  8
DIM
  6
Continuous
 62
     0
370
    -2
100
AcDbLine
 10
184.8513502852471
 20
96.68499299115805
 30
0.0
 11
184.8513502852471
 21
104.8887929514859
 31
0.0
  0
LINE
  5
1458
330
1454
100
AcDbEntity
  8
DIM
  6
Continuous
 62
     0
370
    -2
100
AcDbLine
 10
175.8513502852471
 20
96.68499299115805
 30
0.0
 11
175.8513502852471
 21
104.8887929514859
 31
0.0
  0
LINE
  5
1459
330
1454
100
AcDbEntity
  8
DIM
  6
Continuous
 62
     0
370
    -2
100
AcDbLine
 10
183.8513502852471
 20
104.8887929514859
 30
0.0
 11
176.8513502852471
 21
104.8887929514859
 31
0.0
  0
INSERT
  5
145A
330
1454
100
AcDbEntity
  8
DIM
 62
     0
370
    -2
100
AcDbBlockReference
  2
_DOT
 10
184.8513502852471
 20
104.8887929514859
 30
0.0
  0
INSERT
  5
145B
330
1454
100
AcDbEntity
  8
DIM
 62
     0
370
    -2
100
AcDbBlockReference
  2
_DOT
 10
175.8513502852471
 20
104.8887929514859
 30
0.0
 50
180.0
  0
MTEXT
  5
145C
330
1454
100
AcDbEntity
  8
DIM
 62
     0
100
AcDbMText
 10
180.3513502852471
 20
107.3887929514859
 30
0.0
 40
3.0
 41
0.0
 46
0.0
 71
     5
 72
     1
  1
\A1;9
  7
ＭＳ ゴシック
 73
     1
 44
1.0
  0
POINT
  5
145D
330
1454
100
AcDbEntity
  8
Defpoints
 62
     0
100
AcDbPoint
 10
184.8513502852471
 20
94.68499299115805
 30
0.0
  0
POINT
  5
145E
330
1454
100
AcDbEntity
  8
Defpoints
 62
     0
100
AcDbPoint
 10
175.8513502852471
 20
94.68499299115805
 30
0.0
  0
POINT
  5
145F
330
1454
100
AcDbEntity
  8
Defpoints
 62
     0
100
AcDbPoint
 10
175.8513502852471
 20
104.8887929514859
 30
0.0
  0
ENDBLK
  5
1456
330
1454
100
AcDbEntity
  8
0
100
AcDbBlockEnd
  0
BLOCK
  5
1461
330
1460
100
AcDbEntity
  8
0
100
AcDbBlockBegin
  2
*D12
 70
     1
 10
0.0
 20
0.0
 30
0.0
  3
*D12
  1
*D36
  0
LINE
  5
1463
330
1460
100
AcDbEntity
  8
DIM
  6
Continuous
 62
     0
370
    -2
100
AcDbLine
 10
28.38710147995585
 20
237.8694324265103
 30
0.0
 11
18.67327436304345
 21
237.8694324265103
 31
0.0
  0
LINE
  5
1464
330
1460
100
AcDbEntity
  8
DIM
  6
Continuous
 62
     0
370
    -2
100
AcDbLine
 10
28.38710147995585
 20
221.8694324265103
 30
0.0
 11
18.67327436304345
 21
221.8694324265103
 31
0.0
  0
LINE
  5
1465
330
1460
100
AcDbEntity
  8
DIM
  6
Continuous
 62
     0
370
    -2
100
AcDbLine
 10
18.67327436304345
 20
236.8694324265103
 30
0.0
 11
18.67327436304345
 21
222.8694324265103
 31
0.0
  0
INSERT
  5
1466
330
1460
100
AcDbEntity
  8
DIM
 62
     0
370
    -2
100
AcDbBlockReference
  2
_DOT
 10
18.67327436304345
 20
237.8694324265103
 30
0.0
 50
90.0
  0
INSERT
  5
1467
330
1460
100
AcDbEntity
  8
DIM
 62
     0
370
    -2
100
AcDbBlockReference
  2
_DOT
 10
18.67327436304345
 20
221.8694324265103
 30
0.0
 50
270.0
  0
MTEXT
  5
1468
330
1460
100
AcDbEntity
  8
DIM
 62
     0
100
AcDbMText
 10
16.17327436304345
 20
229.8694324265103
 30
0.0
 40
3.0
 41
0.0
 46
0.0
 71
     5
 72
     1
  1
\A1;16
  7
ＭＳ ゴシック
 11
0.0
 21
1.0
 31
0.0
 73
     1
 44
1.0
  0
POINT
  5
1469
330
1460
100
AcDbEntity
  8
Defpoints
 62
     0
100
AcDbPoint
 10
30.38710147995585
 20
237.8694324265103
 30
0.0
  0
POINT
  5
146A
330
1460
100
AcDbEntity
  8
Defpoints
 62
     0
100
AcDbPoint
 10
30.38710147995585
 20
221.8694324265103
 30
0.0
  0
POINT
  5
146B
330
1460
100
AcDbEntity
  8
Defpoints
 62
     0
100
AcDbPoint
 10
18.67327436304345
 20
221.8694324265103
 30
0.0
  0
ENDBLK
  5
1462
330
1460
100
AcDbEntity
  8
0
100
AcDbBlockEnd
  0
BLOCK
  5
146D
330
146C
100
AcDbEntity
  8
0
100
AcDbBlockBegin
  2
*D13
 70
     1
 10
0.0
 20
0.0
 30
0.0
  3
*D13
  1
*D37
  0
LINE
  5
146F
330
146C
100
AcDbEntity
  8
DIM
  6
Continuous
 62
     0
370
    -2
100
AcDbLine
 10
128.8513502852471
 20
94.68499299115805
 30
0.0
 11
121.4454353117761
 21
94.68499299115805
 31
0.0
  0
LINE
  5
1470
330
146C
100
AcDbEntity
  8
DIM
  6
Continuous
 62
     0
370
    -2
100
AcDbLine
 10
128.8513502852471
 20
76.68499299115798
 30
0.0
 11
121.4454353117761
 21
76.68499299115798
 31
0.0
  0
LINE
  5
1471
330
146C
100
AcDbEntity
  8
DIM
  6
Continuous
 62
     0
370
    -2
100
AcDbLine
 10
121.4454353117761
 20
93.68499299115805
 30
0.0
 11
121.4454353117761
 21
77.68499299115798
 31
0.0
  0
INSERT
  5
1472
330
146C
100
AcDbEntity
  8
DIM
 62
     0
370
    -2
100
AcDbBlockReference
  2
_DOT
 10
121.4454353117761
 20
94.68499299115805
 30
0.0
 50
90.0
  0
INSERT
  5
1473
330
146C
100
AcDbEntity
  8
DIM
 62
     0
370
    -2
100
AcDbBlockReference
  2
_DOT
 10
121.4454353117761
 20
76.68499299115798
 30
0.0
 50
270.0
  0
MTEXT
  5
1474
330
146C
100
AcDbEntity
  8
DIM
 62
     0
100
AcDbMText
 10
118.9454353117761
 20
85.68499299115798
 30
0.0
 40
3.0
 41
0.0
 46
0.0
 71
     5
 72
     1
  1
\A1;18
  7
ＭＳ ゴシック
 11
0.0
 21
1.0
 31
0.0
 73
     1
 44
1.0
  0
POINT
  5
1475
330
146C
100
AcDbEntity
  8
Defpoints
 62
     0
100
AcDbPoint
 10
130.8513502852471
 20
94.68499299115805
 30
0.0
  0
POINT
  5
1476
330
146C
100
AcDbEntity
  8
Defpoints
 62
     0
100
AcDbPoint
 10
130.8513502852471
 20
76.68499299115798
 30
0.0
  0
POINT
  5
1477
330
146C
100
AcDbEntity
  8
Defpoints
 62
     0
100
AcDbPoint
 10
121.4454353117761
 20
76.68499299115798
 30
0.0
  0
ENDBLK
  5
146E
330
146C
100
AcDbEntity
  8
0
100
AcDbBlockEnd
  0
BLOCK
  5
1479
330
1478
100
AcDbEntity
  8
0
100
AcDbBlockBegin
  2
*D14
 70
     1
 10
0.0
 20
0.0
 30
0.0
  3
*D14
  1
*D38
  0
LINE
  5
147B
330
1478
100
AcDbEntity
  8
DIM
  6
Continuous
 62
     0
370
    -2
100
AcDbLine
 10
30.63133342099295
 20
96.68499299115805
 30
0.0
 11
30.63133342099295
 21
103.0438088628561
 31
0.0
  0
LINE
  5
147C
330
1478
100
AcDbEntity
  8
DIM
  6
Continuous
 62
     0
370
    -2
100
AcDbLine
 10
38.66622128037173
 20
96.68499299115805
 30
0.0
 11
38.66622128037173
 21
103.0438088628561
 31
0.0
  0
LINE
  5
147D
330
1478
100
AcDbEntity
  8
DIM
  6
Continuous
 62
     0
370
    -2
100
AcDbLine
 10
31.63133342099295
 20
103.0438088628561
 30
0.0
 11
37.66622128037173
 21
103.0438088628561
 31
0.0
  0
INSERT
  5
147E
330
1478
100
AcDbEntity
  8
DIM
 62
     0
370
    -2
100
AcDbBlockReference
  2
_DOT
 10
30.63133342099295
 20
103.0438088628561
 30
0.0
 50
180.0
  0
INSERT
  5
147F
330
1478
100
AcDbEntity
  8
DIM
 62
     0
370
    -2
100
AcDbBlockReference
  2
_DOT
 10
38.66622128037173
 20
103.0438088628561
 30
0.0
  0
MTEXT
  5
1480
330
1478
100
AcDbEntity
  8
DIM
 62
     0
100
AcDbMText
 10
34.64877735068234
 20
105.5438088628561
 30
0.0
 40
3.0
 41
0.0
 46
0.0
 71
     5
 72
     1
  1
\A1;8
  7
ＭＳ ゴシック
 73
     1
 44
1.0
  0
POINT
  5
1481
330
1478
100
AcDbEntity
  8
Defpoints
 62
     0
100
AcDbPoint
 10
30.63133342099295
 20
94.68499299115805
 30
0.0
  0
POINT
  5
1482
330
1478
100
AcDbEntity
  8
Defpoints
 62
     0
100
AcDbPoint
 10
38.66622128037173
 20
94.68499299115805
 30
0.0
  0
POINT
  5
1483
330
1478
100
AcDbEntity
  8
Defpoints
 62
     0
100
AcDbPoint
 10
38.66622128037173
 20
103.0438088628561
 30
0.0
  0
ENDBLK
  5
147A
330
1478
100
AcDbEntity
  8
0
100
AcDbBlockEnd
  0
BLOCK
  5
1485
330
1484
100
AcDbEntity
  8
0
100
AcDbBlockBegin
  2
*D15
 70
     1
 10
0.0
 20
0.0
 30
0.0
  3
*D15
  1
*D39
  0
LINE
  5
1487
330
1484
100
AcDbEntity
  8
DIM
  6
Continuous
 62
     0
370
    -2
100
AcDbLine
 10
28.16622128037173
 20
88.68499299115805
 30
0.0
 11
22.31306313335034
 21
88.68499299115805
 31
0.0
  0
LINE
  5
1488
330
1484
100
AcDbEntity
  8
DIM
  6
Continuous
 62
     0
370
    -2
100
AcDbLine
 10
28.63133342099295
 20
94.68499299115805
 30
0.0
 11
22.31306313335034
 21
94.68499299115805
 31
0.0
  0
LINE
  5
1489
330
1484
100
AcDbEntity
  8
DIM
  6
Continuous
 62
     0
370
    -2
100
AcDbLine
 10
22.31306313335034
 20
89.68499299115805
 30
0.0
 11
22.31306313335034
 21
93.68499299115805
 31
0.0
  0
INSERT
  5
148A
330
1484
100
AcDbEntity
  8
DIM
 62
     0
370
    -2
100
AcDbBlockReference
  2
_DOT
 10
22.31306313335034
 20
88.68499299115805
 30
0.0
 50
270.0
  0
INSERT
  5
148B
330
1484
100
AcDbEntity
  8
DIM
 62
     0
370
    -2
100
AcDbBlockReference
  2
_DOT
 10
22.31306313335034
 20
94.68499299115805
 30
0.0
 50
90.0
  0
MTEXT
  5
148C
330
1484
100
AcDbEntity
  8
DIM
 62
     0
100
AcDbMText
 10
19.81306313335034
 20
91.68499299115805
 30
0.0
 40
3.0
 41
0.0
 46
0.0
 71
     5
 72
     1
  1
\A1;6
  7
ＭＳ ゴシック
 11
0.0
 21
1.0
 31
0.0
 73
     1
 44
1.0
  0
POINT
  5
148D
330
1484
100
AcDbEntity
  8
Defpoints
 62
     0
100
AcDbPoint
 10
30.16622128037173
 20
88.68499299115805
 30
0.0
  0
POINT
  5
148E
330
1484
100
AcDbEntity
  8
Defpoints
 62
     0
100
AcDbPoint
 10
30.63133342099295
 20
94.68499299115805
 30
0.0
  0
POINT
  5
148F
330
1484
100
AcDbEntity
  8
Defpoints
 62
     0
100
AcDbPoint
 10
22.31306313335034
 20
94.68499299115805
 30
0.0
  0
ENDBLK
  5
1486
330
1484
100
AcDbEntity
  8
0
100
AcDbBlockEnd
  0
BLOCK
  5
1491
330
1490
100
AcDbEntity
  8
0
100
AcDbBlockBegin
  2
*D16
 70
     1
 10
0.0
 20
0.0
 30
0.0
  3
*D16
  1
*D40
  0
LINE
  5
1493
330
1490
100
AcDbEntity
  8
DIM
  6
Continuous
 62
     0
370
    -2
100
AcDbLine
 10
86.63133342099295
 20
96.68499299115805
 30
0.0
 11
86.63133342099295
 21
103.2753362778999
 31
0.0
  0
LINE
  5
1494
330
1490
100
AcDbEntity
  8
DIM
  6
Continuous
 62
     0
370
    -2
100
AcDbLine
 10
78.59644556161405
 20
96.68499299115805
 30
0.0
 11
78.59644556161405
 21
103.2753362778999
 31
0.0
  0
LINE
  5
1495
330
1490
100
AcDbEntity
  8
DIM
  6
Continuous
 62
     0
370
    -2
100
AcDbLine
 10
85.63133342099295
 20
103.2753362778999
 30
0.0
 11
79.59644556161405
 21
103.2753362778999
 31
0.0
  0
INSERT
  5
1496
330
1490
100
AcDbEntity
  8
DIM
 62
     0
370
    -2
100
AcDbBlockReference
  2
_DOT
 10
86.63133342099295
 20
103.2753362778999
 30
0.0
  0
INSERT
  5
1497
330
1490
100
AcDbEntity
  8
DIM
 62
     0
370
    -2
100
AcDbBlockReference
  2
_DOT
 10
78.59644556161405
 20
103.2753362778999
 30
0.0
 50
180.0
  0
MTEXT
  5
1498
330
1490
100
AcDbEntity
  8
DIM
 62
     0
100
AcDbMText
 10
82.61388949130344
 20
105.7753362778999
 30
0.0
 40
3.0
 41
0.0
 46
0.0
 71
     5
 72
     1
  1
\A1;8
  7
ＭＳ ゴシック
 73
     1
 44
1.0
  0
POINT
  5
1499
330
1490
100
AcDbEntity
  8
Defpoints
 62
     0
100
AcDbPoint
 10
86.63133342099295
 20
94.68499299115805
 30
0.0
  0
POINT
  5
149A
330
1490
100
AcDbEntity
  8
Defpoints
 62
     0
100
AcDbPoint
 10
78.59644556161405
 20
94.68499299115805
 30
0.0
  0
POINT
  5
149B
330
1490
100
AcDbEntity
  8
Defpoints
 62
     0
100
AcDbPoint
 10
78.59644556161405
 20
103.2753362778999
 30
0.0
  0
ENDBLK
  5
1492
330
1490
100
AcDbEntity
  8
0
100
AcDbBlockEnd
  0
BLOCK
  5
149D
330
149C
100
AcDbEntity
  8
0
100
AcDbBlockBegin
  2
*D17
 70
     1
 10
0.0
 20
0.0
 30
0.0
  3
*D17
  1
*D41
  0
LINE
  5
149F
330
149C
100
AcDbEntity
  8
DIM
  6
Continuous
 62
     0
370
    -2
100
AcDbLine
 10
88.63133342099295
 20
94.68499299115805
 30
0.0
 11
95.59148999469153
 21
94.68499299115805
 31
0.0
  0
LINE
  5
14A0
330
149C
100
AcDbEntity
  8
DIM
  6
Continuous
 62
     0
370
    -2
100
AcDbLine
 10
88.63133342099295
 20
87.28499299115805
 30
0.0
 11
95.59148999469153
 21
87.28499299115805
 31
0.0
  0
LINE
  5
14A1
330
149C
100
AcDbEntity
  8
DIM
  6
Continuous
 62
     0
370
    -2
100
AcDbLine
 10
95.59148999469153
 20
93.68499299115805
 30
0.0
 11
95.59148999469153
 21
88.28499299115805
 31
0.0
  0
INSERT
  5
14A2
330
149C
100
AcDbEntity
  8
DIM
 62
     0
370
    -2
100
AcDbBlockReference
  2
_DOT
 10
95.59148999469153
 20
94.68499299115805
 30
0.0
 50
90.0
  0
INSERT
  5
14A3
330
149C
100
AcDbEntity
  8
DIM
 62
     0
370
    -2
100
AcDbBlockReference
  2
_DOT
 10
95.59148999469153
 20
87.28499299115805
 30
0.0
 50
270.0
  0
MTEXT
  5
14A4
330
149C
100
AcDbEntity
  8
DIM
 62
     0
100
AcDbMText
 10
93.09148999469153
 20
90.98499299115805
 30
0.0
 40
3.0
 41
0.0
 46
0.0
 71
     5
 72
     1
  1
\A1;7
  7
ＭＳ ゴシック
 11
0.0
 21
1.0
 31
0.0
 73
     1
 44
1.0
  0
POINT
  5
14A5
330
149C
100
AcDbEntity
  8
Defpoints
 62
     0
100
AcDbPoint
 10
86.63133342099295
 20
94.68499299115805
 30
0.0
  0
POINT
  5
14A6
330
149C
100
AcDbEntity
  8
Defpoints
 62
     0
100
AcDbPoint
 10
86.63133342099295
 20
87.28499299115805
 30
0.0
  0
POINT
  5
14A7
330
149C
100
AcDbEntity
  8
Defpoints
 62
     0
100
AcDbPoint
 10
95.59148999469153
 20
87.28499299115805
 30
0.0
  0
ENDBLK
  5
149E
330
149C
100
AcDbEntity
  8
0
100
AcDbBlockEnd
  0
BLOCK
  5
20ED
330
20EC
100
AcDbEntity
  8
0
100
AcDbBlockBegin
  2
*D18
 70
     1
 10
0.0
 20
0.0
 30
0.0
  3
*D18
  1

  0
LINE
  5
20EF
330
20EC
100
AcDbEntity
  8
DIM
 62
     0
370
    -2
100
AcDbLine
 10
-134.680754681208
 20
160.5423689209726
 30
0.0
 11
-134.680754681208
 21
193.6154914303951
 31
0.0
  0
LINE
  5
20F0
330
20EC
100
AcDbEntity
  8
DIM
 62
     0
370
    -2
100
AcDbLine
 10
-77.59175772072189
 20
160.5423689209726
 30
0.0
 11
-77.59175772072189
 21
193.6154914303951
 31
0.0
  0
LINE
  5
20F1
330
20EC
100
AcDbEntity
  8
DIM
 62
     0
370
    -2
100
AcDbLine
 10
-133.680754681208
 20
193.6154914303951
 30
0.0
 11
-78.59175772072189
 21
193.6154914303951
 31
0.0
  0
INSERT
  5
20F2
330
20EC
100
AcDbEntity
  8
DIM
 62
     0
370
    -2
100
AcDbBlockReference
  2
_DOT
 10
-134.680754681208
 20
193.6154914303951
 30
0.0
 50
180.0
  0
INSERT
  5
20F3
330
20EC
100
AcDbEntity
  8
DIM
 62
     0
370
    -2
100
AcDbBlockReference
  2
_DOT
 10
-77.59175772072189
 20
193.6154914303951
 30
0.0
  0
MTEXT
  5
20F4
330
20EC
100
AcDbEntity
  8
DIM
 62
     0
100
AcDbMText
 10
-106.136256200965
 20
196.1160541414118
 30
0.0
 40
3.0
 41
0.0
 46
0.0
 71
     5
 72
     1
  1
\A1;57
  7
ＭＳ ゴシック
 73
     1
 44
1.0
  0
POINT
  5
20F5
330
20EC
100
AcDbEntity
  8
Defpoints
 62
     0
100
AcDbPoint
 10
-134.680754681208
 20
158.5423689209726
 30
0.0
  0
POINT
  5
20F6
330
20EC
100
AcDbEntity
  8
Defpoints
 62
     0
100
AcDbPoint
 10
-77.59175772072189
 20
158.5423689209726
 30
0.0
  0
POINT
  5
20F7
330
20EC
100
AcDbEntity
  8
Defpoints
 62
     0
100
AcDbPoint
 10
-77.59175772072189
 20
193.6154914303951
 30
0.0
  0
ENDBLK
  5
20EE
330
20EC
100
AcDbEntity
  8
0
100
AcDbBlockEnd
  0
BLOCK
  5
20FC
330
20FB
100
AcDbEntity
  8
0
100
AcDbBlockBegin
  2
*D19
 70
     1
 10
0.0
 20
0.0
 30
0.0
  3
*D19
  1

  0
LINE
  5
20FE
330
20FB
100
AcDbEntity
  8
DIM
 62
     0
370
    -2
100
AcDbLine
 10
-125.0797118934571
 20
156.5423689209726
 30
0.0
 11
-125.0797118934571
 21
115.193036106383
 31
0.0
  0
LINE
  5
20FF
330
20FB
100
AcDbEntity
  8
DIM
 62
     0
370
    -2
100
AcDbLine
 10
-87.19280050847269
 20
156.5423689209726
 30
0.0
 11
-87.19280050847269
 21
115.193036106383
 31
0.0
  0
LINE
  5
2100
330
20FB
100
AcDbEntity
  8
DIM
 62
     0
370
    -2
100
AcDbLine
 10
-124.0797118934571
 20
115.193036106383
 30
0.0
 11
-88.19280050847269
 21
115.193036106383
 31
0.0
  0
INSERT
  5
2101
330
20FB
100
AcDbEntity
  8
DIM
 62
     0
370
    -2
100
AcDbBlockReference
  2
_DOT
 10
-125.0797118934571
 20
115.193036106383
 30
0.0
 50
180.0
  0
INSERT
  5
2102
330
20FB
100
AcDbEntity
  8
DIM
 62
     0
370
    -2
100
AcDbBlockReference
  2
_DOT
 10
-87.19280050847269
 20
115.193036106383
 30
0.0
  0
MTEXT
  5
2103
330
20FB
100
AcDbEntity
  8
DIM
 62
     0
100
AcDbMText
 10
-106.1362562009649
 20
117.6935988173997
 30
0.0
 40
3.0
 41
0.0
 46
0.0
 71
     5
 72
     1
  1
\A1;38
  7
ＭＳ ゴシック
 73
     1
 44
1.0
  0
POINT
  5
2104
330
20FB
100
AcDbEntity
  8
Defpoints
 62
     0
100
AcDbPoint
 10
-125.0797118934571
 20
158.5423689209726
 30
0.0
  0
POINT
  5
2105
330
20FB
100
AcDbEntity
  8
Defpoints
 62
     0
100
AcDbPoint
 10
-87.19280050847269
 20
158.5423689209726
 30
0.0
  0
POINT
  5
2106
330
20FB
100
AcDbEntity
  8
Defpoints
 62
     0
100
AcDbPoint
 10
-87.19280050847269
 20
115.193036106383
 30
0.0
  0
ENDBLK
  5
20FD
330
20FB
100
AcDbEntity
  8
0
100
AcDbBlockEnd
  0
BLOCK
  5
218B
330
218A
100
AcDbEntity
  8
0
100
AcDbBlockBegin
  2
*D20
 70
     1
 10
0.0
 20
0.0
 30
0.0
  3
*D20
  1

  0
LINE
  5
218C
330
218A
100
AcDbEntity
  8
DIM
 62
     0
370
    -2
100
AcDbLine
 10
42.49806692459424
 20
224.6216187237455
 30
0.0
 11
14.00450168813313
 21
224.6216187237455
 31
0.0
  0
LINE
  5
218D
330
218A
100
AcDbEntity
  8
DIM
 62
     0
370
    -2
100
AcDbLine
 10
42.49806692459424
 20
186.6216187237456
 30
0.0
 11
14.00450168813313
 21
186.6216187237456
 31
0.0
  0
LINE
  5
218E
330
218A
100
AcDbEntity
  8
DIM
 62
     0
370
    -2
100
AcDbLine
 10
14.00450168813313
 20
223.6216187237455
 30
0.0
 11
14.00450168813313
 21
187.6216187237456
 31
0.0
  0
INSERT
  5
218F
330
218A
100
AcDbEntity
  8
DIM
 62
     0
370
    -2
100
AcDbBlockReference
  2
_DOT
 10
14.00450168813313
 20
224.6216187237455
 30
0.0
 50
90.0
  0
INSERT
  5
2190
330
218A
100
AcDbEntity
  8
DIM
 62
     0
370
    -2
100
AcDbBlockReference
  2
_DOT
 10
14.00450168813313
 20
186.6216187237456
 30
0.0
 50
270.0
  0
MTEXT
  5
2191
330
218A
100
AcDbEntity
  8
DIM
 62
     0
100
AcDbMText
 10
11.50393897711649
 20
205.6216187237456
 30
0.0
 40
3.0
 41
0.0
 46
0.0
 71
     5
 72
     1
  1
\A1;38
  7
ＭＳ ゴシック
 11
4.674623261579614E-17
 21
1.0
 31
0.0
 73
     1
 44
1.0
  0
POINT
  5
2192
330
218A
100
AcDbEntity
  8
Defpoints
 62
     0
100
AcDbPoint
 10
44.49806692459424
 20
224.6216187237455
 30
0.0
  0
POINT
  5
2193
330
218A
100
AcDbEntity
  8
Defpoints
 62
     0
100
AcDbPoint
 10
44.49806692459424
 20
186.6216187237456
 30
0.0
  0
POINT
  5
2194
330
218A
100
AcDbEntity
  8
Defpoints
 62
     0
100
AcDbPoint
 10
14.00450168813313
 20
186.6216187237456
 30
0.0
  0
ENDBLK
  5
2195
330
218A
100
AcDbEntity
  8
0
100
AcDbBlockEnd
  0
BLOCK
  5
219A
330
2199
100
AcDbEntity
  8
0
100
AcDbBlockBegin
  2
*D21
 70
     1
 10
0.0
 20
0.0
 30
0.0
  3
*D21
  1

  0
LINE
  5
219B
330
2199
100
AcDbEntity
  8
DIM
 62
     0
370
    -2
100
AcDbLine
 10
45.49806692459424
 20
39.6972984307061
 30
0.0
 11
16.00450168813313
 21
39.6972984307061
 31
0.0
  0
LINE
  5
219C
330
2199
100
AcDbEntity
  8
DIM
 62
     0
370
    -2
100
AcDbLine
 10
44.49806692459424
 20
139.6972984307061
 30
0.0
 11
16.00450168813313
 21
139.6972984307061
 31
0.0
  0
LINE
  5
219D
330
2199
100
AcDbEntity
  8
DIM
 62
     0
370
    -2
100
AcDbLine
 10
16.00450168813313
 20
40.6972984307061
 30
0.0
 11
16.00450168813313
 21
138.6972984307061
 31
0.0
  0
INSERT
  5
219E
330
2199
100
AcDbEntity
  8
DIM
 62
     0
370
    -2
100
AcDbBlockReference
  2
_DOT
 10
16.00450168813313
 20
39.6972984307061
 30
0.0
 50
270.0
  0
INSERT
  5
219F
330
2199
100
AcDbEntity
  8
DIM
 62
     0
370
    -2
100
AcDbBlockReference
  2
_DOT
 10
16.00450168813313
 20
139.6972984307061
 30
0.0
 50
90.0
  0
MTEXT
  5
21A0
330
2199
100
AcDbEntity
  8
DIM
 62
     0
100
AcDbMText
 10
13.5039389771165
 20
89.6972984307061
 30
0.0
 40
3.0
 41
0.0
 46
0.0
 71
     5
 72
     1
  1
\A1;100
  7
ＭＳ ゴシック
 11
7.105427357601002E-17
 21
1.0
 31
0.0
 73
     1
 44
1.0
  0
POINT
  5
21A1
330
2199
100
AcDbEntity
  8
Defpoints
 62
     0
100
AcDbPoint
 10
47.49806692459424
 20
39.6972984307061
 30
0.0
  0
POINT
  5
21A2
330
2199
100
AcDbEntity
  8
Defpoints
 62
     0
100
AcDbPoint
 10
46.49806692459424
 20
139.6972984307061
 30
0.0
  0
POINT
  5
21A3
330
2199
100
AcDbEntity
  8
Defpoints
 62
     0
100
AcDbPoint
 10
16.00450168813313
 20
139.6972984307061
 30
0.0
  0
ENDBLK
  5
21A4
330
2199
100
AcDbEntity
  8
0
100
AcDbBlockEnd
  0
BLOCK
  5
21A9
330
21A8
100
AcDbEntity
  8
0
100
AcDbBlockBegin
  2
*D22
 70
     1
 10
0.0
 20
0.0
 30
0.0
  3
*D22
  1

  0
LINE
  5
21AA
330
21A8
100
AcDbEntity
  8
DIM
 62
     0
370
    -2
100
AcDbLine
 10
137.0653688259042
 20
37.6972984307061
 30
0.0
 11
137.0653688259042
 21
13.29308752400124
 31
0.0
  0
LINE
  5
21AB
330
21A8
100
AcDbEntity
  8
DIM
 62
     0
370
    -2
100
AcDbLine
 10
131.0653688259042
 20
37.6972984307061
 30
0.0
 11
131.0653688259042
 21
13.29308752400124
 31
0.0
  0
LINE
  5
21AC
330
21A8
100
AcDbEntity
  8
DIM
 62
     0
370
    -2
100
AcDbLine
 10
131.0653688259042
 20
13.29308752400124
 30
0.0
 11
115.273501563181
 21
13.29308752400124
 31
0.0
  0
LINE
  5
21AD
330
21A8
100
AcDbEntity
  8
DIM
 62
     0
370
    -2
100
AcDbLine
 10
136.0653688259042
 20
13.29308752400124
 30
0.0
 11
132.0653688259042
 21
13.29308752400124
 31
0.0
  0
LINE
  5
21AE
330
21A8
100
AcDbEntity
  8
DIM
 62
     0
370
    -2
100
AcDbLine
 10
132.0653688259042
 20
13.29308752400124
 30
0.0
 11
133.0653688259042
 21
13.29308752400124
 31
0.0
  0
INSERT
  5
21AF
330
21A8
100
AcDbEntity
  8
DIM
 62
     0
370
    -2
100
AcDbBlockReference
  2
_DOT
 10
137.0653688259042
 20
13.29308752400124
 30
0.0
  0
INSERT
  5
21B0
330
21A8
100
AcDbEntity
  8
DIM
 62
     0
370
    -2
100
AcDbBlockReference
  2
_DOT
 10
131.0653688259042
 20
13.29308752400124
 30
0.0
 50
180.0
  0
MTEXT
  5
21B1
330
21A8
100
AcDbEntity
  8
DIM
 62
     0
100
AcDbMText
 10
117.0349199075602
 20
15.79308752400124
 30
0.0
 40
3.0
 41
0.0
 46
0.0
 71
     5
 72
     1
  1
\A1;6
  7
ＭＳ ゴシック
 73
     1
 44
1.0
  0
POINT
  5
21B2
330
21A8
100
AcDbEntity
  8
Defpoints
 62
     0
100
AcDbPoint
 10
137.0653688259042
 20
39.6972984307061
 30
0.0
  0
POINT
  5
21B3
330
21A8
100
AcDbEntity
  8
Defpoints
 62
     0
100
AcDbPoint
 10
131.0653688259042
 20
39.6972984307061
 30
0.0
  0
POINT
  5
21B4
330
21A8
100
AcDbEntity
  8
Defpoints
 62
     0
100
AcDbPoint
 10
131.0653688259042
 20
13.29308752400124
 30
0.0
  0
ENDBLK
  5
21B5
330
21A8
100
AcDbEntity
  8
0
100
AcDbBlockEnd
  0
BLOCK
  5
21B9
330
21B8
100
AcDbEntity
  8
0
100
AcDbBlockBegin
  2
*D23
 70
     1
 10
0.0
 20
0.0
 30
0.0
  3
*D23
  1

  0
LINE
  5
21BA
330
21B8
100
AcDbEntity
  8
DIM
 62
     0
370
    -2
100
AcDbLine
 10
122.2435532676013
 20
54.6972984307061
 30
0.0
 11
99.19806294799514
 21
54.6972984307061
 31
0.0
  0
LINE
  5
21BB
330
21B8
100
AcDbEntity
  8
DIM
 62
     0
370
    -2
100
AcDbLine
 10
122.2435532676013
 20
76.6972984307061
 30
0.0
 11
99.19806294799514
 21
76.6972984307061
 31
0.0
  0
LINE
  5
21BC
330
21B8
100
AcDbEntity
  8
DIM
 62
     0
370
    -2
100
AcDbLine
 10
99.19806294799514
 20
55.6972984307061
 30
0.0
 11
99.19806294799514
 21
75.6972984307061
 31
0.0
  0
INSERT
  5
21BD
330
21B8
100
AcDbEntity
  8
DIM
 62
     0
370
    -2
100
AcDbBlockReference
  2
_DOT
 10
99.19806294799514
 20
54.6972984307061
 30
0.0
 50
270.0
  0
INSERT
  5
21BE
330
21B8
100
AcDbEntity
  8
DIM
 62
     0
370
    -2
100
AcDbBlockReference
  2
_DOT
 10
99.19806294799514
 20
76.6972984307061
 30
0.0
 50
90.0
  0
MTEXT
  5
21BF
330
21B8
100
AcDbEntity
  8
DIM
 62
     0
100
AcDbMText
 10
96.69750023697851
 20
65.6972984307061
 30
0.0
 40
3.0
 41
0.0
 46
0.0
 71
     5
 72
     1
  1
\A1;22
  7
ＭＳ ゴシック
 11
0.0
 21
1.0
 31
0.0
 73
     1
 44
1.0
  0
POINT
  5
21C0
330
21B8
100
AcDbEntity
  8
Defpoints
 62
     0
100
AcDbPoint
 10
124.2435532676013
 20
54.6972984307061
 30
0.0
  0
POINT
  5
21C1
330
21B8
100
AcDbEntity
  8
Defpoints
 62
     0
100
AcDbPoint
 10
124.2435532676013
 20
76.6972984307061
 30
0.0
  0
POINT
  5
21C2
330
21B8
100
AcDbEntity
  8
Defpoints
 62
     0
100
AcDbPoint
 10
99.19806294799514
 20
76.6972984307061
 30
0.0
  0
ENDBLK
  5
21C3
330
21B8
100
AcDbEntity
  8
0
100
AcDbBlockEnd
  0
BLOCK
  5
21C8
330
21C7
100
AcDbEntity
  8
0
100
AcDbBlockBegin
  2
*D24
 70
     1
 10
0.0
 20
0.0
 30
0.0
  3
*D24
  1

  0
LINE
  5
21C9
330
21C7
100
AcDbEntity
  8
DIM
 62
     0
370
    -2
100
AcDbLine
 10
66.49806692459424
 20
40.6972984307061
 30
0.0
 11
66.49806692459424
 21
1.5
 31
0.0
  0
LINE
  5
21CA
330
21C7
100
AcDbEntity
  8
DIM
 62
     0
370
    -2
100
AcDbLine
 10
44.49806692459424
 20
40.6972984307061
 30
0.0
 11
44.49806692459424
 21
1.5
 31
0.0
  0
LINE
  5
21CB
330
21C7
100
AcDbEntity
  8
DIM
 62
     0
370
    -2
100
AcDbLine
 10
65.49806692459424
 20
1.5
 30
0.0
 11
45.49806692459424
 21
1.5
 31
0.0
  0
INSERT
  5
21CC
330
21C7
100
AcDbEntity
  8
DIM
 62
     0
370
    -2
100
AcDbBlockReference
  2
_DOT
 10
66.49806692459424
 20
1.5
 30
0.0
  0
INSERT
  5
21CD
330
21C7
100
AcDbEntity
  8
DIM
 62
     0
370
    -2
100
AcDbBlockReference
  2
_DOT
 10
44.49806692459424
 20
1.5
 30
0.0
 50
180.0
  0
MTEXT
  5
21CE
330
21C7
100
AcDbEntity
  8
DIM
 62
     0
100
AcDbMText
 10
55.49806692459424
 20
4.000562711016631
 30
0.0
 40
3.0
 41
0.0
 46
0.0
 71
     5
 72
     1
  1
\A1;22
  7
ＭＳ ゴシック
 73
     1
 44
1.0
  0
POINT
  5
21CF
330
21C7
100
AcDbEntity
  8
Defpoints
 62
     0
100
AcDbPoint
 10
66.49806692459424
 20
42.6972984307061
 30
0.0
  0
POINT
  5
21D0
330
21C7
100
AcDbEntity
  8
Defpoints
 62
     0
100
AcDbPoint
 10
44.49806692459424
 20
42.6972984307061
 30
0.0
  0
POINT
  5
21D1
330
21C7
100
AcDbEntity
  8
Defpoints
 62
     0
100
AcDbPoint
 10
44.49806692459424
 20
1.5
 30
0.0
  0
ENDBLK
  5
21D2
330
21C7
100
AcDbEntity
  8
0
100
AcDbBlockEnd
  0
BLOCK
  5
221B
330
221A
100
AcDbEntity
  8
0
100
AcDbBlockBegin
  2
*D25
 70
     1
 10
0.0
 20
0.0
 30
0.0
  3
*D25
  1

  0
LINE
  5
221D
330
221A
100
AcDbEntity
  8
DIM
 62
     0
370
    -2
100
AcDbLine
 10
174.0150974451663
 20
186.573022176821
 30
0.0
 11
174.0150974451663
 21
195.2149015320511
 31
0.0
  0
LINE
  5
221E
330
221A
100
AcDbEntity
  8
DIM
 62
     0
370
    -2
100
AcDbLine
 10
136.0150974451663
 20
142.1533539429688
 30
0.0
 11
136.0150974451663
 21
195.2149015320511
 31
0.0
  0
LINE
  5
221F
330
221A
100
AcDbEntity
  8
DIM
 62
     0
370
    -2
100
AcDbLine
 10
173.0150974451663
 20
195.2149015320511
 30
0.0
 11
137.0150974451663
 21
195.2149015320511
 31
0.0
  0
INSERT
  5
2220
330
221A
100
AcDbEntity
  8
DIM
 62
     0
370
    -2
100
AcDbBlockReference
  2
_DOT
 10
174.0150974451663
 20
195.2149015320511
 30
0.0
  0
INSERT
  5
2221
330
221A
100
AcDbEntity
  8
DIM
 62
     0
370
    -2
100
AcDbBlockReference
  2
_DOT
 10
136.0150974451663
 20
195.2149015320511
 30
0.0
 50
180.0
  0
MTEXT
  5
2222
330
221A
100
AcDbEntity
  8
DIM
 62
     0
100
AcDbMText
 10
155.0150974451662
 20
197.7154642430678
 30
0.0
 40
3.0
 41
0.0
 46
0.0
 71
     5
 72
     1
  1
\A1;38
  7
ＭＳ ゴシック
 73
     1
 44
1.0
  0
POINT
  5
2223
330
221A
100
AcDbEntity
  8
Defpoints
 62
     0
100
AcDbPoint
 10
174.0150974451663
 20
184.573022176821
 30
0.0
  0
POINT
  5
2224
330
221A
100
AcDbEntity
  8
Defpoints
 62
     0
100
AcDbPoint
 10
136.0150974451663
 20
140.1533539429688
 30
0.0
  0
POINT
  5
2225
330
221A
100
AcDbEntity
  8
Defpoints
 62
     0
100
AcDbPoint
 10
136.0150974451663
 20
195.2149015320511
 30
0.0
  0
ENDBLK
  5
221C
330
221A
100
AcDbEntity
  8
0
100
AcDbBlockEnd
  0
BLOCK
  5
2227
330
2226
100
AcDbEntity
  8
0
100
AcDbBlockBegin
  2
*D26
 70
     1
 10
0.0
 20
0.0
 30
0.0
  3
*D26
  1

  0
LINE
  5
2229
330
2226
100
AcDbEntity
  8
DIM
 62
     0
370
    -2
100
AcDbLine
 10
58.99169187012705
 20
85.94381796909775
 30
0.0
 11
43.71566519426511
 21
85.94381796909775
 31
0.0
  0
LINE
  5
222A
330
2226
100
AcDbEntity
  8
DIM
 62
     0
370
    -2
100
AcDbLine
 10
58.353129781706
 20
185.9438179690978
 30
0.0
 11
43.71566519426512
 21
185.9438179690978
 31
0.0
  0
LINE
  5
222B
330
2226
100
AcDbEntity
  8
DIM
 62
     0
370
    -2
100
AcDbLine
 10
43.71566519426511
 20
86.94381796909775
 30
0.0
 11
43.71566519426512
 21
184.9438179690978
 31
0.0
  0
INSERT
  5
222C
330
2226
100
AcDbEntity
  8
DIM
 62
     0
370
    -2
100
AcDbBlockReference
  2
_DOT
 10
43.71566519426511
 20
85.94381796909775
 30
0.0
 50
270.0
  0
INSERT
  5
222D
330
2226
100
AcDbEntity
  8
DIM
 62
     0
370
    -2
100
AcDbBlockReference
  2
_DOT
 10
43.71566519426512
 20
185.9438179690978
 30
0.0
 50
90.0
  0
MTEXT
  5
222E
330
2226
100
AcDbEntity
  8
DIM
 62
     0
100
AcDbMText
 10
41.21510248324848
 20
137.2070913511116
 30
0.0
 40
3.0
 41
0.0
 46
0.0
 71
     5
 72
     1
  1
\A1;100
  7
ＭＳ ゴシック
 11
7.105427357600996E-17
 21
1.0
 31
0.0
 73
     1
 44
1.0
  0
POINT
  5
222F
330
2226
100
AcDbEntity
  8
Defpoints
 62
     0
100
AcDbPoint
 10
60.99169187012705
 20
85.94381796909775
 30
0.0
  0
POINT
  5
2230
330
2226
100
AcDbEntity
  8
Defpoints
 62
     0
100
AcDbPoint
 10
60.353129781706
 20
185.9438179690978
 30
0.0
  0
POINT
  5
2231
330
2226
100
AcDbEntity
  8
Defpoints
 62
     0
100
AcDbPoint
 10
43.71566519426512
 20
185.9438179690978
 30
0.0
  0
ENDBLK
  5
2228
330
2226
100
AcDbEntity
  8
0
100
AcDbBlockEnd
  0
BLOCK
  5
2233
330
2232
100
AcDbEntity
  8
0
100
AcDbBlockBegin
  2
*D27
 70
     1
 10
0.0
 20
0.0
 30
0.0
  3
*D27
  1

  0
LINE
  5
2235
330
2232
100
AcDbEntity
  8
DIM
 62
     0
370
    -2
100
AcDbLine
 10
141.8225274002974
 20
83.94381796909772
 30
0.0
 11
141.8225274002974
 21
74.92589560711183
 31
0.0
  0
LINE
  5
2236
330
2232
100
AcDbEntity
  8
DIM
 62
     0
370
    -2
100
AcDbLine
 10
135.8225274002974
 20
83.94381796909772
 30
0.0
 11
135.8225274002974
 21
74.92589560711183
 31
0.0
  0
LINE
  5
2237
330
2232
100
AcDbEntity
  8
DIM
 62
     0
370
    -2
100
AcDbLine
 10
140.8225274002974
 20
74.92589560711183
 30
0.0
 11
136.8225274002974
 21
74.92589560711183
 31
0.0
  0
INSERT
  5
2238
330
2232
100
AcDbEntity
  8
DIM
 62
     0
370
    -2
100
AcDbBlockReference
  2
_DOT
 10
141.8225274002974
 20
74.92589560711183
 30
0.0
  0
INSERT
  5
2239
330
2232
100
AcDbEntity
  8
DIM
 62
     0
370
    -2
100
AcDbBlockReference
  2
_DOT
 10
135.8225274002974
 20
74.92589560711183
 30
0.0
 50
180.0
  0
MTEXT
  5
223A
330
2232
100
AcDbEntity
  8
DIM
 62
     0
100
AcDbMText
 10
138.8225274002974
 20
77.42589560711183
 30
0.0
 40
3.0
 41
0.0
 46
0.0
 71
     5
 72
     1
  1
\A1;6
  7
ＭＳ ゴシック
 73
     1
 44
1.0
  0
POINT
  5
223B
330
2232
100
AcDbEntity
  8
Defpoints
 62
     0
100
AcDbPoint
 10
141.8225274002974
 20
85.94381796909772
 30
0.0
  0
POINT
  5
223C
330
2232
100
AcDbEntity
  8
Defpoints
 62
     0
100
AcDbPoint
 10
135.8225274002974
 20
85.94381796909772
 30
0.0
  0
POINT
  5
223D
330
2232
100
AcDbEntity
  8
Defpoints
 62
     0
100
AcDbPoint
 10
135.8225274002974
 20
74.92589560711183
 30
0.0
  0
ENDBLK
  5
2234
330
2232
100
AcDbEntity
  8
0
100
AcDbBlockEnd
  0
BLOCK
  5
2241
330
2240
100
AcDbEntity
  8
0
100
AcDbBlockBegin
  2
*D28
 70
     1
 10
0.0
 20
0.0
 30
0.0
  3
*D28
  1

  0
LINE
  5
2243
330
2240
100
AcDbEntity
  8
DIM
 62
     0
370
    -2
100
AcDbLine
 10
116.9694819438893
 20
100.9438179690977
 30
0.0
 11
113.124132247579
 21
100.9438179690977
 31
0.0
  0
LINE
  5
2244
330
2240
100
AcDbEntity
  8
DIM
 62
     0
370
    -2
100
AcDbLine
 10
116.9694819438893
 20
122.9438179690977
 30
0.0
 11
113.124132247579
 21
122.9438179690977
 31
0.0
  0
LINE
  5
2245
330
2240
100
AcDbEntity
  8
DIM
 62
     0
370
    -2
100
AcDbLine
 10
113.124132247579
 20
101.9438179690977
 30
0.0
 11
113.124132247579
 21
121.9438179690977
 31
0.0
  0
INSERT
  5
2246
330
2240
100
AcDbEntity
  8
DIM
 62
     0
370
    -2
100
AcDbBlockReference
  2
_DOT
 10
113.124132247579
 20
100.9438179690977
 30
0.0
 50
270.0
  0
INSERT
  5
2247
330
2240
100
AcDbEntity
  8
DIM
 62
     0
370
    -2
100
AcDbBlockReference
  2
_DOT
 10
113.124132247579
 20
122.9438179690977
 30
0.0
 50
90.0
  0
MTEXT
  5
2248
330
2240
100
AcDbEntity
  8
DIM
 62
     0
100
AcDbMText
 10
110.6235695365624
 20
111.9438179690976
 30
0.0
 40
3.0
 41
0.0
 46
0.0
 71
     5
 72
     1
  1
\A1;22
  7
ＭＳ ゴシック
 11
0.0
 21
1.0
 31
0.0
 73
     1
 44
1.0
  0
POINT
  5
2249
330
2240
100
AcDbEntity
  8
Defpoints
 62
     0
100
AcDbPoint
 10
118.9694819438893
 20
100.9438179690977
 30
0.0
  0
POINT
  5
224A
330
2240
100
AcDbEntity
  8
Defpoints
 62
     0
100
AcDbPoint
 10
118.9694819438893
 20
122.9438179690977
 30
0.0
  0
POINT
  5
224B
330
2240
100
AcDbEntity
  8
Defpoints
 62
     0
100
AcDbPoint
 10
113.124132247579
 20
122.9438179690977
 30
0.0
  0
ENDBLK
  5
2242
330
2240
100
AcDbEntity
  8
0
100
AcDbBlockEnd
  0
BLOCK
  5
224D
330
224C
100
AcDbEntity
  8
0
100
AcDbBlockBegin
  2
*D29
 70
     1
 10
0.0
 20
0.0
 30
0.0
  3
*D29
  1

  0
LINE
  5
224F
330
224C
100
AcDbEntity
  8
DIM
 62
     0
370
    -2
100
AcDbLine
 10
80.41731317278743
 20
79.13020627751158
 30
0.0
 11
80.41731317278743
 21
67.11228391552568
 31
0.0
  0
LINE
  5
2250
330
224C
100
AcDbEntity
  8
DIM
 62
     0
370
    -2
100
AcDbLine
 10
58.41731317278743
 20
79.13020627751158
 30
0.0
 11
58.41731317278743
 21
67.11228391552568
 31
0.0
  0
LINE
  5
2251
330
224C
100
AcDbEntity
  8
DIM
 62
     0
370
    -2
100
AcDbLine
 10
79.41731317278743
 20
67.11228391552568
 30
0.0
 11
59.41731317278743
 21
67.11228391552568
 31
0.0
  0
INSERT
  5
2252
330
224C
100
AcDbEntity
  8
DIM
 62
     0
370
    -2
100
AcDbBlockReference
  2
_DOT
 10
80.41731317278743
 20
67.11228391552568
 30
0.0
  0
INSERT
  5
2253
330
224C
100
AcDbEntity
  8
DIM
 62
     0
370
    -2
100
AcDbBlockReference
  2
_DOT
 10
58.41731317278743
 20
67.11228391552568
 30
0.0
 50
180.0
  0
MTEXT
  5
2254
330
224C
100
AcDbEntity
  8
DIM
 62
     0
100
AcDbMText
 10
69.41731317278743
 20
69.61284662654231
 30
0.0
 40
3.0
 41
0.0
 46
0.0
 71
     5
 72
     1
  1
\A1;22
  7
ＭＳ ゴシック
 73
     1
 44
1.0
  0
POINT
  5
2255
330
224C
100
AcDbEntity
  8
Defpoints
 62
     0
100
AcDbPoint
 10
80.41731317278743
 20
81.13020627751158
 30
0.0
  0
POINT
  5
2256
330
224C
100
AcDbEntity
  8
Defpoints
 62
     0
100
AcDbPoint
 10
58.41731317278743
 20
81.13020627751158
 30
0.0
  0
POINT
  5
2257
330
224C
100
AcDbEntity
  8
Defpoints
 62
     0
100
AcDbPoint
 10
58.41731317278743
 20
67.11228391552568
 30
0.0
  0
ENDBLK
  5
224E
330
224C
100
AcDbEntity
  8
0
100
AcDbBlockEnd
  0
BLOCK
  5
2265
330
2264
100
AcDbEntity
  8
0
100
AcDbBlockBegin
  2
*D30
 70
     1
 10
0.0
 20
0.0
 30
0.0
  3
*D30
  1

  0
LINE
  5
2267
330
2264
100
AcDbEntity
  8
DIM
 62
     0
370
    -2
100
AcDbLine
 10
169.8364747687185
 20
180.0467482821739
 30
0.0
 11
169.8364747687185
 21
193.9744296527597
 31
0.0
  0
LINE
  5
2268
330
2264
100
AcDbEntity
  8
DIM
 62
     0
370
    -2
100
AcDbLine
 10
131.8364747687185
 20
126.3912025840714
 30
0.0
 11
131.8364747687185
 21
193.9744296527597
 31
0.0
  0
LINE
  5
2269
330
2264
100
AcDbEntity
  8
DIM
 62
     0
370
    -2
100
AcDbLine
 10
168.8364747687185
 20
193.9744296527597
 30
0.0
 11
132.8364747687185
 21
193.9744296527597
 31
0.0
  0
INSERT
  5
226A
330
2264
100
AcDbEntity
  8
DIM
 62
     0
370
    -2
100
AcDbBlockReference
  2
_DOT
 10
169.8364747687185
 20
193.9744296527597
 30
0.0
  0
INSERT
  5
226B
330
2264
100
AcDbEntity
  8
DIM
 62
     0
370
    -2
100
AcDbBlockReference
  2
_DOT
 10
131.8364747687185
 20
193.9744296527597
 30
0.0
 50
180.0
  0
MTEXT
  5
226C
330
2264
100
AcDbEntity
  8
DIM
 62
     0
100
AcDbMText
 10
150.8364747687185
 20
196.4749923637763
 30
0.0
 40
3.0
 41
0.0
 46
0.0
 71
     5
 72
     1
  1
\A1;38
  7
ＭＳ ゴシック
 73
     1
 44
1.0
  0
POINT
  5
226D
330
2264
100
AcDbEntity
  8
Defpoints
 62
     0
100
AcDbPoint
 10
169.8364747687185
 20
178.0467482821739
 30
0.0
  0
POINT
  5
226E
330
2264
100
AcDbEntity
  8
Defpoints
 62
     0
100
AcDbPoint
 10
131.8364747687185
 20
124.3912025840714
 30
0.0
  0
POINT
  5
226F
330
2264
100
AcDbEntity
  8
Defpoints
 62
     0
100
AcDbPoint
 10
131.8364747687185
 20
193.9744296527597
 30
0.0
  0
ENDBLK
  5
2266
330
2264
100
AcDbEntity
  8
0
100
AcDbBlockEnd
  0
BLOCK
  5
22B0
330
22AF
100
AcDbEntity
  8
0
100
AcDbBlockBegin
  2
*D31
 70
     1
 10
0.0
 20
0.0
 30
0.0
  3
*D31
  1

  0
LINE
  5
22B1
330
22AF
100
AcDbEntity
  8
DIM
 62
     0
370
    -2
100
AcDbLine
 10
310.8882141886731
 20
247.67108222145
 30
0.0
 11
310.8882141886731
 21
266.2446265812835
 31
0.0
  0
LINE
  5
22B2
330
22AF
100
AcDbEntity
  8
DIM
 62
     0
370
    -2
100
AcDbLine
 10
86.88821418867315
 20
247.67108222145
 30
0.0
 11
86.88821418867315
 21
266.2446265812835
 31
0.0
  0
LINE
  5
22B3
330
22AF
100
AcDbEntity
  8
DIM
 62
     0
370
    -2
100
AcDbLine
 10
309.8882141886731
 20
266.2446265812835
 30
0.0
 11
87.88821418867315
 21
266.2446265812835
 31
0.0
  0
INSERT
  5
22B4
330
22AF
100
AcDbEntity
  8
DIM
 62
     0
370
    -2
100
AcDbBlockReference
  2
_DOT
 10
310.8882141886731
 20
266.2446265812835
 30
0.0
  0
INSERT
  5
22B5
330
22AF
100
AcDbEntity
  8
DIM
 62
     0
370
    -2
100
AcDbBlockReference
  2
_DOT
 10
86.88821418867315
 20
266.2446265812835
 30
0.0
 50
180.0
  0
MTEXT
  5
22B6
330
22AF
100
AcDbEntity
  8
DIM
 62
     0
100
AcDbMText
 10
198.8882141886731
 20
268.7451892923001
 30
0.0
 40
3.0
 41
0.0
 46
0.0
 71
     5
 72
     1
  1
\A1;224
  7
ＭＳ ゴシック
 73
     1
 44
1.0
  0
POINT
  5
22B7
330
22AF
100
AcDbEntity
  8
Defpoints
 62
     0
100
AcDbPoint
 10
310.8882141886731
 20
245.67108222145
 30
0.0
  0
POINT
  5
22B8
330
22AF
100
AcDbEntity
  8
Defpoints
 62
     0
100
AcDbPoint
 10
86.88821418867315
 20
245.67108222145
 30
0.0
  0
POINT
  5
22B9
330
22AF
100
AcDbEntity
  8
Defpoints
 62
     0
100
AcDbPoint
 10
86.88821418867315
 20
266.2446265812835
 30
0.0
  0
ENDBLK
  5
22BA
330
22AF
100
AcDbEntity
  8
0
100
AcDbBlockEnd
  0
BLOCK
  5
22BF
330
22BE
100
AcDbEntity
  8
0
100
AcDbBlockBegin
  2
*D32
 70
     1
 10
0.0
 20
0.0
 30
0.0
  3
*D32
  1

  0
LINE
  5
22C0
330
22BE
100
AcDbEntity
  8
DIM
 62
     0
370
    -2
100
AcDbLine
 10
86.88821418867315
 20
247.67108222145
 30
0.0
 11
86.88821418867315
 21
266.2446265812835
 31
0.0
  0
LINE
  5
22C1
330
22BE
100
AcDbEntity
  8
DIM
 62
     0
370
    -2
100
AcDbLine
 10
63.88821418867315
 20
247.67108222145
 30
0.0
 11
63.88821418867315
 21
266.2446265812835
 31
0.0
  0
LINE
  5
22C2
330
22BE
100
AcDbEntity
  8
DIM
 62
     0
370
    -2
100
AcDbLine
 10
85.88821418867315
 20
266.2446265812835
 30
0.0
 11
64.88821418867315
 21
266.2446265812835
 31
0.0
  0
INSERT
  5
22C3
330
22BE
100
AcDbEntity
  8
DIM
 62
     0
370
    -2
100
AcDbBlockReference
  2
_DOT
 10
86.88821418867315
 20
266.2446265812835
 30
0.0
  0
INSERT
  5
22C4
330
22BE
100
AcDbEntity
  8
DIM
 62
     0
370
    -2
100
AcDbBlockReference
  2
_DOT
 10
63.88821418867315
 20
266.2446265812835
 30
0.0
 50
180.0
  0
MTEXT
  5
22C5
330
22BE
100
AcDbEntity
  8
DIM
 62
     0
100
AcDbMText
 10
75.38821418867315
 20
268.7451892923001
 30
0.0
 40
3.0
 41
0.0
 46
0.0
 71
     5
 72
     1
  1
\A1;23
  7
ＭＳ ゴシック
 73
     1
 44
1.0
  0
POINT
  5
22C6
330
22BE
100
AcDbEntity
  8
Defpoints
 62
     0
100
AcDbPoint
 10
86.88821418867315
 20
245.67108222145
 30
0.0
  0
POINT
  5
22C7
330
22BE
100
AcDbEntity
  8
Defpoints
 62
     0
100
AcDbPoint
 10
63.88821418867315
 20
245.67108222145
 30
0.0
  0
POINT
  5
22C8
330
22BE
100
AcDbEntity
  8
Defpoints
 62
     0
100
AcDbPoint
 10
63.88821418867315
 20
266.2446265812835
 30
0.0
  0
ENDBLK
  5
22C9
330
22BE
100
AcDbEntity
  8
0
100
AcDbBlockEnd
  0
BLOCK
  5
22CE
330
22CD
100
AcDbEntity
  8
0
100
AcDbBlockBegin
  2
*D33
 70
     1
 10
0.0
 20
0.0
 30
0.0
  3
*D33
  1

  0
LINE
  5
22CF
330
22CD
100
AcDbEntity
  8
DIM
 62
     0
370
    -2
100
AcDbLine
 10
48.88821418867315
 20
247.6710822214501
 30
0.0
 11
48.88821418867315
 21
266.2446265812835
 31
0.0
  0
LINE
  5
22D0
330
22CD
100
AcDbEntity
  8
DIM
 62
     0
370
    -2
100
AcDbLine
 10
63.88821418867315
 20
247.67108222145
 30
0.0
 11
63.88821418867315
 21
266.2446265812835
 31
0.0
  0
LINE
  5
22D1
330
22CD
100
AcDbEntity
  8
DIM
 62
     0
370
    -2
100
AcDbLine
 10
49.88821418867315
 20
266.2446265812835
 30
0.0
 11
62.88821418867315
 21
266.2446265812835
 31
0.0
  0
INSERT
  5
22D2
330
22CD
100
AcDbEntity
  8
DIM
 62
     0
370
    -2
100
AcDbBlockReference
  2
_DOT
 10
48.88821418867315
 20
266.2446265812835
 30
0.0
 50
180.0
  0
INSERT
  5
22D3
330
22CD
100
AcDbEntity
  8
DIM
 62
     0
370
    -2
100
AcDbBlockReference
  2
_DOT
 10
63.88821418867315
 20
266.2446265812835
 30
0.0
  0
MTEXT
  5
22D4
330
22CD
100
AcDbEntity
  8
DIM
 62
     0
100
AcDbMText
 10
56.38821418867315
 20
268.7451892923001
 30
0.0
 40
3.0
 41
0.0
 46
0.0
 71
     5
 72
     1
  1
\A1;15
  7
ＭＳ ゴシック
 73
     1
 44
1.0
  0
POINT
  5
22D5
330
22CD
100
AcDbEntity
  8
Defpoints
 62
     0
100
AcDbPoint
 10
48.88821418867315
 20
245.6710822214501
 30
0.0
  0
POINT
  5
22D6
330
22CD
100
AcDbEntity
  8
Defpoints
 62
     0
100
AcDbPoint
 10
63.88821418867315
 20
245.67108222145
 30
0.0
  0
POINT
  5
22D7
330
22CD
100
AcDbEntity
  8
Defpoints
 62
     0
100
AcDbPoint
 10
63.88821418867315
 20
266.2446265812835
 30
0.0
  0
ENDBLK
  5
22D8
330
22CD
100
AcDbEntity
  8
0
100
AcDbBlockEnd
  0
BLOCK
  5
22DD
330
22DC
100
AcDbEntity
  8
0
100
AcDbBlockBegin
  2
*D34
 70
     1
 10
0.0
 20
0.0
 30
0.0
  3
*D34
  1

  0
LINE
  5
22DE
330
22DC
100
AcDbEntity
  8
DIM
 62
     0
370
    -2
100
AcDbLine
 10
46.88821418867315
 20
245.6710822214501
 30
0.0
 11
14.00450168813314
 21
245.6710822214501
 31
0.0
  0
LINE
  5
22DF
330
22DC
100
AcDbEntity
  8
DIM
 62
     0
370
    -2
100
AcDbLine
 10
49.88821418867315
 20
135.6710822214501
 30
0.0
 11
14.00450168813313
 21
135.6710822214501
 31
0.0
  0
LINE
  5
22E0
330
22DC
100
AcDbEntity
  8
DIM
 62
     0
370
    -2
100
AcDbLine
 10
14.00450168813314
 20
244.6710822214501
 30
0.0
 11
14.00450168813313
 21
136.6710822214501
 31
0.0
  0
INSERT
  5
22E1
330
22DC
100
AcDbEntity
  8
DIM
 62
     0
370
    -2
100
AcDbBlockReference
  2
_DOT
 10
14.00450168813314
 20
245.6710822214501
 30
0.0
 50
90.0
  0
INSERT
  5
22E2
330
22DC
100
AcDbEntity
  8
DIM
 62
     0
370
    -2
100
AcDbBlockReference
  2
_DOT
 10
14.00450168813313
 20
135.6710822214501
 30
0.0
 50
270.0
  0
MTEXT
  5
22E3
330
22DC
100
AcDbEntity
  8
DIM
 62
     0
100
AcDbMText
 10
11.50393897711649
 20
190.6710822214501
 30
0.0
 40
3.0
 41
0.0
 46
0.0
 71
     5
 72
     1
  1
\A1;110
  7
ＭＳ ゴシック
 11
6.459479416000910E-17
 21
1.0
 31
0.0
 73
     1
 44
1.0
  0
POINT
  5
22E4
330
22DC
100
AcDbEntity
  8
Defpoints
 62
     0
100
AcDbPoint
 10
48.88821418867315
 20
245.6710822214501
 30
0.0
  0
POINT
  5
22E5
330
22DC
100
AcDbEntity
  8
Defpoints
 62
     0
100
AcDbPoint
 10
51.88821418867315
 20
135.6710822214501
 30
0.0
  0
POINT
  5
22E6
330
22DC
100
AcDbEntity
  8
Defpoints
 62
     0
100
AcDbPoint
 10
14.00450168813313
 20
135.6710822214501
 30
0.0
  0
ENDBLK
  5
22E7
330
22DC
100
AcDbEntity
  8
0
100
AcDbBlockEnd
  0
BLOCK
  5
22EC
330
22EB
100
AcDbEntity
  8
0
100
AcDbBlockBegin
  2
*D35
 70
     1
 10
0.0
 20
0.0
 30
0.0
  3
*D35
  1

  0
LINE
  5
22ED
330
22EB
100
AcDbEntity
  8
DIM
 62
     0
370
    -2
100
AcDbLine
 10
347.8882141886731
 20
135.67108222145
 30
0.0
 11
391.1066488915631
 21
135.67108222145
 31
0.0
  0
LINE
  5
22EE
330
22EB
100
AcDbEntity
  8
DIM
 62
     0
370
    -2
100
AcDbLine
 10
332.8882141886731
 20
150.67108222145
 30
0.0
 11
391.1066488915631
 21
150.67108222145
 31
0.0
  0
LINE
  5
22EF
330
22EB
100
AcDbEntity
  8
DIM
 62
     0
370
    -2
100
AcDbLine
 10
391.1066488915631
 20
136.67108222145
 30
0.0
 11
391.1066488915631
 21
149.67108222145
 31
0.0
  0
INSERT
  5
22F0
330
22EB
100
AcDbEntity
  8
DIM
 62
     0
370
    -2
100
AcDbBlockReference
  2
_DOT
 10
391.1066488915631
 20
135.67108222145
 30
0.0
 50
270.0
  0
INSERT
  5
22F1
330
22EB
100
AcDbEntity
  8
DIM
 62
     0
370
    -2
100
AcDbBlockReference
  2
_DOT
 10
391.1066488915631
 20
150.67108222145
 30
0.0
 50
90.0
  0
MTEXT
  5
22F2
330
22EB
100
AcDbEntity
  8
DIM
 62
     0
100
AcDbMText
 10
388.6060861805464
 20
143.1710822214499
 30
0.0
 40
3.0
 41
0.0
 46
0.0
 71
     5
 72
     1
  1
\A1;15
  7
ＭＳ ゴシック
 11
0.0
 21
1.0
 31
0.0
 73
     1
 44
1.0
  0
POINT
  5
22F3
330
22EB
100
AcDbEntity
  8
Defpoints
 62
     0
100
AcDbPoint
 10
345.8882141886731
 20
135.67108222145
 30
0.0
  0
POINT
  5
22F4
330
22EB
100
AcDbEntity
  8
Defpoints
 62
     0
100
AcDbPoint
 10
330.8882141886731
 20
150.67108222145
 30
0.0
  0
POINT
  5
22F5
330
22EB
100
AcDbEntity
  8
Defpoints
 62
     0
100
AcDbPoint
 10
391.1066488915631
 20
150.67108222145
 30
0.0
  0
ENDBLK
  5
22F6
330
22EB
100
AcDbEntity
  8
0
100
AcDbBlockEnd
  0
BLOCK
  5
22FC
330
22FB
100
AcDbEntity
  8
0
100
AcDbBlockBegin
  2
*D36
 70
     1
 10
0.0
 20
0.0
 30
0.0
  3
*D36
  1

  0
LINE
  5
22FD
330
22FB
100
AcDbEntity
  8
DIM
 62
     0
370
    -2
100
AcDbLine
 10
48.88821418867315
 20
251.0433614715038
 30
0.0
 11
48.88821418867315
 21
325.2927672551965
 31
0.0
  0
LINE
  5
22FE
330
22FB
100
AcDbEntity
  8
DIM
 62
     0
370
    -2
100
AcDbLine
 10
348.8882141886731
 20
251.0433614715037
 30
0.0
 11
348.8882141886731
 21
325.2927672551965
 31
0.0
  0
LINE
  5
22FF
330
22FB
100
AcDbEntity
  8
DIM
 62
     0
370
    -2
100
AcDbLine
 10
49.88821418867315
 20
325.2927672551965
 30
0.0
 11
347.8882141886731
 21
325.2927672551965
 31
0.0
  0
INSERT
  5
2300
330
22FB
100
AcDbEntity
  8
DIM
 62
     0
370
    -2
100
AcDbBlockReference
  2
_DOT
 10
48.88821418867315
 20
325.2927672551965
 30
0.0
 50
180.0
  0
INSERT
  5
2301
330
22FB
100
AcDbEntity
  8
DIM
 62
     0
370
    -2
100
AcDbBlockReference
  2
_DOT
 10
348.8882141886731
 20
325.2927672551965
 30
0.0
  0
MTEXT
  5
2302
330
22FB
100
AcDbEntity
  8
DIM
 62
     0
100
AcDbMText
 10
198.8882141886731
 20
327.7933299662132
 30
0.0
 40
3.0
 41
0.0
 46
0.0
 71
     5
 72
     1
  1
\A1;300
  7
ＭＳ ゴシック
 73
     1
 44
1.0
  0
POINT
  5
2303
330
22FB
100
AcDbEntity
  8
Defpoints
 62
     0
100
AcDbPoint
 10
48.88821418867315
 20
249.0433614715038
 30
0.0
  0
POINT
  5
2304
330
22FB
100
AcDbEntity
  8
Defpoints
 62
     0
100
AcDbPoint
 10
348.8882141886731
 20
249.0433614715037
 30
0.0
  0
POINT
  5
2305
330
22FB
100
AcDbEntity
  8
Defpoints
 62
     0
100
AcDbPoint
 10
348.8882141886731
 20
325.2927672551965
 30
0.0
  0
ENDBLK
  5
2306
330
22FB
100
AcDbEntity
  8
0
100
AcDbBlockEnd
  0
BLOCK
  5
2309
330
2308
100
AcDbEntity
  8
0
100
AcDbBlockBegin
  2
*D37
 70
     1
 10
0.0
 20
0.0
 30
0.0
  3
*D37
  1

  0
LINE
  5
230A
330
2308
100
AcDbEntity
  8
DIM
 62
     0
370
    -2
100
AcDbLine
 10
56.38821418867315
 20
262.351570035494
 30
0.0
 11
56.38821418867315
 21
295.5006040459749
 31
0.0
  0
LINE
  5
230B
330
2308
100
AcDbEntity
  8
DIM
 62
     0
370
    -2
100
AcDbLine
 10
341.3882141886731
 20
262.3515700354942
 30
0.0
 11
341.3882141886731
 21
295.5006040459749
 31
0.0
  0
LINE
  5
230C
330
2308
100
AcDbEntity
  8
DIM
 62
     0
370
    -2
100
AcDbLine
 10
57.38821418867315
 20
295.5006040459749
 30
0.0
 11
340.3882141886731
 21
295.5006040459749
 31
0.0
  0
INSERT
  5
230D
330
2308
100
AcDbEntity
  8
DIM
 62
     0
370
    -2
100
AcDbBlockReference
  2
_DOT
 10
56.38821418867315
 20
295.5006040459749
 30
0.0
 50
180.0
  0
INSERT
  5
230E
330
2308
100
AcDbEntity
  8
DIM
 62
     0
370
    -2
100
AcDbBlockReference
  2
_DOT
 10
341.3882141886731
 20
295.5006040459749
 30
0.0
  0
MTEXT
  5
230F
330
2308
100
AcDbEntity
  8
DIM
 62
     0
100
AcDbMText
 10
198.8882141886731
 20
298.0011667569916
 30
0.0
 40
3.0
 41
0.0
 46
0.0
 71
     5
 72
     1
  1
\A1;285
  7
ＭＳ ゴシック
 73
     1
 44
1.0
  0
POINT
  5
2310
330
2308
100
AcDbEntity
  8
Defpoints
 62
     0
100
AcDbPoint
 10
56.38821418867315
 20
260.351570035494
 30
0.0
  0
POINT
  5
2311
330
2308
100
AcDbEntity
  8
Defpoints
 62
     0
100
AcDbPoint
 10
341.3882141886731
 20
260.3515700354942
 30
0.0
  0
POINT
  5
2312
330
2308
100
AcDbEntity
  8
Defpoints
 62
     0
100
AcDbPoint
 10
341.3882141886731
 20
295.5006040459749
 30
0.0
  0
ENDBLK
  5
2313
330
2308
100
AcDbEntity
  8
0
100
AcDbBlockEnd
  0
BLOCK
  5
231E
330
231D
100
AcDbEntity
  8
0
100
AcDbBlockBegin
  2
*D38
 70
     1
 10
0.0
 20
0.0
 30
0.0
  3
*D38
  1

  0
LINE
  5
231F
330
231D
100
AcDbEntity
  8
DIM
 62
     0
370
    -2
100
AcDbLine
 10
350.8882141886731
 20
71.5
 30
0.0
 11
389.2564835060271
 21
71.5
 31
0.0
  0
LINE
  5
2320
330
231D
100
AcDbEntity
  8
DIM
 62
     0
370
    -2
100
AcDbLine
 10
350.8882141886731
 20
26.5
 30
0.0
 11
389.2564835060271
 21
26.5
 31
0.0
  0
LINE
  5
2321
330
231D
100
AcDbEntity
  8
DIM
 62
     0
370
    -2
100
AcDbLine
 10
389.2564835060271
 20
70.5
 30
0.0
 11
389.2564835060271
 21
27.5
 31
0.0
  0
INSERT
  5
2322
330
231D
100
AcDbEntity
  8
DIM
 62
     0
370
    -2
100
AcDbBlockReference
  2
_DOT
 10
389.2564835060271
 20
71.5
 30
0.0
 50
90.0
  0
INSERT
  5
2323
330
231D
100
AcDbEntity
  8
DIM
 62
     0
370
    -2
100
AcDbBlockReference
  2
_DOT
 10
389.2564835060271
 20
26.5
 30
0.0
 50
270.0
  0
MTEXT
  5
2324
330
231D
100
AcDbEntity
  8
DIM
 62
     0
100
AcDbMText
 10
386.7559207950104
 20
49.0
 30
0.0
 40
3.0
 41
0.0
 46
0.0
 71
     5
 72
     1
  1
\A1;45
  7
ＭＳ ゴシック
 11
0.0
 21
1.0
 31
0.0
 73
     1
 44
1.0
  0
POINT
  5
2325
330
231D
100
AcDbEntity
  8
Defpoints
 62
     0
100
AcDbPoint
 10
348.8882141886731
 20
71.5
 30
0.0
  0
POINT
  5
2326
330
231D
100
AcDbEntity
  8
Defpoints
 62
     0
100
AcDbPoint
 10
348.8882141886731
 20
26.5
 30
0.0
  0
POINT
  5
2327
330
231D
100
AcDbEntity
  8
Defpoints
 62
     0
100
AcDbPoint
 10
389.2564835060271
 20
26.5
 30
0.0
  0
ENDBLK
  5
2328
330
231D
100
AcDbEntity
  8
0
100
AcDbBlockEnd
  0
BLOCK
  5
232E
330
232D
100
AcDbEntity
  8
0
100
AcDbBlockBegin
  2
*D39
 70
     1
 10
0.0
 20
0.0
 30
0.0
  3
*D39
  1

  0
LINE
  5
232F
330
232D
100
AcDbEntity
  8
DIM
 62
     0
370
    -2
100
AcDbLine
 10
355.6034914040001
 20
26.5
 30
0.0
 11
389.2564835060271
 21
26.5
 31
0.0
  0
LINE
  5
2330
330
232D
100
AcDbEntity
  8
DIM
 62
     0
370
    -2
100
AcDbLine
 10
347.8882141886731
 20
1.5
 30
0.0
 11
389.2564835060271
 21
1.499999999999997
 31
0.0
  0
LINE
  5
2331
330
232D
100
AcDbEntity
  8
DIM
 62
     0
370
    -2
100
AcDbLine
 10
389.2564835060271
 20
25.5
 30
0.0
 11
389.2564835060271
 21
2.499999999999997
 31
0.0
  0
INSERT
  5
2332
330
232D
100
AcDbEntity
  8
DIM
 62
     0
370
    -2
100
AcDbBlockReference
  2
_DOT
 10
389.2564835060271
 20
26.5
 30
0.0
 50
90.0
  0
INSERT
  5
2333
330
232D
100
AcDbEntity
  8
DIM
 62
     0
370
    -2
100
AcDbBlockReference
  2
_DOT
 10
389.2564835060271
 20
1.499999999999997
 30
0.0
 50
270.0
  0
MTEXT
  5
2334
330
232D
100
AcDbEntity
  8
DIM
 62
     0
100
AcDbMText
 10
386.7559207950104
 20
14.0
 30
0.0
 40
3.0
 41
0.0
 46
0.0
 71
     5
 72
     1
  1
\A1;25
  7
ＭＳ ゴシック
 11
0.0
 21
1.0
 31
0.0
 73
     1
 44
1.0
  0
POINT
  5
2335
330
232D
100
AcDbEntity
  8
Defpoints
 62
     0
100
AcDbPoint
 10
353.6034914040001
 20
26.5
 30
0.0
  0
POINT
  5
2336
330
232D
100
AcDbEntity
  8
Defpoints
 62
     0
100
AcDbPoint
 10
345.8882141886731
 20
1.5
 30
0.0
  0
POINT
  5
2337
330
232D
100
AcDbEntity
  8
Defpoints
 62
     0
100
AcDbPoint
 10
389.2564835060271
 20
1.499999999999997
 30
0.0
  0
ENDBLK
  5
2338
330
232D
100
AcDbEntity
  8
0
100
AcDbBlockEnd
  0
BLOCK
  5
233E
330
233D
100
AcDbEntity
  8
0
100
AcDbBlockBegin
  2
*D40
 70
     1
 10
0.0
 20
0.0
 30
0.0
  3
*D40
  1

  0
LINE
  5
233F
330
233D
100
AcDbEntity
  8
DIM
 62
     0
370
    -2
100
AcDbLine
 10
46.88821418867315
 20
71.5
 30
0.0
 11
14.00450168813313
 21
71.49999999999999
 31
0.0
  0
LINE
  5
2340
330
233D
100
AcDbEntity
  8
DIM
 62
     0
370
    -2
100
AcDbLine
 10
46.88821418867315
 20
51.5
 30
0.0
 11
14.00450168813314
 21
51.49999999999999
 31
0.0
  0
LINE
  5
2341
330
233D
100
AcDbEntity
  8
DIM
 62
     0
370
    -2
100
AcDbLine
 10
14.00450168813313
 20
70.49999999999999
 30
0.0
 11
14.00450168813314
 21
52.49999999999999
 31
0.0
  0
INSERT
  5
2342
330
233D
100
AcDbEntity
  8
DIM
 62
     0
370
    -2
100
AcDbBlockReference
  2
_DOT
 10
14.00450168813313
 20
71.49999999999999
 30
0.0
 50
90.00000000000001
  0
INSERT
  5
2343
330
233D
100
AcDbEntity
  8
DIM
 62
     0
370
    -2
100
AcDbBlockReference
  2
_DOT
 10
14.00450168813314
 20
51.49999999999999
 30
0.0
 50
270.0
  0
MTEXT
  5
2344
330
233D
100
AcDbEntity
  8
DIM
 62
     0
100
AcDbMText
 10
11.5039389771165
 20
62.137789913196
 30
0.0
 40
3.0
 41
0.0
 46
0.0
 71
     5
 72
     1
  1
\A1;20
  7
ＭＳ ゴシック
 11
-3.552713678800501E-16
 21
1.0
 31
0.0
 73
     1
 44
1.0
  0
POINT
  5
2345
330
233D
100
AcDbEntity
  8
Defpoints
 62
     0
100
AcDbPoint
 10
48.88821418867315
 20
71.5
 30
0.0
  0
POINT
  5
2346
330
233D
100
AcDbEntity
  8
Defpoints
 62
     0
100
AcDbPoint
 10
48.88821418867315
 20
51.5
 30
0.0
  0
POINT
  5
2347
330
233D
100
AcDbEntity
  8
Defpoints
 62
     0
100
AcDbPoint
 10
14.00450168813313
 20
51.49999999999999
 30
0.0
  0
ENDBLK
  5
2348
330
233D
100
AcDbEntity
  8
0
100
AcDbBlockEnd
  0
BLOCK
  5
23B4
330
23B3
100
AcDbEntity
  8
0
100
AcDbBlockBegin
  2
*D41
 70
     1
 10
0.0
 20
0.0
 30
0.0
  3
*D41
  1

  0
LINE
  5
23B5
330
23B3
100
AcDbEntity
  8
DIM
 62
     0
370
    -2
100
AcDbLine
 10
9.0
 20
183.9897330835446
 30
0.0
 11
9.0
 21
219.6377271027969
 31
0.0
  0
LINE
  5
23B6
330
23B3
100
AcDbEntity
  8
DIM
 62
     0
370
    -2
100
AcDbLine
 10
444.0
 20
183.9897330835446
 30
0.0
 11
444.0
 21
219.6377271027969
 31
0.0
  0
LINE
  5
23B7
330
23B3
100
AcDbEntity
  8
DIM
 62
     0
370
    -2
100
AcDbLine
 10
10.0
 20
219.6377271027969
 30
0.0
 11
443.0
 21
219.6377271027969
 31
0.0
  0
INSERT
  5
23B8
330
23B3
100
AcDbEntity
  8
DIM
 62
     0
370
    -2
100
AcDbBlockReference
  2
_DOT
 10
9.0
 20
219.6377271027969
 30
0.0
 50
180.0
  0
INSERT
  5
23B9
330
23B3
100
AcDbEntity
  8
DIM
 62
     0
370
    -2
100
AcDbBlockReference
  2
_DOT
 10
444.0
 20
219.6377271027969
 30
0.0
  0
MTEXT
  5
23BA
330
23B3
100
AcDbEntity
  8
DIM
 62
     0
100
AcDbMText
 10
226.5
 20
222.1382898138136
 30
0.0
 40
3.0
 41
0.0
 46
0.0
 71
     5
 72
     1
  1
\A1;435
  7
ＭＳ ゴシック
 73
     1
 44
1.0
  0
POINT
  5
23BB
330
23B3
100
AcDbEntity
  8
Defpoints
 62
     0
100
AcDbPoint
 10
9.0
 20
181.9897330835446
 30
0.0
  0
POINT
  5
23BC
330
23B3
100
AcDbEntity
  8
Defpoints
 62
     0
100
AcDbPoint
 10
444.0
 20
181.9897330835446
 30
0.0
  0
POINT
  5
23BD
330
23B3
100
AcDbEntity
  8
Defpoints
 62
     0
100
AcDbPoint
 10
444.0
 20
219.6377271027969
 30
0.0
  0
ENDBLK
  5
23BE
330
23B3
100
AcDbEntity
  8
0
100
AcDbBlockEnd
  0
BLOCK
  5
23D4
330
23D3
100
AcDbEntity
  8
0
100
AcDbBlockBegin
  2
*D42
 70
     1
 10
0.0
 20
0.0
 30
0.0
  3
*D42
  1

  0
LINE
  5
23D5
330
23D3
100
AcDbEntity
  8
DIM
 62
     0
370
    -2
100
AcDbLine
 10
453.5
 20
181.9897330835446
 30
0.0
 11
490.5972455119618
 21
181.9897330835446
 31
0.0
  0
LINE
  5
23D6
330
23D3
100
AcDbEntity
  8
DIM
 62
     0
370
    -2
100
AcDbLine
 10
450.5
 20
106.9897330835446
 30
0.0
 11
490.5972455119618
 21
106.9897330835446
 31
0.0
  0
LINE
  5
23D7
330
23D3
100
AcDbEntity
  8
DIM
 62
     0
370
    -2
100
AcDbLine
 10
490.5972455119618
 20
180.9897330835446
 30
0.0
 11
490.5972455119618
 21
107.9897330835446
 31
0.0
  0
INSERT
  5
23D8
330
23D3
100
AcDbEntity
  8
DIM
 62
     0
370
    -2
100
AcDbBlockReference
  2
_DOT
 10
490.5972455119618
 20
181.9897330835446
 30
0.0
 50
90.0
  0
INSERT
  5
23D9
330
23D3
100
AcDbEntity
  8
DIM
 62
     0
370
    -2
100
AcDbBlockReference
  2
_DOT
 10
490.5972455119618
 20
106.9897330835446
 30
0.0
 50
270.0
  0
MTEXT
  5
23DA
330
23D3
100
AcDbEntity
  8
DIM
 62
     0
100
AcDbMText
 10
488.0966828009451
 20
144.4897330835446
 30
0.0
 40
3.0
 41
0.0
 46
0.0
 71
     5
 72
     1
  1
\A1;75
  7
ＭＳ ゴシック
 11
0.0
 21
1.0
 31
0.0
 73
     1
 44
1.0
  0
POINT
  5
23DB
330
23D3
100
AcDbEntity
  8
Defpoints
 62
     0
100
AcDbPoint
 10
451.5
 20
181.9897330835446
 30
0.0
  0
POINT
  5
23DC
330
23D3
100
AcDbEntity
  8
Defpoints
 62
     0
100
AcDbPoint
 10
448.5
 20
106.9897330835446
 30
0.0
  0
POINT
  5
23DD
330
23D3
100
AcDbEntity
  8
Defpoints
 62
     0
100
AcDbPoint
 10
490.5972455119618
 20
106.9897330835446
 30
0.0
  0
ENDBLK
  5
23DE
330
23D3
100
AcDbEntity
  8
0
100
AcDbBlockEnd
  0
BLOCK
  5
23E3
330
23E2
100
AcDbEntity
  8
0
100
AcDbBlockBegin
  2
*D43
 70
     1
 10
0.0
 20
0.0
 30
0.0
  3
*D43
  1

  0
LINE
  5
23E4
330
23E2
100
AcDbEntity
  8
DIM
 62
     0
370
    -2
100
AcDbLine
 10
451.5
 20
183.9897330835446
 30
0.0
 11
451.5
 21
244.7657947334827
 31
0.0
  0
LINE
  5
23E5
330
23E2
100
AcDbEntity
  8
DIM
 62
     0
370
    -2
100
AcDbLine
 10
1.5
 20
183.9897330835446
 30
0.0
 11
1.5
 21
244.7657947334827
 31
0.0
  0
LINE
  5
23E6
330
23E2
100
AcDbEntity
  8
DIM
 62
     0
370
    -2
100
AcDbLine
 10
450.5
 20
244.7657947334827
 30
0.0
 11
2.5
 21
244.7657947334827
 31
0.0
  0
INSERT
  5
23E7
330
23E2
100
AcDbEntity
  8
DIM
 62
     0
370
    -2
100
AcDbBlockReference
  2
_DOT
 10
451.5
 20
244.7657947334827
 30
0.0
  0
INSERT
  5
23E8
330
23E2
100
AcDbEntity
  8
DIM
 62
     0
370
    -2
100
AcDbBlockReference
  2
_DOT
 10
1.5
 20
244.7657947334827
 30
0.0
 50
180.0
  0
MTEXT
  5
23E9
330
23E2
100
AcDbEntity
  8
DIM
 62
     0
100
AcDbMText
 10
226.5
 20
247.2663574444994
 30
0.0
 40
3.0
 41
0.0
 46
0.0
 71
     5
 72
     1
  1
\A1;450
  7
ＭＳ ゴシック
 73
     1
 44
1.0
  0
POINT
  5
23EA
330
23E2
100
AcDbEntity
  8
Defpoints
 62
     0
100
AcDbPoint
 10
451.5
 20
181.9897330835446
 30
0.0
  0
POINT
  5
23EB
330
23E2
100
AcDbEntity
  8
Defpoints
 62
     0
100
AcDbPoint
 10
1.5
 20
181.9897330835446
 30
0.0
  0
POINT
  5
23EC
330
23E2
100
AcDbEntity
  8
Defpoints
 62
     0
100
AcDbPoint
 10
1.5
 20
244.7657947334827
 30
0.0
  0
ENDBLK
  5
23ED
330
23E2
100
AcDbEntity
  8
0
100
AcDbBlockEnd
  0
BLOCK
  5
23F2
330
23F1
100
AcDbEntity
  8
0
100
AcDbBlockBegin
  2
*D44
 70
     1
 10
0.0
 20
0.0
 30
0.0
  3
*D44
  1

  0
LINE
  5
23F3
330
23F1
100
AcDbEntity
  8
DIM
 62
     0
370
    -2
100
AcDbLine
 10
447.5706103417879
 20
1.5
 30
0.0
 11
495.6615909809989
 21
1.5
 31
0.0
  0
LINE
  5
23F4
330
23F1
100
AcDbEntity
  8
DIM
 62
     0
370
    -2
100
AcDbLine
 10
453.5000000000009
 20
51.49999999999989
 30
0.0
 11
495.6615909809989
 21
51.49999999999989
 31
0.0
  0
LINE
  5
23F5
330
23F1
100
AcDbEntity
  8
DIM
 62
     0
370
    -2
100
AcDbLine
 10
495.6615909809989
 20
2.5
 30
0.0
 11
495.6615909809989
 21
50.49999999999989
 31
0.0
  0
INSERT
  5
23F6
330
23F1
100
AcDbEntity
  8
DIM
 62
     0
370
    -2
100
AcDbBlockReference
  2
_DOT
 10
495.6615909809989
 20
1.5
 30
0.0
 50
270.0
  0
INSERT
  5
23F7
330
23F1
100
AcDbEntity
  8
DIM
 62
     0
370
    -2
100
AcDbBlockReference
  2
_DOT
 10
495.6615909809989
 20
51.49999999999989
 30
0.0
 50
90.0
  0
MTEXT
  5
23F8
330
23F1
100
AcDbEntity
  8
DIM
 62
     0
100
AcDbMText
 10
493.1610282699822
 20
26.49999999999989
 30
0.0
 40
3.0
 41
0.0
 46
0.0
 71
     5
 72
     1
  1
\A1;50
  7
ＭＳ ゴシック
 11
0.0
 21
1.0
 31
0.0
 73
     1
 44
1.0
  0
POINT
  5
23F9
330
23F1
100
AcDbEntity
  8
Defpoints
 62
     0
100
AcDbPoint
 10
445.5706103417879
 20
1.5
 30
0.0
  0
POINT
  5
23FA
330
23F1
100
AcDbEntity
  8
Defpoints
 62
     0
100
AcDbPoint
 10
451.5000000000009
 20
51.49999999999989
 30
0.0
  0
POINT
  5
23FB
330
23F1
100
AcDbEntity
  8
Defpoints
 62
     0
100
AcDbPoint
 10
495.6615909809989
 20
51.49999999999989
 30
0.0
  0
ENDBLK
  5
23FC
330
23F1
100
AcDbEntity
  8
0
100
AcDbBlockEnd
  0
BLOCK
  5
2401
330
2400
100
AcDbEntity
  8
0
100
AcDbBlockBegin
  2
*D45
 70
     1
 10
0.0
 20
0.0
 30
0.0
  3
*D45
  1

  0
LINE
  5
2402
330
2400
100
AcDbEntity
  8
DIM
 62
     0
370
    -2
100
AcDbLine
 10
436.5000000000009
 20
50.49999999999989
 30
0.0
 11
436.5000000000009
 21
72.76220680324866
 31
0.0
  0
LINE
  5
2403
330
2400
100
AcDbEntity
  8
DIM
 62
     0
370
    -2
100
AcDbLine
 10
451.5000000000009
 20
50.49999999999989
 30
0.0
 11
451.5000000000009
 21
72.76220680324866
 31
0.0
  0
LINE
  5
2404
330
2400
100
AcDbEntity
  8
DIM
 62
     0
370
    -2
100
AcDbLine
 10
437.5000000000009
 20
72.76220680324866
 30
0.0
 11
450.5000000000009
 21
72.76220680324866
 31
0.0
  0
INSERT
  5
2405
330
2400
100
AcDbEntity
  8
DIM
 62
     0
370
    -2
100
AcDbBlockReference
  2
_DOT
 10
436.5000000000009
 20
72.76220680324866
 30
0.0
 50
180.0
  0
INSERT
  5
2406
330
2400
100
AcDbEntity
  8
DIM
 62
     0
370
    -2
100
AcDbBlockReference
  2
_DOT
 10
451.5000000000009
 20
72.76220680324866
 30
0.0
  0
MTEXT
  5
2407
330
2400
100
AcDbEntity
  8
DIM
 62
     0
100
AcDbMText
 10
444.0000000000009
 20
75.26276951426529
 30
0.0
 40
3.0
 41
0.0
 46
0.0
 71
     5
 72
     1
  1
\A1;15
  7
ＭＳ ゴシック
 73
     1
 44
1.0
  0
POINT
  5
2408
330
2400
100
AcDbEntity
  8
Defpoints
 62
     0
100
AcDbPoint
 10
436.5000000000009
 20
48.49999999999989
 30
0.0
  0
POINT
  5
2409
330
2400
100
AcDbEntity
  8
Defpoints
 62
     0
100
AcDbPoint
 10
451.5000000000009
 20
48.49999999999989
 30
0.0
  0
POINT
  5
240A
330
2400
100
AcDbEntity
  8
Defpoints
 62
     0
100
AcDbPoint
 10
451.5000000000009
 20
72.76220680324866
 30
0.0
  0
ENDBLK
  5
240B
330
2400
100
AcDbEntity
  8
0
100
AcDbBlockEnd
  0
BLOCK
  5
2410
330
240F
100
AcDbEntity
  8
0
100
AcDbBlockBegin
  2
*D46
 70
     1
 10
0.0
 20
0.0
 30
0.0
  3
*D46
  1

  0
LINE
  5
2411
330
240F
100
AcDbEntity
  8
DIM
 62
     0
370
    -2
100
AcDbLine
 10
463.5000000000009
 20
51.49999999999989
 30
0.0
 11
479.0873694459669
 21
51.49999999999989
 31
0.0
  0
LINE
  5
2412
330
240F
100
AcDbEntity
  8
DIM
 62
     0
370
    -2
100
AcDbLine
 10
450.0000000000009
 20
36.49999999999989
 30
0.0
 11
479.0873694459669
 21
36.49999999999989
 31
0.0
  0
LINE
  5
2413
330
240F
100
AcDbEntity
  8
DIM
 62
     0
370
    -2
100
AcDbLine
 10
479.0873694459669
 20
50.49999999999989
 30
0.0
 11
479.0873694459669
 21
37.49999999999989
 31
0.0
  0
INSERT
  5
2414
330
240F
100
AcDbEntity
  8
DIM
 62
     0
370
    -2
100
AcDbBlockReference
  2
_DOT
 10
479.0873694459669
 20
51.49999999999989
 30
0.0
 50
90.0
  0
INSERT
  5
2415
330
240F
100
AcDbEntity
  8
DIM
 62
     0
370
    -2
100
AcDbBlockReference
  2
_DOT
 10
479.0873694459669
 20
36.49999999999989
 30
0.0
 50
270.0
  0
MTEXT
  5
2416
330
240F
100
AcDbEntity
  8
DIM
 62
     0
100
AcDbMText
 10
476.5868067349503
 20
43.99999999999989
 30
0.0
 40
3.0
 41
0.0
 46
0.0
 71
     5
 72
     1
  1
\A1;15
  7
ＭＳ ゴシック
 11
0.0
 21
1.0
 31
0.0
 73
     1
 44
1.0
  0
POINT
  5
2417
330
240F
100
AcDbEntity
  8
Defpoints
 62
     0
100
AcDbPoint
 10
461.5000000000009
 20
51.49999999999989
 30
0.0
  0
POINT
  5
2418
330
240F
100
AcDbEntity
  8
Defpoints
 62
     0
100
AcDbPoint
 10
448.0000000000009
 20
36.49999999999989
 30
0.0
  0
POINT
  5
2419
330
240F
100
AcDbEntity
  8
Defpoints
 62
     0
100
AcDbPoint
 10
479.0873694459669
 20
36.49999999999989
 30
0.0
  0
ENDBLK
  5
241A
330
240F
100
AcDbEntity
  8
0
100
AcDbBlockEnd
  0
BLOCK
  5
242C
330
242B
100
AcDbEntity
  8
0
100
AcDbBlockBegin
  2
*D47
 70
     1
 10
0.0
 20
0.0
 30
0.0
  3
*D47
  1

  0
LINE
  5
242D
330
242B
100
AcDbEntity
  8
DIM
 62
     0
370
    -2
100
AcDbLine
 10
613.5418167180378
 20
49.25735931288057
 30
0.0
 11
613.5418167180378
 21
72.76220680324866
 31
0.0
  0
LINE
  5
242E
330
242B
100
AcDbEntity
  8
DIM
 62
     0
370
    -2
100
AcDbLine
 10
688.5418167180369
 20
53.49999999999989
 30
0.0
 11
688.5418167180369
 21
72.76220680324866
 31
0.0
  0
LINE
  5
242F
330
242B
100
AcDbEntity
  8
DIM
 62
     0
370
    -2
100
AcDbLine
 10
614.5418167180378
 20
72.76220680324866
 30
0.0
 11
687.5418167180369
 21
72.76220680324866
 31
0.0
  0
INSERT
  5
2430
330
242B
100
AcDbEntity
  8
DIM
 62
     0
370
    -2
100
AcDbBlockReference
  2
_DOT
 10
613.5418167180378
 20
72.76220680324866
 30
0.0
 50
180.0
  0
INSERT
  5
2431
330
242B
100
AcDbEntity
  8
DIM
 62
     0
370
    -2
100
AcDbBlockReference
  2
_DOT
 10
688.5418167180369
 20
72.76220680324866
 30
0.0
  0
MTEXT
  5
2432
330
242B
100
AcDbEntity
  8
DIM
 62
     0
100
AcDbMText
 10
651.0418167180374
 20
75.26276951426529
 30
0.0
 40
3.0
 41
0.0
 46
0.0
 71
     5
 72
     1
  1
\A1;75
  7
ＭＳ ゴシック
 73
     1
 44
1.0
  0
POINT
  5
2433
330
242B
100
AcDbEntity
  8
Defpoints
 62
     0
100
AcDbPoint
 10
613.5418167180378
 20
47.25735931288057
 30
0.0
  0
POINT
  5
2434
330
242B
100
AcDbEntity
  8
Defpoints
 62
     0
100
AcDbPoint
 10
688.5418167180369
 20
51.49999999999989
 30
0.0
  0
POINT
  5
2435
330
242B
100
AcDbEntity
  8
Defpoints
 62
     0
100
AcDbPoint
 10
688.5418167180369
 20
72.76220680324866
 30
0.0
  0
ENDBLK
  5
2436
330
242B
100
AcDbEntity
  8
0
100
AcDbBlockEnd
  0
BLOCK
  5
2440
330
243F
100
AcDbEntity
  8
0
100
AcDbBlockBegin
  2
*D48
 70
     1
 10
0.0
 20
0.0
 30
0.0
  3
*D48
  1

  0
LINE
  5
2442
330
243F
100
AcDbEntity
  8
DIM
 62
     0
370
    -2
100
AcDbLine
 10
62.40336580436633
 20
261.2182834656088
 30
0.0
 11
62.40336580436633
 21
269.2894748288637
 31
0.0
  0
LINE
  5
2443
330
243F
100
AcDbEntity
  8
DIM
 62
     0
370
    -2
100
AcDbLine
 10
84.40336580436633
 20
261.2182834656088
 30
0.0
 11
84.40336580436633
 21
269.2894748288637
 31
0.0
  0
LINE
  5
2444
330
243F
100
AcDbEntity
  8
DIM
 62
     0
370
    -2
100
AcDbLine
 10
63.40336580436633
 20
269.2894748288637
 30
0.0
 11
83.40336580436633
 21
269.2894748288637
 31
0.0
  0
INSERT
  5
2445
330
243F
100
AcDbEntity
  8
DIM
 62
     0
370
    -2
100
AcDbBlockReference
  2
_DOT
 10
62.40336580436633
 20
269.2894748288637
 30
0.0
 50
180.0
  0
INSERT
  5
2446
330
243F
100
AcDbEntity
  8
DIM
 62
     0
370
    -2
100
AcDbBlockReference
  2
_DOT
 10
84.40336580436633
 20
269.2894748288637
 30
0.0
  0
MTEXT
  5
2447
330
243F
100
AcDbEntity
  8
DIM
 62
     0
100
AcDbMText
 10
73.40336580436633
 20
271.7900375398803
 30
0.0
 40
3.0
 41
0.0
 46
0.0
 71
     5
 72
     1
  1
\A1;22
  7
ＭＳ ゴシック
 73
     1
 44
1.0
  0
POINT
  5
2448
330
243F
100
AcDbEntity
  8
Defpoints
 62
     0
100
AcDbPoint
 10
62.40336580436633
 20
259.2182834656088
 30
0.0
  0
POINT
  5
2449
330
243F
100
AcDbEntity
  8
Defpoints
 62
     0
100
AcDbPoint
 10
84.40336580436633
 20
259.2182834656088
 30
0.0
  0
POINT
  5
244A
330
243F
100
AcDbEntity
  8
Defpoints
 62
     0
100
AcDbPoint
 10
84.40336580436633
 20
269.2894748288637
 30
0.0
  0
ENDBLK
  5
2441
330
243F
100
AcDbEntity
  8
0
100
AcDbBlockEnd
  0
BLOCK
  5
24D8
330
24D7
100
AcDbEntity
  8
0
100
AcDbBlockBegin
  2
*D49
 70
     1
 10
0.0
 20
0.0
 30
0.0
  3
*D49
  1

  0
LINE
  5
24DA
330
24D7
100
AcDbEntity
  8
DIM
 62
     0
370
    -2
100
AcDbLine
 10
67.41731317278736
 20
121.7083407157895
 30
0.0
 11
46.32387711541892
 21
121.7083407157895
 31
0.0
  0
LINE
  5
24DB
330
24D7
100
AcDbEntity
  8
DIM
 62
     0
370
    -2
100
AcDbLine
 10
68.45136511541895
 20
88.15480552421054
 30
0.0
 11
46.32387711541892
 21
88.15480552421054
 31
0.0
  0
LINE
  5
24DC
330
24D7
100
AcDbEntity
  8
DIM
 62
     0
370
    -2
100
AcDbLine
 10
46.32387711541892
 20
120.7083407157895
 30
0.0
 11
46.32387711541892
 21
89.15480552421054
 31
0.0
  0
INSERT
  5
24DD
330
24D7
100
AcDbEntity
  8
DIM
 62
     0
370
    -2
100
AcDbBlockReference
  2
_DOT
 10
46.32387711541892
 20
121.7083407157895
 30
0.0
 50
90.0
  0
INSERT
  5
24DE
330
24D7
100
AcDbEntity
  8
DIM
 62
     0
370
    -2
100
AcDbBlockReference
  2
_DOT
 10
46.32387711541892
 20
88.15480552421054
 30
0.0
 50
270.0
  0
MTEXT
  5
24DF
330
24D7
100
AcDbEntity
  8
DIM
 62
     0
100
AcDbMText
 10
43.8233144044023
 20
104.93157312
 30
0.0
 40
3.0
 41
0.0
 46
0.0
 71
     5
 72
     1
  1
\A1;34
  7
ＭＳ ゴシック
 11
0.0
 21
1.0
 31
0.0
 73
     1
 44
1.0
  0
POINT
  5
24E0
330
24D7
100
AcDbEntity
  8
Defpoints
 62
     0
100
AcDbPoint
 10
69.41731317278736
 20
121.7083407157895
 30
0.0
  0
POINT
  5
24E1
330
24D7
100
AcDbEntity
  8
Defpoints
 62
     0
100
AcDbPoint
 10
70.45136511541895
 20
88.15480552421054
 30
0.0
  0
POINT
  5
24E2
330
24D7
100
AcDbEntity
  8
Defpoints
 62
     0
100
AcDbPoint
 10
46.32387711541892
 20
88.15480552421054
 30
0.0
  0
ENDBLK
  5
24D9
330
24D7
100
AcDbEntity
  8
0
100
AcDbBlockEnd
  0
BLOCK
  5
24E5
330
24E4
100
AcDbEntity
  8
0
100
AcDbBlockBegin
  2
*D50
 70
     1
 10
0.0
 20
0.0
 30
0.0
  3
*D50
  1

  0
LINE
  5
24E7
330
24E4
100
AcDbEntity
  8
DIM
 62
     0
370
    -2
100
AcDbLine
 10
67.41731317278744
 20
126.3387763124447
 30
0.0
 11
17.84255669436638
 21
126.3387763124447
 31
0.0
  0
LINE
  5
24E8
330
24E4
100
AcDbEntity
  8
DIM
 62
     0
370
    -2
100
AcDbLine
 10
67.41731317278743
 20
86.33877631244465
 30
0.0
 11
17.84255669436638
 21
86.33877631244465
 31
0.0
  0
LINE
  5
24E9
330
24E4
100
AcDbEntity
  8
DIM
 62
     0
370
    -2
100
AcDbLine
 10
17.84255669436638
 20
125.3387763124447
 30
0.0
 11
17.84255669436638
 21
87.33877631244465
 31
0.0
  0
INSERT
  5
24EA
330
24E4
100
AcDbEntity
  8
DIM
 62
     0
370
    -2
100
AcDbBlockReference
  2
_DOT
 10
17.84255669436638
 20
126.3387763124447
 30
0.0
 50
90.0
  0
INSERT
  5
24EB
330
24E4
100
AcDbEntity
  8
DIM
 62
     0
370
    -2
100
AcDbBlockReference
  2
_DOT
 10
17.84255669436638
 20
86.33877631244465
 30
0.0
 50
270.0
  0
MTEXT
  5
24EC
330
24E4
100
AcDbEntity
  8
DIM
 62
     0
100
AcDbMText
 10
15.34255669436638
 20
106.3387763124447
 30
0.0
 40
3.0
 41
0.0
 46
0.0
 71
     5
 72
     1
  1
\A1;40
  7
ＭＳ ゴシック
 11
8.881784197001253E-17
 21
1.0
 31
0.0
 73
     1
 44
1.0
  0
POINT
  5
24ED
330
24E4
100
AcDbEntity
  8
Defpoints
 62
     0
100
AcDbPoint
 10
69.41731317278744
 20
126.3387763124447
 30
0.0
  0
POINT
  5
24EE
330
24E4
100
AcDbEntity
  8
Defpoints
 62
     0
100
AcDbPoint
 10
69.41731317278743
 20
86.33877631244465
 30
0.0
  0
POINT
  5
24EF
330
24E4
100
AcDbEntity
  8
Defpoints
 62
     0
100
AcDbPoint
 10
17.84255669436638
 20
86.33877631244465
 30
0.0
  0
ENDBLK
  5
24E6
330
24E4
100
AcDbEntity
  8
0
100
AcDbBlockEnd
  0
BLOCK
  5
24F6
330
24F5
100
AcDbEntity
  8
0
100
AcDbBlockBegin
  2
*D51
 70
     1
 10
0.0
 20
0.0
 30
0.0
  3
*D51
  1

  0
LINE
  5
24F8
330
24F5
100
AcDbEntity
  8
DIM
 62
     0
370
    -2
100
AcDbLine
 10
62.20397550802184
 20
81.33877631244465
 30
0.0
 11
55.03190187433763
 21
81.33877631244465
 31
0.0
  0
LINE
  5
24F9
330
24F5
100
AcDbEntity
  8
DIM
 62
     0
370
    -2
100
AcDbLine
 10
62.2039755080218
 20
118.3387763124447
 30
0.0
 11
55.03190187433763
 21
118.3387763124447
 31
0.0
  0
LINE
  5
24FA
330
24F5
100
AcDbEntity
  8
DIM
 62
     0
370
    -2
100
AcDbLine
 10
55.03190187433763
 20
82.33877631244465
 30
0.0
 11
55.03190187433763
 21
117.3387763124447
 31
0.0
  0
INSERT
  5
24FB
330
24F5
100
AcDbEntity
  8
DIM
 62
     0
370
    -2
100
AcDbBlockReference
  2
_DOT
 10
55.03190187433763
 20
81.33877631244465
 30
0.0
 50
270.0
  0
INSERT
  5
24FC
330
24F5
100
AcDbEntity
  8
DIM
 62
     0
370
    -2
100
AcDbBlockReference
  2
_DOT
 10
55.03190187433763
 20
118.3387763124447
 30
0.0
 50
90.0
  0
MTEXT
  5
24FD
330
24F5
100
AcDbEntity
  8
DIM
 62
     0
100
AcDbMText
 10
52.531339163321
 20
99.83877631244465
 30
0.0
 40
3.0
 41
0.0
 46
0.0
 71
     5
 72
     1
  1
\A1;37
  7
ＭＳ ゴシック
 11
0.0
 21
1.0
 31
0.0
 73
     1
 44
1.0
  0
POINT
  5
24FE
330
24F5
100
AcDbEntity
  8
Defpoints
 62
     0
100
AcDbPoint
 10
64.20397550802184
 20
81.33877631244465
 30
0.0
  0
POINT
  5
24FF
330
24F5
100
AcDbEntity
  8
Defpoints
 62
     0
100
AcDbPoint
 10
64.2039755080218
 20
118.3387763124447
 30
0.0
  0
POINT
  5
2500
330
24F5
100
AcDbEntity
  8
Defpoints
 62
     0
100
AcDbPoint
 10
55.03190187433763
 20
118.3387763124447
 30
0.0
  0
ENDBLK
  5
24F7
330
24F5
100
AcDbEntity
  8
0
100
AcDbBlockEnd
  0
ENDSEC
  0
SECTION
  2
ENTITIES
  0
MTEXT
  5
177
330
A
100
AcDbEntity
  8
TEMPLATE
390
1D
100
AcDbMText
 10
7.920214454773076
 20
34.37317516314283
 30
0.0
 40
1.628841145833333
 41
0.0
 46
0.0
 71
     1
 72
     1
  1
品名
  7
ＭＳ ゴシック
 73
     1
 44
0.7828267384257843
  0
MTEXT
  5
178
330
A
100
AcDbEntity
  8
TEMPLATE
390
1D
100
AcDbMText
 10
7.920214454773076
 20
25.8731751631428
 30
0.0
 40
1.628841145833333
 41
0.0
 46
0.0
 71
     1
 72
     1
  1
仕様
  7
ＭＳ ゴシック
 73
     1
 44
0.7828267384257843
  0
LINE
  5
179
330
A
100
AcDbEntity
  8
TEMPLATE
390
1D
100
AcDbLine
 10
202.2202144547248
 20
26.71466735064284
 30
0.0
 11
7.220214454724874
 21
26.71466735064284
 31
0.0
  0
LWPOLYLINE
  5
17A
330
A
100
AcDbEntity
  8
TEMPLATE
390
1D
100
AcDbPolyline
 90
        5
 70
   128
 43
0.0
 10
202.2202144547248
 20
289.7146673506426
 10
7.220214454724874
 20
289.7146673506426
 10
7.220214454724874
 20
9.714667350642827
 10
202.2202144547248
 20
9.714667350642827
 10
202.2202144547248
 20
289.7146673506426
  0
LINE
  5
17B
330
A
100
AcDbEntity
  8
TEMPLATE
390
1D
100
AcDbLine
 10
202.2202144547248
 20
35.21466735064282
 30
0.0
 11
7.220214454724874
 21
35.21466735064282
 31
0.0
  0
LINE
  5
17C
330
A
100
AcDbEntity
  8
TEMPLATE
390
1D
100
AcDbLine
 10
202.2202144547732
 20
18.21466735064282
 30
0.0
 11
126.920214454773
 21
18.21466735064282
 31
0.0
  0
MTEXT
  5
17E
330
A
100
AcDbEntity
  8
TEMPLATE
390
1D
100
AcDbMText
 10
129.9073550799991
 20
15.22362790331201
 30
0.0
 40
2.44326171875
 41
0.0
 46
0.0
 71
     1
 72
     1
  1
大洋金物株式会社 ティーフォルム事業部
  7
ＭＳ ゴシック
 73
     1
 44
0.7828267384257843
  0
MTEXT
  5
180
330
A
100
AcDbEntity
  8
TEMPLATE
390
1D
100
AcDbMText
 10
183.120214454799
 20
23.01492906939282
 30
0.0
 40
2.44326171875
 41
0.0
 46
2.44326171875
 71
     1
 72
     1
  1
{1:1}
  7
ＭＳ ゴシック
 73
     1
 44
0.7828267384257843
1001
ACAD
1000
ACAD_MTEXT_DEFINED_HEIGHT_BEGIN
1070
    46
1040
2.44326171875
1000
ACAD_MTEXT_DEFINED_HEIGHT_END
  0
MTEXT
  5
181
330
A
100
AcDbEntity
  8
TEMPLATE
390
1D
100
AcDbMText
 10
177.820214454799
 20
25.8731751631428
 30
0.0
 40
1.628841145833333
 41
0.0
 46
0.0
 71
     1
 72
     1
  1
縮尺
  7
ＭＳ ゴシック
 73
     1
 44
0.7828267384257843
  0
LINE
  5
182
330
A
100
AcDbEntity
  8
TEMPLATE
390
1D
100
AcDbLine
 10
177.120214454799
 20
18.21466735064282
 30
0.0
 11
177.120214454799
 21
26.71466735064284
 31
0.0
  0
MTEXT
  5
183
330
A
100
AcDbEntity
  8
TEMPLATE
390
1D
100
AcDbMText
 10
152.720214454799
 20
25.8731751631428
 30
0.0
 40
1.628841145833333
 41
0.0
 46
0.0
 71
     1
 72
     1
  1
容量
  7
ＭＳ ゴシック
 73
     1
 44
0.7828267384257843
  0
LINE
  5
184
330
A
100
AcDbEntity
  8
TEMPLATE
390
1D
100
AcDbLine
 10
152.020214454799
 20
18.21466735064282
 30
0.0
 11
152.020214454799
 21
26.71466735064284
 31
0.0
  0
MTEXT
  5
185
330
A
100
AcDbEntity
  8
TEMPLATE
390
1D
100
AcDbMText
 10
127.620214454799
 20
34.37317516314283
 30
0.0
 40
1.628841145833333
 41
0.0
 46
0.0
 71
     1
 72
     1
  1
品番
  7
ＭＳ ゴシック
 73
     1
 44
0.7828267384257843
  0
MTEXT
  5
186
330
A
100
AcDbEntity
  8
TEMPLATE
390
1D
100
AcDbMText
 10
127.620214454799
 20
25.8731751631428
 30
0.0
 40
1.628841145833333
 41
0.0
 46
0.0
 71
     1
 72
     1
  1
重量
  7
ＭＳ ゴシック
 73
     1
 44
0.7828267384257843
  0
LINE
  5
188
330
A
100
AcDbEntity
  8
TEMPLATE
390
1D
100
AcDbLine
 10
126.920214454799
 20
9.714667350642827
 30
0.0
 11
126.920214454799
 21
35.21466735064282
 31
0.0
  0
INSERT
  5
68C
330
A
100
AcDbEntity
  8
TEMPLATE
100
AcDbBlockReference
  2
block 2
 10
183.8548603540515
 20
1.674615302867274
 30
0.0
 41
0.0762
 42
0.0762
 43
0.0762
  0
LWPOLYLINE
  5
D69
330
A
100
AcDbEntity
  8
BORDER
100
AcDbPolyline
 90
        4
 70
     1
 43
0.0
 10
0.0
 20
0.0
 10
0.0
 20
297.0
 10
210.0
 20
297.0
 10
210.0
 20
0.0
  0
INSERT
  5
1343
330
A
100
AcDbEntity
  8
TEMPLATE
100
AcDbBlockReference
  2
block 2
 10
419.3486941732937
 20
4.887064282459138
 30
0.0
 41
0.0762
 42
0.0762
 43
0.0762
  0
MTEXT
  5
1EAB
102
{ACAD_XDICTIONARY
360
1EAC
102
}
330
A
100
AcDbEntity
  8
TEMPLATE
100
AcDbMText
 10
7.472865654857031
 20
8.386172105142833
 30
0.0
 40
2.2
 41
0.0
 46
2.2
 71
     1
 72
     1
  1
{20230920M}
  7
ＭＳ ゴシック
 73
     1
 44
1.0
1001
ACAD
1000
ACAD_MTEXT_DEFINED_HEIGHT_BEGIN
1070
    46
1040
2.2
1000
ACAD_MTEXT_DEFINED_HEIGHT_END
  0
MTEXT
  5
1EB1
330
A
100
AcDbEntity
  8
TEMPLATE
390
1D
100
AcDbMText
 10
13.22021445477307
 20
31.51492906939281
 30
0.0
 40
2.44326171875
 41
0.0
 46
2.677902834168282
 71
     1
 72
     1
  1
{フック　-ALMAR-}
  7
ＭＳ ゴシック
 73
     1
 44
0.7828267384257843
1001
ACAD
1000
ACAD_MTEXT_DEFINED_HEIGHT_BEGIN
1070
    46
1040
2.677902834168282
1000
ACAD_MTEXT_DEFINED_HEIGHT_END
  0
MTEXT
  5
1EB2
330
A
100
AcDbEntity
  8
TEMPLATE
390
1D
100
AcDbMText
 10
132.920214454799
 20
31.51492906939281
 30
0.0
 40
2.44326171875
 41
0.0
 46
2.44326171875
 71
     1
 72
     1
  1
{ALH74-0003}
  7
ＭＳ ゴシック
 73
     1
 44
0.7828267384257843
1001
ACAD
1000
ACAD_MTEXT_DEFINED_HEIGHT_BEGIN
1070
    46
1040
2.44326171875
1000
ACAD_MTEXT_DEFINED_HEIGHT_END
  0
HATCH
  5
2071
102
{ACAD_REACTORS
330
20A3
102
}
330
A
100
AcDbEntity
  8
TEMPLATE
100
AcDbHatch
 10
0.0
 20
0.0
 30
0.0
210
0.0
220
0.0
230
1.0
  2
SOLID
 70
     1
 71
     1
 91
        6
 92
        1
 93
        8
 72
     1
 10
193.3992346462619
 20
15.33324928988617
 11
193.3992346462619
 21
14.74230852682012
 72
     1
 10
193.3992346462619
 20
14.74230852682012
 11
192.4631754912307
 21
14.74230852682012
 72
     1
 10
192.4631754912307
 20
14.74230852682012
 11
192.4631754912307
 21
12.33324929003077
 72
     1
 10
192.4631754912307
 20
12.33324929003077
 11
191.6399141759031
 21
12.33324929003077
 72
     1
 10
191.6399141759031
 20
12.33324929003077
 11
191.6399141759031
 21
14.74230852682012
 72
     1
 10
191.6399141759031
 20
14.74230852682012
 11
190.7204440324488
 21
14.74230852682012
 72
     1
 10
190.7204440324488
 20
14.74230852682012
 11
190.7204440324488
 21
15.33324928988617
 72
     1
 10
190.7204440324488
 20
15.33324928988617
 11
193.3992346462619
 21
15.33324928988617
 97
        1
330
2072
 92
        1
 93
        1
 72
     4
 94
        3
 73
     0
 74
     1
 95
       56
 96
       52
 40
0.0
 40
0.0
 40
0.0
 40
0.0
 40
1.0
 40
1.0
 40
1.0
 40
2.0
 40
2.0
 40
2.0
 40
3.0
 40
3.0
 40
3.0
 40
4.0
 40
4.0
 40
4.0
 40
5.0
 40
5.0
 40
5.0
 40
6.0
 40
6.0
 40
6.0
 40
7.0
 40
7.0
 40
7.0
 40
8.0
 40
8.0
 40
8.0
 40
9.0
 40
9.0
 40
9.0
 40
10.0
 40
10.0
 40
10.0
 40
11.0
 40
11.0
 40
11.0
 40
12.0
 40
12.0
 40
12.0
 40
13.0
 40
13.0
 40
13.0
 40
14.0
 40
14.0
 40
14.0
 40
15.0
 40
15.0
 40
15.0
 40
16.0
 40
16.0
 40
16.0
 40
17.0
 40
17.0
 40
17.0
 40
17.0
 10
194.6534531896912
 20
15.26181239384494
 10
194.768839807883
 20
15.29429114924596
 10
194.9177987172164
 20
15.26712385315697
 10
194.9177987172164
 20
15.26712385315697
 10
194.9177987172164
 20
15.26712385315697
 10
194.8462353578582
 20
15.05236682391462
 10
194.8462353578582
 20
15.05236682391462
 10
194.8462353578582
 20
15.05236682391462
 10
194.6999991293486
 20
15.08620691972755
 10
194.5872087286637
 20
14.99726601281628
 10
194.4995622109965
 20
14.92771118849205
 10
194.4427801816846
 20
14.74289620929302
 10
194.420998735094
 20
14.67262723917894
 10
194.420998735094
 20
14.67262723917894
 10
194.3238897857113
 20
14.37456064013906
 10
194.3238897857113
 20
14.37456064013906
 10
194.3238897857113
 20
14.37456064013906
 10
194.6423021007434
 20
14.37456064013906
 10
194.6423021007434
 20
14.37456064013906
 10
194.6423021007434
 20
14.37456064013906
 10
194.5927805536282
 20
14.18696346796705
 10
194.5927805536282
 20
14.18696346796705
 10
194.5927805536282
 20
14.18696346796705
 10
194.2717720210894
 20
14.18696346796705
 10
194.2717720210894
 20
14.18696346796705
 10
194.2717720210894
 20
14.18696346796705
 10
193.6974277086187
 20
12.33324929003077
 10
193.6974277086187
 20
12.33324929003077
 10
193.6974277086187
 20
12.33324929003077
 10
193.51760431093
 20
12.33324929003077
 10
193.51760431093
 20
12.33324929003077
 10
193.51760431093
 20
12.33324929003077
 10
194.0924693547057
 20
14.18696346796705
 10
194.0924693547057
 20
14.18696346796705
 10
194.0924693547057
 20
14.18696346796705
 10
193.8555961230339
 20
14.18696346796705
 10
193.8555961230339
 20
14.18696346796705
 10
193.8555961230339
 20
14.18696346796705
 10
193.9052515724846
 20
14.37456064013906
 10
193.9052515724846
 20
14.37456064013906
 10
193.9052515724846
 20
14.37456064013906
 10
194.1445871193277
 20
14.37456064013906
 10
194.1445871193277
 20
14.37456064013906
 10
194.1445871193277
 20
14.37456064013906
 10
194.2292431514999
 20
14.63450970764554
 10
194.2292431514999
 20
14.63450970764554
 10
194.2976970010647
 20
14.85245063686765
 10
194.3557808586394
 20
14.96945896112388
 10
194.4055702104258
 20
15.05767828322665
 10
194.4548313918883
 20
15.14597199551587
 10
194.5523271702405
 20
15.23270351388978
 10
194.6534531896912
 20
15.26181239384494
 97
        1
330
207D
 92
        1
 93
        1
 72
     4
 94
        3
 73
     0
 74
     1
 95
       32
 96
       28
 40
0.0
 40
0.0
 40
0.0
 40
0.0
 40
1.0
 40
1.0
 40
1.0
 40
2.0
 40
2.0
 40
2.0
 40
3.0
 40
3.0
 40
3.0
 40
4.0
 40
4.0
 40
4.0
 40
5.0
 40
5.0
 40
5.0
 40
6.0
 40
6.0
 40
6.0
 40
7.0
 40
7.0
 40
7.0
 40
8.0
 40
8.0
 40
8.0
 40
9.0
 40
9.0
 40
9.0
 40
9.0
 10
195.0910088273304
 20
14.2611899959999
 10
194.9827562280185
 20
14.12116534805821
 10
194.8993945850904
 20
13.99514837222373
 10
194.7644359088455
 20
13.59907270254517
 10
194.6403605168772
 20
13.23677761653038
 10
194.5614027729866
 20
12.97319830792548
 10
194.5494780260998
 20
12.65218977538657
 10
194.5404024233537
 20
12.41330800868075
 10
194.6858649939244
 20
12.33324929003077
 10
194.8991416584565
 20
12.33324929003077
 10
194.9910581728255
 20
12.33324929003077
 10
195.2230067741548
 20
12.33909635868519
 10
195.388182744133
 20
12.54328254243399
 10
195.5038148499399
 20
12.68673657797071
 10
195.6103862310383
 20
12.8354425606703
 10
195.7532600231207
 20
13.32324876925175
 10
195.8721504190939
 20
13.73105577133237
 10
195.9544705994118
 20
13.99462764091863
 10
195.9483854821607
 20
14.14469496403013
 10
195.9483854821607
 20
14.14469496403013
 10
195.9483854821607
 20
14.14469496403013
 10
195.9483854821607
 20
14.14469496403013
 10
195.9096133169866
 20
14.39504769748547
 10
195.7278483354318
 20
14.4479465590651
 10
195.6239996351573
 20
14.4479465590651
 10
195.5217131287981
 20
14.4479465590651
 10
195.2476299258675
 20
14.46564398441989
 10
195.0910088273304
 20
14.2611899959999
 97
        1
330
2080
 92
        1
 93
        1
 72
     4
 94
        3
 73
     0
 74
     1
 95
       38
 96
       34
 40
0.0
 40
0.0
 40
0.0
 40
0.0
 40
1.0
 40
1.0
 40
1.0
 40
2.0
 40
2.0
 40
2.0
 40
3.0
 40
3.0
 40
3.0
 40
4.0
 40
4.0
 40
4.0
 40
5.0
 40
5.0
 40
5.0
 40
6.0
 40
6.0
 40
6.0
 40
7.0
 40
7.0
 40
7.0
 40
8.0
 40
8.0
 40
8.0
 40
9.0
 40
9.0
 40
9.0
 40
10.0
 40
10.0
 40
10.0
 40
11.0
 40
11.0
 40
11.0
 40
11.0
 10
196.6058310719068
 20
14.36736710911002
 10
196.6058310719068
 20
14.36736710911002
 10
196.790705563255
 20
14.36736710911002
 10
196.790705563255
 20
14.36736710911002
 10
196.790705563255
 20
14.36736710911002
 10
196.708117578266
 20
14.10294719139831
 10
196.708117578266
 20
14.10294719139831
 10
196.7708731395493
 20
14.17717371943115
 10
196.8699162337796
 20
14.27603083819528
 10
196.9549739729585
 20
14.32587970213075
 10
197.0820324114032
 20
14.40010623016359
 10
197.1546372333715
 20
14.40989597869949
 10
197.2344876594995
 20
14.40794695581469
 10
197.2344876594995
 20
14.40794695581469
 10
197.1564523539208
 20
14.1579215391797
 10
197.1564523539208
 20
14.1579215391797
 10
197.1056289785429
 20
14.17944262011767
 10
196.9490078800058
 20
14.1384759444435
 10
196.8591594128199
 20
14.0738457504618
 10
196.7781336217462
 20
14.01556847840234
 10
196.7221178113546
 20
13.96597998011942
 10
196.6557468870101
 20
13.84131690567822
 10
196.5898818159334
 20
13.71646785577089
 10
196.5378979536471
 20
13.51739227783074
 10
196.4484363154307
 20
13.22859469602165
 10
196.4484363154307
 20
13.22859469602165
 10
196.169041653188
 20
12.33324929003077
 10
196.169041653188
 20
12.33324929003077
 10
196.169041653188
 20
12.33324929003077
 10
195.9896125234874
 20
12.33324929003077
 10
195.9896125234874
 20
12.33324929003077
 10
195.9896125234874
 20
12.33324929003077
 10
196.6058310719068
 20
14.36736710911002
 10
196.6058310719068
 20
14.36736710911002
 97
        1
330
207E
 92
        1
 93
        1
 72
     4
 94
        3
 73
     0
 74
     1
 95
      104
 96
      100
 40
0.0
 40
0.0
 40
0.0
 40
0.0
 40
1.0
 40
1.0
 40
1.0
 40
2.0
 40
2.0
 40
2.0
 40
3.0
 40
3.0
 40
3.0
 40
4.0
 40
4.0
 40
4.0
 40
5.0
 40
5.0
 40
5.0
 40
6.0
 40
6.0
 40
6.0
 40
7.0
 40
7.0
 40
7.0
 40
8.0
 40
8.0
 40
8.0
 40
9.0
 40
9.0
 40
9.0
 40
10.0
 40
10.0
 40
10.0
 40
11.0
 40
11.0
 40
11.0
 40
12.0
 40
12.0
 40
12.0
 40
13.0
 40
13.0
 40
13.0
 40
14.0
 40
14.0
 40
14.0
 40
15.0
 40
15.0
 40
15.0
 40
16.0
 40
16.0
 40
16.0
 40
17.0
 40
17.0
 40
17.0
 40
18.0
 40
18.0
 40
18.0
 40
19.0
 40
19.0
 40
19.0
 40
20.0
 40
20.0
 40
20.0
 40
21.0
 40
21.0
 40
21.0
 40
22.0
 40
22.0
 40
22.0
 40
23.0
 40
23.0
 40
23.0
 40
24.0
 40
24.0
 40
24.0
 40
25.0
 40
25.0
 40
25.0
 40
26.0
 40
26.0
 40
26.0
 40
27.0
 40
27.0
 40
27.0
 40
28.0
 40
28.0
 40
28.0
 40
29.0
 40
29.0
 40
29.0
 40
30.0
 40
30.0
 40
30.0
 40
31.0
 40
31.0
 40
31.0
 40
32.0
 40
32.0
 40
32.0
 40
33.0
 40
33.0
 40
33.0
 40
33.0
 10
197.6234441883354
 20
14.36846808386937
 10
197.6234441883354
 20
14.36846808386937
 10
197.7848560148795
 20
14.36846808386937
 10
197.7848560148795
 20
14.36846808386937
 10
197.7848560148795
 20
14.36846808386937
 10
197.7033094925007
 20
14.10379523952376
 10
197.7033094925007
 20
14.10379523952376
 10
197.7740843158826
 20
14.21477051965945
 10
197.8376135351049
 20
14.26423255462542
 10
197.9220166406432
 20
14.32814860281726
 10
198.0066726728153
 20
14.3911570907345
 10
198.1071589366625
 20
14.40399683691456
 10
198.1769071754715
 20
14.40399683691456
 10
198.2632593038946
 20
14.40399683691456
 10
198.3466209468226
 20
14.38694660618182
 10
198.3904367666375
 20
14.29229997197037
 10
198.4240164967979
 20
14.21808088295617
 10
198.4255786907132
 20
14.20932515801183
 10
198.4159823566621
 20
14.06282112483094
 10
198.5037478986276
 20
14.21302235027805
 10
198.568571507094
 20
14.27771949542754
 10
198.6787731292907
 20
14.33987993521932
 10
198.794420113135
 20
14.40399683691456
 10
198.8618325000897
 20
14.40879500394014
 10
198.9401504883769
 20
14.39724964700418
 10
199.05552966755
 20
14.38020685529008
 10
199.1291759521286
 20
14.33903932611252
 10
199.1676803126315
 20
14.21392991055265
 10
199.20631857547
 20
14.08920732396228
 10
199.1854446891541
 20
14.02230822929408
 10
199.1377308235695
 20
13.82375338265902
 10
199.115949376979
 20
13.73332467201888
 10
199.0844376940018
 20
13.62382975659341
 10
199.043210652675
 20
13.4935427840571
 10
199.043210652675
 20
13.4935427840571
 10
198.6787731292907
 20
12.33324929003077
 10
198.6787731292907
 20
12.33324929003077
 10
198.6787731292907
 20
12.33324929003077
 10
198.4892269342339
 20
12.33324929003077
 10
198.4892269342339
 20
12.33324929003077
 10
198.4892269342339
 20
12.33324929003077
 10
198.8083013219253
 20
13.34761899433048
 10
198.8083013219253
 20
13.34761899433048
 10
198.8749400509409
 20
13.55985419625241
 10
198.92005026
 20
13.71484614970644
 10
198.9433939005058
 20
13.81202205025695
 10
198.972688755927
 20
13.93324085906585
 10
198.9843531371613
 20
13.97324046231626
 10
198.9704868064084
 20
14.06146722343768
 10
198.9577809625639
 20
14.14359398927077
 10
198.916286116566
 20
14.19707309430466
 10
198.8452434885129
 20
14.19707309430466
 10
198.7695291567512
 20
14.19707309430466
 10
198.7082018870476
 20
14.18864468618067
 10
198.6223853679669
 20
14.10243389911185
 10
198.536553970849
 20
14.01556847840234
 10
198.4656303670941
 20
13.9136018498449
 10
198.4100162637093
 20
13.79633315993612
 10
198.3545211846229
 20
13.6783503242375
 10
198.2982524475973
 20
13.52880373243109
 10
198.2412100526329
 20
13.34761899433048
 10
198.2412100526329
 20
13.34761899433048
 10
197.9220166406432
 20
12.33324929003077
 10
197.9220166406432
 20
12.33324929003077
 10
197.9220166406432
 20
12.33324929003077
 10
197.7437479978511
 20
12.33324929003077
 10
197.7437479978511
 20
12.33324929003077
 10
197.7437479978511
 20
12.33324929003077
 10
198.1087062525406
 20
13.493022052752
 10
198.1087062525406
 20
13.493022052752
 10
198.1472106130435
 20
13.61645025009826
 10
198.1761335175325
 20
13.7170555382438
 10
198.1951922832992
 20
13.79568596531406
 10
198.2275966485138
 20
13.93103890954714
 10
198.2366722512598
 20
14.02256859494663
 10
198.2121681238455
 20
14.10379523952376
 10
198.1880508254007
 20
14.18476151844834
 10
198.1456632971655
 20
14.2054419902795
 10
198.0748735957463
 20
14.2054419902795
 10
198.0154953489275
 20
14.2054419902795
 10
197.9575453936883
 20
14.17996335142277
 10
197.8914273959778
 20
14.12926643936185
 10
197.8081847773481
 20
14.06548429350561
 10
197.7748728518588
 20
14.01310616323108
 10
197.7340326395017
 20
13.95087133325285
 10
197.6789243893847
 20
13.86854371391636
 10
197.6531258727262
 20
13.81312302501631
 10
197.6065873720875
 20
13.69150994821926
 10
197.5600339934114
 20
13.56918272563237
 10
197.5159652469626
 20
13.426829664855
 10
197.4852272219243
 20
13.32836681407902
 10
197.4852272219243
 20
13.32836681407902
 10
197.172133805223
 20
12.33324929003077
 10
197.172133805223
 20
12.33324929003077
 10
197.172133805223
 20
12.33324929003077
 10
196.9854441933256
 20
12.33324929003077
 10
196.9854441933256
 20
12.33324929003077
 10
196.9854441933256
 20
12.33324929003077
 10
197.6234441883354
 20
14.36846808386937
 10
197.6234441883354
 20
14.36846808386937
 97
        1
330
207F
 92
       16
 93
        1
 72
     4
 94
        3
 73
     0
 74
     1
 95
       29
 96
       25
 40
0.0
 40
0.0
 40
0.0
 40
0.0
 40
1.0
 40
1.0
 40
1.0
 40
2.0
 40
2.0
 40
2.0
 40
3.0
 40
3.0
 40
3.0
 40
4.0
 40
4.0
 40
4.0
 40
5.0
 40
5.0
 40
5.0
 40
6.0
 40
6.0
 40
6.0
 40
7.0
 40
7.0
 40
7.0
 40
8.0
 40
8.0
 40
8.0
 40
8.0
 10
194.7431751935601
 20
12.71220777780879
 10
194.7423866575838
 20
12.85392108298274
 10
194.7871249157106
 20
13.10570210801778
 10
194.9017304369448
 20
13.44258550634363
 10
195.0578308041768
 20
13.89875356863087
 10
195.1514434147967
 20
14.06548429350561
 10
195.2333618881077
 20
14.14664398691494
 10
195.3530408200572
 20
14.26482023709832
 10
195.5139319152962
 20
14.2707119398646
 10
195.5613928542469
 20
14.26482023709832
 10
195.6289391435371
 20
14.25671170677603
 10
195.7243519966689
 20
14.21250161897294
 10
195.7300502849505
 20
14.06366917295639
 10
195.7346029643608
 20
13.93629085671002
 10
195.6978988463698
 20
13.69773640682454
 10
195.5694269943827
 20
13.32324876925175
 10
195.4213607672865
 20
12.88808105659738
 10
195.3324198603752
 20
12.71701338385301
 10
195.2611243056883
 20
12.64245953899982
 10
195.1268053850467
 20
12.50269525671068
 10
194.9827562280185
 20
12.516115246345
 10
194.9614955127331
 20
12.516115246345
 10
194.9338818755254
 20
12.516115246345
 10
194.7435620225296
 20
12.54607961344425
 10
194.7431751935601
 20
12.71220777780879
 97
        1
330
2081
 75
     0
 76
     1
 98
        1
 10
185.8850447185594
 20
7.249468582626761
1001
ACAD
1010
0.0
1020
0.0
1030
0.0
  0
POLYLINE
  5
2072
102
{ACAD_REACTORS
330
2071
330
20A3
102
}
330
A
100
AcDbEntity
  8
TEMPLATE
100
AcDb2dPolyline
 66
     1
 10
0.0
 20
0.0
 30
0.0
  0
VERTEX
  5
2073
330
2072
100
AcDbEntity
  8
TEMPLATE
100
AcDbVertex
100
AcDb2dVertex
 10
193.3992346462619
 20
15.33324928988617
 30
0.0
  0
VERTEX
  5
2074
330
2072
100
AcDbEntity
  8
TEMPLATE
100
AcDbVertex
100
AcDb2dVertex
 10
193.3992346462619
 20
14.74230852682012
 30
0.0
  0
VERTEX
  5
2075
330
2072
100
AcDbEntity
  8
TEMPLATE
100
AcDbVertex
100
AcDb2dVertex
 10
192.4631754912307
 20
14.74230852682012
 30
0.0
  0
VERTEX
  5
2076
330
2072
100
AcDbEntity
  8
TEMPLATE
100
AcDbVertex
100
AcDb2dVertex
 10
192.4631754912307
 20
12.33324929003077
 30
0.0
  0
VERTEX
  5
2077
330
2072
100
AcDbEntity
  8
TEMPLATE
100
AcDbVertex
100
AcDb2dVertex
 10
191.6399141759031
 20
12.33324929003077
 30
0.0
  0
VERTEX
  5
2078
330
2072
100
AcDbEntity
  8
TEMPLATE
100
AcDbVertex
100
AcDb2dVertex
 10
191.6399141759031
 20
14.74230852682012
 30
0.0
  0
VERTEX
  5
2079
330
2072
100
AcDbEntity
  8
TEMPLATE
100
AcDbVertex
100
AcDb2dVertex
 10
190.7204440324488
 20
14.74230852682012
 30
0.0
  0
VERTEX
  5
207A
330
2072
100
AcDbEntity
  8
TEMPLATE
100
AcDbVertex
100
AcDb2dVertex
 10
190.7204440324488
 20
15.33324928988617
 30
0.0
  0
VERTEX
  5
207B
330
2072
100
AcDbEntity
  8
TEMPLATE
100
AcDbVertex
100
AcDb2dVertex
 10
193.3992346462619
 20
15.33324928988617
 30
0.0
  0
SEQEND
  5
207C
330
2072
100
AcDbEntity
  8
TEMPLATE
  0
SPLINE
  5
207D
102
{ACAD_REACTORS
330
2071
330
20A3
102
}
330
A
100
AcDbEntity
  8
TEMPLATE
100
AcDbSpline
210
0.0
220
0.0
230
1.0
 70
    11
 71
     3
 72
    56
 73
    52
 74
     0
 42
0.000000001
 43
0.0000000001
 40
0.0
 40
0.0
 40
0.0
 40
0.0
 40
1.0
 40
1.0
 40
1.0
 40
2.0
 40
2.0
 40
2.0
 40
3.0
 40
3.0
 40
3.0
 40
4.0
 40
4.0
 40
4.0
 40
5.0
 40
5.0
 40
5.0
 40
6.0
 40
6.0
 40
6.0
 40
7.0
 40
7.0
 40
7.0
 40
8.0
 40
8.0
 40
8.0
 40
9.0
 40
9.0
 40
9.0
 40
10.0
 40
10.0
 40
10.0
 40
11.0
 40
11.0
 40
11.0
 40
12.0
 40
12.0
 40
12.0
 40
13.0
 40
13.0
 40
13.0
 40
14.0
 40
14.0
 40
14.0
 40
15.0
 40
15.0
 40
15.0
 40
16.0
 40
16.0
 40
16.0
 40
17.0
 40
17.0
 40
17.0
 40
17.0
 10
194.6534531896912
 20
15.26181239384494
 30
0.0
 10
194.768839807883
 20
15.29429114924596
 30
0.0
 10
194.9177987172164
 20
15.26712385315697
 30
0.0
 10
194.9177987172164
 20
15.26712385315697
 30
0.0
 10
194.9177987172164
 20
15.26712385315697
 30
0.0
 10
194.8462353578582
 20
15.05236682391462
 30
0.0
 10
194.8462353578582
 20
15.05236682391462
 30
0.0
 10
194.8462353578582
 20
15.05236682391462
 30
0.0
 10
194.6999991293486
 20
15.08620691972755
 30
0.0
 10
194.5872087286637
 20
14.99726601281628
 30
0.0
 10
194.4995622109965
 20
14.92771118849205
 30
0.0
 10
194.4427801816846
 20
14.74289620929302
 30
0.0
 10
194.420998735094
 20
14.67262723917894
 30
0.0
 10
194.420998735094
 20
14.67262723917894
 30
0.0
 10
194.3238897857113
 20
14.37456064013906
 30
0.0
 10
194.3238897857113
 20
14.37456064013906
 30
0.0
 10
194.3238897857113
 20
14.37456064013906
 30
0.0
 10
194.6423021007434
 20
14.37456064013906
 30
0.0
 10
194.6423021007434
 20
14.37456064013906
 30
0.0
 10
194.6423021007434
 20
14.37456064013906
 30
0.0
 10
194.5927805536282
 20
14.18696346796705
 30
0.0
 10
194.5927805536282
 20
14.18696346796705
 30
0.0
 10
194.5927805536282
 20
14.18696346796705
 30
0.0
 10
194.2717720210894
 20
14.18696346796705
 30
0.0
 10
194.2717720210894
 20
14.18696346796705
 30
0.0
 10
194.2717720210894
 20
14.18696346796705
 30
0.0
 10
193.6974277086187
 20
12.33324929003077
 30
0.0
 10
193.6974277086187
 20
12.33324929003077
 30
0.0
 10
193.6974277086187
 20
12.33324929003077
 30
0.0
 10
193.51760431093
 20
12.33324929003077
 30
0.0
 10
193.51760431093
 20
12.33324929003077
 30
0.0
 10
193.51760431093
 20
12.33324929003077
 30
0.0
 10
194.0924693547057
 20
14.18696346796705
 30
0.0
 10
194.0924693547057
 20
14.18696346796705
 30
0.0
 10
194.0924693547057
 20
14.18696346796705
 30
0.0
 10
193.8555961230339
 20
14.18696346796705
 30
0.0
 10
193.8555961230339
 20
14.18696346796705
 30
0.0
 10
193.8555961230339
 20
14.18696346796705
 30
0.0
 10
193.9052515724846
 20
14.37456064013906
 30
0.0
 10
193.9052515724846
 20
14.37456064013906
 30
0.0
 10
193.9052515724846
 20
14.37456064013906
 30
0.0
 10
194.1445871193277
 20
14.37456064013906
 30
0.0
 10
194.1445871193277
 20
14.37456064013906
 30
0.0
 10
194.1445871193277
 20
14.37456064013906
 30
0.0
 10
194.2292431514999
 20
14.63450970764554
 30
0.0
 10
194.2292431514999
 20
14.63450970764554
 30
0.0
 10
194.2976970010647
 20
14.85245063686765
 30
0.0
 10
194.3557808586394
 20
14.96945896112388
 30
0.0
 10
194.4055702104258
 20
15.05767828322665
 30
0.0
 10
194.4548313918883
 20
15.14597199551587
 30
0.0
 10
194.5523271702405
 20
15.23270351388978
 30
0.0
 10
194.6534531896912
 20
15.26181239384494
 30
0.0
  0
SPLINE
  5
207E
102
{ACAD_REACTORS
330
2071
330
20A3
102
}
330
A
100
AcDbEntity
  8
TEMPLATE
100
AcDbSpline
210
0.0
220
0.0
230
1.0
 70
    11
 71
     3
 72
    38
 73
    34
 74
     0
 42
0.000000001
 43
0.0000000001
 40
0.0
 40
0.0
 40
0.0
 40
0.0
 40
1.0
 40
1.0
 40
1.0
 40
2.0
 40
2.0
 40
2.0
 40
3.0
 40
3.0
 40
3.0
 40
4.0
 40
4.0
 40
4.0
 40
5.0
 40
5.0
 40
5.0
 40
6.0
 40
6.0
 40
6.0
 40
7.0
 40
7.0
 40
7.0
 40
8.0
 40
8.0
 40
8.0
 40
9.0
 40
9.0
 40
9.0
 40
10.0
 40
10.0
 40
10.0
 40
11.0
 40
11.0
 40
11.0
 40
11.0
 10
196.6058310719068
 20
14.36736710911002
 30
0.0
 10
196.6058310719068
 20
14.36736710911002
 30
0.0
 10
196.790705563255
 20
14.36736710911002
 30
0.0
 10
196.790705563255
 20
14.36736710911002
 30
0.0
 10
196.790705563255
 20
14.36736710911002
 30
0.0
 10
196.708117578266
 20
14.10294719139831
 30
0.0
 10
196.708117578266
 20
14.10294719139831
 30
0.0
 10
196.7708731395493
 20
14.17717371943115
 30
0.0
 10
196.8699162337796
 20
14.27603083819528
 30
0.0
 10
196.9549739729585
 20
14.32587970213075
 30
0.0
 10
197.0820324114032
 20
14.40010623016359
 30
0.0
 10
197.1546372333715
 20
14.40989597869949
 30
0.0
 10
197.2344876594995
 20
14.40794695581469
 30
0.0
 10
197.2344876594995
 20
14.40794695581469
 30
0.0
 10
197.1564523539208
 20
14.1579215391797
 30
0.0
 10
197.1564523539208
 20
14.1579215391797
 30
0.0
 10
197.1056289785429
 20
14.17944262011767
 30
0.0
 10
196.9490078800058
 20
14.1384759444435
 30
0.0
 10
196.8591594128199
 20
14.0738457504618
 30
0.0
 10
196.7781336217462
 20
14.01556847840234
 30
0.0
 10
196.7221178113546
 20
13.96597998011942
 30
0.0
 10
196.6557468870101
 20
13.84131690567822
 30
0.0
 10
196.5898818159334
 20
13.71646785577089
 30
0.0
 10
196.5378979536471
 20
13.51739227783074
 30
0.0
 10
196.4484363154307
 20
13.22859469602165
 30
0.0
 10
196.4484363154307
 20
13.22859469602165
 30
0.0
 10
196.169041653188
 20
12.33324929003077
 30
0.0
 10
196.169041653188
 20
12.33324929003077
 30
0.0
 10
196.169041653188
 20
12.33324929003077
 30
0.0
 10
195.9896125234874
 20
12.33324929003077
 30
0.0
 10
195.9896125234874
 20
12.33324929003077
 30
0.0
 10
195.9896125234874
 20
12.33324929003077
 30
0.0
 10
196.6058310719068
 20
14.36736710911002
 30
0.0
 10
196.6058310719068
 20
14.36736710911002
 30
0.0
  0
SPLINE
  5
207F
102
{ACAD_REACTORS
330
2071
330
20A3
102
}
330
A
100
AcDbEntity
  8
TEMPLATE
100
AcDbSpline
210
0.0
220
0.0
230
1.0
 70
    11
 71
     3
 72
   104
 73
   100
 74
     0
 42
0.000000001
 43
0.0000000001
 40
0.0
 40
0.0
 40
0.0
 40
0.0
 40
1.0
 40
1.0
 40
1.0
 40
2.0
 40
2.0
 40
2.0
 40
3.0
 40
3.0
 40
3.0
 40
4.0
 40
4.0
 40
4.0
 40
5.0
 40
5.0
 40
5.0
 40
6.0
 40
6.0
 40
6.0
 40
7.0
 40
7.0
 40
7.0
 40
8.0
 40
8.0
 40
8.0
 40
9.0
 40
9.0
 40
9.0
 40
10.0
 40
10.0
 40
10.0
 40
11.0
 40
11.0
 40
11.0
 40
12.0
 40
12.0
 40
12.0
 40
13.0
 40
13.0
 40
13.0
 40
14.0
 40
14.0
 40
14.0
 40
15.0
 40
15.0
 40
15.0
 40
16.0
 40
16.0
 40
16.0
 40
17.0
 40
17.0
 40
17.0
 40
18.0
 40
18.0
 40
18.0
 40
19.0
 40
19.0
 40
19.0
 40
20.0
 40
20.0
 40
20.0
 40
21.0
 40
21.0
 40
21.0
 40
22.0
 40
22.0
 40
22.0
 40
23.0
 40
23.0
 40
23.0
 40
24.0
 40
24.0
 40
24.0
 40
25.0
 40
25.0
 40
25.0
 40
26.0
 40
26.0
 40
26.0
 40
27.0
 40
27.0
 40
27.0
 40
28.0
 40
28.0
 40
28.0
 40
29.0
 40
29.0
 40
29.0
 40
30.0
 40
30.0
 40
30.0
 40
31.0
 40
31.0
 40
31.0
 40
32.0
 40
32.0
 40
32.0
 40
33.0
 40
33.0
 40
33.0
 40
33.0
 10
197.6234441883354
 20
14.36846808386937
 30
0.0
 10
197.6234441883354
 20
14.36846808386937
 30
0.0
 10
197.7848560148795
 20
14.36846808386937
 30
0.0
 10
197.7848560148795
 20
14.36846808386937
 30
0.0
 10
197.7848560148795
 20
14.36846808386937
 30
0.0
 10
197.7033094925007
 20
14.10379523952376
 30
0.0
 10
197.7033094925007
 20
14.10379523952376
 30
0.0
 10
197.7740843158826
 20
14.21477051965945
 30
0.0
 10
197.8376135351049
 20
14.26423255462542
 30
0.0
 10
197.9220166406432
 20
14.32814860281726
 30
0.0
 10
198.0066726728153
 20
14.3911570907345
 30
0.0
 10
198.1071589366625
 20
14.40399683691456
 30
0.0
 10
198.1769071754715
 20
14.40399683691456
 30
0.0
 10
198.2632593038946
 20
14.40399683691456
 30
0.0
 10
198.3466209468226
 20
14.38694660618182
 30
0.0
 10
198.3904367666375
 20
14.29229997197037
 30
0.0
 10
198.4240164967979
 20
14.21808088295617
 30
0.0
 10
198.4255786907132
 20
14.20932515801183
 30
0.0
 10
198.4159823566621
 20
14.06282112483094
 30
0.0
 10
198.5037478986276
 20
14.21302235027805
 30
0.0
 10
198.568571507094
 20
14.27771949542754
 30
0.0
 10
198.6787731292907
 20
14.33987993521932
 30
0.0
 10
198.794420113135
 20
14.40399683691456
 30
0.0
 10
198.8618325000897
 20
14.40879500394014
 30
0.0
 10
198.9401504883769
 20
14.39724964700418
 30
0.0
 10
199.05552966755
 20
14.38020685529008
 30
0.0
 10
199.1291759521286
 20
14.33903932611252
 30
0.0
 10
199.1676803126315
 20
14.21392991055265
 30
0.0
 10
199.20631857547
 20
14.08920732396228
 30
0.0
 10
199.1854446891541
 20
14.02230822929408
 30
0.0
 10
199.1377308235695
 20
13.82375338265902
 30
0.0
 10
199.115949376979
 20
13.73332467201888
 30
0.0
 10
199.0844376940018
 20
13.62382975659341
 30
0.0
 10
199.043210652675
 20
13.4935427840571
 30
0.0
 10
199.043210652675
 20
13.4935427840571
 30
0.0
 10
198.6787731292907
 20
12.33324929003077
 30
0.0
 10
198.6787731292907
 20
12.33324929003077
 30
0.0
 10
198.6787731292907
 20
12.33324929003077
 30
0.0
 10
198.4892269342339
 20
12.33324929003077
 30
0.0
 10
198.4892269342339
 20
12.33324929003077
 30
0.0
 10
198.4892269342339
 20
12.33324929003077
 30
0.0
 10
198.8083013219253
 20
13.34761899433048
 30
0.0
 10
198.8083013219253
 20
13.34761899433048
 30
0.0
 10
198.8749400509409
 20
13.55985419625241
 30
0.0
 10
198.92005026
 20
13.71484614970644
 30
0.0
 10
198.9433939005058
 20
13.81202205025695
 30
0.0
 10
198.972688755927
 20
13.93324085906585
 30
0.0
 10
198.9843531371613
 20
13.97324046231626
 30
0.0
 10
198.9704868064084
 20
14.06146722343768
 30
0.0
 10
198.9577809625639
 20
14.14359398927077
 30
0.0
 10
198.916286116566
 20
14.19707309430466
 30
0.0
 10
198.8452434885129
 20
14.19707309430466
 30
0.0
 10
198.7695291567512
 20
14.19707309430466
 30
0.0
 10
198.7082018870476
 20
14.18864468618067
 30
0.0
 10
198.6223853679669
 20
14.10243389911185
 30
0.0
 10
198.536553970849
 20
14.01556847840234
 30
0.0
 10
198.4656303670941
 20
13.9136018498449
 30
0.0
 10
198.4100162637093
 20
13.79633315993612
 30
0.0
 10
198.3545211846229
 20
13.6783503242375
 30
0.0
 10
198.2982524475973
 20
13.52880373243109
 30
0.0
 10
198.2412100526329
 20
13.34761899433048
 30
0.0
 10
198.2412100526329
 20
13.34761899433048
 30
0.0
 10
197.9220166406432
 20
12.33324929003077
 30
0.0
 10
197.9220166406432
 20
12.33324929003077
 30
0.0
 10
197.9220166406432
 20
12.33324929003077
 30
0.0
 10
197.7437479978511
 20
12.33324929003077
 30
0.0
 10
197.7437479978511
 20
12.33324929003077
 30
0.0
 10
197.7437479978511
 20
12.33324929003077
 30
0.0
 10
198.1087062525406
 20
13.493022052752
 30
0.0
 10
198.1087062525406
 20
13.493022052752
 30
0.0
 10
198.1472106130435
 20
13.61645025009826
 30
0.0
 10
198.1761335175325
 20
13.7170555382438
 30
0.0
 10
198.1951922832992
 20
13.79568596531406
 30
0.0
 10
198.2275966485138
 20
13.93103890954714
 30
0.0
 10
198.2366722512598
 20
14.02256859494663
 30
0.0
 10
198.2121681238455
 20
14.10379523952376
 30
0.0
 10
198.1880508254007
 20
14.18476151844834
 30
0.0
 10
198.1456632971655
 20
14.2054419902795
 30
0.0
 10
198.0748735957463
 20
14.2054419902795
 30
0.0
 10
198.0154953489275
 20
14.2054419902795
 30
0.0
 10
197.9575453936883
 20
14.17996335142277
 30
0.0
 10
197.8914273959778
 20
14.12926643936185
 30
0.0
 10
197.8081847773481
 20
14.06548429350561
 30
0.0
 10
197.7748728518588
 20
14.01310616323108
 30
0.0
 10
197.7340326395017
 20
13.95087133325285
 30
0.0
 10
197.6789243893847
 20
13.86854371391636
 30
0.0
 10
197.6531258727262
 20
13.81312302501631
 30
0.0
 10
197.6065873720875
 20
13.69150994821926
 30
0.0
 10
197.5600339934114
 20
13.56918272563237
 30
0.0
 10
197.5159652469626
 20
13.426829664855
 30
0.0
 10
197.4852272219243
 20
13.32836681407902
 30
0.0
 10
197.4852272219243
 20
13.32836681407902
 30
0.0
 10
197.172133805223
 20
12.33324929003077
 30
0.0
 10
197.172133805223
 20
12.33324929003077
 30
0.0
 10
197.172133805223
 20
12.33324929003077
 30
0.0
 10
196.9854441933256
 20
12.33324929003077
 30
0.0
 10
196.9854441933256
 20
12.33324929003077
 30
0.0
 10
196.9854441933256
 20
12.33324929003077
 30
0.0
 10
197.6234441883354
 20
14.36846808386937
 30
0.0
 10
197.6234441883354
 20
14.36846808386937
 30
0.0
  0
SPLINE
  5
2080
102
{ACAD_REACTORS
330
2071
330
20A3
102
}
330
A
100
AcDbEntity
  8
TEMPLATE
100
AcDbSpline
210
0.0
220
0.0
230
1.0
 70
    11
 71
     3
 72
    32
 73
    28
 74
     0
 42
0.000000001
 43
0.0000000001
 40
0.0
 40
0.0
 40
0.0
 40
0.0
 40
1.0
 40
1.0
 40
1.0
 40
2.0
 40
2.0
 40
2.0
 40
3.0
 40
3.0
 40
3.0
 40
4.0
 40
4.0
 40
4.0
 40
5.0
 40
5.0
 40
5.0
 40
6.0
 40
6.0
 40
6.0
 40
7.0
 40
7.0
 40
7.0
 40
8.0
 40
8.0
 40
8.0
 40
9.0
 40
9.0
 40
9.0
 40
9.0
 10
195.0910088273304
 20
14.2611899959999
 30
0.0
 10
194.9827562280185
 20
14.12116534805821
 30
0.0
 10
194.8993945850904
 20
13.99514837222373
 30
0.0
 10
194.7644359088455
 20
13.59907270254517
 30
0.0
 10
194.6403605168772
 20
13.23677761653038
 30
0.0
 10
194.5614027729866
 20
12.97319830792548
 30
0.0
 10
194.5494780260998
 20
12.65218977538657
 30
0.0
 10
194.5404024233537
 20
12.41330800868075
 30
0.0
 10
194.6858649939244
 20
12.33324929003077
 30
0.0
 10
194.8991416584565
 20
12.33324929003077
 30
0.0
 10
194.9910581728255
 20
12.33324929003077
 30
0.0
 10
195.2230067741548
 20
12.33909635868519
 30
0.0
 10
195.388182744133
 20
12.54328254243399
 30
0.0
 10
195.5038148499399
 20
12.68673657797071
 30
0.0
 10
195.6103862310383
 20
12.8354425606703
 30
0.0
 10
195.7532600231207
 20
13.32324876925175
 30
0.0
 10
195.8721504190939
 20
13.73105577133237
 30
0.0
 10
195.9544705994118
 20
13.99462764091863
 30
0.0
 10
195.9483854821607
 20
14.14469496403013
 30
0.0
 10
195.9483854821607
 20
14.14469496403013
 30
0.0
 10
195.9483854821607
 20
14.14469496403013
 30
0.0
 10
195.9483854821607
 20
14.14469496403013
 30
0.0
 10
195.9096133169866
 20
14.39504769748547
 30
0.0
 10
195.7278483354318
 20
14.4479465590651
 30
0.0
 10
195.6239996351573
 20
14.4479465590651
 30
0.0
 10
195.5217131287981
 20
14.4479465590651
 30
0.0
 10
195.2476299258675
 20
14.46564398441989
 30
0.0
 10
195.0910088273304
 20
14.2611899959999
 30
0.0
  0
SPLINE
  5
2081
102
{ACAD_REACTORS
330
2071
330
20A3
102
}
330
A
100
AcDbEntity
  8
TEMPLATE
100
AcDbSpline
210
0.0
220
0.0
230
1.0
 70
    11
 71
     3
 72
    29
 73
    25
 74
     0
 42
0.000000001
 43
0.0000000001
 40
0.0
 40
0.0
 40
0.0
 40
0.0
 40
1.0
 40
1.0
 40
1.0
 40
2.0
 40
2.0
 40
2.0
 40
3.0
 40
3.0
 40
3.0
 40
4.0
 40
4.0
 40
4.0
 40
5.0
 40
5.0
 40
5.0
 40
6.0
 40
6.0
 40
6.0
 40
7.0
 40
7.0
 40
7.0
 40
8.0
 40
8.0
 40
8.0
 40
8.0
 10
194.7431751935601
 20
12.71220777780879
 30
0.0
 10
194.7423866575838
 20
12.85392108298274
 30
0.0
 10
194.7871249157106
 20
13.10570210801778
 30
0.0
 10
194.9017304369448
 20
13.44258550634363
 30
0.0
 10
195.0578308041768
 20
13.89875356863087
 30
0.0
 10
195.1514434147967
 20
14.06548429350561
 30
0.0
 10
195.2333618881077
 20
14.14664398691494
 30
0.0
 10
195.3530408200572
 20
14.26482023709832
 30
0.0
 10
195.5139319152962
 20
14.2707119398646
 30
0.0
 10
195.5613928542469
 20
14.26482023709832
 30
0.0
 10
195.6289391435371
 20
14.25671170677603
 30
0.0
 10
195.7243519966689
 20
14.21250161897294
 30
0.0
 10
195.7300502849505
 20
14.06366917295639
 30
0.0
 10
195.7346029643608
 20
13.93629085671002
 30
0.0
 10
195.6978988463698
 20
13.69773640682454
 30
0.0
 10
195.5694269943827
 20
13.32324876925175
 30
0.0
 10
195.4213607672865
 20
12.88808105659738
 30
0.0
 10
195.3324198603752
 20
12.71701338385301
 30
0.0
 10
195.2611243056883
 20
12.64245953899982
 30
0.0
 10
195.1268053850467
 20
12.50269525671068
 30
0.0
 10
194.9827562280185
 20
12.516115246345
 30
0.0
 10
194.9614955127331
 20
12.516115246345
 30
0.0
 10
194.9338818755254
 20
12.516115246345
 30
0.0
 10
194.7435620225296
 20
12.54607961344425
 30
0.0
 10
194.7431751935601
 20
12.71220777780879
 30
0.0
  0
LINE
  5
21E9
330
A
100
AcDbEntity
  8
MODEL
100
AcDbLine
 10
62.40336580436633
 20
183.9438179690978
 30
0.0
 11
62.40336580436633
 21
88.94381796909772
 31
0.0
  0
LINE
  5
21EA
330
A
100
AcDbEntity
  8
MODEL
100
AcDbLine
 10
65.40336580436633
 20
85.94381796909772
 30
0.0
 11
81.40336580436633
 21
85.94381796909772
 31
0.0
  0
LINE
  5
21EB
330
A
100
AcDbEntity
  8
MODEL
100
AcDbLine
 10
84.40336580436633
 20
88.94381796909772
 30
0.0
 11
84.40336580436633
 21
183.9438179690978
 31
0.0
  0
LINE
  5
21EC
330
A
100
AcDbEntity
  8
MODEL
100
AcDbLine
 10
82.40336580436633
 20
185.9438179690978
 30
0.0
 11
64.40336580436633
 21
185.9438179690978
 31
0.0
  0
LINE
  5
21ED
102
{ACAD_REACTORS
330
2201
102
}
330
A
100
AcDbEntity
  8
MODEL
100
AcDbLine
 10
135.8225274002974
 20
128.9962442407244
 30
0.0
 11
135.8225274002974
 21
85.94381796909772
 31
0.0
  0
LINE
  5
21EE
330
A
100
AcDbEntity
  8
MODEL
100
AcDbLine
 10
168.8062985929254
 20
185.9438179690978
 30
0.0
 11
141.8225274002974
 21
144.827287628718
 31
0.0
  0
LINE
  5
21EF
330
A
100
AcDbEntity
  8
MODEL
100
AcDbLine
 10
173.8225274002974
 20
182.6517899388269
 30
0.0
 11
144.3880208377465
 21
137.8009507624294
 31
0.0
  0
LINE
  5
21F0
330
A
100
AcDbEntity
  8
MODEL
100
AcDbLine
 10
173.8225274002974
 20
182.6517899388269
 30
0.0
 11
168.8062985929254
 21
185.9438179690976
 31
0.0
  0
ARC
  5
21F1
330
A
100
AcDbEntity
  8
MODEL
100
AcDbCircle
 10
161.0800663403874
 20
128.1611473526439
 30
0.0
 40
19.27563728755994
100
AcDbArc
 50
149.9931874849279
 51
177.5169429088801
  0
ARC
  5
21F2
330
A
100
AcDbEntity
  8
MODEL
100
AcDbCircle
 10
169.2723526852604
 20
125.3712156859398
 30
0.0
 40
33.64567793368899
100
AcDbArc
 50
144.6714917483422
 51
173.8148731826203
  0
LINE
  5
21F3
102
{ACAD_REACTORS
330
2201
102
}
330
A
100
AcDbEntity
  8
MODEL
100
AcDbLine
 10
141.8225274002974
 20
128.9962442407244
 30
0.0
 11
141.8225274002974
 21
85.94381796909772
 31
0.0
  0
LINE
  5
21F4
330
A
100
AcDbEntity
  8
MODEL
100
AcDbLine
 10
82.40336580436633
 20
182.6517899388269
 30
0.0
 11
64.40336580436633
 21
182.6517899388269
 31
0.0
  0
LINE
  5
21F5
330
A
100
AcDbEntity
  8
MODEL
100
AcDbLine
 10
141.8225274002974
 20
85.94381796909772
 30
0.0
 11
135.8225274002974
 21
85.94381796909772
 31
0.0
  0
LINE
  5
21F6
330
A
100
AcDbEntity
  8
MODEL
100
AcDbLine
 10
84.40336580436633
 20
256.524712474451
 30
0.0
 11
84.40336580436633
 21
225.5409412818233
 31
0.0
  0
LINE
  5
21F7
330
A
100
AcDbEntity
  8
MODEL
100
AcDbLine
 10
62.40336580436633
 20
256.524712474451
 30
0.0
 11
84.40336580436633
 21
256.524712474451
 31
0.0
  0
LINE
  5
21F8
330
A
100
AcDbEntity
  8
MODEL
100
AcDbLine
 10
62.40336580436633
 20
256.524712474451
 30
0.0
 11
62.40336580436633
 21
225.5409412818233
 31
0.0
  0
DIMENSION
  5
21F9
330
A
100
AcDbEntity
  8
DIM
100
AcDbDimension
  2
*D25
 10
136.0150974451663
 20
195.2149015320511
 30
0.0
 11
155.0150974451662
 21
195.2149015320511
 31
0.0
 70
   160
 71
     5
 42
37.99999999999999
 73
     0
 74
     0
 75
     0
  3
tfrom線あり
100
AcDbAlignedDimension
 13
174.0150974451663
 23
184.573022176821
 33
0.0
 14
136.0150974451663
 24
140.1533539429688
 34
0.0
 50
-0.000000000000014
100
AcDbRotatedDimension
  0
DIMENSION
  5
21FC
330
A
100
AcDbEntity
  8
DIM
100
AcDbDimension
  2
*D26
 10
43.71566519426512
 20
185.9438179690978
 30
0.0
 11
43.71566519426512
 21
137.2070913511116
 31
0.0
 70
   160
 71
     5
 42
100.0000000000001
 73
     0
 74
     0
 75
     0
  3
tfrom線あり
100
AcDbAlignedDimension
 13
60.99169187012705
 23
85.94381796909775
 33
0.0
 14
60.353129781706
 24
185.9438179690978
 34
0.0
 50
90.0
100
AcDbRotatedDimension
  0
DIMENSION
  5
21FF
102
{ACAD_REACTORS
330
2201
102
}
102
{ACAD_XDICTIONARY
360
2200
102
}
330
A
100
AcDbEntity
  8
DIM
100
AcDbDimension
  2
*D27
 10
135.8225274002974
 20
74.92589560711183
 30
0.0
 11
138.8225274002974
 21
74.92589560711183
 31
0.0
 70
   160
 71
     5
 42
6.0
 73
     0
 74
     0
 75
     0
  3
tfrom線あり
100
AcDbAlignedDimension
 13
141.8225274002974
 23
85.94381796909772
 33
0.0
 14
135.8225274002974
 24
85.94381796909772
 34
0.0
100
AcDbRotatedDimension
1001
ACAD
1000
DSTYLE
1002
{
1070
   172
1070
     1
1002
}
  0
DIMENSION
  5
2203
330
A
100
AcDbEntity
  8
DIM
100
AcDbDimension
  2
*D28
 10
113.124132247579
 20
122.9438179690977
 30
0.0
 11
113.124132247579
 21
111.9438179690976
 31
0.0
 70
   160
 71
     5
 42
22.00000000000007
 73
     0
 74
     0
 75
     0
  3
tfrom線あり
100
AcDbAlignedDimension
 13
118.9694819438893
 23
100.9438179690977
 33
0.0
 14
118.9694819438893
 24
122.9438179690977
 34
0.0
 50
90.0
100
AcDbRotatedDimension
  0
LINE
  5
2204
330
A
100
AcDbEntity
  8
HIDDEN
  6
CENTER
 48
0.2
100
AcDbLine
 10
129.5640880477715
 20
122.9438179690977
 30
0.0
 11
148.3856620548815
 21
122.9438179690977
 31
0.0
  0
LINE
  5
2205
330
A
100
AcDbEntity
  8
HIDDEN
  6
CENTER
 48
0.2
100
AcDbLine
 10
129.5640880477715
 20
100.9438179690977
 30
0.0
 11
148.3856620548815
 21
100.9438179690977
 31
0.0
  0
ARC
  5
2207
330
A
100
AcDbEntity
  8
MODEL
100
AcDbCircle
 10
65.40336580436633
 20
88.94381796909772
 30
0.0
 40
3.0
100
AcDbArc
 50
180.0
 51
270.0
  0
ARC
  5
2208
330
A
100
AcDbEntity
  8
MODEL
100
AcDbCircle
 10
81.40336580436633
 20
88.94381796909772
 30
0.0
 40
3.0
100
AcDbArc
 50
270.0
 51
0.0
  0
ARC
  5
2209
330
A
100
AcDbEntity
  8
MODEL
100
AcDbCircle
 10
82.40336580436633
 20
183.9438179690978
 30
0.0
 40
1.999999999999999
100
AcDbArc
 50
0.0
 51
90.0
  0
ARC
  5
220A
330
A
100
AcDbEntity
  8
MODEL
100
AcDbCircle
 10
64.40336580436633
 20
183.9438179690978
 30
0.0
 40
1.999999999999999
100
AcDbArc
 50
90.0
 51
180.0
  0
ARC
  5
220B
330
A
100
AcDbEntity
  8
MODEL
100
AcDbCircle
 10
82.40336580436633
 20
180.6517899388269
 30
0.0
 40
1.999999999999999
100
AcDbArc
 50
0.0
 51
90.0
  0
ARC
  5
220C
330
A
100
AcDbEntity
  8
MODEL
100
AcDbCircle
 10
64.40336580436633
 20
180.6517899388269
 30
0.0
 40
1.999999999999999
100
AcDbArc
 50
90.0
 51
180.0
  0
LINE
  5
220D
330
A
100
AcDbEntity
  8
MODEL
100
AcDbLine
 10
64.40336580436633
 20
185.9438179690978
 30
0.0
 11
64.40336580436633
 21
182.6517899388269
 31
0.0
  0
LINE
  5
220E
330
A
100
AcDbEntity
  8
MODEL
100
AcDbLine
 10
82.40336580436633
 20
182.6517899388269
 30
0.0
 11
82.40336580436633
 21
185.9438179690978
 31
0.0
  0
LINE
  5
220F
330
A
100
AcDbEntity
  8
MODEL
100
AcDbLine
 10
64.40336580436633
 20
218.524712474451
 30
0.0
 11
82.40336580436633
 21
218.524712474451
 31
0.0
  0
LINE
  5
2210
330
A
100
AcDbEntity
  8
MODEL
100
AcDbLine
 10
64.40336580436633
 20
223.5409412818233
 30
0.0
 11
82.40336580436633
 21
223.5409412818233
 31
0.0
  0
ARC
  5
2211
330
A
100
AcDbEntity
  8
MODEL
100
AcDbCircle
 10
64.40336580436633
 20
220.524712474451
 30
0.0
 40
1.999999999999999
100
AcDbArc
 50
180.0
 51
270.0
  0
ARC
  5
2212
330
A
100
AcDbEntity
  8
MODEL
100
AcDbCircle
 10
82.40336580436633
 20
220.524712474451
 30
0.0
 40
1.999999999999999
100
AcDbArc
 50
270.0
 51
0.0
  0
ARC
  5
2213
330
A
100
AcDbEntity
  8
MODEL
100
AcDbCircle
 10
64.40336580436633
 20
225.5409412818233
 30
0.0
 40
1.999999999999999
100
AcDbArc
 50
180.0
 51
270.0
  0
ARC
  5
2214
330
A
100
AcDbEntity
  8
MODEL
100
AcDbCircle
 10
82.40336580436633
 20
225.5409412818233
 30
0.0
 40
1.999999999999999
100
AcDbArc
 50
270.0
 51
0.0
  0
LINE
  5
2215
330
A
100
AcDbEntity
  8
MODEL
100
AcDbLine
 10
82.40336580436633
 20
218.524712474451
 30
0.0
 11
82.40336580436633
 21
223.5409412818233
 31
0.0
  0
LINE
  5
2216
330
A
100
AcDbEntity
  8
MODEL
100
AcDbLine
 10
64.40336580436633
 20
223.5409412818233
 30
0.0
 11
64.40336580436633
 21
218.524712474451
 31
0.0
  0
LINE
  5
2217
330
A
100
AcDbEntity
  8
MODEL
100
AcDbLine
 10
62.40336580436633
 20
225.5409412818233
 30
0.0
 11
62.40336580436633
 21
220.524712474451
 31
0.0
  0
LINE
  5
2218
330
A
100
AcDbEntity
  8
MODEL
100
AcDbLine
 10
84.40336580436633
 20
225.5409412818233
 30
0.0
 11
84.40336580436633
 21
220.524712474451
 31
0.0
  0
DIMENSION
  5
243C
330
A
100
AcDbEntity
  8
DIM
100
AcDbDimension
  2
*D48
 10
84.40336580436633
 20
269.2894748288637
 30
0.0
 11
73.40336580436633
 21
271.7900375398803
 31
0.0
 70
    32
 71
     5
 42
22.0
 73
     0
 74
     0
 75
     0
  3
tfrom線あり
100
AcDbAlignedDimension
 13
62.40336580436633
 23
259.2182834656088
 33
0.0
 14
84.40336580436633
 24
259.2182834656088
 34
0.0
100
AcDbRotatedDimension
  0
LINE
  5
244B
330
A
100
AcDbEntity
  8
HIDDEN
100
AcDbLine
 10
135.8225274002975
 20
90.94381796909774
 30
0.0
 11
138.9990660378947
 21
90.94381796909774
 31
0.0
  0
LINE
  5
244C
330
A
100
AcDbEntity
  8
HIDDEN
100
AcDbLine
 10
138.9990660378947
 20
90.94381796909774
 30
0.0
 11
138.9990660378947
 21
130.9438179690977
 31
0.0
  0
LINE
  5
244D
330
A
100
AcDbEntity
  8
HIDDEN
100
AcDbLine
 10
138.9990660378947
 20
130.9438179690977
 30
0.0
 11
135.8225274002975
 21
130.9438179690977
 31
0.0
  0
LINE
  5
244E
330
A
100
AcDbEntity
  8
HIDDEN
100
AcDbLine
 10
138.9990660378947
 20
124.6294360941773
 30
0.0
 11
138.0981129822316
 21
123.7377712143457
 31
0.0
  0
LINE
  5
244F
330
A
100
AcDbEntity
  8
MODEL
100
AcDbLine
 10
135.8225274002975
 20
123.7377712143457
 30
0.0
 11
121.8698121692969
 21
123.7377712143457
 31
0.0
  0
LINE
  5
2450
330
A
100
AcDbEntity
  8
HIDDEN
100
AcDbLine
 10
138.9990660378947
 20
121.2581998440181
 30
0.0
 11
138.0981129822316
 21
122.1498647238497
 31
0.0
  0
LINE
  5
2451
330
A
100
AcDbEntity
  8
MODEL
100
AcDbLine
 10
135.8225274002975
 20
122.1498647238497
 30
0.0
 11
121.8698121692968
 21
122.1498647238497
 31
0.0
  0
LINE
  5
2452
330
A
100
AcDbEntity
  8
MODEL
100
AcDbLine
 10
121.8698121692968
 20
122.1498647238497
 30
0.0
 11
120.2648153856
 21
122.9438179690977
 31
0.0
  0
LINE
  5
2453
330
A
100
AcDbEntity
  8
MODEL
100
AcDbLine
 10
120.2648153856
 20
122.9438179690977
 30
0.0
 11
121.8698121692969
 21
123.7377712143457
 31
0.0
  0
LINE
  5
2454
330
A
100
AcDbEntity
  8
DIM
100
AcDbLine
 10
122.1964989619619
 20
124.1374874242803
 30
0.0
 11
123.1887276241509
 21
121.8147703287016
 31
0.0
  0
LINE
  5
2459
330
A
100
AcDbEntity
  8
DIM
100
AcDbLine
 10
124.0530641304219
 20
124.1374874242803
 30
0.0
 11
125.0452927926109
 21
121.8147703287016
 31
0.0
  0
LINE
  5
245A
330
A
100
AcDbEntity
  8
DIM
100
AcDbLine
 10
126.0009357825767
 20
124.1374874242803
 30
0.0
 11
126.9931644447656
 21
121.8147703287016
 31
0.0
  0
LINE
  5
245B
330
A
100
AcDbEntity
  8
DIM
100
AcDbLine
 10
127.8270654564717
 20
124.1374874242803
 30
0.0
 11
128.8192941186607
 21
121.8147703287016
 31
0.0
  0
LINE
  5
245C
330
A
100
AcDbEntity
  8
DIM
100
AcDbLine
 10
129.8966790868862
 20
124.1374874242803
 30
0.0
 11
130.8889077490751
 21
121.8147703287016
 31
0.0
  0
LINE
  5
245D
330
A
100
AcDbEntity
  8
DIM
100
AcDbLine
 10
132.0880346955602
 20
124.1374874242803
 30
0.0
 11
133.0802633577492
 21
121.8147703287016
 31
0.0
  0
LINE
  5
245E
330
A
100
AcDbEntity
  8
DIM
100
AcDbLine
 10
134.7244526036423
 20
124.1374874242803
 30
0.0
 11
135.7166812658313
 21
121.8147703287016
 31
0.0
  0
LINE
  5
245F
330
A
100
AcDbEntity
  8
HIDDEN
100
AcDbLine
 10
138.0981129822316
 20
123.7377712143457
 30
0.0
 11
135.8225274002975
 21
123.7377712143457
 31
0.0
  0
LINE
  5
2460
330
A
100
AcDbEntity
  8
HIDDEN
100
AcDbLine
 10
138.0981129822316
 20
122.1498647238497
 30
0.0
 11
135.8225274002975
 21
122.1498647238497
 31
0.0
  0
LINE
  5
2461
330
A
100
AcDbEntity
  8
HIDDEN
100
AcDbLine
 10
138.9990660378947
 20
102.6294360941773
 30
0.0
 11
138.0981129822316
 21
101.7377712143457
 31
0.0
  0
LINE
  5
2462
330
A
100
AcDbEntity
  8
HIDDEN
100
AcDbLine
 10
138.9990660378947
 20
99.2581998440181
 30
0.0
 11
138.0981129822316
 21
100.1498647238497
 31
0.0
  0
LINE
  5
2463
330
A
100
AcDbEntity
  8
MODEL
100
AcDbLine
 10
121.8698121692968
 20
100.1498647238497
 30
0.0
 11
120.2648153856
 21
100.9438179690977
 31
0.0
  0
LINE
  5
2464
330
A
100
AcDbEntity
  8
MODEL
100
AcDbLine
 10
120.2648153856
 20
100.9438179690977
 30
0.0
 11
121.8698121692969
 21
101.7377712143457
 31
0.0
  0
LINE
  5
2465
330
A
100
AcDbEntity
  8
DIM
100
AcDbLine
 10
122.1964989619619
 20
102.1374874242803
 30
0.0
 11
123.1887276241509
 21
99.81477032870163
 31
0.0
  0
LINE
  5
2466
330
A
100
AcDbEntity
  8
DIM
100
AcDbLine
 10
124.0530641304219
 20
102.1374874242803
 30
0.0
 11
125.0452927926109
 21
99.81477032870163
 31
0.0
  0
LINE
  5
2467
330
A
100
AcDbEntity
  8
DIM
100
AcDbLine
 10
126.0009357825767
 20
102.1374874242803
 30
0.0
 11
126.9931644447656
 21
99.81477032870163
 31
0.0
  0
LINE
  5
2468
330
A
100
AcDbEntity
  8
DIM
100
AcDbLine
 10
127.8270654564717
 20
102.1374874242803
 30
0.0
 11
128.8192941186607
 21
99.81477032870163
 31
0.0
  0
LINE
  5
2469
330
A
100
AcDbEntity
  8
DIM
100
AcDbLine
 10
129.8966790868862
 20
102.1374874242803
 30
0.0
 11
130.8889077490751
 21
99.81477032870163
 31
0.0
  0
LINE
  5
246A
330
A
100
AcDbEntity
  8
DIM
100
AcDbLine
 10
132.0880346955602
 20
102.1374874242803
 30
0.0
 11
133.0802633577492
 21
99.81477032870163
 31
0.0
  0
LINE
  5
246B
330
A
100
AcDbEntity
  8
DIM
100
AcDbLine
 10
134.7244526036423
 20
102.1374874242803
 30
0.0
 11
135.7166812658313
 21
99.81477032870163
 31
0.0
  0
LINE
  5
246C
330
A
100
AcDbEntity
  8
MODEL
100
AcDbLine
 10
135.8225274002975
 20
100.1498647238497
 30
0.0
 11
121.8698121692968
 21
100.1498647238497
 31
0.0
  0
LINE
  5
246D
330
A
100
AcDbEntity
  8
MODEL
100
AcDbLine
 10
135.8225274002975
 20
101.7377712143457
 30
0.0
 11
121.8698121692969
 21
101.7377712143457
 31
0.0
  0
LINE
  5
246E
330
A
100
AcDbEntity
  8
HIDDEN
100
AcDbLine
 10
138.0981129822316
 20
101.7377712143457
 30
0.0
 11
135.8225274002975
 21
101.7377712143457
 31
0.0
  0
LINE
  5
246F
330
A
100
AcDbEntity
  8
HIDDEN
100
AcDbLine
 10
138.0981129822316
 20
100.1498647238497
 30
0.0
 11
135.8225274002975
 21
100.1498647238497
 31
0.0
  0
LINE
  5
2473
102
{ACAD_REACTORS
330
247A
330
24F3
102
}
330
A
100
AcDbEntity
  8
HIDDEN
 48
0.5
100
AcDbLine
 10
136.3589633597287
 20
85.94381796909772
 30
0.0
 11
136.3589633597287
 21
90.23181563228162
 31
0.0
  0
LINE
  5
2474
102
{ACAD_REACTORS
330
247A
330
24F3
102
}
330
A
100
AcDbEntity
  8
HIDDEN
 48
0.5
100
AcDbLine
 10
136.3589633597287
 20
90.23181563228162
 30
0.0
 11
137.6545542877591
 21
91.41782094658075
 31
0.0
  0
LINE
  5
2475
102
{ACAD_REACTORS
330
247A
330
24F3
102
}
330
A
100
AcDbEntity
  8
HIDDEN
 48
0.5
100
AcDbLine
 10
138.9501452157895
 20
85.94381796909772
 30
0.0
 11
138.9501452157895
 21
90.23181563228162
 31
0.0
  0
LINE
  5
2477
102
{ACAD_REACTORS
330
247A
330
24F3
102
}
330
A
100
AcDbEntity
  8
HIDDEN
 48
0.5
100
AcDbLine
 10
136.3589633597287
 20
85.94381796909772
 30
0.0
 11
138.9501452157895
 21
85.94381796909772
 31
0.0
  0
LINE
  5
2479
102
{ACAD_REACTORS
330
247A
330
24F3
102
}
330
A
100
AcDbEntity
  8
HIDDEN
 48
0.5
100
AcDbLine
 10
138.9501452157895
 20
90.23181563228162
 30
0.0
 11
137.6545542877591
 21
91.41782094658075
 31
0.0
  0
LINE
  5
247B
102
{ACAD_REACTORS
330
24F3
102
}
330
A
100
AcDbEntity
  8
HIDDEN
100
AcDbLine
 10
138.9501452157895
 20
89.9954044358945
 30
0.0
 11
136.3589633597287
 21
89.48408812720388
 31
0.0
  0
LINE
  5
247C
102
{ACAD_REACTORS
330
24F3
102
}
330
A
100
AcDbEntity
  8
HIDDEN
100
AcDbLine
 10
138.9501452157895
 20
88.97277181851325
 30
0.0
 11
136.3589633597287
 21
88.46145550982263
 31
0.0
  0
LINE
  5
247D
102
{ACAD_REACTORS
330
24F3
102
}
330
A
100
AcDbEntity
  8
HIDDEN
100
AcDbLine
 10
138.9501452157895
 20
87.87709401417621
 30
0.0
 11
136.3589633597287
 21
87.36577770548558
 31
0.0
  0
LINE
  5
247E
102
{ACAD_REACTORS
330
24F3
102
}
330
A
100
AcDbEntity
  8
HIDDEN
100
AcDbLine
 10
138.9501452157895
 20
86.90315818809884
 30
0.0
 11
136.3589633597287
 21
86.39184187940822
 31
0.0
  0
MTEXT
  5
2480
330
A
100
AcDbEntity
  8
TEMPLATE
390
1D
100
AcDbMText
 10
13.22021445477307
 20
22.71716892172123
 30
0.0
 40
2.44326171875
 41
0.0
 46
2.728504962737492
 71
     1
 72
     1
  1
{SUSナベタッピング4x38、プラグ付属}
  7
ＭＳ ゴシック
 73
     1
 44
0.7828267384257843
1001
ACAD
1000
ACAD_MTEXT_DEFINED_HEIGHT_BEGIN
1070
    46
1040
2.728504962737492
1000
ACAD_MTEXT_DEFINED_HEIGHT_END
  0
LINE
  5
24B6
330
A
100
AcDbEntity
  8
HIDDEN
100
AcDbLine
 10
80.80077157504846
 20
130.9438179690977
 30
0.0
 11
66.00596003368423
 21
130.9438179690977
 31
0.0
  0
LINE
  5
24B7
330
A
100
AcDbEntity
  8
HIDDEN
100
AcDbLine
 10
80.80077157504857
 20
90.94381796909772
 30
0.0
 11
66.00596003368425
 21
90.94381796909772
 31
0.0
  0
LINE
  5
24B8
330
A
100
AcDbEntity
  8
HIDDEN
100
AcDbLine
 10
66.00596003368423
 20
90.94381796909772
 30
0.0
 11
66.00596003368423
 21
130.9438179690977
 31
0.0
  0
LINE
  5
24B9
330
A
100
AcDbEntity
  8
HIDDEN
100
AcDbLine
 10
80.8007715750486
 20
90.94381796909772
 30
0.0
 11
80.80077157504846
 21
130.9438179690977
 31
0.0
  0
LINE
  5
24BD
102
{ACAD_REACTORS
330
24C6
330
24F2
102
}
330
A
100
AcDbEntity
  8
HIDDEN
 48
0.5
100
AcDbLine
 10
72.10777487633594
 20
85.94381796909772
 30
0.0
 11
72.10777487633594
 21
90.23181563228162
 31
0.0
  0
LINE
  5
24BE
102
{ACAD_REACTORS
330
24C6
330
24F2
102
}
330
A
100
AcDbEntity
  8
HIDDEN
 48
0.5
100
AcDbLine
 10
72.10777487633594
 20
90.23181563228162
 30
0.0
 11
73.40336580436635
 21
91.41782094658075
 31
0.0
  0
LINE
  5
24BF
102
{ACAD_REACTORS
330
24C6
330
24F2
102
}
330
A
100
AcDbEntity
  8
HIDDEN
 48
0.5
100
AcDbLine
 10
74.69895673239672
 20
85.94381796909772
 30
0.0
 11
74.69895673239672
 21
90.23181563228162
 31
0.0
  0
LINE
  5
24C0
102
{ACAD_REACTORS
330
24C6
330
24F2
102
}
330
A
100
AcDbEntity
  8
HIDDEN
 48
0.5
100
AcDbLine
 10
72.10777487633594
 20
85.94381796909772
 30
0.0
 11
74.69895673239672
 21
85.94381796909772
 31
0.0
  0
LINE
  5
24C1
102
{ACAD_REACTORS
330
24C6
330
24F2
102
}
330
A
100
AcDbEntity
  8
HIDDEN
 48
0.5
100
AcDbLine
 10
74.69895673239672
 20
90.23181563228162
 30
0.0
 11
73.40336580436635
 21
91.41782094658075
 31
0.0
  0
LINE
  5
24C2
102
{ACAD_REACTORS
330
24F2
102
}
330
A
100
AcDbEntity
  8
HIDDEN
100
AcDbLine
 10
74.69895673239672
 20
89.9954044358945
 30
0.0
 11
72.10777487633594
 21
89.48408812720388
 31
0.0
  0
LINE
  5
24C3
102
{ACAD_REACTORS
330
24F2
102
}
330
A
100
AcDbEntity
  8
HIDDEN
100
AcDbLine
 10
74.69895673239672
 20
88.97277181851325
 30
0.0
 11
72.10777487633594
 21
88.46145550982263
 31
0.0
  0
LINE
  5
24C4
102
{ACAD_REACTORS
330
24F2
102
}
330
A
100
AcDbEntity
  8
HIDDEN
100
AcDbLine
 10
74.69895673239672
 20
87.87709401417621
 30
0.0
 11
72.10777487633594
 21
87.36577770548558
 31
0.0
  0
LINE
  5
24C5
102
{ACAD_REACTORS
330
24F2
102
}
330
A
100
AcDbEntity
  8
HIDDEN
100
AcDbLine
 10
74.69895673239672
 20
86.90315818809884
 30
0.0
 11
72.10777487633594
 21
86.39184187940822
 31
0.0
  0
CIRCLE
  5
24CB
330
A
100
AcDbEntity
  8
HIDDEN
 48
0.5
100
AcDbCircle
 10
73.40336580436642
 20
122.9438179690977
 30
0.0
 40
1.193669455182572
  0
CIRCLE
  5
24CD
330
A
100
AcDbEntity
  8
HIDDEN
 48
0.5
100
AcDbCircle
 10
73.4033658043663
 20
100.943817969098
 30
0.0
 40
1.193669455182572
  0
MTEXT
  5
2512
330
A
100
AcDbEntity
  8
TEMPLATE
390
1D
100
AcDbMText
 10
132.920214454799
 20
62.27368620500216
 30
0.0
 40
2.44326171875
 41
0.0
 46
2.729230578166031
 71
     1
 72
     1
  1
{ALH74-0003-0MB (マットブラック)}
  7
ＭＳ ゴシック
 73
     1
 44
0.7828267384257843
1001
ACAD
1000
ACAD_MTEXT_DEFINED_HEIGHT_BEGIN
1070
    46
1040
2.729230578166031
1000
ACAD_MTEXT_DEFINED_HEIGHT_END
  0
MTEXT
  5
2513
330
A
100
AcDbEntity
  8
TEMPLATE
390
1D
100
AcDbMText
 10
132.920214454799
 20
51.15968720933058
 30
0.0
 40
2.44326171875
 41
0.0
 46
2.729230578166031
 71
     1
 72
     1
  1
{ALH74-0003-OHB (ブラッシュドハイブラス)}
  7
ＭＳ ゴシック
 73
     1
 44
0.7828267384257843
1001
ACAD
1000
ACAD_MTEXT_DEFINED_HEIGHT_BEGIN
1070
    46
1040
2.729230578166031
1000
ACAD_MTEXT_DEFINED_HEIGHT_END
  0
MTEXT
  5
2514
330
A
100
AcDbEntity
  8
TEMPLATE
390
1D
100
AcDbMText
 10
132.920214454799
 20
40.54926620959456
 30
0.0
 40
2.44326171875
 41
0.0
 46
2.729230578166031
 71
     1
 72
     1
  1
{ALH74-0003-0DG (ポリッシュドディープグレイ)}
  7
ＭＳ ゴシック
 73
     1
 44
0.7828267384257843
1001
ACAD
1000
ACAD_MTEXT_DEFINED_HEIGHT_BEGIN
1070
    46
1040
2.729230578166031
1000
ACAD_MTEXT_DEFINED_HEIGHT_END
  0
MTEXT
  5
2515
330
A
100
AcDbEntity
  8
TEMPLATE
390
1D
100
AcDbMText
 10
132.920214454799
 20
54.96133757719583
 30
0.0
 40
2.44326171875
 41
0.0
 46
2.729230578166031
 71
     1
 72
     1
  1
{ALH74-0003-0CP (ブラッシュドコッパー)}
  7
ＭＳ ゴシック
 73
     1
 44
0.7828267384257843
1001
ACAD
1000
ACAD_MTEXT_DEFINED_HEIGHT_BEGIN
1070
    46
1040
2.729230578166031
1000
ACAD_MTEXT_DEFINED_HEIGHT_END
  0
MTEXT
  5
2516
330
A
100
AcDbEntity
  8
TEMPLATE
390
1D
100
AcDbMText
 10
132.920214454799
 20
58.73465900877478
 30
0.0
 40
2.44326171875
 41
0.0
 46
2.729230578166031
 71
     1
 72
     1
  1
{ALH74-0003-0BS (ブラッシュドステンレス)}
  7
ＭＳ ゴシック
 73
     1
 44
0.7828267384257843
1001
ACAD
1000
ACAD_MTEXT_DEFINED_HEIGHT_BEGIN
1070
    46
1040
2.729230578166031
1000
ACAD_MTEXT_DEFINED_HEIGHT_END
  0
MTEXT
  5
252D
330
A
100
AcDbEntity
  8
TEMPLATE
390
1D
100
AcDbMText
 10
13.22021445477306
 20
19.00833710854735
 30
0.0
 40
2.44326171875
 41
0.0
 46
2.840135167875453
 71
     1
 72
     1
  1
{耐荷重:3kgf}
  7
ＭＳ ゴシック
 73
     1
 44
0.7828267384257843
1001
ACAD
1000
ACAD_MTEXT_DEFINED_HEIGHT_BEGIN
1070
    46
1040
2.840135167875453
1000
ACAD_MTEXT_DEFINED_HEIGHT_END
  0
MTEXT
  5
2533
330
A
100
AcDbEntity
  8
TEMPLATE
390
1D
100
AcDbMText
 10
132.920214454799
 20
47.68568229384451
 30
0.0
 40
2.44326171875
 41
0.0
 46
2.729230578166031
 71
     1
 72
     1
  1
{ALH74-0003-0GM (ブラッシュドガンメタル)}
  7
ＭＳ ゴシック
 73
     1
 44
0.7828267384257843
1001
ACAD
1000
ACAD_MTEXT_DEFINED_HEIGHT_BEGIN
1070
    46
1040
2.729230578166031
1000
ACAD_MTEXT_DEFINED_HEIGHT_END
  0
MTEXT
  5
2534
330
A
100
AcDbEntity
  8
TEMPLATE
390
1D
100
AcDbMText
 10
132.920214454799
 20
65.75904931186825
 30
0.0
 40
2.44326171875
 41
0.0
 46
2.729230578166031
 71
     1
 72
     1
  1
{ALH74-0003-001 (クローム)}
  7
ＭＳ ゴシック
 73
     1
 44
0.7828267384257843
1001
ACAD
1000
ACAD_MTEXT_DEFINED_HEIGHT_BEGIN
1070
    46
1040
2.729230578166031
1000
ACAD_MTEXT_DEFINED_HEIGHT_END
  0
MTEXT
  5
253B
330
A
100
AcDbEntity
  8
TEMPLATE
390
1D
100
AcDbMText
 10
132.920214454799
 20
44.12129720410059
 30
0.0
 40
2.44326171875
 41
0.0
 46
2.729230578166031
 71
     1
 72
     1
  1
{ALH74-0003-0NB (ブラッシュドニッケル)}
  7
ＭＳ ゴシック
 73
     1
 44
0.7828267384257843
1001
ACAD
1000
ACAD_MTEXT_DEFINED_HEIGHT_BEGIN
1070
    46
1040
2.729230578166031
1000
ACAD_MTEXT_DEFINED_HEIGHT_END
  0
VIEWPORT
  5
349
330
B
100
AcDbEntity
 67
     1
  8
0
100
AcDbViewport
 10
202.5
 20
128.5
 30
0.0
 40
486.0
 41
308.4
 68
     1
 69
     1
 12
202.5
 22
128.5
 13
0.0
 23
0.0
 14
0.5
 24
0.5
 15
0.0
 25
0.0
 16
0.0
 26
0.0
 36
1.0
 17
0.0
 27
0.0
 37
0.0
 42
50.0
 43
0.0
 44
0.0
 45
308.4
 50
0.0
 51
0.0
 72
   100
 90
   557152
  1

281
     0
 71
     1
 74
     0
110
0.0
120
0.0
130
0.0
111
1.0
121
0.0
131
0.0
112
0.0
122
1.0
132
0.0
 79
     0
146
0.0
170
     0
 61
     5
348
26C
292
     1
282
     1
141
0.0
142
0.0
 63
   256
  0
VIEWPORT
  5
34A
330
B
100
AcDbEntity
 67
     1
  8
0
100
AcDbViewport
 10
202.5
 20
128.5
 30
0.0
 40
324.0
 41
205.6
 68
     2
 69
     2
 12
986.6781359294573
 22
1427.077061889956
 13
0.0
 23
0.0
 14
0.5
 24
0.5
 15
0.0
 25
0.0
 16
0.0
 26
0.0
 36
1.0
 17
0.0
 27
0.0
 37
0.0
 42
50.0
 43
0.0
 44
0.0
 45
2890.021615685494
 50
0.0
 51
0.0
 72
   100
 90
   557152
  1

281
     0
 71
     1
 74
     0
110
0.0
120
0.0
130
0.0
111
1.0
121
0.0
131
0.0
112
0.0
122
1.0
132
0.0
 79
     0
146
0.0
170
     0
 61
     5
348
26C
292
     1
282
     1
141
0.0
142
0.0
 63
   256
  0
ENDSEC
  0
SECTION
  2
OBJECTS
  0
DICTIONARY
  5
19
330
0
100
AcDbDictionary
281
     1
  3
ACAD_COLOR
350
674
  3
ACAD_DETAILVIEWSTYLE
350
BBF
  3
ACAD_FIELDLIST
350
1E8E
  3
ACAD_GROUP
350
1A
  3
ACAD_IMAGE_VARS
350
27B
  3
ACAD_LAYOUT
350
1E
  3
ACAD_MATERIAL
350
263
  3
ACAD_MLEADERSTYLE
350
336
  3
ACAD_MLINESTYLE
350
1B
  3
ACAD_PLOTSETTINGS
350
22
  3
ACAD_PLOTSTYLENAME
350
1F
  3
ACAD_SCALELIST
350
241
  3
ACAD_SECTIONVIEWSTYLE
350
BC0
  3
ACAD_TABLESTYLE
350
278
  3
ACAD_VISUALSTYLE
350
267
  3
ACDB_RECOMPOSE_DATA
350
253E
  3
AcDbVariableDictionary
350
330
  3
APPDATA
350
27A
  3
DimOffsetDictionary
350
E38
  0
SUN
  5
904
330
15
100
AcDbSun
 90
        1
290
     0
 63
     7
421
 16777215
 40
1.0
291
     1
 91
  2455826
 92
 54000000
292
     0
 70
     2
 71
   256
280
     1
  0
DICTIONARY
  5
2E1
330
2
100
AcDbDictionary
280
     1
281
     1
  3
ACAD_LAYERSTATES
360
2E2
  3
ACLYDICTIONARY
360
DDE
  0
DICTIONARY
  5
2109
330
A
100
AcDbDictionary
280
     1
281
     1
  3
ACAD_SORTENTS
360
210A
  0
DICTIONARY
  5
1EAC
330
1EAB
100
AcDbDictionary
280
     1
281
     1
  3
ACAD_FIELD
360
252F
  0
DICTIONARY
  5
2200
330
21FF
100
AcDbDictionary
280
     1
281
     1
  3
ACAD_DIMASSOC
360
2201
  0
DICTIONARY
  5
674
102
{ACAD_REACTORS
330
19
102
}
330
19
100
AcDbDictionary
281
     1
  0
DICTIONARY
  5
BBF
102
{ACAD_REACTORS
330
19
102
}
330
19
100
AcDbDictionary
281
     1
  0
FIELDLIST
  5
1E8E
102
{ACAD_REACTORS
330
19
102
}
330
19
100
AcDbIdSet
 90
        2
330
1EAF
330
1EAE
100
AcDbFieldList
  0
DICTIONARY
  5
1A
102
{ACAD_REACTORS
330
19
102
}
330
19
100
AcDbDictionary
281
     1
  3
*A1
350
20A3
  3
*A2
350
247A
  3
*A3
350
24C6
  3
*A4
350
24F2
  3
*A5
350
24F3
  0
RASTERVARIABLES
  5
27B
102
{ACAD_REACTORS
330
19
102
}
330
19
100
AcDbRasterVariables
 90
        0
 70
     1
 71
     1
 72
     1
  0
DICTIONARY
  5
1E
102
{ACAD_REACTORS
330
19
102
}
330
19
100
AcDbDictionary
281
     1
  3
Layout1
350
21
  3
Model
350
20
  0
DICTIONARY
  5
263
102
{ACAD_REACTORS
330
19
102
}
330
19
100
AcDbDictionary
281
     1
  3
ByBlock
350
265
  3
ByLayer
350
264
  3
Global
350
266
  0
DICTIONARY
  5
336
102
{ACAD_REACTORS
330
19
102
}
330
19
100
AcDbDictionary
281
     1
  3
Standard
350
D59
  0
DICTIONARY
  5
1B
102
{ACAD_REACTORS
330
19
102
}
330
19
100
AcDbDictionary
281
     1
  3
Standard
350
1C
  0
DICTIONARY
  5
22
102
{ACAD_REACTORS
330
19
102
}
330
19
100
AcDbDictionary
281
     1
  0
ACDBDICTIONARYWDFLT
  5
1F
102
{ACAD_REACTORS
330
19
102
}
330
19
100
AcDbDictionary
281
     1
  3
Normal
350
1D
100
AcDbDictionaryWithDefault
340
1D
  0
DICTIONARY
  5
241
102
{ACAD_REACTORS
330
19
102
}
330
19
100
AcDbDictionary
281
     1
  3
A0
350
242
  3
A1
350
243
  3
A2
350
244
  3
A3
350
245
  3
A4
350
246
  3
A5
350
247
  3
A6
350
248
  3
A7
350
249
  3
A8
350
24A
  3
A9
350
24B
  3
B0
350
24C
  3
B1
350
24D
  3
B2
350
24E
  3
B3
350
24F
  3
B4
350
250
  3
B5
350
251
  3
B6
350
252
  3
B7
350
253
  3
B8
350
254
  3
B9
350
255
  3
C0
350
256
  3
C1
350
257
  3
C2
350
258
  3
C3
350
259
  3
C4
350
25A
  3
C5
350
25B
  3
C6
350
25C
  3
C7
350
25D
  3
C8
350
25E
  3
C9
350
25F
  3
D0
350
260
  3
D1
350
261
  3
D2
350
262
  0
DICTIONARY
  5
BC0
102
{ACAD_REACTORS
330
19
102
}
330
19
100
AcDbDictionary
281
     1
  0
DICTIONARY
  5
278
102
{ACAD_REACTORS
330
19
102
}
330
19
100
AcDbDictionary
281
     1
  3
Standard
350
279
  0
DICTIONARY
  5
267
102
{ACAD_REACTORS
330
19
102
}
330
19
100
AcDbDictionary
281
     1
  3
2dWireframe
350
26C
  3
3D Hidden
350
26E
  3
3dWireframe
350
26D
  3
Basic
350
26F
  3
Brighten
350
273
  3
ColorChange
350
277
  3
Conceptual
350
271
  3
Dim
350
272
  3
EdgeColorOff
350
8FE
  3
Facepattern
350
276
  3
Flat
350
268
  3
FlatWithEdges
350
269
  3
Gouraud
350
26A
  3
GouraudWithEdges
350
26B
  3
Hidden
350
8FB
  3
JitterOff
350
8FC
  3
Linepattern
350
275
  3
OverhangOff
350
8FD
  3
Realistic
350
270
  3
Shaded
350
903
  3
Shaded with edges
350
902
  3
Shades of Gray
350
8FF
  3
Sketchy
350
900
  3
Thicken
350
274
  3
Wireframe
350
8FA
  3
X-Ray
350
901
  0
XRECORD
  5
253E
102
{ACAD_REACTORS
330
19
102
}
330
19
100
AcDbXrecord
280
     1
 90
        1
330
279
  0
DICTIONARY
  5
330
102
{ACAD_REACTORS
330
19
102
}
330
19
100
AcDbDictionary
281
     1
  3
CANNOSCALE
350
331
  3
CMLEADERSTYLE
350
D5E
  3
CTABLESTYLE
350
335
  3
HPTRANSPARENCY
350
D52
  3
XCLIPFRAME
350
896
  0
DICTIONARY
  5
27A
102
{ACAD_REACTORS
330
19
102
}
330
19
100
AcDbDictionary
281
     1
  0
DICTIONARY
  5
E38
102
{ACAD_REACTORS
330
19
102
}
330
19
100
AcDbDictionary
281
     1
  3
DIMRAILANGLE
350
1DFC
  3
DIMRAILFIRSTOFFSET
350
1DFA
  3
DIMRAILOFFSET
350
1DFB
  3
DIMRAILSENABLED
350
1DFD
  0
DICTIONARY
  5
2E2
102
{ACAD_REACTORS
330
2E1
102
}
330
2E1
100
AcDbDictionary
281
     1
  0
DICTIONARY
  5
DDE
102
{ACAD_REACTORS
330
2E1
102
}
330
2E1
100
AcDbDictionary
281
     1
1001
ACAD
1000
<All
  0
SORTENTSTABLE
  5
210A
102
{ACAD_REACTORS
330
2109
102
}
330
2109
100
AcDbSortentsTable
330
A
331
1EAB
  5
1D9C
331
1EB1
  5
1EAB
331
1EB2
  5
1EB0
331
2071
  5
1EB4
331
2072
  5
2070
331
207D
  5
2071
331
207E
  5
2072
331
207F
  5
207D
331
2080
  5
207E
331
2081
  5
207F
  0
DICTIONARY
  5
252F
102
{ACAD_REACTORS
330
1EAC
102
}
330
1EAC
100
AcDbDictionary
280
     1
281
     1
  3
TEXT
360
1EAE
  0
DIMASSOC
  5
2201
102
{ACAD_REACTORS
330
2200
102
}
330
2200
100
AcDbDimAssoc
330
21FF
 90
        3
 70
     0
 71
     1
  1
AcDbOsnapPointRef
 72
     1
331
21F3
 73
     0
 91
        0
 40
0.0
 10
0.0
 20
0.0
 30
0.0
 75
     0
  1
AcDbOsnapPointRef
 72
     1
331
21ED
 73
     0
 91
        0
 40
0.0
 10
0.0
 20
0.0
 30
0.0
 75
     0
  0
GROUP
  5
20A3
102
{ACAD_REACTORS
330
1A
102
}
330
1A
100
AcDbGroup
300

 70
     1
 71
     1
340
2071
340
2072
340
207D
340
207E
340
207F
340
2080
340
2081
  0
GROUP
  5
247A
102
{ACAD_REACTORS
330
1A
102
}
330
1A
100
AcDbGroup
300

 70
     1
 71
     1
340
2473
340
2474
340
2475
340
2477
340
2479
  0
GROUP
  5
24C6
102
{ACAD_REACTORS
330
1A
102
}
330
1A
100
AcDbGroup
300

 70
     1
 71
     1
340
24BD
340
24BE
340
24BF
340
24C0
340
24C1
  0
GROUP
  5
24F2
102
{ACAD_REACTORS
330
1A
102
}
330
1A
100
AcDbGroup
300

 70
     1
 71
     1
340
24BD
340
24BE
340
24BF
340
24C0
340
24C1
340
24C2
340
24C3
340
24C4
340
24C5
  0
GROUP
  5
24F3
102
{ACAD_REACTORS
330
1A
102
}
330
1A
100
AcDbGroup
300

 70
     1
 71
     1
340
2473
340
2474
340
2475
340
2477
340
2479
340
247B
340
247C
340
247D
340
247E
  0
LAYOUT
  5
21
102
{ACAD_REACTORS
330
1E
102
}
330
1E
100
AcDbPlotSettings
  1

  2
none_device
  4
ISO_A3_(420.00_x_297.00_MM)
  6

 40
7.5
 41
20.0
 42
7.5
 43
20.0
 44
420.0
 45
297.0
 46
0.0
 47
0.0
 48
0.0
 49
0.0
140
0.0
141
0.0
142
1.0
143
1.0
 70
     0
 72
     1
 73
     0
 74
     0
  7

 75
     0
 76
     0
 77
     2
 78
   300
147
1.0
148
0.0
149
0.0
100
AcDbLayout
  1
Layout1
 70
     0
 71
     0
 10
-7.5
 20
-20.0
 11
412.5
 21
277.0
 12
0.0
 22
0.0
 32
0.0
 14
0.0
 24
0.0
 34
0.0
 15
0.0
 25
0.0
 35
0.0
146
0.0
 13
0.0
 23
0.0
 33
0.0
 16
0.0
 26
0.0
 36
0.0
 17
0.0
 27
0.0
 37
0.0
 76
     0
330
B
331
349
  0
LAYOUT
  5
20
102
{ACAD_REACTORS
330
1E
102
}
330
1E
100
AcDbPlotSettings
  1

  2
Microsoft Print to PDF
  4
A4
  6

 40
0.0
 41
0.0
 42
0.0
 43
0.0
 44
210.0
 45
297.0
 46
0.0
 47
0.0
 48
0.0
 49
0.0
140
0.0
141
0.0
142
1.0
143
1.0
 70
  1712
 72
     1
 73
     0
 74
     2
  7
monochrome.ctb
 75
     0
 76
    34
 77
     2
 78
   300
147
1.0
148
-196.0201356709
149
-74.90128546983397
100
AcDbLayout
  1
Model
 70
     0
 71
     1
 10
0.0
 20
0.0
 11
210.0
 21
297.0
 12
0.0
 22
0.0
 32
0.0
 14
0.0
 24
0.0
 34
-0.0000000000000071
 15
210.0
 25
297.0
 35
0.0000000000000071
146
0.0
 13
0.0
 23
0.0
 33
0.0
 16
0.0
 26
0.0
 36
0.0
 17
0.0
 27
0.0
 37
0.0
 76
     0
330
A
331
15
1001
PLOTTRANSPARENCY
1071
        0
  0
MATERIAL
  5
265
102
{ACAD_REACTORS
330
263
102
}
330
263
100
AcDbMaterial
  1
ByBlock
 72
     1
 94
      127
  0
MATERIAL
  5
264
102
{ACAD_REACTORS
330
263
102
}
330
263
100
AcDbMaterial
  1
ByLayer
 72
     1
 94
      127
  0
MATERIAL
  5
266
102
{ACAD_REACTORS
330
263
102
}
330
263
100
AcDbMaterial
  1
Global
 72
     1
 94
      127
  0
MLEADERSTYLE
  5
D59
102
{ACAD_REACTORS
330
336
102
}
330
336
100
AcDbMLeaderStyle
170
     2
171
     1
172
     0
 90
        2
 40
0.0
 41
0.0
173
     1
 91
-1056964608
340
11
 92
       -2
290
     1
 42
2.0
291
     1
 43
8.0
  3
Standard
341
0
 44
4.0
300

342
17
174
     1
178
     6
175
     1
176
     0
 93
-1056964608
 45
4.0
292
     0
297
     0
 46
4.0
343
0
 94
-1056964608
 47
1.0
 49
1.0
140
1.0
293
     1
141
0.0
294
     1
177
     0
142
1.0
295
     0
296
     0
143
3.75
1001
ACAD_MLEADERVER
1070
     2
  0
MLINESTYLE
  5
1C
102
{ACAD_REACTORS
330
1B
102
}
330
1B
100
AcDbMlineStyle
  2
Standard
 70
     0
  3

 62
     0
 51
90.0
 52
90.0
 71
     2
 49
0.5
 62
   256
  6
BYLAYER
 49
-0.5
 62
   256
  6
BYLAYER
  0
ACDBPLACEHOLDER
  5
1D
102
{ACAD_REACTORS
330
1F
102
}
330
1F
  0
SCALE
  5
242
102
{ACAD_REACTORS
330
241
102
}
330
241
100
AcDbScale
 70
     0
300
1:1
140
1.0
141
1.0
290
     1
  0
SCALE
  5
243
102
{ACAD_REACTORS
330
241
102
}
330
241
100
AcDbScale
 70
     0
300
1:2
140
1.0
141
2.0
290
     0
  0
SCALE
  5
244
102
{ACAD_REACTORS
330
241
102
}
330
241
100
AcDbScale
 70
     0
300
1:4
140
1.0
141
4.0
290
     0
  0
SCALE
  5
245
102
{ACAD_REACTORS
330
241
102
}
330
241
100
AcDbScale
 70
     0
300
1:5
140
1.0
141
5.0
290
     0
  0
SCALE
  5
246
102
{ACAD_REACTORS
330
241
102
}
330
241
100
AcDbScale
 70
     0
300
1:8
140
1.0
141
8.0
290
     0
  0
SCALE
  5
247
102
{ACAD_REACTORS
330
241
102
}
330
241
100
AcDbScale
 70
     0
300
1:10
140
1.0
141
10.0
290
     0
  0
SCALE
  5
248
102
{ACAD_REACTORS
330
241
102
}
330
241
100
AcDbScale
 70
     0
300
1:16
140
1.0
141
16.0
290
     0
  0
SCALE
  5
249
102
{ACAD_REACTORS
330
241
102
}
330
241
100
AcDbScale
 70
     0
300
1:20
140
1.0
141
20.0
290
     0
  0
SCALE
  5
24A
102
{ACAD_REACTORS
330
241
102
}
330
241
100
AcDbScale
 70
     0
300
1:30
140
1.0
141
30.0
290
     0
  0
SCALE
  5
24B
102
{ACAD_REACTORS
330
241
102
}
330
241
100
AcDbScale
 70
     0
300
1:40
140
1.0
141
40.0
290
     0
  0
SCALE
  5
24C
102
{ACAD_REACTORS
330
241
102
}
330
241
100
AcDbScale
 70
     0
300
1:50
140
1.0
141
50.0
290
     0
  0
SCALE
  5
24D
102
{ACAD_REACTORS
330
241
102
}
330
241
100
AcDbScale
 70
     0
300
1:100
140
1.0
141
100.0
290
     0
  0
SCALE
  5
24E
102
{ACAD_REACTORS
330
241
102
}
330
241
100
AcDbScale
 70
     0
300
2:1
140
2.0
141
1.0
290
     0
  0
SCALE
  5
24F
102
{ACAD_REACTORS
330
241
102
}
330
241
100
AcDbScale
 70
     0
300
4:1
140
4.0
141
1.0
290
     0
  0
SCALE
  5
250
102
{ACAD_REACTORS
330
241
102
}
330
241
100
AcDbScale
 70
     0
300
8:1
140
8.0
141
1.0
290
     0
  0
SCALE
  5
251
102
{ACAD_REACTORS
330
241
102
}
330
241
100
AcDbScale
 70
     0
300
10:1
140
10.0
141
1.0
290
     0
  0
SCALE
  5
252
102
{ACAD_REACTORS
330
241
102
}
330
241
100
AcDbScale
 70
     0
300
100:1
140
100.0
141
1.0
290
     0
  0
SCALE
  5
253
102
{ACAD_REACTORS
330
241
102
}
330
241
100
AcDbScale
 70
     0
300
1/128" = 1'-0"
140
0.0078125
141
12.0
290
     0
  0
SCALE
  5
254
102
{ACAD_REACTORS
330
241
102
}
330
241
100
AcDbScale
 70
     0
300
1/64" = 1'-0"
140
0.015625
141
12.0
290
     0
  0
SCALE
  5
255
102
{ACAD_REACTORS
330
241
102
}
330
241
100
AcDbScale
 70
     0
300
1/32" = 1'-0"
140
0.03125
141
12.0
290
     0
  0
SCALE
  5
256
102
{ACAD_REACTORS
330
241
102
}
330
241
100
AcDbScale
 70
     0
300
1/16" = 1'-0"
140
0.0625
141
12.0
290
     0
  0
SCALE
  5
257
102
{ACAD_REACTORS
330
241
102
}
330
241
100
AcDbScale
 70
     0
300
3/32" = 1'-0"
140
0.09375
141
12.0
290
     0
  0
SCALE
  5
258
102
{ACAD_REACTORS
330
241
102
}
330
241
100
AcDbScale
 70
     0
300
1/8" = 1'-0"
140
0.125
141
12.0
290
     0
  0
SCALE
  5
259
102
{ACAD_REACTORS
330
241
102
}
330
241
100
AcDbScale
 70
     0
300
3/16" = 1'-0"
140
0.1875
141
12.0
290
     0
  0
SCALE
  5
25A
102
{ACAD_REACTORS
330
241
102
}
330
241
100
AcDbScale
 70
     0
300
1/4" = 1'-0"
140
0.25
141
12.0
290
     0
  0
SCALE
  5
25B
102
{ACAD_REACTORS
330
241
102
}
330
241
100
AcDbScale
 70
     0
300
3/8" = 1'-0"
140
0.375
141
12.0
290
     0
  0
SCALE
  5
25C
102
{ACAD_REACTORS
330
241
102
}
330
241
100
AcDbScale
 70
     0
300
1/2" = 1'-0"
140
0.5
141
12.0
290
     0
  0
SCALE
  5
25D
102
{ACAD_REACTORS
330
241
102
}
330
241
100
AcDbScale
 70
     0
300
3/4" = 1'-0"
140
0.75
141
12.0
290
     0
  0
SCALE
  5
25E
102
{ACAD_REACTORS
330
241
102
}
330
241
100
AcDbScale
 70
     0
300
1" = 1'-0"
140
1.0
141
12.0
290
     0
  0
SCALE
  5
25F
102
{ACAD_REACTORS
330
241
102
}
330
241
100
AcDbScale
 70
     0
300
1-1/2" = 1'-0"
140
1.5
141
12.0
290
     0
  0
SCALE
  5
260
102
{ACAD_REACTORS
330
241
102
}
330
241
100
AcDbScale
 70
     0
300
3" = 1'-0"
140
3.0
141
12.0
290
     0
  0
SCALE
  5
261
102
{ACAD_REACTORS
330
241
102
}
330
241
100
AcDbScale
 70
     0
300
6" = 1'-0"
140
6.0
141
12.0
290
     0
  0
SCALE
  5
262
102
{ACAD_REACTORS
330
241
102
}
330
241
100
AcDbScale
 70
     0
300
1'-0" = 1'-0"
140
12.0
141
12.0
290
     0
  0
TABLESTYLE
  5
279
102
{ACAD_REACTORS
330
278
102
}
102
{ACAD_XDICTIONARY
360
253C
102
}
330
278
100
AcDbTableStyle
  3
Standard
 70
     0
 71
     0
 40
0.06
 41
0.06
280
     0
281
     0
  7
Standard
140
4.5
170
     2
 62
     0
 63
   257
283
     0
 90
        4
 91
        0
  1

274
    -2
284
     1
 64
     0
275
    -2
285
     1
 65
     0
276
    -2
286
     1
 66
     0
277
    -2
287
     1
 67
     0
278
    -2
288
     1
 68
     0
279
    -2
289
     1
 69
     0
  7
Standard
140
6.0
170
     5
 62
     0
 63
   257
283
     0
 90
        4
 91
        0
  1

274
    -2
284
     1
 64
     0
275
    -2
285
     1
 65
     0
276
    -2
286
     1
 66
     0
277
    -2
287
     1
 67
     0
278
    -2
288
     1
 68
     0
279
    -2
289
     1
 69
     0
  7
Standard
140
4.5
170
     5
 62
     0
 63
   257
283
     0
 90
        4
 91
        0
  1

274
    -2
284
     1
 64
     0
275
    -2
285
     1
 65
     0
276
    -2
286
     1
 66
     0
277
    -2
287
     1
 67
     0
278
    -2
288
     1
 68
     0
279
    -2
289
     1
 69
     0
  0
VISUALSTYLE
  5
26C
102
{ACAD_REACTORS
330
267
102
}
330
267
100
AcDbVisualStyle
  2
2dWireframe
 70
     4
 71
     0
 72
     2
 73
     0
 90
        0
 40
-0.6
 41
-30.0
 62
     5
 63
     7
421
 16777215
 74
     1
 91
        4
 64
     7
 65
   257
 75
     1
175
     1
 42
1.0
 92
        0
 66
   257
 43
1.0
 76
     1
 77
     6
 78
     2
 67
     7
 79
     5
170
     0
171
     0
290
     0
174
     0
 93
        1
 44
0.0
173
     0
291
     0
 45
0.0
  0
VISUALSTYLE
  5
26E
102
{ACAD_REACTORS
330
267
102
}
330
267
100
AcDbVisualStyle
  2
3D Hidden
 70
     6
 71
     1
 72
     2
 73
     2
 90
        0
 40
-0.6
 41
-30.0
 62
     5
 63
     7
421
 16777215
 74
     2
 91
        2
 64
     7
 65
   257
 75
     2
175
     1
 42
40.0
 92
        0
 66
   257
 43
1.0
 76
     1
 77
     6
 78
     2
 67
     7
 79
     3
170
     0
171
     0
290
     0
174
     0
 93
        1
 44
0.0
173
     0
291
     0
 45
0.0
  0
VISUALSTYLE
  5
26D
102
{ACAD_REACTORS
330
267
102
}
330
267
100
AcDbVisualStyle
  2
3dWireframe
 70
     5
 71
     0
 72
     2
 73
     0
 90
        0
 40
-0.6
 41
-30.0
 62
     5
 63
     7
421
 16777215
 74
     1
 91
        4
 64
     7
 65
   257
 75
     1
175
     1
 42
1.0
 92
        0
 66
   257
 43
1.0
 76
     1
 77
     6
 78
     2
 67
     7
 79
     5
170
     0
171
     0
290
     0
174
     0
 93
        1
 44
0.0
173
     0
291
     0
 45
0.0
  0
VISUALSTYLE
  5
26F
102
{ACAD_REACTORS
330
267
102
}
330
267
100
AcDbVisualStyle
  2
Basic
 70
     7
 71
     1
 72
     0
 73
     1
 90
        0
 40
-0.6
 41
-30.0
 62
     5
 63
     7
421
 16777215
 74
     0
 91
        4
 64
     7
 65
   257
 75
     1
175
     1
 42
1.0
 92
        8
 66
     7
 43
1.0
 76
     1
 77
     6
 78
     2
 67
     7
 79
     5
170
     0
171
     0
290
     0
174
     0
 93
        1
 44
0.0
173
     0
291
     1
 45
0.0
  0
VISUALSTYLE
  5
273
102
{ACAD_REACTORS
330
267
102
}
330
267
100
AcDbVisualStyle
  2
Brighten
 70
    12
 71
     2
 72
     2
 73
     0
 90
        0
 40
-0.6
 41
-30.0
 62
     5
 63
     7
421
 16777215
 74
     1
 91
        4
 64
     7
 65
   257
 75
     1
175
     1
 42
1.0
 92
        8
 66
     7
 43
1.0
 76
     1
 77
     6
 78
     2
 67
     7
 79
     5
170
     0
171
     0
290
     0
174
     0
 93
        1
 44
50.0
173
     0
291
     1
 45
0.0
  0
VISUALSTYLE
  5
277
102
{ACAD_REACTORS
330
267
102
}
330
267
100
AcDbVisualStyle
  2
ColorChange
 70
    16
 71
     2
 72
     2
 73
     3
 90
        0
 40
-0.6
 41
-30.0
 62
     5
 63
     8
421
  8421504
 74
     1
 91
        4
 64
     7
 65
   257
 75
     1
175
     1
 42
1.0
 92
        8
 66
     8
424
  8421504
 43
1.0
 76
     1
 77
     6
 78
     2
 67
     7
 79
     5
170
     0
171
     0
290
     0
174
     0
 93
        1
 44
0.0
173
     0
291
     1
 45
0.0
  0
VISUALSTYLE
  5
271
102
{ACAD_REACTORS
330
267
102
}
330
267
100
AcDbVisualStyle
  2
Conceptual
 70
     9
 71
     3
 72
     2
 73
     0
 90
        0
 40
-0.6
 41
-30.0
 62
     5
 63
     7
421
 16777215
 74
     2
 91
        2
 64
     7
 65
   257
 75
     1
175
     1
 42
40.0
 92
        8
 66
     7
 43
1.0
 76
     1
 77
     6
 78
     2
 67
     7
 79
     3
170
     0
171
     0
290
     0
174
     0
 93
        1
 44
0.0
173
     0
291
     0
 45
0.0
  0
VISUALSTYLE
  5
272
102
{ACAD_REACTORS
330
267
102
}
330
267
100
AcDbVisualStyle
  2
Dim
 70
    11
 71
     2
 72
     2
 73
     0
 90
        0
 40
-0.6
 41
-30.0
 62
     5
 63
     7
421
 16777215
 74
     1
 91
        4
 64
     7
 65
   257
 75
     1
175
     1
 42
1.0
 92
        8
 66
     7
 43
1.0
 76
     1
 77
     6
 78
     2
 67
     7
 79
     5
170
     0
171
     0
290
     0
174
     0
 93
        1
 44
-50.0
173
     0
291
     1
 45
0.0
  0
VISUALSTYLE
  5
8FE
102
{ACAD_REACTORS
330
267
102
}
330
267
100
AcDbVisualStyle
  2
EdgeColorOff
 70
    22
 71
     2
 72
     2
 73
     0
 90
        0
 40
0.6
 41
30.0
 62
     5
 63
     7
421
 16777215
 74
     1
 91
        4
 64
     7
 65
   257
 75
     1
175
     1
 42
1.0
 92
        8
 66
     7
 43
1.0
 76
     1
 77
     6
 78
     2
 67
     7
 79
     5
170
     0
171
     0
290
     0
174
     0
 93
        1
 44
0.0
173
     0
291
     1
 45
0.0
  0
VISUALSTYLE
  5
276
102
{ACAD_REACTORS
330
267
102
}
330
267
100
AcDbVisualStyle
  2
Facepattern
 70
    15
 71
     2
 72
     2
 73
     0
 90
        0
 40
-0.6
 41
-30.0
 62
     5
 63
     7
421
 16777215
 74
     1
 91
        4
 64
     7
 65
   257
 75
     1
175
     1
 42
1.0
 92
        8
 66
     7
 43
1.0
 76
     1
 77
     6
 78
     2
 67
     7
 79
     5
170
     0
171
     0
290
     0
174
     0
 93
        1
 44
0.0
173
     0
291
     1
 45
0.0
  0
VISUALSTYLE
  5
268
102
{ACAD_REACTORS
330
267
102
}
330
267
100
AcDbVisualStyle
  2
Flat
 70
     0
 71
     2
 72
     1
 73
     1
 90
        2
 40
-0.6
 41
30.0
 62
     5
 63
     7
421
 16777215
 74
     0
 91
        4
 64
     7
 65
   257
 75
     1
175
     1
 42
1.0
 92
        8
 66
     7
 43
1.0
 76
     1
 77
     6
 78
     2
 67
     7
 79
     5
170
     0
171
     0
290
     0
174
     0
 93
       13
 44
0.0
173
     0
291
     1
 45
0.0
  0
VISUALSTYLE
  5
269
102
{ACAD_REACTORS
330
267
102
}
330
267
100
AcDbVisualStyle
  2
FlatWithEdges
 70
     1
 71
     2
 72
     1
 73
     1
 90
        2
 40
-0.6
 41
30.0
 62
     5
 63
     7
421
 16777215
 74
     1
 91
        4
 64
     7
 65
   257
 75
     1
175
     1
 42
1.0
 92
        0
 66
   257
 43
1.0
 76
     1
 77
     6
 78
     2
 67
     7
 79
     5
170
     0
171
     0
290
     0
174
     0
 93
       13
 44
0.0
173
     0
291
     1
 45
0.0
  0
VISUALSTYLE
  5
26A
102
{ACAD_REACTORS
330
267
102
}
330
267
100
AcDbVisualStyle
  2
Gouraud
 70
     2
 71
     2
 72
     2
 73
     1
 90
        2
 40
-0.6
 41
30.0
 62
     5
 63
     7
421
 16777215
 74
     0
 91
        4
 64
     7
 65
   257
 75
     1
175
     1
 42
1.0
 92
        0
 66
     7
 43
1.0
 76
     1
 77
     6
 78
     2
 67
     7
 79
     5
170
     0
171
     0
290
     0
174
     0
 93
       13
 44
0.0
173
     0
291
     1
 45
0.0
  0
VISUALSTYLE
  5
26B
102
{ACAD_REACTORS
330
267
102
}
330
267
100
AcDbVisualStyle
  2
GouraudWithEdges
 70
     3
 71
     2
 72
     2
 73
     1
 90
        2
 40
-0.6
 41
30.0
 62
     5
 63
     7
421
 16777215
 74
     1
 91
        4
 64
     7
 65
   257
 75
     1
175
     1
 42
1.0
 92
        0
 66
   257
 43
1.0
 76
     1
 77
     6
 78
     2
 67
     7
 79
     5
170
     0
171
     0
290
     0
174
     0
 93
       13
 44
0.0
173
     0
291
     1
 45
0.0
  0
VISUALSTYLE
  5
8FB
102
{ACAD_REACTORS
330
267
102
}
330
267
100
AcDbVisualStyle
  2
Hidden
 70
     6
 71
     1
 72
     2
 73
     2
 90
        0
 40
0.6
 41
30.0
 62
     5
 63
     7
421
 16777215
 74
     2
 91
        2
 64
     7
 65
   257
 75
     2
175
     1
 42
40.0
 92
        0
 66
   257
 43
1.0
 76
     1
 77
     6
 78
     2
 67
     7
 79
     3
170
     0
171
     0
290
     0
174
     0
 93
        1
 44
0.0
173
     0
291
     0
 45
0.0
  0
VISUALSTYLE
  5
8FC
102
{ACAD_REACTORS
330
267
102
}
330
267
100
AcDbVisualStyle
  2
JitterOff
 70
    20
 71
     2
 72
     2
 73
     0
 90
        0
 40
0.6
 41
30.0
 62
     5
 63
     7
421
 16777215
 74
     1
 91
        4
 64
     7
 65
   257
 75
     1
175
     1
 42
1.0
 92
       10
 66
     7
 43
1.0
 76
     1
 77
     6
 78
     2
 67
     7
 79
     5
170
     0
171
     0
290
     0
174
     0
 93
        1
 44
0.0
173
     0
291
     1
 45
0.0
  0
VISUALSTYLE
  5
275
102
{ACAD_REACTORS
330
267
102
}
330
267
100
AcDbVisualStyle
  2
Linepattern
 70
    14
 71
     2
 72
     2
 73
     0
 90
        0
 40
-0.6
 41
-30.0
 62
     5
 63
     7
421
 16777215
 74
     1
 91
        4
 64
     7
 65
   257
 75
     7
175
     7
 42
1.0
 92
        8
 66
     7
 43
1.0
 76
     1
 77
     6
 78
     2
 67
     7
 79
     5
170
     0
171
     0
290
     0
174
     0
 93
        1
 44
0.0
173
     0
291
     1
 45
0.0
  0
VISUALSTYLE
  5
8FD
102
{ACAD_REACTORS
330
267
102
}
330
267
100
AcDbVisualStyle
  2
OverhangOff
 70
    21
 71
     2
 72
     2
 73
     0
 90
        0
 40
0.6
 41
30.0
 62
     5
 63
     7
421
 16777215
 74
     1
 91
        4
 64
     7
 65
   257
 75
     1
175
     1
 42
1.0
 92
        9
 66
     7
 43
1.0
 76
     1
 77
     6
 78
     2
 67
     7
 79
     5
170
     0
171
     0
290
     0
174
     0
 93
        1
 44
0.0
173
     0
291
     1
 45
0.0
  0
VISUALSTYLE
  5
270
102
{ACAD_REACTORS
330
267
102
}
330
267
100
AcDbVisualStyle
  2
Realistic
 70
     8
 71
     2
 72
     2
 73
     0
 90
        0
 40
-0.6
 41
-30.0
 62
     5
 63
     7
421
 16777215
 74
     1
 91
        0
 64
     7
 65
   257
 75
     1
175
     1
 42
1.0
 92
        8
 66
     8
424
  7895160
 43
1.0
 76
     1
 77
     6
 78
     2
 67
     7
 79
     5
170
     0
171
     0
290
     0
174
     0
 93
       13
 44
0.0
173
     0
291
     0
 45
0.0
  0
VISUALSTYLE
  5
903
102
{ACAD_REACTORS
330
267
102
}
330
267
100
AcDbVisualStyle
  2
Shaded
 70
    27
 71
     2
 72
     2
 73
     1
 90
        2
 40
0.6
 41
30.0
 62
     5
 63
     7
421
 16777215
 74
     0
 91
        4
 64
     7
 65
   257
 75
     1
175
     1
 42
1.0
 92
        8
 66
   257
 43
1.0
 76
     1
 77
     6
 78
     2
 67
     8
425
  7895160
 79
     3
170
     0
171
     0
290
     0
174
     0
 93
        5
 44
0.0
173
     0
291
     0
 45
0.0
  0
VISUALSTYLE
  5
902
102
{ACAD_REACTORS
330
267
102
}
330
267
100
AcDbVisualStyle
  2
Shaded with edges
 70
    26
 71
     2
 72
     2
 73
     1
 90
        2
 40
0.6
 41
30.0
 62
     5
 63
     7
421
 16777215
 74
     1
 91
       10
 64
     7
 65
   257
 75
     2
175
     1
 42
1.0
 92
        8
 66
   257
 43
1.0
 76
     1
 77
     6
 78
     2
 67
     7
 79
     3
170
     0
171
     0
290
     0
174
     0
 93
        5
 44
0.0
173
     0
291
     0
 45
0.0
  0
VISUALSTYLE
  5
8FF
102
{ACAD_REACTORS
330
267
102
}
330
267
100
AcDbVisualStyle
  2
Shades of Gray
 70
    23
 71
     2
 72
     2
 73
     3
 90
        0
 40
0.6
 41
30.0
 62
     5
 63
     7
421
 16777215
 74
     2
 91
        2
 64
     7
 65
     7
 75
     1
175
     1
 42
40.0
 92
        8
 66
     7
 43
1.0
 76
     1
 77
     6
 78
     2
 67
     7
 79
     3
170
     0
171
     0
290
     0
174
     0
 93
        1
 44
0.0
173
     0
291
     0
 45
0.0
  0
VISUALSTYLE
  5
900
102
{ACAD_REACTORS
330
267
102
}
330
267
100
AcDbVisualStyle
  2
Sketchy
 70
    24
 71
     1
 72
     2
 73
     2
 90
        0
 40
0.6
 41
30.0
 62
     5
 63
     7
421
 16777215
 74
     2
 91
        2
 64
     7
 65
     7
 75
     1
175
     1
 42
40.0
 92
       11
 66
     7
 43
1.0
 76
     1
 77
     6
 78
     2
 67
     7
 79
     6
170
     0
171
     0
290
     0
174
     0
 93
        1
 44
0.0
173
     0
291
     0
 45
0.0
  0
VISUALSTYLE
  5
274
102
{ACAD_REACTORS
330
267
102
}
330
267
100
AcDbVisualStyle
  2
Thicken
 70
    13
 71
     2
 72
     2
 73
     0
 90
        0
 40
-0.6
 41
-30.0
 62
     5
 63
     7
421
 16777215
 74
     1
 91
        4
 64
     7
 65
   257
 75
     1
175
     1
 42
1.0
 92
       12
 66
     7
 43
1.0
 76
     1
 77
     6
 78
     2
 67
     7
 79
     5
170
     0
171
     0
290
     0
174
     0
 93
        1
 44
0.0
173
     0
291
     1
 45
0.0
  0
VISUALSTYLE
  5
8FA
102
{ACAD_REACTORS
330
267
102
}
330
267
100
AcDbVisualStyle
  2
Wireframe
 70
     5
 71
     0
 72
     2
 73
     0
 90
        0
 40
0.6
 41
30.0
 62
     5
 63
     7
421
 16777215
 74
     1
 91
        4
 64
     7
 65
   257
 75
     1
175
     1
 42
1.0
 92
        0
 66
   257
 43
1.0
 76
     1
 77
     6
 78
     2
 67
     7
 79
     3
170
     0
171
     0
290
     0
174
     0
 93
        1
 44
0.0
173
     0
291
     0
 45
0.0
  0
VISUALSTYLE
  5
901
102
{ACAD_REACTORS
330
267
102
}
330
267
100
AcDbVisualStyle
  2
X-Ray
 70
    25
 71
     2
 72
     2
 73
     1
 90
        1
 40
0.5
 41
30.0
 62
     5
 63
     7
421
 16777215
 74
     1
 91
        0
 64
     7
 65
   257
 75
     1
175
     1
 42
1.0
 92
        8
 66
     7
 43
1.0
 76
     1
 77
     6
 78
     2
 67
     7
 79
     3
170
     0
171
     0
290
     0
174
     0
 93
       13
 44
0.0
173
     0
291
     0
 45
0.0
  0
DICTIONARYVAR
  5
331
102
{ACAD_REACTORS
330
330
102
}
330
330
100
DictionaryVariables
280
     0
  1
1:1
  0
DICTIONARYVAR
  5
D5E
102
{ACAD_REACTORS
330
330
102
}
330
330
100
DictionaryVariables
280
     0
  1
Standard
  0
DICTIONARYVAR
  5
335
102
{ACAD_REACTORS
330
330
102
}
330
330
100
DictionaryVariables
280
     0
  1
Standard
  0
DICTIONARYVAR
  5
D52
102
{ACAD_REACTORS
330
330
102
}
330
330
100
DictionaryVariables
280
     0
  1
ByLayer
  0
DICTIONARYVAR
  5
896
102
{ACAD_REACTORS
330
330
102
}
330
330
100
DictionaryVariables
280
     0
  1
0
  0
DICTIONARYVAR
  5
1DFC
102
{ACAD_REACTORS
330
E38
102
}
330
E38
100
DictionaryVariables
280
     0
  1
0.261799
  0
DICTIONARYVAR
  5
1DFA
102
{ACAD_REACTORS
330
E38
102
}
330
E38
100
DictionaryVariables
280
     0
  1
0.400000
  0
DICTIONARYVAR
  5
1DFB
102
{ACAD_REACTORS
330
E38
102
}
330
E38
100
DictionaryVariables
280
     0
  1
0.250000
  0
DICTIONARYVAR
  5
1DFD
102
{ACAD_REACTORS
330
E38
102
}
330
E38
100
DictionaryVariables
280
     0
  1
1
  0
FIELD
  5
1EAE
102
{ACAD_REACTORS
330
252F
102
}
330
252F
100
AcDbField
  1
_text
  2
{%<\_FldIdx 0>%M}
 90
        1
360
1EAF
 97
        0
 91
       63
 92
        0
 94
       11
 95
        2
 96
        0
300

 93
        1
  6
ACFD_FIELDTEXT_CHECKSUM
 93
        2
 90
        2
140
4486.0
 94
        0
300

302

304
ACVALUE_END
  7
ACFD_FIELD_VALUE
 93
        6
 90
        4
  1
{20230920M}
 94
        0
300

302

304
ACVALUE_END
301
{20230920M}
 98
       11
  0
DICTIONARY
  5
253C
330
279
100
AcDbDictionary
280
     1
281
     1
  3
ACAD_ROUNDTRIP_2008_TABLESTYLE_CELLSTYLEMAP
360
253D
  0
FIELD
  5
1EAF
330
1EAE
100
AcDbField
  1
AcVar
  2
\AcVar Date \f "yyyyMMdd"
 90
        0
 97
        0
 91
       63
 92
        0
 94
        8
 95
       64
 96
        0
300
Variable not supported
 93
        1
  6
Variable
 93
        2
 90
        4
  1
Date
 94
        0
300

302

304
ACVALUE_END
  7
ACFD_FIELD_VALUE
 93
        6
 90
        8
 92
       16
310
E7070900000014000000110035000000
 94
        0
300
yyyyMMdd
302

304
ACVALUE_END
301
20230920
 98
        8
  0
CELLSTYLEMAP
  5
253D
102
{ACAD_REACTORS
330
253C
102
}
330
253C
100
AcDbCellStyleMap
 90
        3
300
CELLSTYLE
  1
TABLEFORMAT_BEGIN
 90
        5
170
     1
 91
        0
 92
    32768
 62
   257
 93
        1
300
CONTENTFORMAT
  1
CONTENTFORMAT_BEGIN
 90
        0
 91
        0
 92
        4
 93
        0
300

 40
0.0
140
1.0
 94
        5
 62
     0
340
17
144
6.0
309
CONTENTFORMAT_END
171
     1
301
MARGIN
  1
CELLMARGIN_BEGIN
 40
0.06
 40
0.06
 40
0.06
 40
0.06
 40
0.18
 40
0.18
309
CELLMARGIN_END
 94
        6
 95
        1
302
GRIDFORMAT
  1
GRIDFORMAT_BEGIN
 90
        0
 91
        1
 62
     0
 92
       -2
340
0
 93
        0
 40
0.045
309
GRIDFORMAT_END
 95
        2
302
GRIDFORMAT
  1
GRIDFORMAT_BEGIN
 90
        0
 91
        1
 62
     0
 92
       -2
340
0
 93
        0
 40
0.045
309
GRIDFORMAT_END
 95
        4
302
GRIDFORMAT
  1
GRIDFORMAT_BEGIN
 90
        0
 91
        1
 62
     0
 92
       -2
340
0
 93
        0
 40
0.045
309
GRIDFORMAT_END
 95
        8
302
GRIDFORMAT
  1
GRIDFORMAT_BEGIN
 90
        0
 91
        1
 62
     0
 92
       -2
340
0
 93
        0
 40
0.045
309
GRIDFORMAT_END
 95
       16
302
GRIDFORMAT
  1
GRIDFORMAT_BEGIN
 90
        0
 91
        1
 62
     0
 92
       -2
340
0
 93
        0
 40
0.045
309
GRIDFORMAT_END
 95
       32
302
GRIDFORMAT
  1
GRIDFORMAT_BEGIN
 90
        0
 91
        1
 62
     0
 92
       -2
340
0
 93
        0
 40
0.045
309
GRIDFORMAT_END
309
TABLEFORMAT_END
  1
CELLSTYLE_BEGIN
 90
        1
 91
        1
300
_TITLE
309
CELLSTYLE_END
300
CELLSTYLE
  1
TABLEFORMAT_BEGIN
 90
        5
170
     1
 91
        0
 92
        0
 62
   257
 93
        1
300
CONTENTFORMAT
  1
CONTENTFORMAT_BEGIN
 90
        0
 91
        0
 92
        4
 93
        0
300

 40
0.0
140
1.0
 94
        5
 62
     0
340
17
144
4.5
309
CONTENTFORMAT_END
171
     1
301
MARGIN
  1
CELLMARGIN_BEGIN
 40
0.06
 40
0.06
 40
0.06
 40
0.06
 40
0.18
 40
0.18
309
CELLMARGIN_END
 94
        6
 95
        1
302
GRIDFORMAT
  1
GRIDFORMAT_BEGIN
 90
        0
 91
        1
 62
     0
 92
       -2
340
0
 93
        0
 40
0.045
309
GRIDFORMAT_END
 95
        2
302
GRIDFORMAT
  1
GRIDFORMAT_BEGIN
 90
        0
 91
        1
 62
     0
 92
       -2
340
0
 93
        0
 40
0.045
309
GRIDFORMAT_END
 95
        4
302
GRIDFORMAT
  1
GRIDFORMAT_BEGIN
 90
        0
 91
        1
 62
     0
 92
       -2
340
0
 93
        0
 40
0.045
309
GRIDFORMAT_END
 95
        8
302
GRIDFORMAT
  1
GRIDFORMAT_BEGIN
 90
        0
 91
        1
 62
     0
 92
       -2
340
0
 93
        0
 40
0.045
309
GRIDFORMAT_END
 95
       16
302
GRIDFORMAT
  1
GRIDFORMAT_BEGIN
 90
        0
 91
        1
 62
     0
 92
       -2
340
0
 93
        0
 40
0.045
309
GRIDFORMAT_END
 95
       32
302
GRIDFORMAT
  1
GRIDFORMAT_BEGIN
 90
        0
 91
        1
 62
     0
 92
       -2
340
0
 93
        0
 40
0.045
309
GRIDFORMAT_END
309
TABLEFORMAT_END
  1
CELLSTYLE_BEGIN
 90
        2
 91
        1
300
_HEADER
309
CELLSTYLE_END
300
CELLSTYLE
  1
TABLEFORMAT_BEGIN
 90
        5
170
     1
 91
        0
 92
        0
 62
   257
 93
        1
300
CONTENTFORMAT
  1
CONTENTFORMAT_BEGIN
 90
        0
 91
        0
 92
        4
 93
        0
300

 40
0.0
140
1.0
 94
        2
 62
     0
340
17
144
4.5
309
CONTENTFORMAT_END
171
     1
301
MARGIN
  1
CELLMARGIN_BEGIN
 40
0.06
 40
0.06
 40
0.06
 40
0.06
 40
0.18
 40
0.18
309
CELLMARGIN_END
 94
        6
 95
        1
302
GRIDFORMAT
  1
GRIDFORMAT_BEGIN
 90
        0
 91
        1
 62
     0
 92
       -2
340
0
 93
        0
 40
0.045
309
GRIDFORMAT_END
 95
        2
302
GRIDFORMAT
  1
GRIDFORMAT_BEGIN
 90
        0
 91
        1
 62
     0
 92
       -2
340
0
 93
        0
 40
0.045
309
GRIDFORMAT_END
 95
        4
302
GRIDFORMAT
  1
GRIDFORMAT_BEGIN
 90
        0
 91
        1
 62
     0
 92
       -2
340
0
 93
        0
 40
0.045
309
GRIDFORMAT_END
 95
        8
302
GRIDFORMAT
  1
GRIDFORMAT_BEGIN
 90
        0
 91
        1
 62
     0
 92
       -2
340
0
 93
        0
 40
0.045
309
GRIDFORMAT_END
 95
       16
302
GRIDFORMAT
  1
GRIDFORMAT_BEGIN
 90
        0
 91
        1
 62
     0
 92
       -2
340
0
 93
        0
 40
0.045
309
GRIDFORMAT_END
 95
       32
302
GRIDFORMAT
  1
GRIDFORMAT_BEGIN
 90
        0
 91
        1
 62
     0
 92
       -2
340
0
 93
        0
 40
0.045
309
GRIDFORMAT_END
309
TABLEFORMAT_END
  1
CELLSTYLE_BEGIN
 90
        3
 91
        2
300
_DATA
309
CELLSTYLE_END
  0
ENDSEC
  0
EOF
