  0
SECTION
  2
HEADER
  9
$ACADVER
  1
AC1021
  9
$ACADMAINTVER
 70
    25
  9
$DWGCODEPAGE
  3
ANSI_932
  9
$LASTSAVEDBY
  1
tform
  9
$INSBASE
 10
0.0
 20
0.0
 30
0.0
  9
$EXTMIN
 10
0.0
 20
0.0
 30
-0.0000000000000071
  9
$EXTMAX
 10
420.0
 20
594.0
 30
0.0000000000000071
  9
$LIMMIN
 10
0.0
 20
0.0
  9
$LIMMAX
 10
420.0
 20
594.0
  9
$ORTHOMODE
 70
     1
  9
$REGENMODE
 70
     1
  9
$FILLMODE
 70
     1
  9
$QTEXTMODE
 70
     0
  9
$MIRRTEXT
 70
     1
  9
$LTSCALE
 40
1.0
  9
$ATTMODE
 70
     1
  9
$TEXTSIZE
 40
2.5
  9
$TRACEWID
 40
1.0
  9
$TEXTSTYLE
  7
ＭＳ ゴシック
  9
$CLAYER
  8
DIM
  9
$CELTYPE
  6
ByLayer
  9
$CECOLOR
 62
   256
  9
$CELTSCALE
 40
1.0
  9
$DISPSILH
 70
     0
  9
$DIMSCALE
 40
1.0
  9
$DIMASZ
 40
2.0
  9
$DIMEXO
 40
5.0
  9
$DIMDLI
 40
0.9999999999999999
  9
$DIMRND
 40
0.0
  9
$DIMDLE
 40
0.0
  9
$DIMEXE
 40
0.0
  9
$DIMTP
 40
0.0
  9
$DIMTM
 40
0.0
  9
$DIMTXT
 40
5.0
  9
$DIMCEN
 40
0.0
  9
$DIMTSZ
 40
0.0
  9
$DIMTOL
 70
     0
  9
$DIMLIM
 70
     0
  9
$DIMTIH
 70
     0
  9
$DIMTOH
 70
     0
  9
$DIMSE1
 70
     0
  9
$DIMSE2
 70
     0
  9
$DIMTAD
 70
     1
  9
$DIMZIN
 70
    11
  9
$DIMBLK
  1
DOT
  9
$DIMASO
 70
     1
  9
$DIMSHO
 70
     1
  9
$DIMPOST
  1
<>
  9
$DIMAPOST
  1
[]
  9
$DIMALT
 70
     0
  9
$DIMALTD
 70
     1
  9
$DIMALTF
 40
1.0
  9
$DIMLFAC
 40
1.0
  9
$DIMTOFL
 70
     0
  9
$DIMTVP
 40
0.0
  9
$DIMTIX
 70
     1
  9
$DIMSOXD
 70
     0
  9
$DIMSAH
 70
     0
  9
$DIMBLK1
  1

  9
$DIMBLK2
  1

  9
$DIMSTYLE
  2
tfrom線あり
  9
$DIMCLRD
 70
     0
  9
$DIMCLRE
 70
     0
  9
$DIMCLRT
 70
     0
  9
$DIMTFAC
 40
1.0
  9
$DIMGAP
 40
3.0
  9
$DIMJUST
 70
     0
  9
$DIMSD1
 70
     0
  9
$DIMSD2
 70
     0
  9
$DIMTOLJ
 70
     1
  9
$DIMTZIN
 70
    11
  9
$DIMALTZ
 70
    11
  9
$DIMALTTZ
 70
    11
  9
$DIMUPT
 70
     0
  9
$DIMDEC
 70
     0
  9
$DIMTDEC
 70
     1
  9
$DIMALTU
 70
     2
  9
$DIMALTTD
 70
     2
  9
$DIMTXSTY
  7
ＭＳ ゴシック
  9
$DIMAUNIT
 70
     0
  9
$DIMADEC
 70
     2
  9
$DIMALTRND
 40
0.0
  9
$DIMAZIN
 70
     0
  9
$DIMDSEP
 70
    46
  9
$DIMATFIT
 70
     0
  9
$DIMFRAC
 70
     2
  9
$DIMLDRBLK
  1
DOT
  9
$DIMLUNIT
 70
     2
  9
$DIMLWD
 70
    -2
  9
$DIMLWE
 70
    -2
  9
$DIMTMOVE
 70
     0
  9
$DIMFXL
 40
1.0
  9
$DIMFXLON
 70
     0
  9
$DIMJOGANG
 40
0.7853981633974483
  9
$DIMTFILL
 70
     0
  9
$DIMTFILLCLR
 70
     0
  9
$DIMARCSYM
 70
     0
  9
$DIMLTYPE
  6

  9
$DIMLTEX1
  6

  9
$DIMLTEX2
  6

  9
$LUNITS
 70
     2
  9
$LUPREC
 70
     0
  9
$SKETCHINC
 40
0.1
  9
$FILLETRAD
 40
0.0
  9
$AUNITS
 70
     0
  9
$AUPREC
 70
     0
  9
$MENU
  1
acad
  9
$ELEVATION
 40
0.0
  9
$PELEVATION
 40
0.0
  9
$THICKNESS
 40
0.0
  9
$LIMCHECK
 70
     0
  9
$CHAMFERA
 40
0.0
  9
$CHAMFERB
 40
0.0
  9
$CHAMFERC
 40
0.0
  9
$CHAMFERD
 40
0.0
  9
$SKPOLY
 70
     0
  9
$TDCREATE
 40
2447893.375
  9
$TDUCREATE
 40
0.0
  9
$TDUPDATE
 40
2460966.393643889
  9
$TDUUPDATE
 40
2460966.018643889
  9
$TDINDWG
 40
0.0495004398
  9
$TDUSRTIMER
 40
0.0022077894
  9
$USRTIMER
 70
     1
  9
$ANGBASE
 50
0.0
  9
$ANGDIR
 70
     0
  9
$PDMODE
 70
     1
  9
$PDSIZE
 40
-2.0
  9
$PLINEWID
 40
0.0
  9
$SPLFRAME
 70
     0
  9
$SPLINETYPE
 70
     6
  9
$SPLINESEGS
 70
     8
  9
$HANDSEED
  5
6016
  9
$SURFTAB1
 70
     6
  9
$SURFTAB2
 70
     6
  9
$SURFTYPE
 70
     6
  9
$SURFU
 70
     6
  9
$SURFV
 70
     6
  9
$UCSBASE
  2

  9
$UCSNAME
  2

  9
$UCSORG
 10
0.0
 20
0.0
 30
0.0
  9
$UCSXDIR
 10
1.0
 20
0.0
 30
0.0
  9
$UCSYDIR
 10
0.0
 20
1.0
 30
0.0
  9
$UCSORTHOREF
  2

  9
$UCSORTHOVIEW
 70
     0
  9
$UCSORGTOP
 10
0.0
 20
0.0
 30
0.0
  9
$UCSORGBOTTOM
 10
0.0
 20
0.0
 30
0.0
  9
$UCSORGLEFT
 10
0.0
 20
0.0
 30
0.0
  9
$UCSORGRIGHT
 10
0.0
 20
0.0
 30
0.0
  9
$UCSORGFRONT
 10
0.0
 20
0.0
 30
0.0
  9
$UCSORGBACK
 10
0.0
 20
0.0
 30
0.0
  9
$PUCSBASE
  2

  9
$PUCSNAME
  2

  9
$PUCSORG
 10
0.0
 20
0.0
 30
0.0
  9
$PUCSXDIR
 10
1.0
 20
0.0
 30
0.0
  9
$PUCSYDIR
 10
0.0
 20
1.0
 30
0.0
  9
$PUCSORTHOREF
  2

  9
$PUCSORTHOVIEW
 70
     0
  9
$PUCSORGTOP
 10
0.0
 20
0.0
 30
0.0
  9
$PUCSORGBOTTOM
 10
0.0
 20
0.0
 30
0.0
  9
$PUCSORGLEFT
 10
0.0
 20
0.0
 30
0.0
  9
$PUCSORGRIGHT
 10
0.0
 20
0.0
 30
0.0
  9
$PUCSORGFRONT
 10
0.0
 20
0.0
 30
0.0
  9
$PUCSORGBACK
 10
0.0
 20
0.0
 30
0.0
  9
$USERI1
 70
     0
  9
$USERI2
 70
     0
  9
$USERI3
 70
     0
  9
$USERI4
 70
     0
  9
$USERI5
 70
     0
  9
$USERR1
 40
0.0
  9
$USERR2
 40
0.0
  9
$USERR3
 40
0.0
  9
$USERR4
 40
0.0
  9
$USERR5
 40
0.0
  9
$WORLDVIEW
 70
     1
  9
$SHADEDGE
 70
     3
  9
$SHADEDIF
 70
    70
  9
$TILEMODE
 70
     1
  9
$MAXACTVP
 70
    64
  9
$PINSBASE
 10
0.0
 20
0.0
 30
0.0
  9
$PLIMCHECK
 70
     0
  9
$PEXTMIN
 10
0.0
 20
0.0
 30
0.0
  9
$PEXTMAX
 10
0.0
 20
0.0
 30
0.0
  9
$PLIMMIN
 10
-7.5
 20
-20.0
  9
$PLIMMAX
 10
412.5
 20
277.0
  9
$UNITMODE
 70
     0
  9
$VISRETAIN
 70
     0
  9
$PLINEGEN
 70
     1
  9
$PSLTSCALE
 70
     0
  9
$TREEDEPTH
 70
  3020
  9
$CMLSTYLE
  2
Standard
  9
$CMLJUST
 70
     0
  9
$CMLSCALE
 40
1.0
  9
$PROXYGRAPHICS
 70
     0
  9
$MEASUREMENT
 70
     1
  9
$CELWEIGHT
370
    -1
  9
$ENDCAPS
280
     0
  9
$JOINSTYLE
280
     0
  9
$LWDISPLAY
290
     1
  9
$INSUNITS
 70
     4
  9
$HYPERLINKBASE
  1

  9
$STYLESHEET
  1

  9
$XEDIT
290
     1
  9
$CEPSNTYPE
380
     0
  9
$PSTYLEMODE
290
     1
  9
$FINGERPRINTGUID
  2

  9
$VERSIONGUID
  2

  9
$EXTNAMES
290
     1
  9
$PSVPSCALE
 40
0.0
  9
$OLESTARTUP
290
     0
  9
$SORTENTS
280
   127
  9
$INDEXCTL
280
     0
  9
$HIDETEXT
280
     1
  9
$XCLIPFRAME
290
     0
  9
$HALOGAP
280
     0
  9
$OBSCOLOR
 70
   257
  9
$OBSLTYPE
280
     0
  9
$INTERSECTIONDISPLAY
280
     0
  9
$INTERSECTIONCOLOR
 70
   257
  9
$DIMASSOC
280
     2
  9
$PROJECTNAME
  1

  9
$CAMERADISPLAY
290
     0
  9
$LENSLENGTH
 40
50.0
  9
$CAMERAHEIGHT
 40
0.0
  9
$STEPSPERSEC
 40
2.0
  9
$STEPSIZE
 40
6.0
  9
$3DDWFPREC
 40
2.0
  9
$PSOLWIDTH
 40
0.25
  9
$PSOLHEIGHT
 40
4.0
  9
$LOFTANG1
 40
1.570796326794897
  9
$LOFTANG2
 40
1.570796326794897
  9
$LOFTMAG1
 40
0.0
  9
$LOFTMAG2
 40
0.0
  9
$LOFTPARAM
 70
     7
  9
$LOFTNORMALS
280
     1
  9
$LATITUDE
 40
37.795
  9
$LONGITUDE
 40
-122.394
  9
$NORTHDIRECTION
 40
0.0
  9
$TIMEZONE
 70
 -8000
  9
$LIGHTGLYPHDISPLAY
280
     1
  9
$TILEMODELIGHTSYNCH
280
     1
  9
$SOLIDHIST
280
     1
  9
$SHOWHIST
280
     1
  9
$DWFFRAME
280
     2
  9
$DGNFRAME
280
     2
  9
$REALWORLDSCALE
290
     1
  9
$INTERFERECOLOR
 62
   256
  9
$CSHADOW
280
     0
  9
$SHADOWPLANELOCATION
 40
0.0
  0
ENDSEC
  0
SECTION
  2
CLASSES
  0
CLASS
  1
LWPOLYLINE
  2
AcDbPolyline
  3
ObjectDBX Classes
 90
        0
 91
        1
280
     0
281
     1
  0
CLASS
  1
IMAGE
  2
AcDbRasterImage
  3
ISM
 90
      127
 91
        4
280
     0
281
     1
  0
CLASS
  1
OLE2FRAME
  2
AcDbOle2Frame
  3
ObjectDBX Classes
 90
        0
 91
        1
280
     0
281
     1
  0
CLASS
  1
HATCH
  2
AcDbHatch
  3
ObjectDBX Classes
 90
        0
 91
        1
280
     0
281
     1
  0
CLASS
  1
DICTIONARYVAR
  2
AcDbDictionaryVar
  3
ObjectDBX Classes
 90
        0
 91
        3
280
     0
281
     0
  0
CLASS
  1
RASTERVARIABLES
  2
AcDbRasterVariables
  3
ISM
 90
        0
 91
        3
280
     0
281
     0
  0
CLASS
  1
IMAGEDEF
  2
AcDbRasterImageDef
  3
ISM
 90
        0
 91
        3
280
     0
281
     0
  0
CLASS
  1
IMAGEDEF_REACTOR
  2
AcDbRasterImageDefReactor
  3
ISM
 90
        1
 91
        3
280
     0
281
     0
  0
CLASS
  1
IDBUFFER
  2
AcDbIdBuffer
  3
ObjectDBX Classes
 90
        0
 91
        3
280
     0
281
     0
  0
CLASS
  1
SPATIAL_FILTER
  2
AcDbSpatialFilter
  3
ObjectDBX Classes
 90
        0
 91
        3
280
     0
281
     0
  0
CLASS
  1
XRECORD
  2
AcDbXrecord
  3
ObjectDBX Classes
 90
        0
 91
        1
280
     0
281
     0
  0
CLASS
  1
SORTENTSTABLE
  2
AcDbSortentsTable
  3
ObjectDBX Classes
 90
        0
 91
        3
280
     0
281
     0
  0
CLASS
  1
LAYER_INDEX
  2
AcDbLayerIndex
  3
ObjectDBX Classes
 90
        0
 91
        3
280
     0
281
     0
  0
CLASS
  1
SPATIAL_INDEX
  2
AcDbSpatialIndex
  3
AutoCAD 2000
 90
        0
 91
        3
280
     0
281
     0
  0
CLASS
  1
OBJECT_PTR
  2
CAseDLPNTableRecord
  3
ASE-LPNTableRecord
 90
        1
 91
        3
280
     0
281
     0
  0
CLASS
  1
LAYOUT
  2
AcDbLayout
  3
ObjectDBX Classes
 90
        0
 91
        1
280
     0
281
     0
  0
CLASS
  1
PLOTSETTINGS
  2
AcDbPlotSettings
  3
ObjectDBX Classes
 90
        0
 91
        3
280
     0
281
     0
  0
CLASS
  1
ACDBDICTIONARYWDFLT
  2
AcDbDictionaryWithDefault
  3
ObjectDBX Classes
 90
        0
 91
        3
280
     0
281
     0
  0
CLASS
  1
ACDBPLACEHOLDER
  2
AcDbPlaceHolder
  3
ObjectDBX Classes
 90
        0
 91
        1
280
     0
281
     0
  0
CLASS
  1
SCALE
  2
AcDbScale
  3
ObjectDBX Classes
 90
     1153
 91
        3
280
     0
281
     0
  0
CLASS
  1
MATERIAL
  2
AcDbMaterial
  3
ObjectDBX Classes
 90
     1153
 91
        3
280
     0
281
     0
  0
CLASS
  1
VISUALSTYLE
  2
AcDbVisualStyle
  3
ObjectDBX Classes
 90
     4095
 91
        3
280
     0
281
     0
  0
CLASS
  1
TABLESTYLE
  2
AcDbTableStyle
  3
ObjectDBX Classes
 90
     4095
 91
        3
280
     0
281
     0
  0
CLASS
  1
DIMASSOC
  2
AcDbDimAssoc
  3
"AcDbDimAssoc|Product Desc:     AcDim ARX App For Dimension|Company:          Autodesk, Inc.|WEB Address:      www.autodesk.com"
 90
        0
 91
        3
280
     0
281
     0
  0
CLASS
  1
CELLSTYLEMAP
  2
AcDbCellStyleMap
  3
ObjectDBX Classes
 90
     1152
 91
        3
280
     0
281
     0
  0
CLASS
  1
SUN
  2
AcDbSun
  3
SCENEOE
 90
     1153
 91
        3
280
     0
281
     0
  0
CLASS
  1
MLEADERSTYLE
  2
AcDbMLeaderStyle
  3
ACDB_MLEADERSTYLE_CLASS
 90
     4095
 91
        3
280
     0
281
     0
  0
CLASS
  1
FIELD
  2
AcDbField
  3
ObjectDBX Classes
 90
     1152
 91
        3
280
     0
281
     0
  0
CLASS
  1
FIELDLIST
  2
AcDbFieldList
  3
ObjectDBX Classes
 90
     1152
 91
        3
280
     0
281
     0
  0
ENDSEC
  0
SECTION
  2
TABLES
  0
TABLE
  2
VPORT
  5
7
330
0
100
AcDbSymbolTable
 70
     1
  0
VPORT
  5
15
330
7
100
AcDbSymbolTableRecord
100
AcDbViewportTableRecord
  2
*ACTIVE
 70
     0
 10
0.0
 20
0.0
 11
1.0
 21
1.0
 12
301.0201356708998
 22
223.401285469834
 13
0.0
 23
0.0
 14
1.0
 24
1.0
 15
0.0
 25
0.0
 16
0.0
 26
0.0
 36
1.0
 17
-91.02013567089978
 27
73.59871453016603
 37
-46.86809886248109
 40
605.88
 41
2.052208835341366
 42
50.0
 43
0.0
 44
0.0
 50
0.0
 51
0.0
 71
    16
 72
  2000
 73
     1
 74
     1
 75
     0
 76
     0
 77
     0
 78
     0
281
     0
 65
     1
110
0.0
120
0.0
130
0.0
111
1.0
121
0.0
131
0.0
112
0.0
122
1.0
132
0.0
 79
     0
146
0.0
348
26C
 60
     3
 61
     5
292
     1
282
     1
141
0.0
142
0.0
 63
   256
361
904
  0
ENDTAB
  0
TABLE
  2
LTYPE
  5
4
330
0
100
AcDbSymbolTable
 70
     3
  0
LTYPE
  5
11
330
4
100
AcDbSymbolTableRecord
100
AcDbLinetypeTableRecord
  2
ByBlock
 70
     0
  3

 72
    65
 73
     0
 40
0.0
  0
LTYPE
  5
12
330
4
100
AcDbSymbolTableRecord
100
AcDbLinetypeTableRecord
  2
ByLayer
 70
     0
  3

 72
    65
 73
     0
 40
0.0
  0
LTYPE
  5
13
330
4
100
AcDbSymbolTableRecord
100
AcDbLinetypeTableRecord
  2
Continuous
 70
     0
  3
Solid line
 72
    65
 73
     0
 40
0.0
  0
LTYPE
  5
D6C
330
4
100
AcDbSymbolTableRecord
100
AcDbLinetypeTableRecord
  2
BORDER
 70
     0
  3
Border __  __  . __  __  . __  __  . __  __  . 
 72
    65
 73
     6
 40
44.45
 49
12.7
 74
     0
 49
-6.35
 74
     0
 49
12.7
 74
     0
 49
-6.35
 74
     0
 49
0.0
 74
     0
 49
-6.35
 74
     0
  0
LTYPE
  5
5477
330
4
100
AcDbSymbolTableRecord
100
AcDbLinetypeTableRecord
  2
HIDDEN
 70
     0
  3
Hidden _ _ _ _ _ _ _ _ _ _ _ _ _ _ _ _ _ _ _ _ 
 72
    65
 73
     2
 40
9.524999999999999
 49
6.35
 74
     0
 49
-3.175
 74
     0
  0
ENDTAB
  0
TABLE
  2
LAYER
  5
2
102
{ACAD_XDICTIONARY
360
2E1
102
}
330
0
100
AcDbSymbolTable
 70
    10
  0
LAYER
  5
14
330
2
100
AcDbSymbolTableRecord
100
AcDbLayerTableRecord
  2
0
 70
     0
 62
     7
  6
Continuous
370
    -3
390
1D
347
266
  0
LAYER
  5
4B
330
2
100
AcDbSymbolTableRecord
100
AcDbLayerTableRecord
  2
TEMPLATE
 70
     0
 62
     7
  6
Continuous
370
    20
390
1D
347
266
  0
LAYER
  5
4C
330
2
100
AcDbSymbolTableRecord
100
AcDbLayerTableRecord
  2
DIM
 70
     0
 62
     3
  6
Continuous
370
    13
390
1D
347
266
  0
LAYER
  5
4D
330
2
100
AcDbSymbolTableRecord
100
AcDbLayerTableRecord
  2
MODEL
 70
     0
 62
     7
  6
Continuous
370
    20
390
1D
347
266
  0
LAYER
  5
D6B
330
2
100
AcDbSymbolTableRecord
100
AcDbLayerTableRecord
  2
BORDER
 70
     0
 62
     4
  6
BORDER
290
     0
370
    20
390
1D
347
266
1001
AcAecLayerStandard
1000

1000

  0
LAYER
  5
D8C
330
2
100
AcDbSymbolTableRecord
100
AcDbLayerTableRecord
  2
Defpoints
 70
     0
 62
     7
  6
Continuous
290
     0
370
    -3
390
1D
347
266
  0
LAYER
  5
3653
330
2
100
AcDbSymbolTableRecord
100
AcDbLayerTableRecord
  2
Standard
 70
     0
 62
     7
  6
Continuous
370
    -3
390
1D
347
266
  0
LAYER
  5
4CDA
330
2
100
AcDbSymbolTableRecord
100
AcDbLayerTableRecord
  2
_0-1_
 70
     0
 62
     7
  6
Continuous
370
    -3
390
1D
347
266
  0
LAYER
  5
5476
330
2
100
AcDbSymbolTableRecord
100
AcDbLayerTableRecord
  2
HIDDEN
 70
     0
 62
   252
  6
HIDDEN
370
    20
390
1D
347
266
1001
AcAecLayerStandard
1000

1000

  0
LAYER
  5
56B8
330
2
100
AcDbSymbolTableRecord
100
AcDbLayerTableRecord
  2
レイヤー 1
 70
     0
 62
     7
  6
Continuous
370
    -3
390
1D
347
266
  0
ENDTAB
  0
TABLE
  2
STYLE
  5
3
330
0
100
AcDbSymbolTable
 70
     2
  0
STYLE
  5
17
330
3
100
AcDbSymbolTableRecord
100
AcDbTextStyleTableRecord
  2
Standard
 70
     0
 40
0.0
 41
1.0
 50
0.0
 71
     0
 42
2.5
  3
txt
  4
BIGFONT.SHX
  0
STYLE
  5
39
330
3
100
AcDbSymbolTableRecord
100
AcDbTextStyleTableRecord
  2
ＭＳ ゴシック
 70
     0
 40
0.0
 41
1.0
 50
0.0
 71
     0
 42
2.5
  3
msgothic.ttc
  4
ＭＳ ゴシック
1001
ACAD
1000
ＭＳ ゴシック
1071
        0
  0
ENDTAB
  0
TABLE
  2
VIEW
  5
5
330
0
100
AcDbSymbolTable
 70
     0
  0
ENDTAB
  0
TABLE
  2
UCS
  5
6
330
0
100
AcDbSymbolTable
 70
     0
  0
ENDTAB
  0
TABLE
  2
APPID
  5
8
330
0
100
AcDbSymbolTable
 70
     4
  0
APPID
  5
16
330
8
100
AcDbSymbolTableRecord
100
AcDbRegAppTableRecord
  2
ACAD
 70
     0
  0
APPID
  5
7AC
330
8
100
AcDbSymbolTableRecord
100
AcDbRegAppTableRecord
  2
AcAecLayerStandard
 70
     0
  0
APPID
  5
E29
330
8
100
AcDbSymbolTableRecord
100
AcDbRegAppTableRecord
  2
ACAD_MLEADERVER
 70
     0
  0
APPID
  5
6009
330
8
100
AcDbSymbolTableRecord
100
AcDbRegAppTableRecord
  2
PLOTTRANSPARENCY
 70
     0
  0
ENDTAB
  0
TABLE
  2
DIMSTYLE
  5
9
330
0
100
AcDbSymbolTable
 70
     2
100
AcDbDimStyleTable
  0
DIMSTYLE
105
18
330
9
100
AcDbSymbolTableRecord
100
AcDbDimStyleTableRecord
  2
Standard
 70
     0
178
     0
340
17
  0
DIMSTYLE
105
57
102
{ACAD_REACTORS
330
5F3C
330
5F4B
330
5F5A
330
5F69
330
5F7A
330
5FA1
330
5FC0
330
5FE7
102
}
330
9
100
AcDbSymbolTableRecord
100
AcDbDimStyleTableRecord
  2
tfrom線あり
 70
     0
  3
<>
  4
[]
 41
2.0
 42
5.0
 43
0.9999999999999999
 44
0.0
 73
     0
 74
     0
 77
     1
 78
    11
140
5.0
141
0.0
143
1.0
147
3.0
171
     1
174
     1
178
     0
179
     2
271
     0
272
     1
276
     2
284
    11
285
    11
286
    11
289
     0
340
39
341
4E
342
4E
  0
ENDTAB
  0
TABLE
  2
BLOCK_RECORD
  5
1
330
0
100
AcDbSymbolTable
 70
    33
  0
BLOCK_RECORD
  5
A
102
{ACAD_XDICTIONARY
360
3D3D
102
}
330
1
100
AcDbSymbolTableRecord
100
AcDbBlockTableRecord
  2
*MODEL_SPACE
340
20
 70
     0
280
     1
281
     0
  0
BLOCK_RECORD
  5
B
330
1
100
AcDbSymbolTableRecord
100
AcDbBlockTableRecord
  2
*PAPER_SPACE
340
21
 70
     0
280
     1
281
     0
  0
BLOCK_RECORD
  5
4E
330
1
100
AcDbSymbolTableRecord
100
AcDbBlockTableRecord
  2
_DOT
340
0
102
{BLKREFS
331
4EE1
331
4EE2
331
4EF0
331
4EF1
331
4EFD
331
4EFE
331
4F1D
331
4F1E
331
51F4
331
51F5
331
53CF
331
53D0
331
53DE
331
53DF
331
53ED
331
53EE
331
53FC
331
53FD
331
540B
331
540C
331
541A
331
541B
331
5429
331
542A
331
5438
331
5439
331
5562
331
5563
331
5571
331
5572
331
5585
331
5586
331
5595
331
5596
331
562C
331
562D
331
563B
331
563C
331
5F36
331
5F37
331
5F45
331
5F46
331
5F54
331
5F55
331
5F63
331
5F64
331
5F74
331
5F75
331
5F83
331
5F84
331
5FAA
331
5FAB
331
5FBA
331
5FBB
331
5FC9
331
5FCA
331
5FF0
331
5FF1
102
}
 70
     0
280
     1
281
     0
  0
BLOCK_RECORD
  5
68D
330
1
100
AcDbSymbolTableRecord
100
AcDbBlockTableRecord
  2
block 2
340
0
102
{BLKREFS
331
68C
331
1343
102
}
 70
     0
280
     1
281
     0
  0
BLOCK_RECORD
  5
4EDB
330
1
100
AcDbSymbolTableRecord
100
AcDbBlockTableRecord
  2
*D2
340
0
 70
     0
280
     1
281
     0
  0
BLOCK_RECORD
  5
4EEA
330
1
100
AcDbSymbolTableRecord
100
AcDbBlockTableRecord
  2
*D3
340
0
 70
     0
280
     1
281
     0
  0
BLOCK_RECORD
  5
4EF7
330
1
100
AcDbSymbolTableRecord
100
AcDbBlockTableRecord
  2
*D4
340
0
 70
     0
280
     1
281
     0
  0
BLOCK_RECORD
  5
4F17
330
1
100
AcDbSymbolTableRecord
100
AcDbBlockTableRecord
  2
*D5
340
0
 70
     0
280
     1
281
     0
  0
BLOCK_RECORD
  5
51EE
330
1
100
AcDbSymbolTableRecord
100
AcDbBlockTableRecord
  2
*D6
340
0
 70
     0
280
     1
281
     0
  0
BLOCK_RECORD
  5
53C9
330
1
100
AcDbSymbolTableRecord
100
AcDbBlockTableRecord
  2
*D7
340
0
 70
     0
280
     1
281
     0
  0
BLOCK_RECORD
  5
53D8
330
1
100
AcDbSymbolTableRecord
100
AcDbBlockTableRecord
  2
*D8
340
0
 70
     0
280
     1
281
     0
  0
BLOCK_RECORD
  5
53E7
330
1
100
AcDbSymbolTableRecord
100
AcDbBlockTableRecord
  2
*D9
340
0
 70
     0
280
     1
281
     0
  0
BLOCK_RECORD
  5
53F6
330
1
100
AcDbSymbolTableRecord
100
AcDbBlockTableRecord
  2
*D10
340
0
 70
     0
280
     1
281
     0
  0
BLOCK_RECORD
  5
5405
330
1
100
AcDbSymbolTableRecord
100
AcDbBlockTableRecord
  2
*D11
340
0
 70
     0
280
     1
281
     0
  0
BLOCK_RECORD
  5
5414
330
1
100
AcDbSymbolTableRecord
100
AcDbBlockTableRecord
  2
*D12
340
0
 70
     0
280
     1
281
     0
  0
BLOCK_RECORD
  5
5423
330
1
100
AcDbSymbolTableRecord
100
AcDbBlockTableRecord
  2
*D13
340
0
 70
     0
280
     1
281
     0
  0
BLOCK_RECORD
  5
5432
330
1
100
AcDbSymbolTableRecord
100
AcDbBlockTableRecord
  2
*D14
340
0
 70
     0
280
     1
281
     0
  0
BLOCK_RECORD
  5
555C
330
1
100
AcDbSymbolTableRecord
100
AcDbBlockTableRecord
  2
*D15
340
0
 70
     0
280
     1
281
     0
  0
BLOCK_RECORD
  5
556B
330
1
100
AcDbSymbolTableRecord
100
AcDbBlockTableRecord
  2
*D16
340
0
 70
     0
280
     1
281
     0
  0
BLOCK_RECORD
  5
557F
330
1
100
AcDbSymbolTableRecord
100
AcDbBlockTableRecord
  2
*D17
340
0
 70
     0
280
     1
281
     0
  0
BLOCK_RECORD
  5
558F
330
1
100
AcDbSymbolTableRecord
100
AcDbBlockTableRecord
  2
*D18
340
0
 70
     0
280
     1
281
     0
  0
BLOCK_RECORD
  5
5625
330
1
100
AcDbSymbolTableRecord
100
AcDbBlockTableRecord
  2
*D19
340
0
 70
     0
280
     1
281
     0
  0
BLOCK_RECORD
  5
5635
330
1
100
AcDbSymbolTableRecord
100
AcDbBlockTableRecord
  2
*D20
340
0
 70
     0
280
     1
281
     0
  0
BLOCK_RECORD
  5
585A
330
1
100
AcDbSymbolTableRecord
100
AcDbBlockTableRecord
  2
block 3
340
0
 70
     0
280
     1
281
     0
  0
BLOCK_RECORD
  5
597A
330
1
100
AcDbSymbolTableRecord
100
AcDbBlockTableRecord
  2
block 4
340
0
 70
     0
280
     1
281
     0
  0
BLOCK_RECORD
  5
5F30
330
1
100
AcDbSymbolTableRecord
100
AcDbBlockTableRecord
  2
*D23
340
0
 70
     0
280
     1
281
     0
  0
BLOCK_RECORD
  5
5F3F
330
1
100
AcDbSymbolTableRecord
100
AcDbBlockTableRecord
  2
*D24
340
0
 70
     0
280
     1
281
     0
  0
BLOCK_RECORD
  5
5F4E
330
1
100
AcDbSymbolTableRecord
100
AcDbBlockTableRecord
  2
*D25
340
0
 70
     0
280
     1
281
     0
  0
BLOCK_RECORD
  5
5F5D
330
1
100
AcDbSymbolTableRecord
100
AcDbBlockTableRecord
  2
*D26
340
0
 70
     0
280
     1
281
     0
  0
BLOCK_RECORD
  5
5F6C
330
1
100
AcDbSymbolTableRecord
100
AcDbBlockTableRecord
  2
*D27
340
0
 70
     0
280
     1
281
     0
  0
BLOCK_RECORD
  5
5F7D
330
1
100
AcDbSymbolTableRecord
100
AcDbBlockTableRecord
  2
*D28
340
0
 70
     0
280
     1
281
     0
  0
BLOCK_RECORD
  5
5FA4
330
1
100
AcDbSymbolTableRecord
100
AcDbBlockTableRecord
  2
*D29
340
0
 70
     0
280
     1
281
     0
  0
BLOCK_RECORD
  5
5FB4
330
1
100
AcDbSymbolTableRecord
100
AcDbBlockTableRecord
  2
*D30
340
0
 70
     0
280
     1
281
     0
  0
BLOCK_RECORD
  5
5FC3
330
1
100
AcDbSymbolTableRecord
100
AcDbBlockTableRecord
  2
*D31
340
0
 70
     0
280
     1
281
     0
  0
BLOCK_RECORD
  5
5FEA
330
1
100
AcDbSymbolTableRecord
100
AcDbBlockTableRecord
  2
*D32
340
0
 70
     0
280
     1
281
     0
  0
ENDTAB
  0
ENDSEC
  0
SECTION
  2
BLOCKS
  0
BLOCK
  5
D
330
A
100
AcDbEntity
  8
0
390
1D
100
AcDbBlockBegin
  2
*MODEL_SPACE
 70
     0
 10
0.0
 20
0.0
 30
0.0
  3
*MODEL_SPACE
  1
*MODEL_SPACE
  0
ENDBLK
  5
E
330
A
100
AcDbEntity
  8
0
390
1D
100
AcDbBlockEnd
  0
BLOCK
  5
F
330
B
100
AcDbEntity
 67
     1
  8
0
390
1D
100
AcDbBlockBegin
  2
*PAPER_SPACE
 70
     0
 10
0.0
 20
0.0
 30
0.0
  3
*PAPER_SPACE
  1
*PAPER_SPACE
  0
ENDBLK
  5
10
330
B
100
AcDbEntity
 67
     1
  8
0
390
1D
100
AcDbBlockEnd
  0
BLOCK
  5
51D0
330
4E
100
AcDbEntity
  8
0
390
1D
100
AcDbBlockBegin
  2
_DOT
 70
     0
 10
0.0
 20
0.0
 30
0.0
  3
_DOT
  1
_DOT
  0
POLYLINE
  5
51D2
330
4E
100
AcDbEntity
  8
0
  6
ByBlock
 62
     0
370
    -2
390
1D
100
AcDb2dPolyline
 66
     1
 10
0.0
 20
0.0
 30
0.0
 70
     1
 40
0.5
 41
0.5
  0
VERTEX
  5
51D3
330
51D2
100
AcDbEntity
  8
0
  6
ByBlock
 62
     0
370
    -2
390
1D
100
AcDbVertex
100
AcDb2dVertex
 10
-0.25
 20
0.0
 30
0.0
 42
1.0
  0
VERTEX
  5
51D4
330
51D2
100
AcDbEntity
  8
0
  6
ByBlock
 62
     0
370
    -2
390
1D
100
AcDbVertex
100
AcDb2dVertex
 10
0.25
 20
0.0
 30
0.0
 42
1.0
  0
SEQEND
  5
51D5
330
51D2
100
AcDbEntity
  8
0
390
1D
  0
LINE
  5
51D6
330
4E
100
AcDbEntity
  8
0
  6
ByBlock
 62
     0
370
    -2
390
1D
100
AcDbLine
 10
-0.5
 20
0.0
 30
0.0
 11
-1.0
 21
0.0
 31
0.0
  0
ENDBLK
  5
51D7
330
4E
100
AcDbEntity
  8
0
390
1D
100
AcDbBlockEnd
  0
BLOCK
  5
68E
330
68D
100
AcDbEntity
  8
0
100
AcDbBlockBegin
  2
block 2
 70
     0
 10
0.0
 20
0.0
 30
0.0
  3
block 2
  1
block 2
  0
ENDBLK
  5
6B0
330
68D
100
AcDbEntity
  8
0
100
AcDbBlockEnd
  0
BLOCK
  5
4EDC
330
4EDB
100
AcDbEntity
  8
0
100
AcDbBlockBegin
  2
*D2
 70
     1
 10
0.0
 20
0.0
 30
0.0
  3
*D2
  1

  0
LINE
  5
4EDE
330
4EDB
100
AcDbEntity
  8
DIM
 62
     0
370
    -2
100
AcDbLine
 10
-348.0123864729061
 20
446.7685617946589
 30
0.0
 11
-348.0123864729061
 21
406.9624685840223
 31
0.0
  0
LINE
  5
4EDF
330
4EDB
100
AcDbEntity
  8
DIM
 62
     0
370
    -2
100
AcDbLine
 10
-178.012386472906
 20
446.7685617946591
 30
0.0
 11
-178.012386472906
 21
406.9624685840223
 31
0.0
  0
LINE
  5
4EE0
330
4EDB
100
AcDbEntity
  8
DIM
 62
     0
370
    -2
100
AcDbLine
 10
-346.0123864729061
 20
406.9624685840223
 30
0.0
 11
-180.012386472906
 21
406.9624685840223
 31
0.0
  0
INSERT
  5
4EE1
330
4EDB
100
AcDbEntity
  8
DIM
 62
     0
370
    -2
100
AcDbBlockReference
  2
_DOT
 10
-348.0123864729061
 20
406.9624685840223
 30
0.0
 41
2.0
 42
2.0
 43
2.0
 50
180.0
  0
INSERT
  5
4EE2
330
4EDB
100
AcDbEntity
  8
DIM
 62
     0
370
    -2
100
AcDbBlockReference
  2
_DOT
 10
-178.012386472906
 20
406.9624685840223
 30
0.0
 41
2.0
 42
2.0
 43
2.0
  0
MTEXT
  5
4EE3
330
4EDB
100
AcDbEntity
  8
DIM
 62
     0
100
AcDbMText
 10
-263.0123864729061
 20
412.4624685840223
 30
0.0
 40
5.0
 41
0.0
 46
0.0
 71
     5
 72
     1
  1
\A1;173
  7
ＭＳ ゴシック
 73
     1
 44
1.0
  0
POINT
  5
4EE4
330
4EDB
100
AcDbEntity
  8
Defpoints
 62
     0
100
AcDbPoint
 10
-348.0123864729061
 20
451.7685617946589
 30
0.0
  0
POINT
  5
4EE5
330
4EDB
100
AcDbEntity
  8
Defpoints
 62
     0
100
AcDbPoint
 10
-178.012386472906
 20
451.7685617946591
 30
0.0
  0
POINT
  5
4EE6
330
4EDB
100
AcDbEntity
  8
Defpoints
 62
     0
100
AcDbPoint
 10
-178.012386472906
 20
406.9624685840223
 30
0.0
  0
ENDBLK
  5
4EDD
330
4EDB
100
AcDbEntity
  8
0
100
AcDbBlockEnd
  0
BLOCK
  5
4EEB
330
4EEA
100
AcDbEntity
  8
0
100
AcDbBlockBegin
  2
*D3
 70
     1
 10
0.0
 20
0.0
 30
0.0
  3
*D3
  1

  0
LINE
  5
4EED
330
4EEA
100
AcDbEntity
  8
DIM
 62
     0
370
    -2
100
AcDbLine
 10
-258.0123864729061
 20
350.2453027052249
 30
0.0
 11
-149.6207992250091
 21
350.2453027052249
 31
0.0
  0
LINE
  5
4EEE
330
4EEA
100
AcDbEntity
  8
DIM
 62
     0
370
    -2
100
AcDbLine
 10
-258.0818084736058
 20
154.9776608800388
 30
0.0
 11
-149.6207992250091
 21
154.9776608800388
 31
0.0
  0
LINE
  5
4EEF
330
4EEA
100
AcDbEntity
  8
DIM
 62
     0
370
    -2
100
AcDbLine
 10
-149.6207992250091
 20
348.2453027052249
 30
0.0
 11
-149.6207992250091
 21
156.9776608800388
 31
0.0
  0
INSERT
  5
4EF0
330
4EEA
100
AcDbEntity
  8
DIM
 62
     0
370
    -2
100
AcDbBlockReference
  2
_DOT
 10
-149.6207992250091
 20
350.2453027052249
 30
0.0
 41
2.0
 42
2.0
 43
2.0
 50
90.0
  0
INSERT
  5
4EF1
330
4EEA
100
AcDbEntity
  8
DIM
 62
     0
370
    -2
100
AcDbBlockReference
  2
_DOT
 10
-149.6207992250091
 20
154.9776608800388
 30
0.0
 41
2.0
 42
2.0
 43
2.0
 50
270.0
  0
MTEXT
  5
4EF2
330
4EEA
100
AcDbEntity
  8
DIM
 62
     0
100
AcDbMText
 10
-155.1207992250091
 20
252.6114817926318
 30
0.0
 40
5.0
 41
0.0
 46
0.0
 71
     5
 72
     1
  1
\A1;200
  7
ＭＳ ゴシック
 11
0.0
 21
1.0
 31
0.0
 73
     1
 44
1.0
  0
POINT
  5
4EF3
330
4EEA
100
AcDbEntity
  8
Defpoints
 62
     0
100
AcDbPoint
 10
-263.0123864729061
 20
350.2453027052249
 30
0.0
  0
POINT
  5
4EF4
330
4EEA
100
AcDbEntity
  8
Defpoints
 62
     0
100
AcDbPoint
 10
-263.0818084736058
 20
154.9776608800388
 30
0.0
  0
POINT
  5
4EF5
330
4EEA
100
AcDbEntity
  8
Defpoints
 62
     0
100
AcDbPoint
 10
-149.6207992250091
 20
154.9776608800388
 30
0.0
  0
ENDBLK
  5
4EEC
330
4EEA
100
AcDbEntity
  8
0
100
AcDbBlockEnd
  0
BLOCK
  5
4EF8
330
4EF7
100
AcDbEntity
  8
0
100
AcDbBlockBegin
  2
*D4
 70
     1
 10
0.0
 20
0.0
 30
0.0
  3
*D4
  1

  0
LINE
  5
4EFA
330
4EF7
100
AcDbEntity
  8
DIM
 62
     0
370
    -2
100
AcDbLine
 10
-81.08776190099098
 20
363.200531285523
 30
0.0
 11
-81.08776190099098
 21
375.1241293579447
 31
0.0
  0
LINE
  5
4EFB
330
4EF7
100
AcDbEntity
  8
DIM
 62
     0
370
    -2
100
AcDbLine
 10
-44.0877619009915
 20
354.7453027039001
 30
0.0
 11
-44.0877619009915
 21
375.1241293579447
 31
0.0
  0
LINE
  5
4EFC
330
4EF7
100
AcDbEntity
  8
DIM
 62
     0
370
    -2
100
AcDbLine
 10
-79.08776190099098
 20
375.1241293579447
 30
0.0
 11
-46.0877619009915
 21
375.1241293579447
 31
0.0
  0
INSERT
  5
4EFD
330
4EF7
100
AcDbEntity
  8
DIM
 62
     0
370
    -2
100
AcDbBlockReference
  2
_DOT
 10
-81.08776190099098
 20
375.1241293579447
 30
0.0
 41
2.0
 42
2.0
 43
2.0
 50
180.0
  0
INSERT
  5
4EFE
330
4EF7
100
AcDbEntity
  8
DIM
 62
     0
370
    -2
100
AcDbBlockReference
  2
_DOT
 10
-44.0877619009915
 20
375.1241293579447
 30
0.0
 41
2.0
 42
2.0
 43
2.0
  0
MTEXT
  5
4EFF
330
4EF7
100
AcDbEntity
  8
DIM
 62
     0
100
AcDbMText
 10
-62.58776190099124
 20
380.6241293579447
 30
0.0
 40
5.0
 41
0.0
 46
0.0
 71
     5
 72
     1
  1
\A1;37
  7
ＭＳ ゴシック
 73
     1
 44
1.0
  0
POINT
  5
4F00
330
4EF7
100
AcDbEntity
  8
Defpoints
 62
     0
100
AcDbPoint
 10
-81.08776190099098
 20
358.200531285523
 30
0.0
  0
POINT
  5
4F01
330
4EF7
100
AcDbEntity
  8
Defpoints
 62
     0
100
AcDbPoint
 10
-44.0877619009915
 20
349.7453027039001
 30
0.0
  0
POINT
  5
4F02
330
4EF7
100
AcDbEntity
  8
Defpoints
 62
     0
100
AcDbPoint
 10
-44.0877619009915
 20
375.1241293579447
 30
0.0
  0
ENDBLK
  5
4EF9
330
4EF7
100
AcDbEntity
  8
0
100
AcDbBlockEnd
  0
BLOCK
  5
4F18
330
4F17
100
AcDbEntity
  8
0
100
AcDbBlockBegin
  2
*D5
 70
     1
 10
0.0
 20
0.0
 30
0.0
  3
*D5
  1

  0
LINE
  5
4F1A
330
4F17
100
AcDbEntity
  8
DIM
 62
     0
370
    -2
100
AcDbLine
 10
-175.1158307272525
 20
456.768561794659
 30
0.0
 11
-158.5461644183025
 21
456.768561794659
 31
0.0
  0
LINE
  5
4F1B
330
4F17
100
AcDbEntity
  8
DIM
 62
     0
370
    -2
100
AcDbLine
 10
-175.1158307272524
 20
446.768561794659
 30
0.0
 11
-158.5461644183025
 21
446.768561794659
 31
0.0
  0
LINE
  5
4F1C
330
4F17
100
AcDbEntity
  8
DIM
 62
     0
370
    -2
100
AcDbLine
 10
-158.5461644183025
 20
454.768561794659
 30
0.0
 11
-158.5461644183025
 21
448.768561794659
 31
0.0
  0
INSERT
  5
4F1D
330
4F17
100
AcDbEntity
  8
DIM
 62
     0
370
    -2
100
AcDbBlockReference
  2
_DOT
 10
-158.5461644183025
 20
456.768561794659
 30
0.0
 41
2.0
 42
2.0
 43
2.0
 50
90.0
  0
INSERT
  5
4F1E
330
4F17
100
AcDbEntity
  8
DIM
 62
     0
370
    -2
100
AcDbBlockReference
  2
_DOT
 10
-158.5461644183025
 20
446.768561794659
 30
0.0
 41
2.0
 42
2.0
 43
2.0
 50
270.0
  0
MTEXT
  5
4F1F
330
4F17
100
AcDbEntity
  8
DIM
 62
     0
100
AcDbMText
 10
-164.0461644183025
 20
451.768561794659
 30
0.0
 40
5.0
 41
0.0
 46
0.0
 71
     5
 72
     1
  1
\A1;10
  7
ＭＳ ゴシック
 11
0.0
 21
1.0
 31
0.0
 73
     1
 44
1.0
  0
POINT
  5
4F20
330
4F17
100
AcDbEntity
  8
Defpoints
 62
     0
100
AcDbPoint
 10
-180.1158307272525
 20
456.768561794659
 30
0.0
  0
POINT
  5
4F21
330
4F17
100
AcDbEntity
  8
Defpoints
 62
     0
100
AcDbPoint
 10
-180.1158307272524
 20
446.768561794659
 30
0.0
  0
POINT
  5
4F22
330
4F17
100
AcDbEntity
  8
Defpoints
 62
     0
100
AcDbPoint
 10
-158.5461644183025
 20
446.768561794659
 30
0.0
  0
ENDBLK
  5
4F19
330
4F17
100
AcDbEntity
  8
0
100
AcDbBlockEnd
  0
BLOCK
  5
51EF
330
51EE
100
AcDbEntity
  8
0
100
AcDbBlockBegin
  2
*D6
 70
     1
 10
0.0
 20
0.0
 30
0.0
  3
*D6
  1

  0
LINE
  5
51F1
330
51EE
100
AcDbEntity
  8
DIM
 62
     0
370
    -2
100
AcDbLine
 10
-85.5877619009915
 20
350.245302705225
 30
0.0
 11
-109.8450279427939
 21
350.245302705225
 31
0.0
  0
LINE
  5
51F2
330
51EE
100
AcDbEntity
  8
DIM
 62
     0
370
    -2
100
AcDbLine
 10
-85.5877619009915
 20
285.245302705225
 30
0.0
 11
-109.8450279427939
 21
285.245302705225
 31
0.0
  0
LINE
  5
51F3
330
51EE
100
AcDbEntity
  8
DIM
 62
     0
370
    -2
100
AcDbLine
 10
-109.8450279427939
 20
348.245302705225
 30
0.0
 11
-109.8450279427939
 21
287.245302705225
 31
0.0
  0
INSERT
  5
51F4
330
51EE
100
AcDbEntity
  8
DIM
 62
     0
370
    -2
100
AcDbBlockReference
  2
_DOT
 10
-109.8450279427939
 20
350.245302705225
 30
0.0
 41
2.0
 42
2.0
 43
2.0
 50
90.0
  0
INSERT
  5
51F5
330
51EE
100
AcDbEntity
  8
DIM
 62
     0
370
    -2
100
AcDbBlockReference
  2
_DOT
 10
-109.8450279427939
 20
285.245302705225
 30
0.0
 41
2.0
 42
2.0
 43
2.0
 50
270.0
  0
MTEXT
  5
51F6
330
51EE
100
AcDbEntity
  8
DIM
 62
     0
100
AcDbMText
 10
-115.3450279427939
 20
317.745302705225
 30
0.0
 40
5.0
 41
0.0
 46
0.0
 71
     5
 72
     1
  1
\A1;%%c65
  7
ＭＳ ゴシック
 11
0.0
 21
1.0
 31
0.0
 73
     1
 44
1.0
  0
POINT
  5
51F7
330
51EE
100
AcDbEntity
  8
Defpoints
 62
     0
100
AcDbPoint
 10
-80.5877619009915
 20
350.245302705225
 30
0.0
  0
POINT
  5
51F8
330
51EE
100
AcDbEntity
  8
Defpoints
 62
     0
100
AcDbPoint
 10
-80.5877619009915
 20
285.245302705225
 30
0.0
  0
POINT
  5
51F9
330
51EE
100
AcDbEntity
  8
Defpoints
 62
     0
100
AcDbPoint
 10
-109.8450279427939
 20
285.245302705225
 30
0.0
  0
ENDBLK
  5
51F0
330
51EE
100
AcDbEntity
  8
0
100
AcDbBlockEnd
  0
BLOCK
  5
53CA
330
53C9
100
AcDbEntity
  8
0
100
AcDbBlockBegin
  2
*D7
 70
     1
 10
0.0
 20
0.0
 30
0.0
  3
*D7
  1

  0
LINE
  5
53CC
330
53C9
100
AcDbEntity
  8
DIM
 62
     0
370
    -2
100
AcDbLine
 10
538.245798231887
 20
472.6926082038603
 30
0.0
 11
497.6574584117474
 21
472.6926082038603
 31
0.0
  0
LINE
  5
53CD
330
53C9
100
AcDbEntity
  8
DIM
 62
     0
370
    -2
100
AcDbLine
 10
538.245798231887
 20
352.5926083737336
 30
0.0
 11
497.6574584117474
 21
352.5926083737336
 31
0.0
  0
LINE
  5
53CE
330
53C9
100
AcDbEntity
  8
DIM
 62
     0
370
    -2
100
AcDbLine
 10
497.6574584117474
 20
470.6926082038603
 30
0.0
 11
497.6574584117474
 21
354.5926083737336
 31
0.0
  0
INSERT
  5
53CF
330
53C9
100
AcDbEntity
  8
DIM
 62
     0
370
    -2
100
AcDbBlockReference
  2
_DOT
 10
497.6574584117474
 20
472.6926082038603
 30
0.0
 41
2.0
 42
2.0
 43
2.0
 50
90.0
  0
INSERT
  5
53D0
330
53C9
100
AcDbEntity
  8
DIM
 62
     0
370
    -2
100
AcDbBlockReference
  2
_DOT
 10
497.6574584117474
 20
352.5926083737336
 30
0.0
 41
2.0
 42
2.0
 43
2.0
 50
270.0
  0
MTEXT
  5
53D1
330
53C9
100
AcDbEntity
  8
DIM
 62
     0
100
AcDbMText
 10
492.156520560053
 20
412.642608288797
 30
0.0
 40
5.0
 41
0.0
 46
0.0
 71
     5
 72
     1
  1
\A1;120
  7
ＭＳ ゴシック
 11
0.0
 21
1.0
 31
0.0
 73
     1
 44
1.0
  0
POINT
  5
53D2
330
53C9
100
AcDbEntity
  8
Defpoints
 62
     0
100
AcDbPoint
 10
543.245798231887
 20
472.6926082038603
 30
0.0
  0
POINT
  5
53D3
330
53C9
100
AcDbEntity
  8
Defpoints
 62
     0
100
AcDbPoint
 10
543.245798231887
 20
352.5926083737336
 30
0.0
  0
POINT
  5
53D4
330
53C9
100
AcDbEntity
  8
Defpoints
 62
     0
100
AcDbPoint
 10
497.6574584117474
 20
352.5926083737336
 30
0.0
  0
ENDBLK
  5
53CB
330
53C9
100
AcDbEntity
  8
0
100
AcDbBlockEnd
  0
BLOCK
  5
53D9
330
53D8
100
AcDbEntity
  8
0
100
AcDbBlockBegin
  2
*D8
 70
     1
 10
0.0
 20
0.0
 30
0.0
  3
*D8
  1

  0
LINE
  5
53DB
330
53D8
100
AcDbEntity
  8
DIM
 62
     0
370
    -2
100
AcDbLine
 10
538.2457972463549
 20
472.692608046585
 30
0.0
 11
514.3785877750747
 21
472.692608046585
 31
0.0
  0
LINE
  5
53DC
330
53D8
100
AcDbEntity
  8
DIM
 62
     0
370
    -2
100
AcDbLine
 10
538.2457972463549
 20
372.692608046585
 30
0.0
 11
514.3785877750747
 21
372.692608046585
 31
0.0
  0
LINE
  5
53DD
330
53D8
100
AcDbEntity
  8
DIM
 62
     0
370
    -2
100
AcDbLine
 10
514.3785877750747
 20
470.692608046585
 30
0.0
 11
514.3785877750747
 21
374.692608046585
 31
0.0
  0
INSERT
  5
53DE
330
53D8
100
AcDbEntity
  8
DIM
 62
     0
370
    -2
100
AcDbBlockReference
  2
_DOT
 10
514.3785877750747
 20
472.692608046585
 30
0.0
 41
2.0
 42
2.0
 43
2.0
 50
90.0
  0
INSERT
  5
53DF
330
53D8
100
AcDbEntity
  8
DIM
 62
     0
370
    -2
100
AcDbBlockReference
  2
_DOT
 10
514.3785877750747
 20
372.692608046585
 30
0.0
 41
2.0
 42
2.0
 43
2.0
 50
270.0
  0
MTEXT
  5
53E0
330
53D8
100
AcDbEntity
  8
DIM
 62
     0
100
AcDbMText
 10
508.8776499233803
 20
422.692608046585
 30
0.0
 40
5.0
 41
0.0
 46
0.0
 71
     5
 72
     1
  1
\A1;100
  7
ＭＳ ゴシック
 11
0.0
 21
1.0
 31
0.0
 73
     1
 44
1.0
  0
POINT
  5
53E1
330
53D8
100
AcDbEntity
  8
Defpoints
 62
     0
100
AcDbPoint
 10
543.2457972463549
 20
472.692608046585
 30
0.0
  0
POINT
  5
53E2
330
53D8
100
AcDbEntity
  8
Defpoints
 62
     0
100
AcDbPoint
 10
543.2457972463549
 20
372.692608046585
 30
0.0
  0
POINT
  5
53E3
330
53D8
100
AcDbEntity
  8
Defpoints
 62
     0
100
AcDbPoint
 10
514.3785877750747
 20
372.692608046585
 30
0.0
  0
ENDBLK
  5
53DA
330
53D8
100
AcDbEntity
  8
0
100
AcDbBlockEnd
  0
BLOCK
  5
53E8
330
53E7
100
AcDbEntity
  8
0
100
AcDbBlockBegin
  2
*D9
 70
     1
 10
0.0
 20
0.0
 30
0.0
  3
*D9
  1

  0
LINE
  5
53EA
330
53E7
100
AcDbEntity
  8
DIM
 62
     0
370
    -2
100
AcDbLine
 10
542.557345501024
 20
361.692608046585
 30
0.0
 11
542.557345501024
 21
318.2036170115858
 31
0.0
  0
LINE
  5
53EB
330
53E7
100
AcDbEntity
  8
DIM
 62
     0
370
    -2
100
AcDbLine
 10
675.557345501024
 20
361.692608046585
 30
0.0
 11
675.557345501024
 21
318.2036170115858
 31
0.0
  0
LINE
  5
53EC
330
53E7
100
AcDbEntity
  8
DIM
 62
     0
370
    -2
100
AcDbLine
 10
544.557345501024
 20
318.2036170115858
 30
0.0
 11
673.557345501024
 21
318.2036170115858
 31
0.0
  0
INSERT
  5
53ED
330
53E7
100
AcDbEntity
  8
DIM
 62
     0
370
    -2
100
AcDbBlockReference
  2
_DOT
 10
542.557345501024
 20
318.2036170115858
 30
0.0
 41
2.0
 42
2.0
 43
2.0
 50
180.0
  0
INSERT
  5
53EE
330
53E7
100
AcDbEntity
  8
DIM
 62
     0
370
    -2
100
AcDbBlockReference
  2
_DOT
 10
675.557345501024
 20
318.2036170115858
 30
0.0
 41
2.0
 42
2.0
 43
2.0
  0
MTEXT
  5
53EF
330
53E7
100
AcDbEntity
  8
DIM
 62
     0
100
AcDbMText
 10
609.057345501024
 20
323.7045548632802
 30
0.0
 40
5.0
 41
0.0
 46
0.0
 71
     5
 72
     1
  1
\A1;133
  7
ＭＳ ゴシック
 73
     1
 44
1.0
  0
POINT
  5
53F0
330
53E7
100
AcDbEntity
  8
Defpoints
 62
     0
100
AcDbPoint
 10
542.557345501024
 20
366.692608046585
 30
0.0
  0
POINT
  5
53F1
330
53E7
100
AcDbEntity
  8
Defpoints
 62
     0
100
AcDbPoint
 10
675.557345501024
 20
366.692608046585
 30
0.0
  0
POINT
  5
53F2
330
53E7
100
AcDbEntity
  8
Defpoints
 62
     0
100
AcDbPoint
 10
675.557345501024
 20
318.2036170115858
 30
0.0
  0
ENDBLK
  5
53E9
330
53E7
100
AcDbEntity
  8
0
100
AcDbBlockEnd
  0
BLOCK
  5
53F7
330
53F6
100
AcDbEntity
  8
0
100
AcDbBlockBegin
  2
*D10
 70
     1
 10
0.0
 20
0.0
 30
0.0
  3
*D10
  1

  0
LINE
  5
53F9
330
53F6
100
AcDbEntity
  8
DIM
 62
     0
370
    -2
100
AcDbLine
 10
670.6073455010239
 20
344.8099169680651
 30
0.0
 11
670.6073455010239
 21
332.6757504449221
 31
0.0
  0
LINE
  5
53FA
330
53F6
100
AcDbEntity
  8
DIM
 62
     0
370
    -2
100
AcDbLine
 10
547.507345501024
 20
344.8099169680651
 30
0.0
 11
547.507345501024
 21
332.6757504449221
 31
0.0
  0
LINE
  5
53FB
330
53F6
100
AcDbEntity
  8
DIM
 62
     0
370
    -2
100
AcDbLine
 10
668.6073455010239
 20
332.6757504449221
 30
0.0
 11
549.507345501024
 21
332.6757504449221
 31
0.0
  0
INSERT
  5
53FC
330
53F6
100
AcDbEntity
  8
DIM
 62
     0
370
    -2
100
AcDbBlockReference
  2
_DOT
 10
670.6073455010239
 20
332.6757504449221
 30
0.0
 41
2.0
 42
2.0
 43
2.0
  0
INSERT
  5
53FD
330
53F6
100
AcDbEntity
  8
DIM
 62
     0
370
    -2
100
AcDbBlockReference
  2
_DOT
 10
547.507345501024
 20
332.6757504449221
 30
0.0
 41
2.0
 42
2.0
 43
2.0
 50
180.0
  0
MTEXT
  5
53FE
330
53F6
100
AcDbEntity
  8
DIM
 62
     0
100
AcDbMText
 10
609.057345501024
 20
338.1766882966165
 30
0.0
 40
5.0
 41
0.0
 46
0.0
 71
     5
 72
     1
  1
\A1;123
  7
ＭＳ ゴシック
 73
     1
 44
1.0
  0
POINT
  5
53FF
330
53F6
100
AcDbEntity
  8
Defpoints
 62
     0
100
AcDbPoint
 10
670.6073455010239
 20
349.8099169680651
 30
0.0
  0
POINT
  5
5400
330
53F6
100
AcDbEntity
  8
Defpoints
 62
     0
100
AcDbPoint
 10
547.507345501024
 20
349.8099169680651
 30
0.0
  0
POINT
  5
5401
330
53F6
100
AcDbEntity
  8
Defpoints
 62
     0
100
AcDbPoint
 10
547.507345501024
 20
332.6757504449221
 30
0.0
  0
ENDBLK
  5
53F8
330
53F6
100
AcDbEntity
  8
0
100
AcDbBlockEnd
  0
BLOCK
  5
5406
330
5405
100
AcDbEntity
  8
0
100
AcDbBlockBegin
  2
*D11
 70
     1
 10
0.0
 20
0.0
 30
0.0
  3
*D11
  1

  0
LINE
  5
5408
330
5405
100
AcDbEntity
  8
DIM
 62
     0
370
    -2
100
AcDbLine
 10
680.6867958548364
 20
372.692608046585
 30
0.0
 11
695.619119152663
 21
372.692608046585
 31
0.0
  0
LINE
  5
5409
330
5405
100
AcDbEntity
  8
DIM
 62
     0
370
    -2
100
AcDbLine
 10
680.6867958548364
 20
400.8926080465851
 30
0.0
 11
695.619119152663
 21
400.8926080465851
 31
0.0
  0
LINE
  5
540A
330
5405
100
AcDbEntity
  8
DIM
 62
     0
370
    -2
100
AcDbLine
 10
695.619119152663
 20
374.692608046585
 30
0.0
 11
695.619119152663
 21
398.8926080465851
 31
0.0
  0
INSERT
  5
540B
330
5405
100
AcDbEntity
  8
DIM
 62
     0
370
    -2
100
AcDbBlockReference
  2
_DOT
 10
695.619119152663
 20
372.692608046585
 30
0.0
 41
2.0
 42
2.0
 43
2.0
 50
270.0
  0
INSERT
  5
540C
330
5405
100
AcDbEntity
  8
DIM
 62
     0
370
    -2
100
AcDbBlockReference
  2
_DOT
 10
695.619119152663
 20
400.8926080465851
 30
0.0
 41
2.0
 42
2.0
 43
2.0
 50
90.0
  0
MTEXT
  5
540D
330
5405
100
AcDbEntity
  8
DIM
 62
     0
100
AcDbMText
 10
690.1181813009686
 20
386.792608046585
 30
0.0
 40
5.0
 41
0.0
 46
0.0
 71
     5
 72
     1
  1
\A1;28
  7
ＭＳ ゴシック
 11
0.0
 21
1.0
 31
0.0
 73
     1
 44
1.0
  0
POINT
  5
540E
330
5405
100
AcDbEntity
  8
Defpoints
 62
     0
100
AcDbPoint
 10
675.6867958548364
 20
372.692608046585
 30
0.0
  0
POINT
  5
540F
330
5405
100
AcDbEntity
  8
Defpoints
 62
     0
100
AcDbPoint
 10
675.6867958548364
 20
400.8926080465851
 30
0.0
  0
POINT
  5
5410
330
5405
100
AcDbEntity
  8
Defpoints
 62
     0
100
AcDbPoint
 10
695.619119152663
 20
400.8926080465851
 30
0.0
  0
ENDBLK
  5
5407
330
5405
100
AcDbEntity
  8
0
100
AcDbBlockEnd
  0
BLOCK
  5
5415
330
5414
100
AcDbEntity
  8
0
100
AcDbBlockBegin
  2
*D12
 70
     1
 10
0.0
 20
0.0
 30
0.0
  3
*D12
  1

  0
LINE
  5
5417
330
5414
100
AcDbEntity
  8
DIM
 62
     0
370
    -2
100
AcDbLine
 10
723.6634799265032
 20
365.4490777464217
 30
0.0
 11
678.6107839530702
 21
365.4490777464217
 31
0.0
  0
LINE
  5
5418
330
5414
100
AcDbEntity
  8
DIM
 62
     0
370
    -2
100
AcDbLine
 10
723.6634799265032
 20
348.0490777464219
 30
0.0
 11
678.6107839530702
 21
348.0490777464219
 31
0.0
  0
LINE
  5
5419
330
5414
100
AcDbEntity
  8
DIM
 62
     0
370
    -2
100
AcDbLine
 10
678.6107839530702
 20
363.4490777464217
 30
0.0
 11
678.6107839530702
 21
350.0490777464219
 31
0.0
  0
INSERT
  5
541A
330
5414
100
AcDbEntity
  8
DIM
 62
     0
370
    -2
100
AcDbBlockReference
  2
_DOT
 10
678.6107839530702
 20
365.4490777464217
 30
0.0
 41
2.0
 42
2.0
 43
2.0
 50
90.0
  0
INSERT
  5
541B
330
5414
100
AcDbEntity
  8
DIM
 62
     0
370
    -2
100
AcDbBlockReference
  2
_DOT
 10
678.6107839530702
 20
348.0490777464219
 30
0.0
 41
2.0
 42
2.0
 43
2.0
 50
270.0
  0
MTEXT
  5
541C
330
5414
100
AcDbEntity
  8
DIM
 62
     0
100
AcDbMText
 10
673.1107839530702
 20
356.7490777464218
 30
0.0
 40
5.0
 41
0.0
 46
0.0
 71
     5
 72
     1
  1
\A1;17
  7
ＭＳ ゴシック
 11
0.0
 21
1.0
 31
0.0
 73
     1
 44
1.0
  0
POINT
  5
541D
330
5414
100
AcDbEntity
  8
Defpoints
 62
     0
100
AcDbPoint
 10
728.6634799265032
 20
365.4490777464217
 30
0.0
  0
POINT
  5
541E
330
5414
100
AcDbEntity
  8
Defpoints
 62
     0
100
AcDbPoint
 10
728.6634799265032
 20
348.0490777464219
 30
0.0
  0
POINT
  5
541F
330
5414
100
AcDbEntity
  8
Defpoints
 62
     0
100
AcDbPoint
 10
678.6107839530702
 20
348.0490777464219
 30
0.0
  0
ENDBLK
  5
5416
330
5414
100
AcDbEntity
  8
0
100
AcDbBlockEnd
  0
BLOCK
  5
5424
330
5423
100
AcDbEntity
  8
0
100
AcDbBlockBegin
  2
*D13
 70
     1
 10
0.0
 20
0.0
 30
0.0
  3
*D13
  1

  0
LINE
  5
5426
330
5423
100
AcDbEntity
  8
DIM
 62
     0
370
    -2
100
AcDbLine
 10
793.0264489965913
 20
471.0916350993874
 30
0.0
 11
793.0264489965913
 21
486.8342438492502
 31
0.0
  0
LINE
  5
5427
330
5423
100
AcDbEntity
  8
DIM
 62
     0
370
    -2
100
AcDbLine
 10
811.2264489965914
 20
472.8527999932437
 30
0.0
 11
811.2264489965914
 21
486.8342438492502
 31
0.0
  0
LINE
  5
5428
330
5423
100
AcDbEntity
  8
DIM
 62
     0
370
    -2
100
AcDbLine
 10
795.0264489965913
 20
486.8342438492502
 30
0.0
 11
809.2264489965914
 21
486.8342438492502
 31
0.0
  0
INSERT
  5
5429
330
5423
100
AcDbEntity
  8
DIM
 62
     0
370
    -2
100
AcDbBlockReference
  2
_DOT
 10
793.0264489965913
 20
486.8342438492502
 30
0.0
 41
2.0
 42
2.0
 43
2.0
 50
180.0
  0
INSERT
  5
542A
330
5423
100
AcDbEntity
  8
DIM
 62
     0
370
    -2
100
AcDbBlockReference
  2
_DOT
 10
811.2264489965914
 20
486.8342438492502
 30
0.0
 41
2.0
 42
2.0
 43
2.0
  0
MTEXT
  5
542B
330
5423
100
AcDbEntity
  8
DIM
 62
     0
100
AcDbMText
 10
802.1264489965913
 20
492.3351817009446
 30
0.0
 40
5.0
 41
0.0
 46
0.0
 71
     5
 72
     1
  1
\A1;18
  7
ＭＳ ゴシック
 73
     1
 44
1.0
  0
POINT
  5
542C
330
5423
100
AcDbEntity
  8
Defpoints
 62
     0
100
AcDbPoint
 10
793.0264489965913
 20
466.0916350993874
 30
0.0
  0
POINT
  5
542D
330
5423
100
AcDbEntity
  8
Defpoints
 62
     0
100
AcDbPoint
 10
811.2264489965914
 20
467.8527999932437
 30
0.0
  0
POINT
  5
542E
330
5423
100
AcDbEntity
  8
Defpoints
 62
     0
100
AcDbPoint
 10
811.2264489965914
 20
486.8342438492502
 30
0.0
  0
ENDBLK
  5
5425
330
5423
100
AcDbEntity
  8
0
100
AcDbBlockEnd
  0
BLOCK
  5
5433
330
5432
100
AcDbEntity
  8
0
100
AcDbBlockBegin
  2
*D14
 70
     1
 10
0.0
 20
0.0
 30
0.0
  3
*D14
  1

  0
LINE
  5
5435
330
5432
100
AcDbEntity
  8
DIM
 62
     0
370
    -2
100
AcDbLine
 10
590.0573455010242
 20
211.9717378415698
 30
0.0
 11
590.0573455010242
 21
265.2178038062168
 31
0.0
  0
LINE
  5
5436
330
5432
100
AcDbEntity
  8
DIM
 62
     0
370
    -2
100
AcDbLine
 10
628.0573455010242
 20
211.9717378415698
 30
0.0
 11
628.0573455010242
 21
265.2178038062168
 31
0.0
  0
LINE
  5
5437
330
5432
100
AcDbEntity
  8
DIM
 62
     0
370
    -2
100
AcDbLine
 10
592.0573455010242
 20
265.2178038062168
 30
0.0
 11
626.0573455010242
 21
265.2178038062168
 31
0.0
  0
INSERT
  5
5438
330
5432
100
AcDbEntity
  8
DIM
 62
     0
370
    -2
100
AcDbBlockReference
  2
_DOT
 10
590.0573455010242
 20
265.2178038062168
 30
0.0
 41
2.0
 42
2.0
 43
2.0
 50
180.0
  0
INSERT
  5
5439
330
5432
100
AcDbEntity
  8
DIM
 62
     0
370
    -2
100
AcDbBlockReference
  2
_DOT
 10
628.0573455010242
 20
265.2178038062168
 30
0.0
 41
2.0
 42
2.0
 43
2.0
  0
MTEXT
  5
543A
330
5432
100
AcDbEntity
  8
DIM
 62
     0
100
AcDbMText
 10
609.0573455010242
 20
270.7187416579112
 30
0.0
 40
5.0
 41
0.0
 46
0.0
 71
     5
 72
     1
  1
\A1;38
  7
ＭＳ ゴシック
 73
     1
 44
1.0
  0
POINT
  5
543B
330
5432
100
AcDbEntity
  8
Defpoints
 62
     0
100
AcDbPoint
 10
590.0573455010242
 20
206.9717378415698
 30
0.0
  0
POINT
  5
543C
330
5432
100
AcDbEntity
  8
Defpoints
 62
     0
100
AcDbPoint
 10
628.0573455010242
 20
206.9717378415698
 30
0.0
  0
POINT
  5
543D
330
5432
100
AcDbEntity
  8
Defpoints
 62
     0
100
AcDbPoint
 10
628.0573455010242
 20
265.2178038062168
 30
0.0
  0
ENDBLK
  5
5434
330
5432
100
AcDbEntity
  8
0
100
AcDbBlockEnd
  0
BLOCK
  5
555D
330
555C
100
AcDbEntity
  8
0
100
AcDbBlockBegin
  2
*D15
 70
     1
 10
0.0
 20
0.0
 30
0.0
  3
*D15
  1

  0
LINE
  5
555F
330
555C
100
AcDbEntity
  8
DIM
 62
     0
370
    -2
100
AcDbLine
 10
771.1264489965911
 20
454.592608046585
 30
0.0
 11
721.729561119364
 21
454.592608046585
 31
0.0
  0
LINE
  5
5560
330
555C
100
AcDbEntity
  8
DIM
 62
     0
370
    -2
100
AcDbLine
 10
771.1264489965911
 20
472.592608046585
 30
0.0
 11
721.729561119364
 21
472.592608046585
 31
0.0
  0
LINE
  5
5561
330
555C
100
AcDbEntity
  8
DIM
 62
     0
370
    -2
100
AcDbLine
 10
721.729561119364
 20
456.592608046585
 30
0.0
 11
721.729561119364
 21
470.592608046585
 31
0.0
  0
INSERT
  5
5562
330
555C
100
AcDbEntity
  8
DIM
 62
     0
370
    -2
100
AcDbBlockReference
  2
_DOT
 10
721.729561119364
 20
454.592608046585
 30
0.0
 41
2.0
 42
2.0
 43
2.0
 50
270.0
  0
INSERT
  5
5563
330
555C
100
AcDbEntity
  8
DIM
 62
     0
370
    -2
100
AcDbBlockReference
  2
_DOT
 10
721.729561119364
 20
472.592608046585
 30
0.0
 41
2.0
 42
2.0
 43
2.0
 50
90.0
  0
MTEXT
  5
5564
330
555C
100
AcDbEntity
  8
DIM
 62
     0
100
AcDbMText
 10
716.2286232676696
 20
463.592608046585
 30
0.0
 40
5.0
 41
0.0
 46
0.0
 71
     5
 72
     1
  1
\A1;18
  7
ＭＳ ゴシック
 11
0.0
 21
1.0
 31
0.0
 73
     1
 44
1.0
  0
POINT
  5
5565
330
555C
100
AcDbEntity
  8
Defpoints
 62
     0
100
AcDbPoint
 10
776.1264489965911
 20
454.592608046585
 30
0.0
  0
POINT
  5
5566
330
555C
100
AcDbEntity
  8
Defpoints
 62
     0
100
AcDbPoint
 10
776.1264489965911
 20
472.592608046585
 30
0.0
  0
POINT
  5
5567
330
555C
100
AcDbEntity
  8
Defpoints
 62
     0
100
AcDbPoint
 10
721.729561119364
 20
472.592608046585
 30
0.0
  0
ENDBLK
  5
555E
330
555C
100
AcDbEntity
  8
0
100
AcDbBlockEnd
  0
BLOCK
  5
556C
330
556B
100
AcDbEntity
  8
0
100
AcDbBlockBegin
  2
*D16
 70
     1
 10
0.0
 20
0.0
 30
0.0
  3
*D16
  1

  0
LINE
  5
556E
330
556B
100
AcDbEntity
  8
DIM
 62
     0
370
    -2
100
AcDbLine
 10
737.8478221371146
 20
463.592608046585
 30
0.0
 11
732.4700056560475
 21
463.592608046585
 31
0.0
  0
LINE
  5
556F
330
556B
100
AcDbEntity
  8
DIM
 62
     0
370
    -2
100
AcDbLine
 10
737.8478221371146
 20
454.592608046585
 30
0.0
 11
732.4700056560475
 21
454.592608046585
 31
0.0
  0
LINE
  5
5570
330
556B
100
AcDbEntity
  8
DIM
 62
     0
370
    -2
100
AcDbLine
 10
732.4700056560475
 20
461.592608046585
 30
0.0
 11
732.4700056560475
 21
456.592608046585
 31
0.0
  0
INSERT
  5
5571
330
556B
100
AcDbEntity
  8
DIM
 62
     0
370
    -2
100
AcDbBlockReference
  2
_DOT
 10
732.4700056560475
 20
463.592608046585
 30
0.0
 41
2.0
 42
2.0
 43
2.0
 50
90.0
  0
INSERT
  5
5572
330
556B
100
AcDbEntity
  8
DIM
 62
     0
370
    -2
100
AcDbBlockReference
  2
_DOT
 10
732.4700056560475
 20
454.592608046585
 30
0.0
 41
2.0
 42
2.0
 43
2.0
 50
270.0
  0
MTEXT
  5
5573
330
556B
100
AcDbEntity
  8
DIM
 62
     0
100
AcDbMText
 10
726.9700056560475
 20
459.092608046585
 30
0.0
 40
5.0
 41
0.0
 46
0.0
 71
     5
 72
     1
  1
\A1;9
  7
ＭＳ ゴシック
 11
0.0
 21
1.0
 31
0.0
 73
     1
 44
1.0
  0
POINT
  5
5574
330
556B
100
AcDbEntity
  8
Defpoints
 62
     0
100
AcDbPoint
 10
742.8478221371146
 20
463.592608046585
 30
0.0
  0
POINT
  5
5575
330
556B
100
AcDbEntity
  8
Defpoints
 62
     0
100
AcDbPoint
 10
742.8478221371146
 20
454.592608046585
 30
0.0
  0
POINT
  5
5576
330
556B
100
AcDbEntity
  8
Defpoints
 62
     0
100
AcDbPoint
 10
732.4700056560475
 20
454.592608046585
 30
0.0
  0
ENDBLK
  5
556D
330
556B
100
AcDbEntity
  8
0
100
AcDbBlockEnd
  0
BLOCK
  5
5580
330
557F
100
AcDbEntity
  8
0
100
AcDbBlockBegin
  2
*D17
 70
     1
 10
0.0
 20
0.0
 30
0.0
  3
*D17
  1

  0
LINE
  5
5582
330
557F
100
AcDbEntity
  8
DIM
 62
     0
370
    -2
100
AcDbLine
 10
776.1264489965911
 20
449.592608046585
 30
0.0
 11
776.1264489965911
 21
435.2261168108059
 31
0.0
  0
LINE
  5
5583
330
557F
100
AcDbEntity
  8
DIM
 62
     0
370
    -2
100
AcDbLine
 10
786.1264489965911
 20
449.592608046585
 30
0.0
 11
786.1264489965911
 21
435.2261168108059
 31
0.0
  0
LINE
  5
5584
330
557F
100
AcDbEntity
  8
DIM
 62
     0
370
    -2
100
AcDbLine
 10
778.1264489965911
 20
435.2261168108059
 30
0.0
 11
784.1264489965911
 21
435.2261168108059
 31
0.0
  0
INSERT
  5
5585
330
557F
100
AcDbEntity
  8
DIM
 62
     0
370
    -2
100
AcDbBlockReference
  2
_DOT
 10
776.1264489965911
 20
435.2261168108059
 30
0.0
 41
2.0
 42
2.0
 43
2.0
 50
180.0
  0
INSERT
  5
5586
330
557F
100
AcDbEntity
  8
DIM
 62
     0
370
    -2
100
AcDbBlockReference
  2
_DOT
 10
786.1264489965911
 20
435.2261168108059
 30
0.0
 41
2.0
 42
2.0
 43
2.0
  0
MTEXT
  5
5587
330
557F
100
AcDbEntity
  8
DIM
 62
     0
100
AcDbMText
 10
781.1264489965911
 20
440.7270546625003
 30
0.0
 40
5.0
 41
0.0
 46
0.0
 71
     5
 72
     1
  1
\A1;10
  7
ＭＳ ゴシック
 73
     1
 44
1.0
  0
POINT
  5
5588
330
557F
100
AcDbEntity
  8
Defpoints
 62
     0
100
AcDbPoint
 10
776.1264489965911
 20
454.592608046585
 30
0.0
  0
POINT
  5
5589
330
557F
100
AcDbEntity
  8
Defpoints
 62
     0
100
AcDbPoint
 10
786.1264489965911
 20
454.592608046585
 30
0.0
  0
POINT
  5
558A
330
557F
100
AcDbEntity
  8
Defpoints
 62
     0
100
AcDbPoint
 10
786.1264489965911
 20
435.2261168108059
 30
0.0
  0
ENDBLK
  5
5581
330
557F
100
AcDbEntity
  8
0
100
AcDbBlockEnd
  0
BLOCK
  5
5590
330
558F
100
AcDbEntity
  8
0
100
AcDbBlockBegin
  2
*D18
 70
     1
 10
0.0
 20
0.0
 30
0.0
  3
*D18
  1

  0
LINE
  5
5592
330
558F
100
AcDbEntity
  8
DIM
 62
     0
370
    -2
100
AcDbLine
 10
776.1264489965911
 20
444.592608046585
 30
0.0
 11
776.1264489965911
 21
435.2261168108059
 31
0.0
  0
LINE
  5
5593
330
558F
100
AcDbEntity
  8
DIM
 62
     0
370
    -2
100
AcDbLine
 10
742.1264489965911
 20
457.3853346360897
 30
0.0
 11
742.1264489965911
 21
435.2261168108059
 31
0.0
  0
LINE
  5
5594
330
558F
100
AcDbEntity
  8
DIM
 62
     0
370
    -2
100
AcDbLine
 10
774.1264489965911
 20
435.2261168108059
 30
0.0
 11
744.1264489965911
 21
435.2261168108059
 31
0.0
  0
INSERT
  5
5595
330
558F
100
AcDbEntity
  8
DIM
 62
     0
370
    -2
100
AcDbBlockReference
  2
_DOT
 10
776.1264489965911
 20
435.2261168108059
 30
0.0
 41
2.0
 42
2.0
 43
2.0
  0
INSERT
  5
5596
330
558F
100
AcDbEntity
  8
DIM
 62
     0
370
    -2
100
AcDbBlockReference
  2
_DOT
 10
742.1264489965911
 20
435.2261168108059
 30
0.0
 41
2.0
 42
2.0
 43
2.0
 50
180.0
  0
MTEXT
  5
5597
330
558F
100
AcDbEntity
  8
DIM
 62
     0
100
AcDbMText
 10
759.1264489965911
 20
440.7270546625003
 30
0.0
 40
5.0
 41
0.0
 46
0.0
 71
     5
 72
     1
  1
\A1;34
  7
ＭＳ ゴシック
 73
     1
 44
1.0
  0
POINT
  5
5598
330
558F
100
AcDbEntity
  8
Defpoints
 62
     0
100
AcDbPoint
 10
776.1264489965911
 20
449.592608046585
 30
0.0
  0
POINT
  5
5599
330
558F
100
AcDbEntity
  8
Defpoints
 62
     0
100
AcDbPoint
 10
742.1264489965911
 20
462.3853346360897
 30
0.0
  0
POINT
  5
559A
330
558F
100
AcDbEntity
  8
Defpoints
 62
     0
100
AcDbPoint
 10
742.1264489965911
 20
435.2261168108059
 30
0.0
  0
ENDBLK
  5
5591
330
558F
100
AcDbEntity
  8
0
100
AcDbBlockEnd
  0
BLOCK
  5
5626
330
5625
100
AcDbEntity
  8
0
100
AcDbBlockBegin
  2
*D19
 70
     1
 10
0.0
 20
0.0
 30
0.0
  3
*D19
  1

  0
LINE
  5
5628
330
5625
100
AcDbEntity
  8
DIM
 62
     0
370
    -2
100
AcDbLine
 10
584.8965890500891
 20
129.7575496549063
 30
0.0
 11
621.9776199431094
 21
129.7575496549063
 31
0.0
  0
LINE
  5
5629
330
5625
100
AcDbEntity
  8
DIM
 62
     0
370
    -2
100
AcDbLine
 10
584.8965890500892
 20
139.7575496549063
 30
0.0
 11
621.9776199431094
 21
139.7575496549063
 31
0.0
  0
LINE
  5
562A
330
5625
100
AcDbEntity
  8
DIM
 62
     0
370
    -2
100
AcDbLine
 10
621.9776199431094
 20
127.7575496549063
 30
0.0
 11
621.9776199431094
 21
125.7575496549063
 31
0.0
  0
LINE
  5
562B
330
5625
100
AcDbEntity
  8
DIM
 62
     0
370
    -2
100
AcDbLine
 10
621.9776199431094
 20
141.7575496549063
 30
0.0
 11
621.9776199431094
 21
143.7575496549063
 31
0.0
  0
INSERT
  5
562C
330
5625
100
AcDbEntity
  8
DIM
 62
     0
370
    -2
100
AcDbBlockReference
  2
_DOT
 10
621.9776199431094
 20
129.7575496549063
 30
0.0
 41
2.0
 42
2.0
 43
2.0
 50
90.0
  0
INSERT
  5
562D
330
5625
100
AcDbEntity
  8
DIM
 62
     0
370
    -2
100
AcDbBlockReference
  2
_DOT
 10
621.9776199431094
 20
139.7575496549063
 30
0.0
 41
2.0
 42
2.0
 43
2.0
 50
270.0
  0
MTEXT
  5
562E
330
5625
100
AcDbEntity
  8
DIM
 62
     0
100
AcDbMText
 10
616.4776199431094
 20
134.7575496549063
 30
0.0
 40
5.0
 41
0.0
 46
0.0
 71
     5
 72
     1
  1
\A1;10
  7
ＭＳ ゴシック
 11
0.0
 21
1.0
 31
0.0
 73
     1
 44
1.0
  0
POINT
  5
562F
330
5625
100
AcDbEntity
  8
Defpoints
 62
     0
100
AcDbPoint
 10
579.8965890500891
 20
129.7575496549063
 30
0.0
  0
POINT
  5
5630
330
5625
100
AcDbEntity
  8
Defpoints
 62
     0
100
AcDbPoint
 10
579.8965890500892
 20
139.7575496549063
 30
0.0
  0
POINT
  5
5631
330
5625
100
AcDbEntity
  8
Defpoints
 62
     0
100
AcDbPoint
 10
621.9776199431094
 20
139.7575496549063
 30
0.0
  0
ENDBLK
  5
5627
330
5625
100
AcDbEntity
  8
0
100
AcDbBlockEnd
  0
BLOCK
  5
5636
330
5635
100
AcDbEntity
  8
0
100
AcDbBlockBegin
  2
*D20
 70
     1
 10
0.0
 20
0.0
 30
0.0
  3
*D20
  1

  0
LINE
  5
5638
330
5635
100
AcDbEntity
  8
DIM
 62
     0
370
    -2
100
AcDbLine
 10
598.5790797496413
 20
246.5639612026055
 30
0.0
 11
598.5790797496413
 21
254.0637594784604
 31
0.0
  0
LINE
  5
5639
330
5635
100
AcDbEntity
  8
DIM
 62
     0
370
    -2
100
AcDbLine
 10
619.579079749641
 20
246.5639612026055
 30
0.0
 11
619.579079749641
 21
254.0637594784604
 31
0.0
  0
LINE
  5
563A
330
5635
100
AcDbEntity
  8
DIM
 62
     0
370
    -2
100
AcDbLine
 10
600.5790797496413
 20
254.0637594784604
 30
0.0
 11
617.579079749641
 21
254.0637594784604
 31
0.0
  0
INSERT
  5
563B
330
5635
100
AcDbEntity
  8
DIM
 62
     0
370
    -2
100
AcDbBlockReference
  2
_DOT
 10
598.5790797496413
 20
254.0637594784604
 30
0.0
 41
2.0
 42
2.0
 43
2.0
 50
180.0
  0
INSERT
  5
563C
330
5635
100
AcDbEntity
  8
DIM
 62
     0
370
    -2
100
AcDbBlockReference
  2
_DOT
 10
619.579079749641
 20
254.0637594784604
 30
0.0
 41
2.0
 42
2.0
 43
2.0
  0
MTEXT
  5
563D
330
5635
100
AcDbEntity
  8
DIM
 62
     0
100
AcDbMText
 10
609.0790797496411
 20
259.5646973301548
 30
0.0
 40
5.0
 41
0.0
 46
0.0
 71
     5
 72
     1
  1
\A1;21
  7
ＭＳ ゴシック
 73
     1
 44
1.0
  0
POINT
  5
563E
330
5635
100
AcDbEntity
  8
Defpoints
 62
     0
100
AcDbPoint
 10
598.5790797496413
 20
241.5639612026055
 30
0.0
  0
POINT
  5
563F
330
5635
100
AcDbEntity
  8
Defpoints
 62
     0
100
AcDbPoint
 10
619.579079749641
 20
241.5639612026055
 30
0.0
  0
POINT
  5
5640
330
5635
100
AcDbEntity
  8
Defpoints
 62
     0
100
AcDbPoint
 10
619.579079749641
 20
254.0637594784604
 30
0.0
  0
ENDBLK
  5
5637
330
5635
100
AcDbEntity
  8
0
100
AcDbBlockEnd
  0
BLOCK
  5
585B
330
585A
100
AcDbEntity
  8
0
100
AcDbBlockBegin
  2
block 3
 70
     0
 10
0.0
 20
0.0
 30
0.0
  3
block 3
  1

  0
POLYLINE
  5
585C
330
585A
100
AcDbEntity
  8
レイヤー 1
370
     0
100
AcDb2dPolyline
 66
     1
 10
0.0
 20
0.0
 30
0.0
  0
VERTEX
  5
585D
330
585C
100
AcDbEntity
  8
レイヤー 1
370
     0
100
AcDbVertex
100
AcDb2dVertex
 10
224.2328003213314
 20
111.4919761920351
 30
0.0
  0
VERTEX
  5
585E
330
585C
100
AcDbEntity
  8
レイヤー 1
370
     0
100
AcDbVertex
100
AcDb2dVertex
 10
267.3705918976487
 20
111.4919761920351
 30
0.0
  0
VERTEX
  5
585F
330
585C
100
AcDbEntity
  8
レイヤー 1
370
     0
100
AcDbVertex
100
AcDb2dVertex
 10
267.3705918976487
 20
187.9459301464967
 30
0.0
  0
VERTEX
  5
5860
330
585C
100
AcDbEntity
  8
レイヤー 1
370
     0
100
AcDbVertex
100
AcDb2dVertex
 10
224.2328003213314
 20
187.9459301464967
 30
0.0
  0
VERTEX
  5
5861
330
585C
100
AcDbEntity
  8
レイヤー 1
370
     0
100
AcDbVertex
100
AcDb2dVertex
 10
224.2328003213314
 20
111.4919761920351
 30
0.0
  0
SEQEND
  5
5862
330
585C
100
AcDbEntity
  8
レイヤー 1
370
     0
  0
POLYLINE
  5
5863
330
585A
100
AcDbEntity
  8
レイヤー 1
 62
     7
420
 16777215
370
    20
100
AcDb2dPolyline
 66
     1
 10
0.0
 20
0.0
 30
0.0
  0
VERTEX
  5
5864
330
5863
100
AcDbEntity
  8
レイヤー 1
 62
     7
420
 16777215
370
    20
100
AcDbVertex
100
AcDb2dVertex
 10
260.8724485065813
 20
178.0612556593531
 30
0.0
  0
VERTEX
  5
5865
330
5863
100
AcDbEntity
  8
レイヤー 1
 62
     7
420
 16777215
370
    20
100
AcDbVertex
100
AcDb2dVertex
 10
260.8724485065813
 20
177.7224302948575
 30
0.0
  0
VERTEX
  5
5866
330
5863
100
AcDbEntity
  8
レイヤー 1
 62
     7
420
 16777215
370
    20
100
AcDbVertex
100
AcDb2dVertex
 10
260.8087141980591
 20
177.3837771852499
 30
0.0
  0
SEQEND
  5
5867
330
5863
100
AcDbEntity
  8
レイヤー 1
370
    20
  0
POLYLINE
  5
5868
330
585A
100
AcDbEntity
  8
レイヤー 1
 62
     7
420
 16777215
370
    20
100
AcDb2dPolyline
 66
     1
 10
0.0
 20
0.0
 30
0.0
  0
VERTEX
  5
5869
330
5868
100
AcDbEntity
  8
レイヤー 1
 62
     7
420
 16777215
370
    20
100
AcDbVertex
100
AcDb2dVertex
 10
254.1414165070758
 20
177.3837771852499
 30
0.0
  0
VERTEX
  5
586A
330
5868
100
AcDbEntity
  8
レイヤー 1
 62
     7
420
 16777215
370
    20
100
AcDbVertex
100
AcDb2dVertex
 10
254.0990418046529
 20
177.7224302948575
 30
0.0
  0
VERTEX
  5
586B
330
5868
100
AcDbEntity
  8
レイヤー 1
 62
     7
420
 16777215
370
    20
100
AcDbVertex
100
AcDb2dVertex
 10
254.0776821985535
 20
178.0612556593531
 30
0.0
  0
VERTEX
  5
586C
330
5868
100
AcDbEntity
  8
レイヤー 1
 62
     7
420
 16777215
370
    20
100
AcDbVertex
100
AcDb2dVertex
 10
254.0990418046529
 20
178.3999087689607
 30
0.0
  0
VERTEX
  5
586D
330
5868
100
AcDbEntity
  8
レイヤー 1
 62
     7
420
 16777215
370
    20
100
AcDbVertex
100
AcDb2dVertex
 10
254.1414165070758
 20
178.7173745273569
 30
0.0
  0
VERTEX
  5
586E
330
5868
100
AcDbEntity
  8
レイヤー 1
 62
     7
420
 16777215
370
    20
100
AcDbVertex
100
AcDb2dVertex
 10
254.2258214021459
 20
179.0560276369645
 30
0.0
  0
VERTEX
  5
586F
330
5868
100
AcDbEntity
  8
レイヤー 1
 62
     7
420
 16777215
370
    20
100
AcDbVertex
100
AcDb2dVertex
 10
254.3319304130911
 20
179.3734933953607
 30
0.0
  0
VERTEX
  5
5870
330
5868
100
AcDbEntity
  8
レイヤー 1
 62
     7
420
 16777215
370
    20
100
AcDbVertex
100
AcDb2dVertex
 10
254.4800696166834
 20
179.6697718025454
 30
0.0
  0
VERTEX
  5
5871
330
5868
100
AcDbEntity
  8
レイヤー 1
 62
     7
420
 16777215
370
    20
100
AcDbVertex
100
AcDb2dVertex
 10
254.6705835226987
 20
179.966222464618
 30
0.0
  0
VERTEX
  5
5872
330
5868
100
AcDbEntity
  8
レイヤー 1
 62
     7
420
 16777215
370
    20
100
AcDbVertex
100
AcDb2dVertex
 10
254.861097428714
 20
180.2201261693797
 30
0.0
  0
VERTEX
  5
5873
330
5868
100
AcDbEntity
  8
レイヤー 1
 62
     7
420
 16777215
370
    20
100
AcDbVertex
100
AcDb2dVertex
 10
255.0726264310528
 20
180.4742021290294
 30
0.0
  0
VERTEX
  5
5874
330
5868
100
AcDbEntity
  8
レイヤー 1
 62
     7
420
 16777215
370
    20
100
AcDbVertex
100
AcDb2dVertex
 10
255.305515039491
 20
180.6859033862562
 30
0.0
  0
VERTEX
  5
5875
330
5868
100
AcDbEntity
  8
レイヤー 1
 62
     7
420
 16777215
370
    20
100
AcDbVertex
100
AcDb2dVertex
 10
255.5807783503522
 20
180.8762450373835
 30
0.0
  0
VERTEX
  5
5876
330
5868
100
AcDbEntity
  8
レイヤー 1
 62
     7
420
 16777215
370
    20
100
AcDbVertex
100
AcDb2dVertex
 10
255.8556971514375
 20
181.0457438470753
 30
0.0
  0
VERTEX
  5
5877
330
5868
100
AcDbEntity
  8
レイヤー 1
 62
     7
420
 16777215
370
    20
100
AcDbVertex
100
AcDb2dVertex
 10
256.1733351647216
 20
181.1938830506676
 30
0.0
  0
VERTEX
  5
5878
330
5868
100
AcDbEntity
  8
レイヤー 1
 62
     7
420
 16777215
370
    20
100
AcDbVertex
100
AcDb2dVertex
 10
256.4906286682299
 20
181.3208349030485
 30
0.0
  0
VERTEX
  5
5879
330
5868
100
AcDbEntity
  8
レイヤー 1
 62
     7
420
 16777215
370
    20
100
AcDbVertex
100
AcDb2dVertex
 10
256.8082666815139
 20
181.3843969566829
 30
0.0
  0
VERTEX
  5
587A
330
5868
100
AcDbEntity
  8
レイヤー 1
 62
     7
420
 16777215
370
    20
100
AcDbVertex
100
AcDb2dVertex
 10
257.1469197911215
 20
181.4477867554294
 30
0.0
  0
VERTEX
  5
587B
330
5868
100
AcDbEntity
  8
レイヤー 1
 62
     7
420
 16777215
370
    20
100
AcDbVertex
100
AcDb2dVertex
 10
257.4855729007292
 20
181.4689741066409
 30
0.0
  0
VERTEX
  5
587C
330
5868
100
AcDbEntity
  8
レイヤー 1
 62
     7
420
 16777215
370
    20
100
AcDbVertex
100
AcDb2dVertex
 10
257.8032109140133
 20
181.4477867554294
 30
0.0
  0
VERTEX
  5
587D
330
5868
100
AcDbEntity
  8
レイヤー 1
 62
     7
420
 16777215
370
    20
100
AcDbVertex
100
AcDb2dVertex
 10
258.1418640236209
 20
181.3843969566829
 30
0.0
  0
VERTEX
  5
587E
330
5868
100
AcDbEntity
  8
レイヤー 1
 62
     7
420
 16777215
370
    20
100
AcDbVertex
100
AcDb2dVertex
 10
258.4591575271292
 20
181.3208349030485
 30
0.0
  0
VERTEX
  5
587F
330
5868
100
AcDbEntity
  8
レイヤー 1
 62
     7
420
 16777215
370
    20
100
AcDbVertex
100
AcDb2dVertex
 10
258.7978106367368
 20
181.1938830506676
 30
0.0
  0
VERTEX
  5
5880
330
5868
100
AcDbEntity
  8
レイヤー 1
 62
     7
420
 16777215
370
    20
100
AcDbVertex
100
AcDb2dVertex
 10
259.0944335536973
 20
181.0457438470753
 30
0.0
  0
VERTEX
  5
5881
330
5868
100
AcDbEntity
  8
レイヤー 1
 62
     7
420
 16777215
370
    20
100
AcDbVertex
100
AcDb2dVertex
 10
259.3693523547827
 20
180.8762450373835
 30
0.0
  0
VERTEX
  5
5882
330
5868
100
AcDbEntity
  8
レイヤー 1
 62
     7
420
 16777215
370
    20
100
AcDbVertex
100
AcDb2dVertex
 10
259.6446156656438
 20
180.6859033862562
 30
0.0
  0
VERTEX
  5
5883
330
5868
100
AcDbEntity
  8
レイヤー 1
 62
     7
420
 16777215
370
    20
100
AcDbVertex
100
AcDb2dVertex
 10
259.877504274082
 20
180.4742021290294
 30
0.0
  0
VERTEX
  5
5884
330
5868
100
AcDbEntity
  8
レイヤー 1
 62
     7
420
 16777215
370
    20
100
AcDbVertex
100
AcDb2dVertex
 10
260.0890332764209
 20
180.2201261693797
 30
0.0
  0
VERTEX
  5
5885
330
5868
100
AcDbEntity
  8
レイヤー 1
 62
     7
420
 16777215
370
    20
100
AcDbVertex
100
AcDb2dVertex
 10
260.3009067885355
 20
179.966222464618
 30
0.0
  0
VERTEX
  5
5886
330
5868
100
AcDbEntity
  8
レイヤー 1
 62
     7
420
 16777215
370
    20
100
AcDbVertex
100
AcDb2dVertex
 10
260.4700610884514
 20
179.6697718025454
 30
0.0
  0
VERTEX
  5
5887
330
5868
100
AcDbEntity
  8
レイヤー 1
 62
     7
420
 16777215
370
    20
100
AcDbVertex
100
AcDb2dVertex
 10
260.6182002920438
 20
179.3734933953607
 30
0.0
  0
VERTEX
  5
5888
330
5868
100
AcDbEntity
  8
レイヤー 1
 62
     7
420
 16777215
370
    20
100
AcDbVertex
100
AcDb2dVertex
 10
260.7239647932132
 20
179.0560276369645
 30
0.0
  0
VERTEX
  5
5889
330
5868
100
AcDbEntity
  8
レイヤー 1
 62
     7
420
 16777215
370
    20
100
AcDbVertex
100
AcDb2dVertex
 10
260.8087141980591
 20
178.7173745273569
 30
0.0
  0
VERTEX
  5
588A
330
5868
100
AcDbEntity
  8
レイヤー 1
 62
     7
420
 16777215
370
    20
100
AcDbVertex
100
AcDb2dVertex
 10
260.8724485065813
 20
178.3999087689607
 30
0.0
  0
VERTEX
  5
588B
330
5868
100
AcDbEntity
  8
レイヤー 1
 62
     7
420
 16777215
370
    20
100
AcDbVertex
100
AcDb2dVertex
 10
260.8724485065813
 20
178.0612556593531
 30
0.0
  0
SEQEND
  5
588C
330
5868
100
AcDbEntity
  8
レイヤー 1
370
    20
  0
POLYLINE
  5
588D
330
585A
100
AcDbEntity
  8
レイヤー 1
 62
     7
420
 16777215
370
    20
100
AcDb2dPolyline
 66
     1
 10
0.0
 20
0.0
 30
0.0
  0
VERTEX
  5
588E
330
588D
100
AcDbEntity
  8
レイヤー 1
 62
     7
420
 16777215
370
    20
100
AcDbVertex
100
AcDb2dVertex
 10
235.9592240698814
 20
171.393613458594
 30
0.0
  0
VERTEX
  5
588F
330
588D
100
AcDbEntity
  8
レイヤー 1
 62
     7
420
 16777215
370
    20
100
AcDbVertex
100
AcDb2dVertex
 10
235.980239166205
 20
171.393613458594
 30
0.0
  0
VERTEX
  5
5890
330
588D
100
AcDbEntity
  8
レイヤー 1
 62
     7
420
 16777215
370
    20
100
AcDbVertex
100
AcDb2dVertex
 10
236.0015987723043
 20
171.393613458594
 30
0.0
  0
VERTEX
  5
5891
330
588D
100
AcDbEntity
  8
レイヤー 1
 62
     7
420
 16777215
370
    20
100
AcDbVertex
100
AcDb2dVertex
 10
236.0436289649515
 20
171.4148008098055
 30
0.0
  0
VERTEX
  5
5892
330
588D
100
AcDbEntity
  8
レイヤー 1
 62
     7
420
 16777215
370
    20
100
AcDbVertex
100
AcDb2dVertex
 10
236.1283783697973
 20
171.4359881610169
 30
0.0
  0
VERTEX
  5
5893
330
588D
100
AcDbEntity
  8
レイヤー 1
 62
     7
420
 16777215
370
    20
100
AcDbVertex
100
AcDb2dVertex
 10
236.2131277746432
 20
171.4783628634399
 30
0.0
  0
VERTEX
  5
5894
330
588D
100
AcDbEntity
  8
レイヤー 1
 62
     7
420
 16777215
370
    20
100
AcDbVertex
100
AcDb2dVertex
 10
236.340251881912
 20
171.4995502146513
 30
0.0
  0
VERTEX
  5
5895
330
588D
100
AcDbEntity
  8
レイヤー 1
 62
     7
420
 16777215
370
    20
100
AcDbVertex
100
AcDb2dVertex
 10
236.5941555866737
 20
171.5629400133978
 30
0.0
  0
VERTEX
  5
5896
330
588D
100
AcDbEntity
  8
レイヤー 1
 62
     7
420
 16777215
370
    20
100
AcDbVertex
100
AcDb2dVertex
 10
236.911449090182
 20
171.6476894182437
 30
0.0
  0
VERTEX
  5
5897
330
588D
100
AcDbEntity
  8
レイヤー 1
 62
     7
420
 16777215
370
    20
100
AcDbVertex
100
AcDb2dVertex
 10
237.1019629961973
 20
171.6688767694552
 30
0.0
  0
VERTEX
  5
5898
330
588D
100
AcDbEntity
  8
レイヤー 1
 62
     7
420
 16777215
370
    20
100
AcDbVertex
100
AcDb2dVertex
 10
237.2924769022126
 20
171.6900641206666
 30
0.0
  0
VERTEX
  5
5899
330
588D
100
AcDbEntity
  8
レイヤー 1
 62
     7
420
 16777215
370
    20
100
AcDbVertex
100
AcDb2dVertex
 10
237.5043504143272
 20
171.7112514718781
 30
0.0
  0
VERTEX
  5
589A
330
588D
100
AcDbEntity
  8
レイヤー 1
 62
     7
420
 16777215
370
    20
100
AcDbVertex
100
AcDb2dVertex
 10
237.7158794166661
 20
171.7322665682016
 30
0.0
  0
VERTEX
  5
589B
330
588D
100
AcDbEntity
  8
レイヤー 1
 62
     7
420
 16777215
370
    20
100
AcDbVertex
100
AcDb2dVertex
 10
237.9277529287807
 20
171.7534539194131
 30
0.0
  0
VERTEX
  5
589C
330
588D
100
AcDbEntity
  8
レイヤー 1
 62
     7
420
 16777215
370
    20
100
AcDbVertex
100
AcDb2dVertex
 10
238.1392819311195
 20
171.7534539194131
 30
0.0
  0
VERTEX
  5
589D
330
588D
100
AcDbEntity
  8
レイヤー 1
 62
     7
420
 16777215
370
    20
100
AcDbVertex
100
AcDb2dVertex
 10
238.3297958371348
 20
171.7534539194131
 30
0.0
  0
VERTEX
  5
589E
330
588D
100
AcDbEntity
  8
レイヤー 1
 62
     7
420
 16777215
370
    20
100
AcDbVertex
100
AcDb2dVertex
 10
238.5413248394737
 20
171.7322665682016
 30
0.0
  0
VERTEX
  5
589F
330
588D
100
AcDbEntity
  8
レイヤー 1
 62
     7
420
 16777215
370
    20
100
AcDbVertex
100
AcDb2dVertex
 10
238.7531983515883
 20
171.7112514718781
 30
0.0
  0
VERTEX
  5
58A0
330
588D
100
AcDbEntity
  8
レイヤー 1
 62
     7
420
 16777215
370
    20
100
AcDbVertex
100
AcDb2dVertex
 10
238.9647273539272
 20
171.6900641206666
 30
0.0
  0
VERTEX
  5
58A1
330
588D
100
AcDbEntity
  8
レイヤー 1
 62
     7
420
 16777215
370
    20
100
AcDbVertex
100
AcDb2dVertex
 10
239.1552412599424
 20
171.6688767694552
 30
0.0
  0
VERTEX
  5
58A2
330
588D
100
AcDbEntity
  8
レイヤー 1
 62
     7
420
 16777215
370
    20
100
AcDbVertex
100
AcDb2dVertex
 10
239.3457551659577
 20
171.6476894182437
 30
0.0
  0
VERTEX
  5
58A3
330
588D
100
AcDbEntity
  8
レイヤー 1
 62
     7
420
 16777215
370
    20
100
AcDbVertex
100
AcDb2dVertex
 10
239.6633931792418
 20
171.5629400133978
 30
0.0
  0
VERTEX
  5
58A4
330
588D
100
AcDbEntity
  8
レイヤー 1
 62
     7
420
 16777215
370
    20
100
AcDbVertex
100
AcDb2dVertex
 10
239.9172968840036
 20
171.4995502146513
 30
0.0
  0
VERTEX
  5
58A5
330
588D
100
AcDbEntity
  8
レイヤー 1
 62
     7
420
 16777215
370
    20
100
AcDbVertex
100
AcDb2dVertex
 10
240.0444209912724
 20
171.4783628634399
 30
0.0
  0
VERTEX
  5
58A6
330
588D
100
AcDbEntity
  8
レイヤー 1
 62
     7
420
 16777215
370
    20
100
AcDbVertex
100
AcDb2dVertex
 10
240.1288258863424
 20
171.4359881610169
 30
0.0
  0
VERTEX
  5
58A7
330
588D
100
AcDbEntity
  8
レイヤー 1
 62
     7
420
 16777215
370
    20
100
AcDbVertex
100
AcDb2dVertex
 10
240.2135752911883
 20
171.4148008098055
 30
0.0
  0
VERTEX
  5
58A8
330
588D
100
AcDbEntity
  8
レイヤー 1
 62
     7
420
 16777215
370
    20
100
AcDbVertex
100
AcDb2dVertex
 10
240.2559499936112
 20
171.393613458594
 30
0.0
  0
VERTEX
  5
58A9
330
588D
100
AcDbEntity
  8
レイヤー 1
 62
     7
420
 16777215
370
    20
100
AcDbVertex
100
AcDb2dVertex
 10
240.2769650899348
 20
171.393613458594
 30
0.0
  0
VERTEX
  5
58AA
330
588D
100
AcDbEntity
  8
レイヤー 1
 62
     7
420
 16777215
370
    20
100
AcDbVertex
100
AcDb2dVertex
 10
240.2983246960341
 20
171.393613458594
 30
0.0
  0
SEQEND
  5
58AB
330
588D
100
AcDbEntity
  8
レイヤー 1
370
    20
  0
POLYLINE
  5
58AC
330
585A
100
AcDbEntity
  8
レイヤー 1
 62
     7
420
 16777215
370
    20
100
AcDb2dPolyline
 66
     1
 10
0.0
 20
0.0
 30
0.0
  0
VERTEX
  5
58AD
330
58AC
100
AcDbEntity
  8
レイヤー 1
 62
     7
420
 16777215
370
    20
100
AcDbVertex
100
AcDb2dVertex
 10
264.1532151014883
 20
184.7287256052242
 30
0.0
  0
VERTEX
  5
58AE
330
58AC
100
AcDbEntity
  8
レイヤー 1
 62
     7
420
 16777215
370
    20
100
AcDbVertex
100
AcDb2dVertex
 10
264.1532151014883
 20
184.6863509028013
 30
0.0
  0
VERTEX
  5
58AF
330
58AC
100
AcDbEntity
  8
レイヤー 1
 62
     7
420
 16777215
370
    20
100
AcDbVertex
100
AcDb2dVertex
 10
264.1532151014883
 20
184.5593990504204
 30
0.0
  0
VERTEX
  5
58B0
330
58AC
100
AcDbEntity
  8
レイヤー 1
 62
     7
420
 16777215
370
    20
100
AcDbVertex
100
AcDb2dVertex
 10
264.1532151014883
 20
184.3476977931936
 30
0.0
  0
VERTEX
  5
58B1
330
58AC
100
AcDbEntity
  8
レイヤー 1
 62
     7
420
 16777215
370
    20
100
AcDbVertex
100
AcDb2dVertex
 10
264.1532151014883
 20
184.0724344823325
 30
0.0
  0
VERTEX
  5
58B2
330
58AC
100
AcDbEntity
  8
レイヤー 1
 62
     7
420
 16777215
370
    20
100
AcDbVertex
100
AcDb2dVertex
 10
264.1532151014883
 20
183.7125940215134
 30
0.0
  0
VERTEX
  5
58B3
330
58AC
100
AcDbEntity
  8
レイヤー 1
 62
     7
420
 16777215
370
    20
100
AcDbVertex
100
AcDb2dVertex
 10
264.1532151014883
 20
183.2681764107363
 30
0.0
  0
VERTEX
  5
58B4
330
58AC
100
AcDbEntity
  8
レイヤー 1
 62
     7
420
 16777215
370
    20
100
AcDbVertex
100
AcDb2dVertex
 10
264.1532151014883
 20
182.7813840975364
 30
0.0
  0
VERTEX
  5
58B5
330
58AC
100
AcDbEntity
  8
レイヤー 1
 62
     7
420
 16777215
370
    20
100
AcDbVertex
100
AcDb2dVertex
 10
264.1532151014883
 20
182.2098423794905
 30
0.0
  0
VERTEX
  5
58B6
330
58AC
100
AcDbEntity
  8
レイヤー 1
 62
     7
420
 16777215
370
    20
100
AcDbVertex
100
AcDb2dVertex
 10
264.1532151014883
 20
181.5959259590217
 30
0.0
  0
VERTEX
  5
58B7
330
58AC
100
AcDbEntity
  8
レイヤー 1
 62
     7
420
 16777215
370
    20
100
AcDbVertex
100
AcDb2dVertex
 10
264.1532151014883
 20
180.9609944422294
 30
0.0
  0
VERTEX
  5
58B8
330
58AC
100
AcDbEntity
  8
レイヤー 1
 62
     7
420
 16777215
370
    20
100
AcDbVertex
100
AcDb2dVertex
 10
264.1532151014883
 20
180.2625008718027
 30
0.0
  0
VERTEX
  5
58B9
330
58AC
100
AcDbEntity
  8
レイヤー 1
 62
     7
420
 16777215
370
    20
100
AcDbVertex
100
AcDb2dVertex
 10
264.1532151014883
 20
179.5428199501645
 30
0.0
  0
VERTEX
  5
58BA
330
58AC
100
AcDbEntity
  8
レイヤー 1
 62
     7
420
 16777215
370
    20
100
AcDbVertex
100
AcDb2dVertex
 10
264.1532151014883
 20
178.8019516773148
 30
0.0
  0
VERTEX
  5
58BB
330
58AC
100
AcDbEntity
  8
レイヤー 1
 62
     7
420
 16777215
370
    20
100
AcDbVertex
100
AcDb2dVertex
 10
264.1532151014883
 20
178.0612556593531
 30
0.0
  0
VERTEX
  5
58BC
330
58AC
100
AcDbEntity
  8
レイヤー 1
 62
     7
420
 16777215
370
    20
100
AcDbVertex
100
AcDb2dVertex
 10
264.1532151014883
 20
177.3203873865034
 30
0.0
  0
VERTEX
  5
58BD
330
58AC
100
AcDbEntity
  8
レイヤー 1
 62
     7
420
 16777215
370
    20
100
AcDbVertex
100
AcDb2dVertex
 10
264.1532151014883
 20
176.5795191136537
 30
0.0
  0
VERTEX
  5
58BE
330
58AC
100
AcDbEntity
  8
レイヤー 1
 62
     7
420
 16777215
370
    20
100
AcDbVertex
100
AcDb2dVertex
 10
264.1532151014883
 20
175.8598381920155
 30
0.0
  0
VERTEX
  5
58BF
330
58AC
100
AcDbEntity
  8
レイヤー 1
 62
     7
420
 16777215
370
    20
100
AcDbVertex
100
AcDb2dVertex
 10
264.1532151014883
 20
175.1613446215888
 30
0.0
  0
VERTEX
  5
58C0
330
58AC
100
AcDbEntity
  8
レイヤー 1
 62
     7
420
 16777215
370
    20
100
AcDbVertex
100
AcDb2dVertex
 10
264.1532151014883
 20
174.505225753585
 30
0.0
  0
VERTEX
  5
58C1
330
58AC
100
AcDbEntity
  8
レイヤー 1
 62
     7
420
 16777215
370
    20
100
AcDbVertex
100
AcDb2dVertex
 10
264.1532151014883
 20
173.8913093331162
 30
0.0
  0
VERTEX
  5
58C2
330
58AC
100
AcDbEntity
  8
レイヤー 1
 62
     7
420
 16777215
370
    20
100
AcDbVertex
100
AcDb2dVertex
 10
264.1532151014883
 20
173.3409549662819
 30
0.0
  0
VERTEX
  5
58C3
330
58AC
100
AcDbEntity
  8
レイヤー 1
 62
     7
420
 16777215
370
    20
100
AcDbVertex
100
AcDb2dVertex
 10
264.1532151014883
 20
172.8541626530819
 30
0.0
  0
VERTEX
  5
58C4
330
58AC
100
AcDbEntity
  8
レイヤー 1
 62
     7
420
 16777215
370
    20
100
AcDbVertex
100
AcDb2dVertex
 10
264.1532151014883
 20
172.4095727874169
 30
0.0
  0
VERTEX
  5
58C5
330
58AC
100
AcDbEntity
  8
レイヤー 1
 62
     7
420
 16777215
370
    20
100
AcDbVertex
100
AcDb2dVertex
 10
264.1532151014883
 20
172.0499045814857
 30
0.0
  0
VERTEX
  5
58C6
330
58AC
100
AcDbEntity
  8
レイヤー 1
 62
     7
420
 16777215
370
    20
100
AcDbVertex
100
AcDb2dVertex
 10
264.1532151014883
 20
171.7746412706246
 30
0.0
  0
VERTEX
  5
58C7
330
58AC
100
AcDbEntity
  8
レイヤー 1
 62
     7
420
 16777215
370
    20
100
AcDbVertex
100
AcDb2dVertex
 10
264.1532151014883
 20
171.5629400133978
 30
0.0
  0
VERTEX
  5
58C8
330
58AC
100
AcDbEntity
  8
レイヤー 1
 62
     7
420
 16777215
370
    20
100
AcDbVertex
100
AcDb2dVertex
 10
264.1532151014883
 20
171.4359881610169
 30
0.0
  0
VERTEX
  5
58C9
330
58AC
100
AcDbEntity
  8
レイヤー 1
 62
     7
420
 16777215
370
    20
100
AcDbVertex
100
AcDb2dVertex
 10
264.1532151014883
 20
171.393613458594
 30
0.0
  0
SEQEND
  5
58CA
330
58AC
100
AcDbEntity
  8
レイヤー 1
370
    20
  0
POLYLINE
  5
58CB
330
585A
100
AcDbEntity
  8
レイヤー 1
 62
     7
420
 16777215
370
    20
100
AcDb2dPolyline
 66
     1
 10
0.0
 20
0.0
 30
0.0
  0
VERTEX
  5
58CC
330
58CB
100
AcDbEntity
  8
レイヤー 1
 62
     7
420
 16777215
370
    20
100
AcDbVertex
100
AcDb2dVertex
 10
235.9592240698814
 20
171.393613458594
 30
0.0
  0
VERTEX
  5
58CD
330
58CB
100
AcDbEntity
  8
レイヤー 1
 62
     7
420
 16777215
370
    20
100
AcDbVertex
100
AcDb2dVertex
 10
227.4501771174918
 20
171.393613458594
 30
0.0
  0
VERTEX
  5
58CE
330
58CB
100
AcDbEntity
  8
レイヤー 1
 62
     7
420
 16777215
370
    20
100
AcDbVertex
100
AcDb2dVertex
 10
227.4501771174918
 20
171.4359881610169
 30
0.0
  0
VERTEX
  5
58CF
330
58CB
100
AcDbEntity
  8
レイヤー 1
 62
     7
420
 16777215
370
    20
100
AcDbVertex
100
AcDb2dVertex
 10
227.4501771174918
 20
171.5629400133978
 30
0.0
  0
VERTEX
  5
58D0
330
58CB
100
AcDbEntity
  8
レイヤー 1
 62
     7
420
 16777215
370
    20
100
AcDbVertex
100
AcDb2dVertex
 10
227.4501771174918
 20
171.7746412706246
 30
0.0
  0
VERTEX
  5
58D1
330
58CB
100
AcDbEntity
  8
レイヤー 1
 62
     7
420
 16777215
370
    20
100
AcDbVertex
100
AcDb2dVertex
 10
227.4501771174918
 20
172.0499045814857
 30
0.0
  0
VERTEX
  5
58D2
330
58CB
100
AcDbEntity
  8
レイヤー 1
 62
     7
420
 16777215
370
    20
100
AcDbVertex
100
AcDb2dVertex
 10
227.4501771174918
 20
172.4095727874169
 30
0.0
  0
VERTEX
  5
58D3
330
58CB
100
AcDbEntity
  8
レイヤー 1
 62
     7
420
 16777215
370
    20
100
AcDbVertex
100
AcDb2dVertex
 10
227.4501771174918
 20
172.8541626530819
 30
0.0
  0
VERTEX
  5
58D4
330
58CB
100
AcDbEntity
  8
レイヤー 1
 62
     7
420
 16777215
370
    20
100
AcDbVertex
100
AcDb2dVertex
 10
227.4501771174918
 20
173.3409549662819
 30
0.0
  0
VERTEX
  5
58D5
330
58CB
100
AcDbEntity
  8
レイヤー 1
 62
     7
420
 16777215
370
    20
100
AcDbVertex
100
AcDb2dVertex
 10
227.4501771174918
 20
173.8913093331162
 30
0.0
  0
VERTEX
  5
58D6
330
58CB
100
AcDbEntity
  8
レイヤー 1
 62
     7
420
 16777215
370
    20
100
AcDbVertex
100
AcDb2dVertex
 10
227.4501771174918
 20
174.505225753585
 30
0.0
  0
VERTEX
  5
58D7
330
58CB
100
AcDbEntity
  8
レイヤー 1
 62
     7
420
 16777215
370
    20
100
AcDbVertex
100
AcDb2dVertex
 10
227.4501771174918
 20
175.1613446215888
 30
0.0
  0
VERTEX
  5
58D8
330
58CB
100
AcDbEntity
  8
レイヤー 1
 62
     7
420
 16777215
370
    20
100
AcDbVertex
100
AcDb2dVertex
 10
227.4501771174918
 20
175.8598381920155
 30
0.0
  0
VERTEX
  5
58D9
330
58CB
100
AcDbEntity
  8
レイヤー 1
 62
     7
420
 16777215
370
    20
100
AcDbVertex
100
AcDb2dVertex
 10
227.4501771174918
 20
176.5795191136537
 30
0.0
  0
VERTEX
  5
58DA
330
58CB
100
AcDbEntity
  8
レイヤー 1
 62
     7
420
 16777215
370
    20
100
AcDbVertex
100
AcDb2dVertex
 10
227.4501771174918
 20
177.3203873865034
 30
0.0
  0
VERTEX
  5
58DB
330
58CB
100
AcDbEntity
  8
レイヤー 1
 62
     7
420
 16777215
370
    20
100
AcDbVertex
100
AcDb2dVertex
 10
227.4501771174918
 20
178.0612556593531
 30
0.0
  0
VERTEX
  5
58DC
330
58CB
100
AcDbEntity
  8
レイヤー 1
 62
     7
420
 16777215
370
    20
100
AcDbVertex
100
AcDb2dVertex
 10
227.4501771174918
 20
178.8019516773148
 30
0.0
  0
VERTEX
  5
58DD
330
58CB
100
AcDbEntity
  8
レイヤー 1
 62
     7
420
 16777215
370
    20
100
AcDbVertex
100
AcDb2dVertex
 10
227.4501771174918
 20
179.5428199501645
 30
0.0
  0
VERTEX
  5
58DE
330
58CB
100
AcDbEntity
  8
レイヤー 1
 62
     7
420
 16777215
370
    20
100
AcDbVertex
100
AcDb2dVertex
 10
227.4501771174918
 20
180.2625008718027
 30
0.0
  0
VERTEX
  5
58DF
330
58CB
100
AcDbEntity
  8
レイヤー 1
 62
     7
420
 16777215
370
    20
100
AcDbVertex
100
AcDb2dVertex
 10
227.4501771174918
 20
180.9609944422294
 30
0.0
  0
VERTEX
  5
58E0
330
58CB
100
AcDbEntity
  8
レイヤー 1
 62
     7
420
 16777215
370
    20
100
AcDbVertex
100
AcDb2dVertex
 10
227.4501771174918
 20
181.5959259590217
 30
0.0
  0
VERTEX
  5
58E1
330
58CB
100
AcDbEntity
  8
レイヤー 1
 62
     7
420
 16777215
370
    20
100
AcDbVertex
100
AcDb2dVertex
 10
227.4501771174918
 20
182.2098423794905
 30
0.0
  0
VERTEX
  5
58E2
330
58CB
100
AcDbEntity
  8
レイヤー 1
 62
     7
420
 16777215
370
    20
100
AcDbVertex
100
AcDb2dVertex
 10
227.4501771174918
 20
182.7813840975364
 30
0.0
  0
VERTEX
  5
58E3
330
58CB
100
AcDbEntity
  8
レイヤー 1
 62
     7
420
 16777215
370
    20
100
AcDbVertex
100
AcDb2dVertex
 10
227.4501771174918
 20
183.2681764107363
 30
0.0
  0
VERTEX
  5
58E4
330
58CB
100
AcDbEntity
  8
レイヤー 1
 62
     7
420
 16777215
370
    20
100
AcDbVertex
100
AcDb2dVertex
 10
227.4501771174918
 20
183.7125940215134
 30
0.0
  0
VERTEX
  5
58E5
330
58CB
100
AcDbEntity
  8
レイヤー 1
 62
     7
420
 16777215
370
    20
100
AcDbVertex
100
AcDb2dVertex
 10
227.4501771174918
 20
184.0724344823325
 30
0.0
  0
VERTEX
  5
58E6
330
58CB
100
AcDbEntity
  8
レイヤー 1
 62
     7
420
 16777215
370
    20
100
AcDbVertex
100
AcDb2dVertex
 10
227.4501771174918
 20
184.3476977931936
 30
0.0
  0
VERTEX
  5
58E7
330
58CB
100
AcDbEntity
  8
レイヤー 1
 62
     7
420
 16777215
370
    20
100
AcDbVertex
100
AcDb2dVertex
 10
227.4501771174918
 20
184.5593990504204
 30
0.0
  0
VERTEX
  5
58E8
330
58CB
100
AcDbEntity
  8
レイヤー 1
 62
     7
420
 16777215
370
    20
100
AcDbVertex
100
AcDb2dVertex
 10
227.4501771174918
 20
184.6863509028013
 30
0.0
  0
VERTEX
  5
58E9
330
58CB
100
AcDbEntity
  8
レイヤー 1
 62
     7
420
 16777215
370
    20
100
AcDbVertex
100
AcDb2dVertex
 10
227.4501771174918
 20
184.7287256052242
 30
0.0
  0
VERTEX
  5
58EA
330
58CB
100
AcDbEntity
  8
レイヤー 1
 62
     7
420
 16777215
370
    20
100
AcDbVertex
100
AcDb2dVertex
 10
264.1532151014883
 20
184.7287256052242
 30
0.0
  0
SEQEND
  5
58EB
330
58CB
100
AcDbEntity
  8
レイヤー 1
370
    20
  0
POLYLINE
  5
58EC
330
585A
100
AcDbEntity
  8
レイヤー 1
 62
     7
420
 16777215
370
    20
100
AcDb2dPolyline
 66
     1
 10
0.0
 20
0.0
 30
0.0
  0
VERTEX
  5
58ED
330
58EC
100
AcDbEntity
  8
レイヤー 1
 62
     7
420
 16777215
370
    20
100
AcDbVertex
100
AcDb2dVertex
 10
240.2983246960341
 20
171.393613458594
 30
0.0
  0
VERTEX
  5
58EE
330
58EC
100
AcDbEntity
  8
レイヤー 1
 62
     7
420
 16777215
370
    20
100
AcDbVertex
100
AcDb2dVertex
 10
254.1414165070758
 20
171.393613458594
 30
0.0
  0
SEQEND
  5
58EF
330
58EC
100
AcDbEntity
  8
レイヤー 1
370
    20
  0
POLYLINE
  5
58F0
330
585A
100
AcDbEntity
  8
レイヤー 1
 62
     7
420
 16777215
370
    20
100
AcDb2dPolyline
 66
     1
 10
0.0
 20
0.0
 30
0.0
  0
VERTEX
  5
58F1
330
58F0
100
AcDbEntity
  8
レイヤー 1
 62
     7
420
 16777215
370
    20
100
AcDbVertex
100
AcDb2dVertex
 10
260.8087141980591
 20
171.393613458594
 30
0.0
  0
VERTEX
  5
58F2
330
58F0
100
AcDbEntity
  8
レイヤー 1
 62
     7
420
 16777215
370
    20
100
AcDbVertex
100
AcDb2dVertex
 10
264.1532151014883
 20
171.393613458594
 30
0.0
  0
SEQEND
  5
58F3
330
58F0
100
AcDbEntity
  8
レイヤー 1
370
    20
  0
SPLINE
  5
58F4
330
585A
100
AcDbEntity
  8
レイヤー 1
 62
     7
420
 16777215
370
    20
100
AcDbSpline
210
0.0
220
0.0
230
1.0
 70
     8
 71
     3
 72
    11
 73
     7
 74
     0
 42
0.000000001
 43
0.0000000001
 40
0.0
 40
0.0
 40
0.0
 40
0.0
 40
1.0
 40
1.0
 40
1.0
 40
2.0
 40
2.0
 40
2.0
 40
2.0
 10
254.1624316033994
 20
118.0641891848987
 30
0.0
 10
254.1624316033994
 20
116.2231289430439
 30
0.0
 10
255.6551924619242
 20
114.7303680845191
 30
0.0
 10
257.4962527037789
 20
114.7303680845191
 30
0.0
 10
259.3373129456336
 20
114.7303680845191
 30
0.0
 10
260.8300738041584
 20
116.2231289430439
 30
0.0
 10
260.8300738041584
 20
118.0641891848987
 30
0.0
  0
SPLINE
  5
58F5
330
585A
100
AcDbEntity
  8
レイヤー 1
 62
     7
420
 16777215
370
    20
100
AcDbSpline
210
0.0
220
0.0
230
1.0
 70
     8
 71
     3
 72
    11
 73
     7
 74
     0
 42
0.000000001
 43
0.0000000001
 40
0.0
 40
0.0
 40
0.0
 40
0.0
 40
1.0
 40
1.0
 40
1.0
 40
2.0
 40
2.0
 40
2.0
 40
2.0
 10
260.8300738041584
 20
178.0717632075148
 30
0.0
 10
260.8300738041584
 20
179.9129957042575
 30
0.0
 10
259.3373129456336
 20
181.4054120530065
 30
0.0
 10
257.4962527037789
 20
181.4054120530065
 30
0.0
 10
255.6551924619242
 20
181.4054120530065
 30
0.0
 10
254.1624316033994
 20
179.9129957042575
 30
0.0
 10
254.1624316033994
 20
178.0717632075148
 30
0.0
  0
POLYLINE
  5
58F6
330
585A
100
AcDbEntity
  8
レイヤー 1
 62
     7
420
 16777215
370
    20
100
AcDb2dPolyline
 66
     1
 10
0.0
 20
0.0
 30
0.0
  0
VERTEX
  5
58F7
330
58F6
100
AcDbEntity
  8
レイヤー 1
 62
     7
420
 16777215
370
    20
100
AcDbVertex
100
AcDb2dVertex
 10
260.8087141980591
 20
127.0495209023264
 30
0.0
  0
VERTEX
  5
58F8
330
58F6
100
AcDbEntity
  8
レイヤー 1
 62
     7
420
 16777215
370
    20
100
AcDbVertex
100
AcDb2dVertex
 10
260.7663394956361
 20
127.0495209023264
 30
0.0
  0
VERTEX
  5
58F9
330
58F6
100
AcDbEntity
  8
レイヤー 1
 62
     7
420
 16777215
370
    20
100
AcDbVertex
100
AcDb2dVertex
 10
260.6605749944667
 20
127.0495209023264
 30
0.0
  0
VERTEX
  5
58FA
330
58F6
100
AcDbEntity
  8
レイヤー 1
 62
     7
420
 16777215
370
    20
100
AcDbVertex
100
AcDb2dVertex
 10
260.4490459921279
 20
127.0495209023264
 30
0.0
  0
VERTEX
  5
58FB
330
58F6
100
AcDbEntity
  8
レイヤー 1
 62
     7
420
 16777215
370
    20
100
AcDbVertex
100
AcDb2dVertex
 10
260.1737826812667
 20
127.0495209023264
 30
0.0
  0
VERTEX
  5
58FC
330
58F6
100
AcDbEntity
  8
レイヤー 1
 62
     7
420
 16777215
370
    20
100
AcDbVertex
100
AcDb2dVertex
 10
259.8351295716591
 20
127.0495209023264
 30
0.0
  0
VERTEX
  5
58FD
330
58F6
100
AcDbEntity
  8
レイヤー 1
 62
     7
420
 16777215
370
    20
100
AcDbVertex
100
AcDb2dVertex
 10
259.4330866633049
 20
127.0495209023264
 30
0.0
  0
VERTEX
  5
58FE
330
58F6
100
AcDbEntity
  8
レイヤー 1
 62
     7
420
 16777215
370
    20
100
AcDbVertex
100
AcDb2dVertex
 10
258.9883245427521
 20
127.0495209023264
 30
0.0
  0
VERTEX
  5
58FF
330
58F6
100
AcDbEntity
  8
レイヤー 1
 62
     7
420
 16777215
370
    20
100
AcDbVertex
100
AcDb2dVertex
 10
258.5015322295521
 20
127.0495209023264
 30
0.0
  0
VERTEX
  5
5900
330
58F6
100
AcDbEntity
  8
レイヤー 1
 62
     7
420
 16777215
370
    20
100
AcDbVertex
100
AcDb2dVertex
 10
257.9937248200285
 20
127.0495209023264
 30
0.0
  0
VERTEX
  5
5901
330
58F6
100
AcDbEntity
  8
レイヤー 1
 62
     7
420
 16777215
370
    20
100
AcDbVertex
100
AcDb2dVertex
 10
257.4855729007292
 20
127.0495209023264
 30
0.0
  0
VERTEX
  5
5902
330
58F6
100
AcDbEntity
  8
レイヤー 1
 62
     7
420
 16777215
370
    20
100
AcDbVertex
100
AcDb2dVertex
 10
256.9564058851063
 20
127.0495209023264
 30
0.0
  0
VERTEX
  5
5903
330
58F6
100
AcDbEntity
  8
レイヤー 1
 62
     7
420
 16777215
370
    20
100
AcDbVertex
100
AcDb2dVertex
 10
256.4485984755827
 20
127.0495209023264
 30
0.0
  0
VERTEX
  5
5904
330
58F6
100
AcDbEntity
  8
レイヤー 1
 62
     7
420
 16777215
370
    20
100
AcDbVertex
100
AcDb2dVertex
 10
255.9614616526069
 20
127.0495209023264
 30
0.0
  0
VERTEX
  5
5905
330
58F6
100
AcDbEntity
  8
レイヤー 1
 62
     7
420
 16777215
370
    20
100
AcDbVertex
100
AcDb2dVertex
 10
255.5170440418299
 20
127.0495209023264
 30
0.0
  0
VERTEX
  5
5906
330
58F6
100
AcDbEntity
  8
レイヤー 1
 62
     7
420
 16777215
370
    20
100
AcDbVertex
100
AcDb2dVertex
 10
255.1150011334758
 20
127.0495209023264
 30
0.0
  0
VERTEX
  5
5907
330
58F6
100
AcDbEntity
  8
レイヤー 1
 62
     7
420
 16777215
370
    20
100
AcDbVertex
100
AcDb2dVertex
 10
254.7763480238681
 20
127.0495209023264
 30
0.0
  0
VERTEX
  5
5908
330
58F6
100
AcDbEntity
  8
レイヤー 1
 62
     7
420
 16777215
370
    20
100
AcDbVertex
100
AcDb2dVertex
 10
254.501084713007
 20
127.0495209023264
 30
0.0
  0
VERTEX
  5
5909
330
58F6
100
AcDbEntity
  8
レイヤー 1
 62
     7
420
 16777215
370
    20
100
AcDbVertex
100
AcDb2dVertex
 10
254.3105708069917
 20
127.0495209023264
 30
0.0
  0
VERTEX
  5
590A
330
58F6
100
AcDbEntity
  8
レイヤー 1
 62
     7
420
 16777215
370
    20
100
AcDbVertex
100
AcDb2dVertex
 10
254.1834466997229
 20
127.0495209023264
 30
0.0
  0
VERTEX
  5
590B
330
58F6
100
AcDbEntity
  8
レイヤー 1
 62
     7
420
 16777215
370
    20
100
AcDbVertex
100
AcDb2dVertex
 10
254.1414165070758
 20
127.0495209023264
 30
0.0
  0
SEQEND
  5
590C
330
58F6
100
AcDbEntity
  8
レイヤー 1
370
    20
  0
POLYLINE
  5
590D
330
585A
100
AcDbEntity
  8
レイヤー 1
 62
     7
420
 16777215
370
    20
100
AcDb2dPolyline
 66
     1
 10
0.0
 20
0.0
 30
0.0
  0
VERTEX
  5
590E
330
590D
100
AcDbEntity
  8
レイヤー 1
 62
     7
420
 16777215
370
    20
100
AcDbVertex
100
AcDb2dVertex
 10
260.8087141980591
 20
169.0654163937635
 30
0.0
  0
VERTEX
  5
590F
330
590D
100
AcDbEntity
  8
レイヤー 1
 62
     7
420
 16777215
370
    20
100
AcDbVertex
100
AcDb2dVertex
 10
260.7663394956361
 20
169.0654163937635
 30
0.0
  0
VERTEX
  5
5910
330
590D
100
AcDbEntity
  8
レイヤー 1
 62
     7
420
 16777215
370
    20
100
AcDbVertex
100
AcDb2dVertex
 10
260.6605749944667
 20
169.0654163937635
 30
0.0
  0
VERTEX
  5
5911
330
590D
100
AcDbEntity
  8
レイヤー 1
 62
     7
420
 16777215
370
    20
100
AcDbVertex
100
AcDb2dVertex
 10
260.4490459921279
 20
169.0654163937635
 30
0.0
  0
VERTEX
  5
5912
330
590D
100
AcDbEntity
  8
レイヤー 1
 62
     7
420
 16777215
370
    20
100
AcDbVertex
100
AcDb2dVertex
 10
260.1737826812667
 20
169.0654163937635
 30
0.0
  0
VERTEX
  5
5913
330
590D
100
AcDbEntity
  8
レイヤー 1
 62
     7
420
 16777215
370
    20
100
AcDbVertex
100
AcDb2dVertex
 10
259.8351295716591
 20
169.0654163937635
 30
0.0
  0
VERTEX
  5
5914
330
590D
100
AcDbEntity
  8
レイヤー 1
 62
     7
420
 16777215
370
    20
100
AcDbVertex
100
AcDb2dVertex
 10
259.4330866633049
 20
169.0654163937635
 30
0.0
  0
VERTEX
  5
5915
330
590D
100
AcDbEntity
  8
レイヤー 1
 62
     7
420
 16777215
370
    20
100
AcDbVertex
100
AcDb2dVertex
 10
258.9883245427521
 20
169.0654163937635
 30
0.0
  0
VERTEX
  5
5916
330
590D
100
AcDbEntity
  8
レイヤー 1
 62
     7
420
 16777215
370
    20
100
AcDbVertex
100
AcDb2dVertex
 10
258.5015322295521
 20
169.0654163937635
 30
0.0
  0
VERTEX
  5
5917
330
590D
100
AcDbEntity
  8
レイヤー 1
 62
     7
420
 16777215
370
    20
100
AcDbVertex
100
AcDb2dVertex
 10
257.9937248200285
 20
169.0654163937635
 30
0.0
  0
VERTEX
  5
5918
330
590D
100
AcDbEntity
  8
レイヤー 1
 62
     7
420
 16777215
370
    20
100
AcDbVertex
100
AcDb2dVertex
 10
257.4855729007292
 20
169.0654163937635
 30
0.0
  0
VERTEX
  5
5919
330
590D
100
AcDbEntity
  8
レイヤー 1
 62
     7
420
 16777215
370
    20
100
AcDbVertex
100
AcDb2dVertex
 10
256.9564058851063
 20
169.0654163937635
 30
0.0
  0
VERTEX
  5
591A
330
590D
100
AcDbEntity
  8
レイヤー 1
 62
     7
420
 16777215
370
    20
100
AcDbVertex
100
AcDb2dVertex
 10
256.4485984755827
 20
169.0654163937635
 30
0.0
  0
VERTEX
  5
591B
330
590D
100
AcDbEntity
  8
レイヤー 1
 62
     7
420
 16777215
370
    20
100
AcDbVertex
100
AcDb2dVertex
 10
255.9614616526069
 20
169.0654163937635
 30
0.0
  0
VERTEX
  5
591C
330
590D
100
AcDbEntity
  8
レイヤー 1
 62
     7
420
 16777215
370
    20
100
AcDbVertex
100
AcDb2dVertex
 10
255.5170440418299
 20
169.0654163937635
 30
0.0
  0
VERTEX
  5
591D
330
590D
100
AcDbEntity
  8
レイヤー 1
 62
     7
420
 16777215
370
    20
100
AcDbVertex
100
AcDb2dVertex
 10
255.1150011334758
 20
169.0654163937635
 30
0.0
  0
VERTEX
  5
591E
330
590D
100
AcDbEntity
  8
レイヤー 1
 62
     7
420
 16777215
370
    20
100
AcDbVertex
100
AcDb2dVertex
 10
254.7763480238681
 20
169.0654163937635
 30
0.0
  0
VERTEX
  5
591F
330
590D
100
AcDbEntity
  8
レイヤー 1
 62
     7
420
 16777215
370
    20
100
AcDbVertex
100
AcDb2dVertex
 10
254.501084713007
 20
169.0654163937635
 30
0.0
  0
VERTEX
  5
5920
330
590D
100
AcDbEntity
  8
レイヤー 1
 62
     7
420
 16777215
370
    20
100
AcDbVertex
100
AcDb2dVertex
 10
254.3105708069917
 20
169.0654163937635
 30
0.0
  0
VERTEX
  5
5921
330
590D
100
AcDbEntity
  8
レイヤー 1
 62
     7
420
 16777215
370
    20
100
AcDbVertex
100
AcDb2dVertex
 10
254.1834466997229
 20
169.0654163937635
 30
0.0
  0
VERTEX
  5
5922
330
590D
100
AcDbEntity
  8
レイヤー 1
 62
     7
420
 16777215
370
    20
100
AcDbVertex
100
AcDb2dVertex
 10
254.1414165070758
 20
169.0654163937635
 30
0.0
  0
SEQEND
  5
5923
330
590D
100
AcDbEntity
  8
レイヤー 1
370
    20
  0
POLYLINE
  5
5924
330
585A
100
AcDbEntity
  8
レイヤー 1
 62
     7
420
 16777215
370
    20
100
AcDb2dPolyline
 66
     1
 10
0.0
 20
0.0
 30
0.0
  0
VERTEX
  5
5925
330
5924
100
AcDbEntity
  8
レイヤー 1
 62
     7
420
 16777215
370
    20
100
AcDbVertex
100
AcDb2dVertex
 10
260.8087141980591
 20
127.0495209023264
 30
0.0
  0
VERTEX
  5
5926
330
5924
100
AcDbEntity
  8
レイヤー 1
 62
     7
420
 16777215
370
    20
100
AcDbVertex
100
AcDb2dVertex
 10
260.8087141980591
 20
126.1605134258844
 30
0.0
  0
VERTEX
  5
5927
330
5924
100
AcDbEntity
  8
レイヤー 1
 62
     7
420
 16777215
370
    20
100
AcDbVertex
100
AcDb2dVertex
 10
260.8087141980591
 20
125.2926933006539
 30
0.0
  0
VERTEX
  5
5928
330
5924
100
AcDbEntity
  8
レイヤー 1
 62
     7
420
 16777215
370
    20
100
AcDbVertex
100
AcDb2dVertex
 10
260.8087141980591
 20
124.4248731754233
 30
0.0
  0
VERTEX
  5
5929
330
5924
100
AcDbEntity
  8
レイヤー 1
 62
     7
420
 16777215
370
    20
100
AcDbVertex
100
AcDb2dVertex
 10
260.8087141980591
 20
123.5992554977278
 30
0.0
  0
VERTEX
  5
592A
330
5924
100
AcDbEntity
  8
レイヤー 1
 62
     7
420
 16777215
370
    20
100
AcDbVertex
100
AcDb2dVertex
 10
260.8087141980591
 20
122.7949974261316
 30
0.0
  0
VERTEX
  5
592B
330
5924
100
AcDbEntity
  8
レイヤー 1
 62
     7
420
 16777215
370
    20
100
AcDbVertex
100
AcDb2dVertex
 10
260.8087141980591
 20
122.054129153282
 30
0.0
  0
VERTEX
  5
592C
330
5924
100
AcDbEntity
  8
レイヤー 1
 62
     7
420
 16777215
370
    20
100
AcDbVertex
100
AcDb2dVertex
 10
260.8087141980591
 20
121.3344482316438
 30
0.0
  0
VERTEX
  5
592D
330
5924
100
AcDbEntity
  8
レイヤー 1
 62
     7
420
 16777215
370
    20
100
AcDbVertex
100
AcDb2dVertex
 10
260.8087141980591
 20
120.67832936364
 30
0.0
  0
VERTEX
  5
592E
330
5924
100
AcDbEntity
  8
レイヤー 1
 62
     7
420
 16777215
370
    20
100
AcDbVertex
100
AcDb2dVertex
 10
260.8087141980591
 20
120.0856002943827
 30
0.0
  0
VERTEX
  5
592F
330
5924
100
AcDbEntity
  8
レイヤー 1
 62
     7
420
 16777215
370
    20
100
AcDbVertex
100
AcDb2dVertex
 10
260.8087141980591
 20
119.5564332787598
 30
0.0
  0
VERTEX
  5
5930
330
5924
100
AcDbEntity
  8
レイヤー 1
 62
     7
420
 16777215
370
    20
100
AcDbVertex
100
AcDb2dVertex
 10
260.8087141980591
 20
119.1120156679827
 30
0.0
  0
VERTEX
  5
5931
330
5924
100
AcDbEntity
  8
レイヤー 1
 62
     7
420
 16777215
370
    20
100
AcDbVertex
100
AcDb2dVertex
 10
260.8087141980591
 20
118.7309878559521
 30
0.0
  0
VERTEX
  5
5932
330
5924
100
AcDbEntity
  8
レイヤー 1
 62
     7
420
 16777215
370
    20
100
AcDbVertex
100
AcDb2dVertex
 10
260.8087141980591
 20
118.4345371938795
 30
0.0
  0
VERTEX
  5
5933
330
5924
100
AcDbEntity
  8
レイヤー 1
 62
     7
420
 16777215
370
    20
100
AcDbVertex
100
AcDb2dVertex
 10
260.8087141980591
 20
118.2230081915407
 30
0.0
  0
VERTEX
  5
5934
330
5924
100
AcDbEntity
  8
レイヤー 1
 62
     7
420
 16777215
370
    20
100
AcDbVertex
100
AcDb2dVertex
 10
260.8087141980591
 20
118.0958840842719
 30
0.0
  0
VERTEX
  5
5935
330
5924
100
AcDbEntity
  8
レイヤー 1
 62
     7
420
 16777215
370
    20
100
AcDbVertex
100
AcDb2dVertex
 10
260.8087141980591
 20
118.0536816367369
 30
0.0
  0
SEQEND
  5
5936
330
5924
100
AcDbEntity
  8
レイヤー 1
370
    20
  0
POLYLINE
  5
5937
330
585A
100
AcDbEntity
  8
レイヤー 1
 62
     7
420
 16777215
370
    20
100
AcDb2dPolyline
 66
     1
 10
0.0
 20
0.0
 30
0.0
  0
VERTEX
  5
5938
330
5937
100
AcDbEntity
  8
レイヤー 1
 62
     7
420
 16777215
370
    20
100
AcDbVertex
100
AcDb2dVertex
 10
254.1414165070758
 20
118.0536816367369
 30
0.0
  0
VERTEX
  5
5939
330
5937
100
AcDbEntity
  8
レイヤー 1
 62
     7
420
 16777215
370
    20
100
AcDbVertex
100
AcDb2dVertex
 10
254.1414165070758
 20
118.0958840842719
 30
0.0
  0
VERTEX
  5
593A
330
5937
100
AcDbEntity
  8
レイヤー 1
 62
     7
420
 16777215
370
    20
100
AcDbVertex
100
AcDb2dVertex
 10
254.1414165070758
 20
118.2230081915407
 30
0.0
  0
VERTEX
  5
593B
330
5937
100
AcDbEntity
  8
レイヤー 1
 62
     7
420
 16777215
370
    20
100
AcDbVertex
100
AcDb2dVertex
 10
254.1414165070758
 20
118.4345371938795
 30
0.0
  0
VERTEX
  5
593C
330
5937
100
AcDbEntity
  8
レイヤー 1
 62
     7
420
 16777215
370
    20
100
AcDbVertex
100
AcDb2dVertex
 10
254.1414165070758
 20
118.7309878559521
 30
0.0
  0
VERTEX
  5
593D
330
5937
100
AcDbEntity
  8
レイヤー 1
 62
     7
420
 16777215
370
    20
100
AcDbVertex
100
AcDb2dVertex
 10
254.1414165070758
 20
119.1120156679827
 30
0.0
  0
VERTEX
  5
593E
330
5937
100
AcDbEntity
  8
レイヤー 1
 62
     7
420
 16777215
370
    20
100
AcDbVertex
100
AcDb2dVertex
 10
254.1414165070758
 20
119.5564332787598
 30
0.0
  0
VERTEX
  5
593F
330
5937
100
AcDbEntity
  8
レイヤー 1
 62
     7
420
 16777215
370
    20
100
AcDbVertex
100
AcDb2dVertex
 10
254.1414165070758
 20
120.0856002943827
 30
0.0
  0
VERTEX
  5
5940
330
5937
100
AcDbEntity
  8
レイヤー 1
 62
     7
420
 16777215
370
    20
100
AcDbVertex
100
AcDb2dVertex
 10
254.1414165070758
 20
120.67832936364
 30
0.0
  0
VERTEX
  5
5941
330
5937
100
AcDbEntity
  8
レイヤー 1
 62
     7
420
 16777215
370
    20
100
AcDbVertex
100
AcDb2dVertex
 10
254.1414165070758
 20
121.3344482316438
 30
0.0
  0
VERTEX
  5
5942
330
5937
100
AcDbEntity
  8
レイヤー 1
 62
     7
420
 16777215
370
    20
100
AcDbVertex
100
AcDb2dVertex
 10
254.1414165070758
 20
122.054129153282
 30
0.0
  0
VERTEX
  5
5943
330
5937
100
AcDbEntity
  8
レイヤー 1
 62
     7
420
 16777215
370
    20
100
AcDbVertex
100
AcDb2dVertex
 10
254.1414165070758
 20
122.7949974261316
 30
0.0
  0
VERTEX
  5
5944
330
5937
100
AcDbEntity
  8
レイヤー 1
 62
     7
420
 16777215
370
    20
100
AcDbVertex
100
AcDb2dVertex
 10
254.1414165070758
 20
123.5992554977278
 30
0.0
  0
VERTEX
  5
5945
330
5937
100
AcDbEntity
  8
レイヤー 1
 62
     7
420
 16777215
370
    20
100
AcDbVertex
100
AcDb2dVertex
 10
254.1414165070758
 20
124.4248731754233
 30
0.0
  0
VERTEX
  5
5946
330
5937
100
AcDbEntity
  8
レイヤー 1
 62
     7
420
 16777215
370
    20
100
AcDbVertex
100
AcDb2dVertex
 10
254.1414165070758
 20
125.2926933006539
 30
0.0
  0
VERTEX
  5
5947
330
5937
100
AcDbEntity
  8
レイヤー 1
 62
     7
420
 16777215
370
    20
100
AcDbVertex
100
AcDb2dVertex
 10
254.1414165070758
 20
126.1605134258844
 30
0.0
  0
VERTEX
  5
5948
330
5937
100
AcDbEntity
  8
レイヤー 1
 62
     7
420
 16777215
370
    20
100
AcDbVertex
100
AcDb2dVertex
 10
254.1414165070758
 20
127.0495209023264
 30
0.0
  0
SEQEND
  5
5949
330
5937
100
AcDbEntity
  8
レイヤー 1
370
    20
  0
POLYLINE
  5
594A
330
585A
100
AcDbEntity
  8
レイヤー 1
 62
     7
420
 16777215
370
    20
100
AcDb2dPolyline
 66
     1
 10
0.0
 20
0.0
 30
0.0
  0
VERTEX
  5
594B
330
594A
100
AcDbEntity
  8
レイヤー 1
 62
     7
420
 16777215
370
    20
100
AcDbVertex
100
AcDb2dVertex
 10
260.8087141980591
 20
169.0654163937635
 30
0.0
  0
VERTEX
  5
594C
330
594A
100
AcDbEntity
  8
レイヤー 1
 62
     7
420
 16777215
370
    20
100
AcDbVertex
100
AcDb2dVertex
 10
260.8087141980591
 20
127.0495209023264
 30
0.0
  0
SEQEND
  5
594D
330
594A
100
AcDbEntity
  8
レイヤー 1
370
    20
  0
POLYLINE
  5
594E
330
585A
100
AcDbEntity
  8
レイヤー 1
 62
     7
420
 16777215
370
    20
100
AcDb2dPolyline
 66
     1
 10
0.0
 20
0.0
 30
0.0
  0
VERTEX
  5
594F
330
594E
100
AcDbEntity
  8
レイヤー 1
 62
     7
420
 16777215
370
    20
100
AcDbVertex
100
AcDb2dVertex
 10
254.1414165070758
 20
169.0654163937635
 30
0.0
  0
VERTEX
  5
5950
330
594E
100
AcDbEntity
  8
レイヤー 1
 62
     7
420
 16777215
370
    20
100
AcDbVertex
100
AcDb2dVertex
 10
254.1414165070758
 20
127.0495209023264
 30
0.0
  0
SEQEND
  5
5951
330
594E
100
AcDbEntity
  8
レイヤー 1
370
    20
  0
POLYLINE
  5
5952
330
585A
100
AcDbEntity
  8
レイヤー 1
 62
     7
420
 16777215
370
    20
100
AcDb2dPolyline
 66
     1
 10
0.0
 20
0.0
 30
0.0
  0
VERTEX
  5
5953
330
5952
100
AcDbEntity
  8
レイヤー 1
 62
     7
420
 16777215
370
    20
100
AcDbVertex
100
AcDb2dVertex
 10
260.8087141980591
 20
178.0612556593531
 30
0.0
  0
VERTEX
  5
5954
330
5952
100
AcDbEntity
  8
レイヤー 1
 62
     7
420
 16777215
370
    20
100
AcDbVertex
100
AcDb2dVertex
 10
260.8087141980591
 20
178.0188809569301
 30
0.0
  0
VERTEX
  5
5955
330
5952
100
AcDbEntity
  8
レイヤー 1
 62
     7
420
 16777215
370
    20
100
AcDbVertex
100
AcDb2dVertex
 10
260.8087141980591
 20
177.8917568496613
 30
0.0
  0
VERTEX
  5
5956
330
5952
100
AcDbEntity
  8
レイヤー 1
 62
     7
420
 16777215
370
    20
100
AcDbVertex
100
AcDb2dVertex
 10
260.8087141980591
 20
177.6802278473225
 30
0.0
  0
VERTEX
  5
5957
330
5952
100
AcDbEntity
  8
レイヤー 1
 62
     7
420
 16777215
370
    20
100
AcDbVertex
100
AcDb2dVertex
 10
260.8087141980591
 20
177.3837771852499
 30
0.0
  0
VERTEX
  5
5958
330
5952
100
AcDbEntity
  8
レイヤー 1
 62
     7
420
 16777215
370
    20
100
AcDbVertex
100
AcDb2dVertex
 10
260.8087141980591
 20
177.0029216281072
 30
0.0
  0
VERTEX
  5
5959
330
5952
100
AcDbEntity
  8
レイヤー 1
 62
     7
420
 16777215
370
    20
100
AcDbVertex
100
AcDb2dVertex
 10
260.8087141980591
 20
176.5371444112308
 30
0.0
  0
VERTEX
  5
595A
330
5952
100
AcDbEntity
  8
レイヤー 1
 62
     7
420
 16777215
370
    20
100
AcDbVertex
100
AcDb2dVertex
 10
260.8087141980591
 20
176.0079773956079
 30
0.0
  0
VERTEX
  5
595B
330
5952
100
AcDbEntity
  8
レイヤー 1
 62
     7
420
 16777215
370
    20
100
AcDbVertex
100
AcDb2dVertex
 10
260.8087141980591
 20
175.4154205812385
 30
0.0
  0
VERTEX
  5
595C
330
5952
100
AcDbEntity
  8
レイヤー 1
 62
     7
420
 16777215
370
    20
100
AcDbVertex
100
AcDb2dVertex
 10
260.8087141980591
 20
174.7591294583468
 30
0.0
  0
VERTEX
  5
595D
330
5952
100
AcDbEntity
  8
レイヤー 1
 62
     7
420
 16777215
370
    20
100
AcDbVertex
100
AcDb2dVertex
 10
260.8087141980591
 20
174.06063588792
 30
0.0
  0
VERTEX
  5
595E
330
5952
100
AcDbEntity
  8
レイヤー 1
 62
     7
420
 16777215
370
    20
100
AcDbVertex
100
AcDb2dVertex
 10
260.8087141980591
 20
173.2987525187468
 30
0.0
  0
VERTEX
  5
595F
330
5952
100
AcDbEntity
  8
レイヤー 1
 62
     7
420
 16777215
370
    20
100
AcDbVertex
100
AcDb2dVertex
 10
260.8087141980591
 20
172.4943221922628
 30
0.0
  0
VERTEX
  5
5960
330
5952
100
AcDbEntity
  8
レイヤー 1
 62
     7
420
 16777215
370
    20
100
AcDbVertex
100
AcDb2dVertex
 10
260.8087141980591
 20
171.6688767694552
 30
0.0
  0
VERTEX
  5
5961
330
5952
100
AcDbEntity
  8
レイヤー 1
 62
     7
420
 16777215
370
    20
100
AcDbVertex
100
AcDb2dVertex
 10
260.8087141980591
 20
170.8220717405482
 30
0.0
  0
VERTEX
  5
5962
330
5952
100
AcDbEntity
  8
レイヤー 1
 62
     7
420
 16777215
370
    20
100
AcDbVertex
100
AcDb2dVertex
 10
260.8087141980591
 20
169.9332365189941
 30
0.0
  0
VERTEX
  5
5963
330
5952
100
AcDbEntity
  8
レイヤー 1
 62
     7
420
 16777215
370
    20
100
AcDbVertex
100
AcDb2dVertex
 10
260.8087141980591
 20
169.0654163937635
 30
0.0
  0
SEQEND
  5
5964
330
5952
100
AcDbEntity
  8
レイヤー 1
370
    20
  0
POLYLINE
  5
5965
330
585A
100
AcDbEntity
  8
レイヤー 1
 62
     7
420
 16777215
370
    20
100
AcDb2dPolyline
 66
     1
 10
0.0
 20
0.0
 30
0.0
  0
VERTEX
  5
5966
330
5965
100
AcDbEntity
  8
レイヤー 1
 62
     7
420
 16777215
370
    20
100
AcDbVertex
100
AcDb2dVertex
 10
254.1414165070758
 20
169.0654163937635
 30
0.0
  0
VERTEX
  5
5967
330
5965
100
AcDbEntity
  8
レイヤー 1
 62
     7
420
 16777215
370
    20
100
AcDbVertex
100
AcDb2dVertex
 10
254.1414165070758
 20
169.9332365189941
 30
0.0
  0
VERTEX
  5
5968
330
5965
100
AcDbEntity
  8
レイヤー 1
 62
     7
420
 16777215
370
    20
100
AcDbVertex
100
AcDb2dVertex
 10
254.1414165070758
 20
170.8220717405482
 30
0.0
  0
VERTEX
  5
5969
330
5965
100
AcDbEntity
  8
レイヤー 1
 62
     7
420
 16777215
370
    20
100
AcDbVertex
100
AcDb2dVertex
 10
254.1414165070758
 20
171.6688767694552
 30
0.0
  0
VERTEX
  5
596A
330
5965
100
AcDbEntity
  8
レイヤー 1
 62
     7
420
 16777215
370
    20
100
AcDbVertex
100
AcDb2dVertex
 10
254.1414165070758
 20
172.4943221922628
 30
0.0
  0
VERTEX
  5
596B
330
5965
100
AcDbEntity
  8
レイヤー 1
 62
     7
420
 16777215
370
    20
100
AcDbVertex
100
AcDb2dVertex
 10
254.1414165070758
 20
173.2987525187468
 30
0.0
  0
VERTEX
  5
596C
330
5965
100
AcDbEntity
  8
レイヤー 1
 62
     7
420
 16777215
370
    20
100
AcDbVertex
100
AcDb2dVertex
 10
254.1414165070758
 20
174.06063588792
 30
0.0
  0
VERTEX
  5
596D
330
5965
100
AcDbEntity
  8
レイヤー 1
 62
     7
420
 16777215
370
    20
100
AcDbVertex
100
AcDb2dVertex
 10
254.1414165070758
 20
174.7591294583468
 30
0.0
  0
VERTEX
  5
596E
330
5965
100
AcDbEntity
  8
レイヤー 1
 62
     7
420
 16777215
370
    20
100
AcDbVertex
100
AcDb2dVertex
 10
254.1414165070758
 20
175.4154205812385
 30
0.0
  0
VERTEX
  5
596F
330
5965
100
AcDbEntity
  8
レイヤー 1
 62
     7
420
 16777215
370
    20
100
AcDbVertex
100
AcDb2dVertex
 10
254.1414165070758
 20
176.0079773956079
 30
0.0
  0
VERTEX
  5
5970
330
5965
100
AcDbEntity
  8
レイヤー 1
 62
     7
420
 16777215
370
    20
100
AcDbVertex
100
AcDb2dVertex
 10
254.1414165070758
 20
176.5371444112308
 30
0.0
  0
VERTEX
  5
5971
330
5965
100
AcDbEntity
  8
レイヤー 1
 62
     7
420
 16777215
370
    20
100
AcDbVertex
100
AcDb2dVertex
 10
254.1414165070758
 20
177.0029216281072
 30
0.0
  0
VERTEX
  5
5972
330
5965
100
AcDbEntity
  8
レイヤー 1
 62
     7
420
 16777215
370
    20
100
AcDbVertex
100
AcDb2dVertex
 10
254.1414165070758
 20
177.3837771852499
 30
0.0
  0
VERTEX
  5
5973
330
5965
100
AcDbEntity
  8
レイヤー 1
 62
     7
420
 16777215
370
    20
100
AcDbVertex
100
AcDb2dVertex
 10
254.1414165070758
 20
177.6802278473225
 30
0.0
  0
VERTEX
  5
5974
330
5965
100
AcDbEntity
  8
レイヤー 1
 62
     7
420
 16777215
370
    20
100
AcDbVertex
100
AcDb2dVertex
 10
254.1414165070758
 20
177.8917568496613
 30
0.0
  0
VERTEX
  5
5975
330
5965
100
AcDbEntity
  8
レイヤー 1
 62
     7
420
 16777215
370
    20
100
AcDbVertex
100
AcDb2dVertex
 10
254.1414165070758
 20
178.0188809569301
 30
0.0
  0
VERTEX
  5
5976
330
5965
100
AcDbEntity
  8
レイヤー 1
 62
     7
420
 16777215
370
    20
100
AcDbVertex
100
AcDb2dVertex
 10
254.1414165070758
 20
178.0612556593531
 30
0.0
  0
SEQEND
  5
5977
330
5965
100
AcDbEntity
  8
レイヤー 1
370
    20
  0
ENDBLK
  5
5978
330
585A
100
AcDbEntity
  8
0
100
AcDbBlockEnd
  0
BLOCK
  5
597B
330
597A
100
AcDbEntity
  8
0
100
AcDbBlockBegin
  2
block 4
 70
     0
 10
0.0
 20
0.0
 30
0.0
  3
block 4
  1

  0
POLYLINE
  5
597C
330
597A
100
AcDbEntity
  8
レイヤー 1
370
     0
100
AcDb2dPolyline
 66
     1
 10
0.0
 20
0.0
 30
0.0
  0
VERTEX
  5
597D
330
597C
100
AcDbEntity
  8
レイヤー 1
370
     0
100
AcDbVertex
100
AcDb2dVertex
 10
224.2328003213314
 20
111.4919761920351
 30
0.0
  0
VERTEX
  5
597E
330
597C
100
AcDbEntity
  8
レイヤー 1
370
     0
100
AcDbVertex
100
AcDb2dVertex
 10
267.3705918976487
 20
111.4919761920351
 30
0.0
  0
VERTEX
  5
597F
330
597C
100
AcDbEntity
  8
レイヤー 1
370
     0
100
AcDbVertex
100
AcDb2dVertex
 10
267.3705918976487
 20
187.9459301464967
 30
0.0
  0
VERTEX
  5
5980
330
597C
100
AcDbEntity
  8
レイヤー 1
370
     0
100
AcDbVertex
100
AcDb2dVertex
 10
224.2328003213314
 20
187.9459301464967
 30
0.0
  0
VERTEX
  5
5981
330
597C
100
AcDbEntity
  8
レイヤー 1
370
     0
100
AcDbVertex
100
AcDb2dVertex
 10
224.2328003213314
 20
111.4919761920351
 30
0.0
  0
SEQEND
  5
5982
330
597C
100
AcDbEntity
  8
レイヤー 1
370
     0
  0
ENDBLK
  5
5983
330
597A
100
AcDbEntity
  8
0
100
AcDbBlockEnd
  0
BLOCK
  5
5F31
330
5F30
100
AcDbEntity
  8
0
100
AcDbBlockBegin
  2
*D23
 70
     1
 10
0.0
 20
0.0
 30
0.0
  3
*D23
  1

  0
LINE
  5
5F33
330
5F30
100
AcDbEntity
  8
DIM
 62
     0
370
    -2
100
AcDbLine
 10
-405.59257453993
 20
417.7832554753641
 30
0.0
 11
-405.59257453993
 21
374.5018150037851
 31
0.0
  0
LINE
  5
5F34
330
5F30
100
AcDbEntity
  8
DIM
 62
     0
370
    -2
100
AcDbLine
 10
-205.5992236612851
 20
417.7832554753641
 30
0.0
 11
-205.5992236612851
 21
374.5018150037851
 31
0.0
  0
LINE
  5
5F35
330
5F30
100
AcDbEntity
  8
DIM
 62
     0
370
    -2
100
AcDbLine
 10
-403.59257453993
 20
374.5018150037851
 30
0.0
 11
-207.5992236612851
 21
374.5018150037851
 31
0.0
  0
INSERT
  5
5F36
330
5F30
100
AcDbEntity
  8
DIM
 62
     0
370
    -2
100
AcDbBlockReference
  2
_DOT
 10
-405.59257453993
 20
374.5018150037851
 30
0.0
 41
2.0
 42
2.0
 43
2.0
 50
180.0
  0
INSERT
  5
5F37
330
5F30
100
AcDbEntity
  8
DIM
 62
     0
370
    -2
100
AcDbBlockReference
  2
_DOT
 10
-205.5992236612851
 20
374.5018150037851
 30
0.0
 41
2.0
 42
2.0
 43
2.0
  0
MTEXT
  5
5F38
330
5F30
100
AcDbEntity
  8
DIM
 62
     0
100
AcDbMText
 10
-305.5958991006075
 20
380.0027528554795
 30
0.0
 40
5.0
 41
0.0
 46
0.0
 71
     5
 72
     1
  1
\A1;199.99335088
  7
ＭＳ ゴシック
 73
     1
 44
1.0
  0
POINT
  5
5F39
330
5F30
100
AcDbEntity
  8
Defpoints
 62
     0
100
AcDbPoint
 10
-405.59257453993
 20
422.7832554753641
 30
0.0
  0
POINT
  5
5F3A
330
5F30
100
AcDbEntity
  8
Defpoints
 62
     0
100
AcDbPoint
 10
-205.5992236612851
 20
422.7832554753641
 30
0.0
  0
POINT
  5
5F3B
330
5F30
100
AcDbEntity
  8
Defpoints
 62
     0
100
AcDbPoint
 10
-205.5992236612851
 20
374.5018150037851
 30
0.0
  0
ENDBLK
  5
5F32
330
5F30
100
AcDbEntity
  8
0
100
AcDbBlockEnd
  0
BLOCK
  5
5F40
330
5F3F
100
AcDbEntity
  8
0
100
AcDbBlockBegin
  2
*D24
 70
     1
 10
0.0
 20
0.0
 30
0.0
  3
*D24
  1

  0
LINE
  5
5F42
330
5F3F
100
AcDbEntity
  8
DIM
 62
     0
370
    -2
100
AcDbLine
 10
58.05410667911428
 20
380.5612076495523
 30
0.0
 11
58.05410667911428
 21
322.9048282009101
 31
0.0
  0
LINE
  5
5F43
330
5F3F
100
AcDbEntity
  8
DIM
 62
     0
370
    -2
100
AcDbLine
 10
258.0792385845763
 20
375.4031755635933
 30
0.0
 11
258.0792385845763
 21
322.9048282009101
 31
0.0
  0
LINE
  5
5F44
330
5F3F
100
AcDbEntity
  8
DIM
 62
     0
370
    -2
100
AcDbLine
 10
60.05410667911428
 20
322.9048282009101
 30
0.0
 11
256.0792385845763
 21
322.9048282009101
 31
0.0
  0
INSERT
  5
5F45
330
5F3F
100
AcDbEntity
  8
DIM
 62
     0
370
    -2
100
AcDbBlockReference
  2
_DOT
 10
58.05410667911428
 20
322.9048282009101
 30
0.0
 41
2.0
 42
2.0
 43
2.0
 50
180.0
  0
INSERT
  5
5F46
330
5F3F
100
AcDbEntity
  8
DIM
 62
     0
370
    -2
100
AcDbBlockReference
  2
_DOT
 10
258.0792385845763
 20
322.9048282009101
 30
0.0
 41
2.0
 42
2.0
 43
2.0
  0
MTEXT
  5
5F47
330
5F3F
100
AcDbEntity
  8
DIM
 62
     0
100
AcDbMText
 10
158.0666726318453
 20
328.4057660526045
 30
0.0
 40
5.0
 41
0.0
 46
0.0
 71
     5
 72
     1
  1
\A1;200
  7
ＭＳ ゴシック
 73
     1
 44
1.0
  0
POINT
  5
5F48
330
5F3F
100
AcDbEntity
  8
Defpoints
 62
     0
100
AcDbPoint
 10
58.05410667911428
 20
385.5612076495523
 30
0.0
  0
POINT
  5
5F49
330
5F3F
100
AcDbEntity
  8
Defpoints
 62
     0
100
AcDbPoint
 10
258.0792385845763
 20
380.4031755635933
 30
0.0
  0
POINT
  5
5F4A
330
5F3F
100
AcDbEntity
  8
Defpoints
 62
     0
100
AcDbPoint
 10
258.0792385845763
 20
322.9048282009101
 30
0.0
  0
ENDBLK
  5
5F41
330
5F3F
100
AcDbEntity
  8
0
100
AcDbBlockEnd
  0
BLOCK
  5
5F4F
330
5F4E
100
AcDbEntity
  8
0
100
AcDbBlockBegin
  2
*D25
 70
     1
 10
0.0
 20
0.0
 30
0.0
  3
*D25
  1

  0
LINE
  5
5F51
330
5F4E
100
AcDbEntity
  8
DIM
 62
     0
370
    -2
100
AcDbLine
 10
68.05531159792086
 20
385.3893516967103
 30
0.0
 11
68.05531159792088
 21
352.663487405722
 31
0.0
  0
LINE
  5
5F52
330
5F4E
100
AcDbEntity
  8
DIM
 62
     0
370
    -2
100
AcDbLine
 10
258.0792385845763
 20
375.4031755635933
 30
0.0
 11
258.0792385845763
 21
352.663487405722
 31
0.0
  0
LINE
  5
5F53
330
5F4E
100
AcDbEntity
  8
DIM
 62
     0
370
    -2
100
AcDbLine
 10
70.05531159792088
 20
352.663487405722
 30
0.0
 11
256.0792385845763
 21
352.663487405722
 31
0.0
  0
INSERT
  5
5F54
330
5F4E
100
AcDbEntity
  8
DIM
 62
     0
370
    -2
100
AcDbBlockReference
  2
_DOT
 10
68.05531159792088
 20
352.663487405722
 30
0.0
 41
2.0
 42
2.0
 43
2.0
 50
180.0
  0
INSERT
  5
5F55
330
5F4E
100
AcDbEntity
  8
DIM
 62
     0
370
    -2
100
AcDbBlockReference
  2
_DOT
 10
258.0792385845763
 20
352.663487405722
 30
0.0
 41
2.0
 42
2.0
 43
2.0
  0
MTEXT
  5
5F56
330
5F4E
100
AcDbEntity
  8
DIM
 62
     0
100
AcDbMText
 10
158.6361993753551
 20
358.1644252574164
 30
0.0
 40
5.0
 41
0.0
 46
0.0
 71
     5
 72
     1
  1
\A1;190
  7
ＭＳ ゴシック
 73
     1
 44
1.0
  0
POINT
  5
5F57
330
5F4E
100
AcDbEntity
  8
Defpoints
 62
     0
100
AcDbPoint
 10
68.05531159792086
 20
390.3893516967103
 30
0.0
  0
POINT
  5
5F58
330
5F4E
100
AcDbEntity
  8
Defpoints
 62
     0
100
AcDbPoint
 10
258.0792385845763
 20
380.4031755635933
 30
0.0
  0
POINT
  5
5F59
330
5F4E
100
AcDbEntity
  8
Defpoints
 62
     0
100
AcDbPoint
 10
258.0792385845763
 20
352.663487405722
 30
0.0
  0
ENDBLK
  5
5F50
330
5F4E
100
AcDbEntity
  8
0
100
AcDbBlockEnd
  0
BLOCK
  5
5F5E
330
5F5D
100
AcDbEntity
  8
0
100
AcDbBlockBegin
  2
*D26
 70
     1
 10
0.0
 20
0.0
 30
0.0
  3
*D26
  1

  0
LINE
  5
5F60
330
5F5D
100
AcDbEntity
  8
DIM
 62
     0
370
    -2
100
AcDbLine
 10
153.1372602530943
 20
479.3045510499761
 30
0.0
 11
30.59559944778488
 21
479.3045510499761
 31
0.0
  0
LINE
  5
5F61
330
5F5D
100
AcDbEntity
  8
DIM
 62
     0
370
    -2
100
AcDbLine
 10
63.05531159792088
 20
374.2438575370214
 30
0.0
 11
30.59559944778488
 21
374.2438575370214
 31
0.0
  0
LINE
  5
5F62
330
5F5D
100
AcDbEntity
  8
DIM
 62
     0
370
    -2
100
AcDbLine
 10
30.59559944778488
 20
477.3045510499761
 30
0.0
 11
30.59559944778488
 21
376.2438575370214
 31
0.0
  0
INSERT
  5
5F63
330
5F5D
100
AcDbEntity
  8
DIM
 62
     0
370
    -2
100
AcDbBlockReference
  2
_DOT
 10
30.59559944778488
 20
479.3045510499761
 30
0.0
 41
2.0
 42
2.0
 43
2.0
 50
90.0
  0
INSERT
  5
5F64
330
5F5D
100
AcDbEntity
  8
DIM
 62
     0
370
    -2
100
AcDbBlockReference
  2
_DOT
 10
30.59559944778488
 20
374.2438575370214
 30
0.0
 41
2.0
 42
2.0
 43
2.0
 50
270.0
  0
MTEXT
  5
5F65
330
5F5D
100
AcDbEntity
  8
DIM
 62
     0
100
AcDbMText
 10
25.09466159609048
 20
426.7742042934988
 30
0.0
 40
5.0
 41
0.0
 46
0.0
 71
     5
 72
     1
  1
\A1;105
  7
ＭＳ ゴシック
 11
6.763164338644746E-17
 21
1.0
 31
0.0
 73
     1
 44
1.0
  0
POINT
  5
5F66
330
5F5D
100
AcDbEntity
  8
Defpoints
 62
     0
100
AcDbPoint
 10
158.1372602530943
 20
479.3045510499761
 30
0.0
  0
POINT
  5
5F67
330
5F5D
100
AcDbEntity
  8
Defpoints
 62
     0
100
AcDbPoint
 10
68.05531159792088
 20
374.2438575370214
 30
0.0
  0
POINT
  5
5F68
330
5F5D
100
AcDbEntity
  8
Defpoints
 62
     0
100
AcDbPoint
 10
30.59559944778488
 20
374.2438575370214
 30
0.0
  0
ENDBLK
  5
5F5F
330
5F5D
100
AcDbEntity
  8
0
100
AcDbBlockEnd
  0
BLOCK
  5
5F6D
330
5F6C
100
AcDbEntity
  8
0
100
AcDbBlockBegin
  2
*D27
 70
     1
 10
0.0
 20
0.0
 30
0.0
  3
*D27
  1

  0
LINE
  5
5F6F
330
5F6C
100
AcDbEntity
  8
DIM
 62
     0
370
    -2
100
AcDbLine
 10
220.8187869976581
 20
384.2450624558281
 30
0.0
 11
229.4047597691256
 21
384.2450624558281
 31
0.0
  0
LINE
  5
5F70
330
5F6C
100
AcDbEntity
  8
DIM
 62
     0
370
    -2
100
AcDbLine
 10
220.8187869976581
 20
374.2438575370214
 30
0.0
 11
229.4047597691256
 21
374.2438575370214
 31
0.0
  0
LINE
  5
5F71
330
5F6C
100
AcDbEntity
  8
DIM
 62
     0
370
    -2
100
AcDbLine
 10
229.4047597691256
 20
384.2450624558281
 30
0.0
 11
229.4047597691256
 21
407.6095051266386
 31
0.0
  0
LINE
  5
5F72
330
5F6C
100
AcDbEntity
  8
DIM
 62
     0
370
    -2
100
AcDbLine
 10
229.4047597691256
 20
382.2450624558281
 30
0.0
 11
229.4047597691256
 21
376.2438575370214
 31
0.0
  0
LINE
  5
5F73
330
5F6C
100
AcDbEntity
  8
DIM
 62
     0
370
    -2
100
AcDbLine
 10
229.4047597691256
 20
382.2450624558281
 30
0.0
 11
229.4047597691256
 21
380.2450624558281
 31
0.0
  0
INSERT
  5
5F74
330
5F6C
100
AcDbEntity
  8
DIM
 62
     0
370
    -2
100
AcDbBlockReference
  2
_DOT
 10
229.4047597691256
 20
384.2450624558281
 30
0.0
 41
2.0
 42
2.0
 43
2.0
 50
90.0
  0
INSERT
  5
5F75
330
5F6C
100
AcDbEntity
  8
DIM
 62
     0
370
    -2
100
AcDbBlockReference
  2
_DOT
 10
229.4047597691256
 20
374.2438575370214
 30
0.0
 41
2.0
 42
2.0
 43
2.0
 50
270.0
  0
MTEXT
  5
5F76
330
5F6C
100
AcDbEntity
  8
DIM
 62
     0
100
AcDbMText
 10
223.9038219174312
 20
399.9242716015667
 30
0.0
 40
5.0
 41
0.0
 46
0.0
 71
     5
 72
     1
  1
\A1;%%c10
  7
ＭＳ ゴシック
 11
0.0
 21
1.0
 31
0.0
 73
     1
 44
1.0
  0
POINT
  5
5F77
330
5F6C
100
AcDbEntity
  8
Defpoints
 62
     0
100
AcDbPoint
 10
215.8187869976581
 20
384.2450624558281
 30
0.0
  0
POINT
  5
5F78
330
5F6C
100
AcDbEntity
  8
Defpoints
 62
     0
100
AcDbPoint
 10
215.8187869976581
 20
374.2438575370214
 30
0.0
  0
POINT
  5
5F79
330
5F6C
100
AcDbEntity
  8
Defpoints
 62
     0
100
AcDbPoint
 10
229.4047597691256
 20
374.2438575370214
 30
0.0
  0
ENDBLK
  5
5F6E
330
5F6C
100
AcDbEntity
  8
0
100
AcDbBlockEnd
  0
BLOCK
  5
5F7E
330
5F7D
100
AcDbEntity
  8
0
100
AcDbBlockBegin
  2
*D28
 70
     1
 10
0.0
 20
0.0
 30
0.0
  3
*D28
  1

  0
LINE
  5
5F80
330
5F7D
100
AcDbEntity
  8
DIM
 62
     0
370
    -2
100
AcDbLine
 10
315.5763752064445
 20
479.2729164625642
 30
0.0
 11
253.2867550137339
 21
479.2729164625642
 31
0.0
  0
LINE
  5
5F81
330
5F7D
100
AcDbEntity
  8
DIM
 62
     0
370
    -2
100
AcDbLine
 10
315.5763752064445
 20
459.2702482426191
 30
0.0
 11
253.2867550137339
 21
459.2702482426191
 31
0.0
  0
LINE
  5
5F82
330
5F7D
100
AcDbEntity
  8
DIM
 62
     0
370
    -2
100
AcDbLine
 10
253.2867550137339
 20
477.2729164625642
 30
0.0
 11
253.2867550137339
 21
461.2702482426191
 31
0.0
  0
INSERT
  5
5F83
330
5F7D
100
AcDbEntity
  8
DIM
 62
     0
370
    -2
100
AcDbBlockReference
  2
_DOT
 10
253.2867550137339
 20
479.2729164625642
 30
0.0
 41
2.0
 42
2.0
 43
2.0
 50
90.0
  0
INSERT
  5
5F84
330
5F7D
100
AcDbEntity
  8
DIM
 62
     0
370
    -2
100
AcDbBlockReference
  2
_DOT
 10
253.2867550137339
 20
459.2702482426191
 30
0.0
 41
2.0
 42
2.0
 43
2.0
 50
270.0
  0
MTEXT
  5
5F85
330
5F7D
100
AcDbEntity
  8
DIM
 62
     0
100
AcDbMText
 10
247.7858171620395
 20
469.2715823525916
 30
0.0
 40
5.0
 41
0.0
 46
0.0
 71
     5
 72
     1
  1
\A1;%%c20
  7
ＭＳ ゴシック
 11
0.0
 21
1.0
 31
0.0
 73
     1
 44
1.0
  0
POINT
  5
5F86
330
5F7D
100
AcDbEntity
  8
Defpoints
 62
     0
100
AcDbPoint
 10
320.5763752064445
 20
479.2729164625642
 30
0.0
  0
POINT
  5
5F87
330
5F7D
100
AcDbEntity
  8
Defpoints
 62
     0
100
AcDbPoint
 10
320.5763752064445
 20
459.2702482426191
 30
0.0
  0
POINT
  5
5F88
330
5F7D
100
AcDbEntity
  8
Defpoints
 62
     0
100
AcDbPoint
 10
253.2867550137339
 20
459.2702482426191
 30
0.0
  0
ENDBLK
  5
5F7F
330
5F7D
100
AcDbEntity
  8
0
100
AcDbBlockEnd
  0
BLOCK
  5
5FA5
330
5FA4
100
AcDbEntity
  8
0
100
AcDbBlockBegin
  2
*D29
 70
     1
 10
0.0
 20
0.0
 30
0.0
  3
*D29
  1

  0
LINE
  5
5FA7
330
5FA4
100
AcDbEntity
  8
DIM
 62
     0
370
    -2
100
AcDbLine
 10
281.5763752064443
 20
469.2715823525916
 30
0.0
 11
273.6666662444963
 21
469.2715823525916
 31
0.0
  0
LINE
  5
5FA8
330
5FA4
100
AcDbEntity
  8
DIM
 62
     0
370
    -2
100
AcDbLine
 10
315.5763752064445
 20
459.2702482426191
 30
0.0
 11
273.6666662444963
 21
459.2702482426191
 31
0.0
  0
LINE
  5
5FA9
330
5FA4
100
AcDbEntity
  8
DIM
 62
     0
370
    -2
100
AcDbLine
 10
273.6666662444963
 20
467.2715823525916
 30
0.0
 11
273.6666662444963
 21
461.2702482426191
 31
0.0
  0
INSERT
  5
5FAA
330
5FA4
100
AcDbEntity
  8
DIM
 62
     0
370
    -2
100
AcDbBlockReference
  2
_DOT
 10
273.6666662444963
 20
469.2715823525916
 30
0.0
 41
2.0
 42
2.0
 43
2.0
 50
90.0
  0
INSERT
  5
5FAB
330
5FA4
100
AcDbEntity
  8
DIM
 62
     0
370
    -2
100
AcDbBlockReference
  2
_DOT
 10
273.6666662444963
 20
459.2702482426191
 30
0.0
 41
2.0
 42
2.0
 43
2.0
 50
270.0
  0
MTEXT
  5
5FAC
330
5FA4
100
AcDbEntity
  8
DIM
 62
     0
100
AcDbMText
 10
268.1657283928019
 20
464.2709152976054
 30
0.0
 40
5.0
 41
0.0
 46
0.0
 71
     5
 72
     1
  1
\A1;10
  7
ＭＳ ゴシック
 11
0.0
 21
1.0
 31
0.0
 73
     1
 44
1.0
  0
POINT
  5
5FAD
330
5FA4
100
AcDbEntity
  8
Defpoints
 62
     0
100
AcDbPoint
 10
286.5763752064443
 20
469.2715823525916
 30
0.0
  0
POINT
  5
5FAE
330
5FA4
100
AcDbEntity
  8
Defpoints
 62
     0
100
AcDbPoint
 10
320.5763752064445
 20
459.2702482426191
 30
0.0
  0
POINT
  5
5FAF
330
5FA4
100
AcDbEntity
  8
Defpoints
 62
     0
100
AcDbPoint
 10
273.6666662444963
 20
459.2702482426191
 30
0.0
  0
ENDBLK
  5
5FA6
330
5FA4
100
AcDbEntity
  8
0
100
AcDbBlockEnd
  0
BLOCK
  5
5FB5
330
5FB4
100
AcDbEntity
  8
0
100
AcDbBlockBegin
  2
*D30
 70
     1
 10
0.0
 20
0.0
 30
0.0
  3
*D30
  1

  0
LINE
  5
5FB7
330
5FB4
100
AcDbEntity
  8
DIM
 62
     0
370
    -2
100
AcDbLine
 10
320.5763752064445
 20
454.2702482426191
 30
0.0
 11
320.5763752064445
 21
440.9185469726227
 31
0.0
  0
LINE
  5
5FB8
330
5FB4
100
AcDbEntity
  8
DIM
 62
     0
370
    -2
100
AcDbLine
 10
286.5763752064443
 20
464.2715823525916
 30
0.0
 11
286.5763752064443
 21
440.9185469726227
 31
0.0
  0
LINE
  5
5FB9
330
5FB4
100
AcDbEntity
  8
DIM
 62
     0
370
    -2
100
AcDbLine
 10
318.5763752064445
 20
440.9185469726227
 30
0.0
 11
288.5763752064443
 21
440.9185469726227
 31
0.0
  0
INSERT
  5
5FBA
330
5FB4
100
AcDbEntity
  8
DIM
 62
     0
370
    -2
100
AcDbBlockReference
  2
_DOT
 10
320.5763752064445
 20
440.9185469726227
 30
0.0
 41
2.0
 42
2.0
 43
2.0
  0
INSERT
  5
5FBB
330
5FB4
100
AcDbEntity
  8
DIM
 62
     0
370
    -2
100
AcDbBlockReference
  2
_DOT
 10
286.5763752064443
 20
440.9185469726227
 30
0.0
 41
2.0
 42
2.0
 43
2.0
 50
180.0
  0
MTEXT
  5
5FBC
330
5FB4
100
AcDbEntity
  8
DIM
 62
     0
100
AcDbMText
 10
303.5763752064444
 20
446.4194848243171
 30
0.0
 40
5.0
 41
0.0
 46
0.0
 71
     5
 72
     1
  1
\A1;34
  7
ＭＳ ゴシック
 73
     1
 44
1.0
  0
POINT
  5
5FBD
330
5FB4
100
AcDbEntity
  8
Defpoints
 62
     0
100
AcDbPoint
 10
320.5763752064445
 20
459.2702482426191
 30
0.0
  0
POINT
  5
5FBE
330
5FB4
100
AcDbEntity
  8
Defpoints
 62
     0
100
AcDbPoint
 10
286.5763752064443
 20
469.2715823525916
 30
0.0
  0
POINT
  5
5FBF
330
5FB4
100
AcDbEntity
  8
Defpoints
 62
     0
100
AcDbPoint
 10
286.5763752064443
 20
440.9185469726227
 30
0.0
  0
ENDBLK
  5
5FB6
330
5FB4
100
AcDbEntity
  8
0
100
AcDbBlockEnd
  0
BLOCK
  5
5FC4
330
5FC3
100
AcDbEntity
  8
0
100
AcDbBlockBegin
  2
*D31
 70
     1
 10
0.0
 20
0.0
 30
0.0
  3
*D31
  1

  0
LINE
  5
5FC6
330
5FC3
100
AcDbEntity
  8
DIM
 62
     0
370
    -2
100
AcDbLine
 10
173.0678775506519
 20
231.6992603489437
 30
0.0
 11
274.7711383227897
 21
231.6992603489437
 31
0.0
  0
LINE
  5
5FC7
330
5FC3
100
AcDbEntity
  8
DIM
 62
     0
370
    -2
100
AcDbLine
 10
173.0678775506519
 20
176.6762260174345
 30
0.0
 11
274.7711383227897
 21
176.6762260174345
 31
0.0
  0
LINE
  5
5FC8
330
5FC3
100
AcDbEntity
  8
DIM
 62
     0
370
    -2
100
AcDbLine
 10
274.7711383227897
 20
229.6992603489437
 30
0.0
 11
274.7711383227897
 21
178.6762260174345
 31
0.0
  0
INSERT
  5
5FC9
330
5FC3
100
AcDbEntity
  8
DIM
 62
     0
370
    -2
100
AcDbBlockReference
  2
_DOT
 10
274.7711383227897
 20
231.6992603489437
 30
0.0
 41
2.0
 42
2.0
 43
2.0
 50
90.0
  0
INSERT
  5
5FCA
330
5FC3
100
AcDbEntity
  8
DIM
 62
     0
370
    -2
100
AcDbBlockReference
  2
_DOT
 10
274.7711383227897
 20
176.6762260174345
 30
0.0
 41
2.0
 42
2.0
 43
2.0
 50
270.0
  0
MTEXT
  5
5FCB
330
5FC3
100
AcDbEntity
  8
DIM
 62
     0
100
AcDbMText
 10
269.2702004710953
 20
204.1877431831891
 30
0.0
 40
5.0
 41
0.0
 46
0.0
 71
     5
 72
     1
  1
\A1;55
  7
ＭＳ ゴシック
 11
0.0
 21
1.0
 31
0.0
 73
     1
 44
1.0
  0
POINT
  5
5FCC
330
5FC3
100
AcDbEntity
  8
Defpoints
 62
     0
100
AcDbPoint
 10
168.0678775506519
 20
231.6992603489437
 30
0.0
  0
POINT
  5
5FCD
330
5FC3
100
AcDbEntity
  8
Defpoints
 62
     0
100
AcDbPoint
 10
168.0678775506519
 20
176.6762260174345
 30
0.0
  0
POINT
  5
5FCE
330
5FC3
100
AcDbEntity
  8
Defpoints
 62
     0
100
AcDbPoint
 10
274.7711383227897
 20
176.6762260174345
 30
0.0
  0
ENDBLK
  5
5FC5
330
5FC3
100
AcDbEntity
  8
0
100
AcDbBlockEnd
  0
BLOCK
  5
5FEB
330
5FEA
100
AcDbEntity
  8
0
100
AcDbBlockBegin
  2
*D32
 70
     1
 10
0.0
 20
0.0
 30
0.0
  3
*D32
  1

  0
LINE
  5
5FED
330
5FEA
100
AcDbEntity
  8
DIM
 62
     0
370
    -2
100
AcDbLine
 10
163.0820069276938
 20
459.2702482657111
 30
0.0
 11
197.4285703707048
 21
459.2702482657111
 31
0.0
  0
LINE
  5
5FEE
330
5FEA
100
AcDbEntity
  8
DIM
 62
     0
370
    -2
100
AcDbLine
 10
201.9285703707048
 20
384.2450624558281
 30
0.0
 11
197.4285703707048
 21
384.2450624558281
 31
0.0
  0
LINE
  5
5FEF
330
5FEA
100
AcDbEntity
  8
DIM
 62
     0
370
    -2
100
AcDbLine
 10
197.4285703707048
 20
457.2702482657111
 30
0.0
 11
197.4285703707048
 21
386.2450624558281
 31
0.0
  0
INSERT
  5
5FF0
330
5FEA
100
AcDbEntity
  8
DIM
 62
     0
370
    -2
100
AcDbBlockReference
  2
_DOT
 10
197.4285703707048
 20
459.2702482657111
 30
0.0
 41
2.0
 42
2.0
 43
2.0
 50
90.0
  0
INSERT
  5
5FF1
330
5FEA
100
AcDbEntity
  8
DIM
 62
     0
370
    -2
100
AcDbBlockReference
  2
_DOT
 10
197.4285703707048
 20
384.2450624558281
 30
0.0
 41
2.0
 42
2.0
 43
2.0
 50
270.0
  0
MTEXT
  5
5FF2
330
5FEA
100
AcDbEntity
  8
DIM
 62
     0
100
AcDbMText
 10
191.9276325190104
 20
421.7576553607696
 30
0.0
 40
5.0
 41
0.0
 46
0.0
 71
     5
 72
     1
  1
\A1;75
  7
ＭＳ ゴシック
 11
0.0
 21
1.0
 31
0.0
 73
     1
 44
1.0
  0
POINT
  5
5FF3
330
5FEA
100
AcDbEntity
  8
Defpoints
 62
     0
100
AcDbPoint
 10
158.0820069276938
 20
459.2702482657111
 30
0.0
  0
POINT
  5
5FF4
330
5FEA
100
AcDbEntity
  8
Defpoints
 62
     0
100
AcDbPoint
 10
196.9285703707048
 20
384.2450624558281
 30
0.0
  0
POINT
  5
5FF5
330
5FEA
100
AcDbEntity
  8
Defpoints
 62
     0
100
AcDbPoint
 10
197.4285703707048
 20
384.2450624558281
 30
0.0
  0
ENDBLK
  5
5FEC
330
5FEA
100
AcDbEntity
  8
0
100
AcDbBlockEnd
  0
ENDSEC
  0
SECTION
  2
ENTITIES
  0
MTEXT
  5
177
330
A
100
AcDbEntity
  8
TEMPLATE
390
1D
100
AcDbMText
 10
15.84042890954615
 20
68.74635032628565
 30
0.0
 40
3.257682291666665
 41
0.0
 46
0.0
 71
     1
 72
     1
  1
品名
  7
ＭＳ ゴシック
 73
     1
 44
0.7828267384257843
  0
MTEXT
  5
178
330
A
100
AcDbEntity
  8
TEMPLATE
390
1D
100
AcDbMText
 10
15.84042890954615
 20
51.7463503262856
 30
0.0
 40
3.257682291666665
 41
0.0
 46
0.0
 71
     1
 72
     1
  1
仕様
  7
ＭＳ ゴシック
 73
     1
 44
0.7828267384257843
  0
LINE
  5
179
330
A
100
AcDbEntity
  8
TEMPLATE
390
1D
100
AcDbLine
 10
404.4404289094496
 20
53.42933470128568
 30
0.0
 11
14.44042890944975
 21
53.42933470128568
 31
0.0
  0
LWPOLYLINE
  5
17A
330
A
100
AcDbEntity
  8
TEMPLATE
390
1D
100
AcDbPolyline
 90
        5
 70
   128
 43
0.0
 10
404.4404289094496
 20
579.4293347012853
 10
14.44042890944975
 20
579.4293347012853
 10
14.44042890944975
 20
19.42933470128565
 10
404.4404289094496
 20
19.42933470128565
 10
404.4404289094496
 20
579.4293347012853
  0
LINE
  5
17B
330
A
100
AcDbEntity
  8
TEMPLATE
390
1D
100
AcDbLine
 10
404.4404289094496
 20
70.42933470128564
 30
0.0
 11
14.44042890944975
 21
70.42933470128564
 31
0.0
  0
LINE
  5
17C
330
A
100
AcDbEntity
  8
TEMPLATE
390
1D
100
AcDbLine
 10
404.4404289095464
 20
36.42933470128565
 30
0.0
 11
253.840428909546
 21
36.42933470128565
 31
0.0
  0
MTEXT
  5
17E
330
A
100
AcDbEntity
  8
TEMPLATE
390
1D
100
AcDbMText
 10
259.8147101599982
 20
30.44725580662403
 30
0.0
 40
4.8865234375
 41
0.0
 46
0.0
 71
     1
 72
     1
  1
大洋金物株式会社 ティーフォルム事業部
  7
ＭＳ ゴシック
 73
     1
 44
0.7828267384257843
  0
MTEXT
  5
180
330
A
100
AcDbEntity
  8
TEMPLATE
390
1D
100
AcDbMText
 10
366.240428909598
 20
46.02985813878564
 30
0.0
 40
4.8865234375
 41
0.0
 46
4.8865234375
 71
     1
 72
     1
  1
{1:2}
  7
ＭＳ ゴシック
 73
     1
 44
0.7828267384257843
1001
ACAD
1000
ACAD_MTEXT_DEFINED_HEIGHT_BEGIN
1070
    46
1040
4.8865234375
1000
ACAD_MTEXT_DEFINED_HEIGHT_END
  0
MTEXT
  5
181
330
A
100
AcDbEntity
  8
TEMPLATE
390
1D
100
AcDbMText
 10
355.640428909598
 20
51.7463503262856
 30
0.0
 40
3.257682291666665
 41
0.0
 46
0.0
 71
     1
 72
     1
  1
縮尺
  7
ＭＳ ゴシック
 73
     1
 44
0.7828267384257843
  0
LINE
  5
182
330
A
100
AcDbEntity
  8
TEMPLATE
390
1D
100
AcDbLine
 10
354.240428909598
 20
36.42933470128565
 30
0.0
 11
354.240428909598
 21
53.42933470128568
 31
0.0
  0
MTEXT
  5
183
330
A
100
AcDbEntity
  8
TEMPLATE
390
1D
100
AcDbMText
 10
305.440428909598
 20
51.7463503262856
 30
0.0
 40
3.257682291666665
 41
0.0
 46
0.0
 71
     1
 72
     1
  1
容量
  7
ＭＳ ゴシック
 73
     1
 44
0.7828267384257843
  0
LINE
  5
184
330
A
100
AcDbEntity
  8
TEMPLATE
390
1D
100
AcDbLine
 10
304.040428909598
 20
36.42933470128565
 30
0.0
 11
304.040428909598
 21
53.42933470128568
 31
0.0
  0
MTEXT
  5
185
330
A
100
AcDbEntity
  8
TEMPLATE
390
1D
100
AcDbMText
 10
255.240428909598
 20
68.74635032628565
 30
0.0
 40
3.257682291666665
 41
0.0
 46
0.0
 71
     1
 72
     1
  1
品番
  7
ＭＳ ゴシック
 73
     1
 44
0.7828267384257843
  0
MTEXT
  5
186
330
A
100
AcDbEntity
  8
TEMPLATE
390
1D
100
AcDbMText
 10
255.240428909598
 20
51.7463503262856
 30
0.0
 40
3.257682291666665
 41
0.0
 46
0.0
 71
     1
 72
     1
  1
重量
  7
ＭＳ ゴシック
 73
     1
 44
0.7828267384257843
  0
MTEXT
  5
187
330
A
100
AcDbEntity
  8
TEMPLATE
390
1D
100
AcDbMText
 10
265.840428909598
 20
63.02985813878564
 30
0.0
 40
4.8865234375
 41
0.0
 46
4.8865234375
 71
     1
 72
     1
  1
{APM74-0006}
  7
ＭＳ ゴシック
 73
     1
 44
0.7828267384257843
1001
ACAD
1000
ACAD_MTEXT_DEFINED_HEIGHT_BEGIN
1070
    46
1040
4.8865234375
1000
ACAD_MTEXT_DEFINED_HEIGHT_END
  0
LINE
  5
188
330
A
100
AcDbEntity
  8
TEMPLATE
390
1D
100
AcDbLine
 10
253.840428909598
 20
19.42933470128565
 30
0.0
 11
253.840428909598
 21
70.42933470128564
 31
0.0
  0
MTEXT
  5
189
330
A
100
AcDbEntity
  8
TEMPLATE
390
1D
100
AcDbMText
 10
26.44042890954615
 20
63.02985813878564
 30
0.0
 40
4.8865234375
 41
0.0
 46
5.507344722044204
 71
     1
 72
     1
  1
{タオルリング　-PERFORMA DESIGN ,Vela-}
  7
ＭＳ ゴシック
 73
     1
 44
0.7828267384257843
1001
ACAD
1000
ACAD_MTEXT_DEFINED_HEIGHT_BEGIN
1070
    46
1040
5.507344722044204
1000
ACAD_MTEXT_DEFINED_HEIGHT_END
  0
INSERT
  5
68C
330
A
100
AcDbEntity
  8
TEMPLATE
100
AcDbBlockReference
  2
block 2
 10
367.7097207081031
 20
3.349230605734547
 30
0.0
 41
0.1524
 42
0.1524
 43
0.1524
  0
LWPOLYLINE
  5
D69
330
A
100
AcDbEntity
  8
BORDER
100
AcDbPolyline
 90
        4
 70
     1
 43
0.0
 10
0.0
 20
0.0
 10
0.0
 20
594.0
 10
420.0
 20
594.0
 10
420.0
 20
0.0
  0
INSERT
  5
1343
330
A
100
AcDbEntity
  8
TEMPLATE
100
AcDbBlockReference
  2
block 2
 10
838.6973883465873
 20
9.774128564918277
 30
0.0
 41
0.1524
 42
0.1524
 43
0.1524
  0
HATCH
  5
3C64
102
{ACAD_REACTORS
330
3C75
102
}
330
A
100
AcDbEntity
  8
TEMPLATE
100
AcDbHatch
 10
0.0
 20
0.0
 30
0.0
210
0.0
220
0.0
230
1.0
  2
SOLID
 70
     1
 71
     1
 91
        6
 92
        1
 93
        8
 72
     1
 10
386.9584116981973
 20
30.78695932253559
 11
386.9584116981973
 21
29.60507779640349
 72
     1
 10
386.9584116981973
 20
29.60507779640349
 11
385.086293388135
 21
29.60507779640349
 72
     1
 10
385.086293388135
 20
29.60507779640349
 11
385.086293388135
 21
24.78695932282479
 72
     1
 10
385.086293388135
 20
24.78695932282479
 11
383.4397707574798
 21
24.78695932282479
 72
     1
 10
383.4397707574798
 20
24.78695932282479
 11
383.4397707574798
 21
29.60507779640349
 72
     1
 10
383.4397707574798
 20
29.60507779640349
 11
381.6008304705712
 21
29.60507779640349
 72
     1
 10
381.6008304705712
 20
29.60507779640349
 11
381.6008304705712
 21
30.78695932253559
 72
     1
 10
381.6008304705712
 20
30.78695932253559
 11
386.9584116981973
 21
30.78695932253559
 97
        1
330
3C65
 92
        1
 93
        1
 72
     4
 94
        3
 73
     0
 74
     1
 95
       56
 96
       52
 40
0.0
 40
0.0
 40
0.0
 40
0.0
 40
1.0
 40
1.0
 40
1.0
 40
2.0
 40
2.0
 40
2.0
 40
3.0
 40
3.0
 40
3.0
 40
4.0
 40
4.0
 40
4.0
 40
5.0
 40
5.0
 40
5.0
 40
6.0
 40
6.0
 40
6.0
 40
7.0
 40
7.0
 40
7.0
 40
8.0
 40
8.0
 40
8.0
 40
9.0
 40
9.0
 40
9.0
 40
10.0
 40
10.0
 40
10.0
 40
11.0
 40
11.0
 40
11.0
 40
12.0
 40
12.0
 40
12.0
 40
13.0
 40
13.0
 40
13.0
 40
14.0
 40
14.0
 40
14.0
 40
15.0
 40
15.0
 40
15.0
 40
16.0
 40
16.0
 40
16.0
 40
17.0
 40
17.0
 40
17.0
 40
17.0
 10
389.4668487850558
 20
30.64408553045313
 10
389.6976220214394
 20
30.70904304125516
 10
389.9955398401064
 20
30.65470844907718
 10
389.9955398401064
 20
30.65470844907718
 10
389.9955398401064
 20
30.65470844907718
 10
389.85241312139
 20
30.22519439059248
 10
389.85241312139
 20
30.22519439059248
 10
389.85241312139
 20
30.22519439059248
 10
389.5599406643706
 20
30.29287458221835
 10
389.3343598630008
 20
30.1149927683958
 10
389.1590668276665
 20
29.97588311974736
 10
389.0455027690426
 20
29.60625316134929
 10
389.0019398758616
 20
29.46571522112114
 10
389.0019398758616
 20
29.46571522112114
 10
388.8077219770962
 20
28.86958202304137
 10
388.8077219770962
 20
28.86958202304137
 10
388.8077219770962
 20
28.86958202304137
 10
389.4445466071603
 20
28.86958202304137
 10
389.4445466071603
 20
28.86958202304137
 10
389.4445466071603
 20
28.86958202304137
 10
389.34550351293
 20
28.49438767869736
 10
389.34550351293
 20
28.49438767869736
 10
389.34550351293
 20
28.49438767869736
 10
388.7034864478522
 20
28.49438767869736
 10
388.7034864478522
 20
28.49438767869736
 10
388.7034864478522
 20
28.49438767869736
 10
387.5547978229109
 20
24.78695932282479
 10
387.5547978229109
 20
24.78695932282479
 10
387.5547978229109
 20
24.78695932282479
 10
387.1951510275336
 20
24.78695932282479
 10
387.1951510275336
 20
24.78695932282479
 10
387.1951510275336
 20
24.78695932282479
 10
388.3448811150849
 20
28.49438767869736
 10
388.3448811150849
 20
28.49438767869736
 10
388.3448811150849
 20
28.49438767869736
 10
387.8711346517413
 20
28.49438767869736
 10
387.8711346517413
 20
28.49438767869736
 10
387.8711346517413
 20
28.49438767869736
 10
387.9704455506427
 20
28.86958202304137
 10
387.9704455506427
 20
28.86958202304137
 10
387.9704455506427
 20
28.86958202304137
 10
388.4491166443289
 20
28.86958202304137
 10
388.4491166443289
 20
28.86958202304137
 10
388.4491166443289
 20
28.86958202304137
 10
388.6184287086733
 20
29.38948015805433
 10
388.6184287086733
 20
29.38948015805433
 10
388.7553364078029
 20
29.82536201649855
 10
388.8715041229524
 20
30.059378665011
 10
388.971082826525
 20
30.23581730921654
 10
389.0696051894502
 20
30.41240473379499
 10
389.2645967461546
 20
30.58586777054282
 10
389.4668487850558
 20
30.64408553045313
 97
        1
330
3C70
 92
        1
 93
        1
 72
     4
 94
        3
 73
     0
 74
     1
 95
       32
 96
       28
 40
0.0
 40
0.0
 40
0.0
 40
0.0
 40
1.0
 40
1.0
 40
1.0
 40
2.0
 40
2.0
 40
2.0
 40
3.0
 40
3.0
 40
3.0
 40
4.0
 40
4.0
 40
4.0
 40
5.0
 40
5.0
 40
5.0
 40
6.0
 40
6.0
 40
6.0
 40
7.0
 40
7.0
 40
7.0
 40
8.0
 40
8.0
 40
8.0
 40
9.0
 40
9.0
 40
9.0
 40
9.0
 10
390.3419600603343
 20
28.64284073476305
 10
390.1254548617105
 20
28.36279143887966
 10
389.9587315758544
 20
28.11075748721071
 10
389.6888142233646
 20
27.31860614785359
 10
389.4406634394279
 20
26.59401597582401
 10
389.2827479516467
 20
26.06685735861421
 10
389.2588984578731
 20
25.42484029353638
 10
389.240747252381
 20
24.94707676012474
 10
389.5316723935223
 20
24.78695932282479
 10
389.9582257225866
 20
24.78695932282479
 10
390.1420587513246
 20
24.78695932282479
 10
390.6059559539832
 20
24.79865346013363
 10
390.9363078939394
 20
25.20702582763122
 10
391.1675721055534
 20
25.49393389870466
 10
391.38071486775
 20
25.79134586410385
 10
391.6664624519149
 20
26.76695828126675
 10
391.9042432438614
 20
27.58257228542799
 10
392.068883604497
 20
28.10971602460051
 10
392.056713369995
 20
28.40985067082352
 10
392.056713369995
 20
28.40985067082352
 10
392.056713369995
 20
28.40985067082352
 10
392.056713369995
 20
28.40985067082352
 10
391.9791690396468
 20
28.91055613773418
 10
391.615639076537
 20
29.01635386089345
 10
391.4079416759881
 20
29.01635386089345
 10
391.2033686632698
 20
29.01635386089345
 10
390.6552022574085
 20
29.05174871160303
 10
390.3419600603343
 20
28.64284073476305
 97
        1
330
3C73
 92
        1
 93
        1
 72
     4
 94
        3
 73
     0
 74
     1
 95
       38
 96
       34
 40
0.0
 40
0.0
 40
0.0
 40
0.0
 40
1.0
 40
1.0
 40
1.0
 40
2.0
 40
2.0
 40
2.0
 40
3.0
 40
3.0
 40
3.0
 40
4.0
 40
4.0
 40
4.0
 40
5.0
 40
5.0
 40
5.0
 40
6.0
 40
6.0
 40
6.0
 40
7.0
 40
7.0
 40
7.0
 40
8.0
 40
8.0
 40
8.0
 40
9.0
 40
9.0
 40
9.0
 40
10.0
 40
10.0
 40
10.0
 40
11.0
 40
11.0
 40
11.0
 40
11.0
 10
393.3716045494872
 20
28.85519496098328
 10
393.3716045494872
 20
28.85519496098328
 10
393.7413535321836
 20
28.85519496098328
 10
393.7413535321836
 20
28.85519496098328
 10
393.7413535321836
 20
28.85519496098328
 10
393.5761775622055
 20
28.32635512555987
 10
393.5761775622055
 20
28.32635512555987
 10
393.7016886847722
 20
28.47480818162555
 10
393.8997748732327
 20
28.67252241915381
 10
394.0698903515905
 20
28.77222014702475
 10
394.3240072284799
 20
28.92067320309043
 10
394.4692168724166
 20
28.94025270016223
 10
394.6289177246725
 20
28.93635465439262
 10
394.6289177246725
 20
28.93635465439262
 10
394.4728471135151
 20
28.43630382112264
 10
394.4728471135151
 20
28.43630382112264
 10
394.3712003627593
 20
28.47934598299858
 10
394.057958165685
 20
28.39741263165024
 10
393.8782612313133
 20
28.26815224368685
 10
393.7162096491659
 20
28.15159769956793
 10
393.6041780283826
 20
28.0524207030021
 10
393.4714361796937
 20
27.80309455411968
 10
393.3397060375404
 20
27.55339645430504
 10
393.2357383129677
 20
27.15524529842472
 10
393.0568150365349
 20
26.57765013480655
 10
393.0568150365349
 20
26.57765013480655
 10
392.4980257120495
 20
24.78695932282479
 10
392.4980257120495
 20
24.78695932282479
 10
392.4980257120495
 20
24.78695932282479
 10
392.1391674526484
 20
24.78695932282479
 10
392.1391674526484
 20
24.78695932282479
 10
392.1391674526484
 20
24.78695932282479
 10
393.3716045494872
 20
28.85519496098328
 10
393.3716045494872
 20
28.85519496098328
 97
        1
330
3C71
 92
        1
 93
        1
 72
     4
 94
        3
 73
     0
 74
     1
 95
      104
 96
      100
 40
0.0
 40
0.0
 40
0.0
 40
0.0
 40
1.0
 40
1.0
 40
1.0
 40
2.0
 40
2.0
 40
2.0
 40
3.0
 40
3.0
 40
3.0
 40
4.0
 40
4.0
 40
4.0
 40
5.0
 40
5.0
 40
5.0
 40
6.0
 40
6.0
 40
6.0
 40
7.0
 40
7.0
 40
7.0
 40
8.0
 40
8.0
 40
8.0
 40
9.0
 40
9.0
 40
9.0
 40
10.0
 40
10.0
 40
10.0
 40
11.0
 40
11.0
 40
11.0
 40
12.0
 40
12.0
 40
12.0
 40
13.0
 40
13.0
 40
13.0
 40
14.0
 40
14.0
 40
14.0
 40
15.0
 40
15.0
 40
15.0
 40
16.0
 40
16.0
 40
16.0
 40
17.0
 40
17.0
 40
17.0
 40
18.0
 40
18.0
 40
18.0
 40
19.0
 40
19.0
 40
19.0
 40
20.0
 40
20.0
 40
20.0
 40
21.0
 40
21.0
 40
21.0
 40
22.0
 40
22.0
 40
22.0
 40
23.0
 40
23.0
 40
23.0
 40
24.0
 40
24.0
 40
24.0
 40
25.0
 40
25.0
 40
25.0
 40
26.0
 40
26.0
 40
26.0
 40
27.0
 40
27.0
 40
27.0
 40
28.0
 40
28.0
 40
28.0
 40
29.0
 40
29.0
 40
29.0
 40
30.0
 40
30.0
 40
30.0
 40
31.0
 40
31.0
 40
31.0
 40
32.0
 40
32.0
 40
32.0
 40
33.0
 40
33.0
 40
33.0
 40
33.0
 10
395.4068307823444
 20
28.857396910502
 10
395.4068307823444
 20
28.857396910502
 10
395.7296544354325
 20
28.857396910502
 10
395.7296544354325
 20
28.857396910502
 10
395.7296544354325
 20
28.857396910502
 10
395.5665613906749
 20
28.32805122181077
 10
395.5665613906749
 20
28.32805122181077
 10
395.7081110374387
 20
28.55000178208216
 10
395.8351694758834
 20
28.64892585201409
 10
396.0039756869598
 20
28.77675794839777
 10
396.1732877513042
 20
28.90277492423224
 10
396.3742602789986
 20
28.92845441659237
 10
396.5137567566165
 20
28.92845441659237
 10
396.6864610134627
 20
28.92845441659237
 10
396.8531842993187
 20
28.8943539551269
 10
396.9408159389486
 20
28.70506068670399
 10
397.0079753992694
 20
28.55662250867558
 10
397.0110997871
 20
28.5391110587869
 10
396.9919071189977
 20
28.24610299242514
 10
397.1674382029287
 20
28.54650544331934
 10
397.2970854198616
 20
28.67589973361832
 10
397.5174886642549
 20
28.80022061320189
 10
397.7487826319435
 20
28.92845441659237
 10
397.8836074058529
 20
28.93805075064353
 10
398.0402433824273
 20
28.9149600367716
 10
398.2710017407735
 20
28.88087445334342
 10
398.4182943099307
 20
28.79853939498828
 10
398.4953030309365
 20
28.54832056386854
 10
398.5725795566135
 20
28.29887539068781
 10
398.5308317839817
 20
28.16507720135141
 10
398.4354040528126
 20
27.76796750808128
 10
398.3918411596316
 20
27.58711008680102
 10
398.3288177936771
 20
27.36812025595006
 10
398.2463637110236
 20
27.10754631087745
 10
398.2463637110236
 20
27.10754631087745
 10
397.5174886642549
 20
24.78695932282479
 10
397.5174886642549
 20
24.78695932282479
 10
397.5174886642549
 20
24.78695932282479
 10
397.1383962741413
 20
24.78695932282479
 10
397.1383962741413
 20
24.78695932282479
 10
397.1383962741413
 20
24.78695932282479
 10
397.7765450495241
 20
26.81569873142421
 10
397.7765450495241
 20
26.81569873142421
 10
397.9098225075554
 20
27.24016913526807
 10
398.0000429256735
 20
27.55015304217612
 10
398.0467302066851
 20
27.74450484327716
 10
398.1053199175276
 20
27.98694246089495
 10
398.1286486799962
 20
28.06694166739577
 10
398.1009160184902
 20
28.24339518963862
 10
398.0755043308013
 20
28.4076487213048
 10
397.9925146388055
 20
28.51460693137258
 10
397.8504293826993
 20
28.51460693137258
 10
397.6990007191758
 20
28.51460693137258
 10
397.5763461797686
 20
28.49775011512458
 10
397.4047131416073
 20
28.32532854098695
 10
397.2330503473714
 20
28.15159769956793
 10
397.0912031398618
 20
27.94766444245305
 10
396.9799749330922
 20
27.71312706263549
 10
396.8689847749192
 20
27.47716139123824
 10
396.7564473008682
 20
27.17806820762544
 10
396.6423625109393
 20
26.81569873142421
 10
396.6423625109393
 20
26.81569873142421
 10
396.0039756869598
 20
24.78695932282479
 10
396.0039756869598
 20
24.78695932282479
 10
396.0039756869598
 20
24.78695932282479
 10
395.6474384013758
 20
24.78695932282479
 10
395.6474384013758
 20
24.78695932282479
 10
395.6474384013758
 20
24.78695932282479
 10
396.3773549107547
 20
27.10650484826726
 10
396.3773549107547
 20
27.10650484826726
 10
396.4543636317604
 20
27.35336124295977
 10
396.5122094407385
 20
27.55457181925085
 10
396.5503269722719
 20
27.71183267339138
 10
396.6151357027011
 20
27.98253856185753
 10
396.6332869081932
 20
28.1655979326565
 10
396.5842786533645
 20
28.32805122181077
 10
396.5360440564749
 20
28.48998377965993
 10
396.4512690000045
 20
28.53134472332225
 10
396.3096895971661
 20
28.53134472332225
 10
396.1909331035284
 20
28.53134472332225
 10
396.0750331930502
 20
28.48038744560878
 10
395.9427971976291
 20
28.37899362148695
 10
395.7763119603696
 20
28.25142932977446
 10
395.7096881093912
 20
28.1466730692254
 10
395.6280076846768
 20
28.02220340926895
 10
395.5177911844429
 20
27.85754817059597
 10
395.4661941511259
 20
27.74670679279587
 10
395.3731171498484
 20
27.50348063920177
 10
395.2800103924964
 20
27.25882619402798
 10
395.1918728995987
 20
26.97412007247326
 10
395.1303968495222
 20
26.77719437092129
 10
395.1303968495222
 20
26.77719437092129
 10
394.5042100161195
 20
24.78695932282479
 10
394.5042100161195
 20
24.78695932282479
 10
394.5042100161195
 20
24.78695932282479
 10
394.1308307923247
 20
24.78695932282479
 10
394.1308307923247
 20
24.78695932282479
 10
394.1308307923247
 20
24.78695932282479
 10
395.4068307823444
 20
28.857396910502
 10
395.4068307823444
 20
28.857396910502
 97
        1
330
3C72
 92
       16
 93
        1
 72
     4
 94
        3
 73
     0
 74
     1
 95
       29
 96
       25
 40
0.0
 40
0.0
 40
0.0
 40
0.0
 40
1.0
 40
1.0
 40
1.0
 40
2.0
 40
2.0
 40
2.0
 40
3.0
 40
3.0
 40
3.0
 40
4.0
 40
4.0
 40
4.0
 40
5.0
 40
5.0
 40
5.0
 40
6.0
 40
6.0
 40
6.0
 40
7.0
 40
7.0
 40
7.0
 40
8.0
 40
8.0
 40
8.0
 40
8.0
 10
389.6462927927937
 20
25.54487629838084
 10
389.6447157208412
 20
25.82830290872873
 10
389.7341922370948
 20
26.33186495879882
 10
389.9634032795631
 20
27.00563175545052
 10
390.2756040140271
 20
27.91796788002499
 10
390.4628292352669
 20
28.25142932977446
 10
390.6266661818889
 20
28.41374871659313
 10
390.866024045788
 20
28.65010121695988
 10
391.1878062362659
 20
28.66188462249246
 10
391.2827281141673
 20
28.65010121695988
 10
391.4178206927478
 20
28.6338841563153
 10
391.6086463990114
 20
28.54546398070914
 10
391.6200429755745
 20
28.24779908867604
 10
391.629148334395
 20
27.99304245618328
 10
391.5557400984131
 20
27.51593355641234
 10
391.2987963944389
 20
26.76695828126675
 10
391.0026639402465
 20
25.896622855958
 10
390.824782126424
 20
25.55448751046927
 10
390.6821910170501
 20
25.40537982076289
 10
390.413553175767
 20
25.1258512561846
 10
390.1254548617105
 20
25.15269123545324
 10
390.0829334311396
 20
25.15269123545324
 10
390.0277061567243
 20
25.15269123545324
 10
389.6470664507327
 20
25.21261996965174
 10
389.6462927927937
 20
25.54487629838084
 97
        1
330
3C74
 75
     0
 76
     1
 98
        1
 10
371.9300318427923
 20
14.61939790801677
1001
ACAD
1010
0.0
1020
0.0
1030
0.0
  0
POLYLINE
  5
3C65
102
{ACAD_REACTORS
330
3C64
330
3C75
102
}
330
A
100
AcDbEntity
  8
TEMPLATE
100
AcDb2dPolyline
 66
     1
 10
0.0
 20
0.0
 30
0.0
  0
VERTEX
  5
3C66
330
3C65
100
AcDbEntity
  8
TEMPLATE
100
AcDbVertex
100
AcDb2dVertex
 10
386.9584116981973
 20
30.78695932253559
 30
0.0
  0
VERTEX
  5
3C67
330
3C65
100
AcDbEntity
  8
TEMPLATE
100
AcDbVertex
100
AcDb2dVertex
 10
386.9584116981973
 20
29.60507779640349
 30
0.0
  0
VERTEX
  5
3C68
330
3C65
100
AcDbEntity
  8
TEMPLATE
100
AcDbVertex
100
AcDb2dVertex
 10
385.086293388135
 20
29.60507779640349
 30
0.0
  0
VERTEX
  5
3C69
330
3C65
100
AcDbEntity
  8
TEMPLATE
100
AcDbVertex
100
AcDb2dVertex
 10
385.086293388135
 20
24.78695932282479
 30
0.0
  0
VERTEX
  5
3C6A
330
3C65
100
AcDbEntity
  8
TEMPLATE
100
AcDbVertex
100
AcDb2dVertex
 10
383.4397707574798
 20
24.78695932282479
 30
0.0
  0
VERTEX
  5
3C6B
330
3C65
100
AcDbEntity
  8
TEMPLATE
100
AcDbVertex
100
AcDb2dVertex
 10
383.4397707574798
 20
29.60507779640349
 30
0.0
  0
VERTEX
  5
3C6C
330
3C65
100
AcDbEntity
  8
TEMPLATE
100
AcDbVertex
100
AcDb2dVertex
 10
381.6008304705712
 20
29.60507779640349
 30
0.0
  0
VERTEX
  5
3C6D
330
3C65
100
AcDbEntity
  8
TEMPLATE
100
AcDbVertex
100
AcDb2dVertex
 10
381.6008304705712
 20
30.78695932253559
 30
0.0
  0
VERTEX
  5
3C6E
330
3C65
100
AcDbEntity
  8
TEMPLATE
100
AcDbVertex
100
AcDb2dVertex
 10
386.9584116981973
 20
30.78695932253559
 30
0.0
  0
SEQEND
  5
3C6F
330
3C65
100
AcDbEntity
  8
TEMPLATE
  0
SPLINE
  5
3C70
102
{ACAD_REACTORS
330
3C64
330
3C75
102
}
330
A
100
AcDbEntity
  8
TEMPLATE
100
AcDbSpline
210
0.0
220
0.0
230
1.0
 70
    11
 71
     3
 72
    56
 73
    52
 74
     0
 42
0.000000001
 43
0.0000000001
 40
0.0
 40
0.0
 40
0.0
 40
0.0
 40
1.0
 40
1.0
 40
1.0
 40
2.0
 40
2.0
 40
2.0
 40
3.0
 40
3.0
 40
3.0
 40
4.0
 40
4.0
 40
4.0
 40
5.0
 40
5.0
 40
5.0
 40
6.0
 40
6.0
 40
6.0
 40
7.0
 40
7.0
 40
7.0
 40
8.0
 40
8.0
 40
8.0
 40
9.0
 40
9.0
 40
9.0
 40
10.0
 40
10.0
 40
10.0
 40
11.0
 40
11.0
 40
11.0
 40
12.0
 40
12.0
 40
12.0
 40
13.0
 40
13.0
 40
13.0
 40
14.0
 40
14.0
 40
14.0
 40
15.0
 40
15.0
 40
15.0
 40
16.0
 40
16.0
 40
16.0
 40
17.0
 40
17.0
 40
17.0
 40
17.0
 10
389.4668487850558
 20
30.64408553045313
 30
0.0
 10
389.6976220214394
 20
30.70904304125516
 30
0.0
 10
389.9955398401064
 20
30.65470844907718
 30
0.0
 10
389.9955398401064
 20
30.65470844907718
 30
0.0
 10
389.9955398401064
 20
30.65470844907718
 30
0.0
 10
389.85241312139
 20
30.22519439059248
 30
0.0
 10
389.85241312139
 20
30.22519439059248
 30
0.0
 10
389.85241312139
 20
30.22519439059248
 30
0.0
 10
389.5599406643706
 20
30.29287458221835
 30
0.0
 10
389.3343598630008
 20
30.1149927683958
 30
0.0
 10
389.1590668276665
 20
29.97588311974736
 30
0.0
 10
389.0455027690426
 20
29.60625316134929
 30
0.0
 10
389.0019398758616
 20
29.46571522112114
 30
0.0
 10
389.0019398758616
 20
29.46571522112114
 30
0.0
 10
388.8077219770962
 20
28.86958202304137
 30
0.0
 10
388.8077219770962
 20
28.86958202304137
 30
0.0
 10
388.8077219770962
 20
28.86958202304137
 30
0.0
 10
389.4445466071603
 20
28.86958202304137
 30
0.0
 10
389.4445466071603
 20
28.86958202304137
 30
0.0
 10
389.4445466071603
 20
28.86958202304137
 30
0.0
 10
389.34550351293
 20
28.49438767869736
 30
0.0
 10
389.34550351293
 20
28.49438767869736
 30
0.0
 10
389.34550351293
 20
28.49438767869736
 30
0.0
 10
388.7034864478522
 20
28.49438767869736
 30
0.0
 10
388.7034864478522
 20
28.49438767869736
 30
0.0
 10
388.7034864478522
 20
28.49438767869736
 30
0.0
 10
387.5547978229109
 20
24.78695932282479
 30
0.0
 10
387.5547978229109
 20
24.78695932282479
 30
0.0
 10
387.5547978229109
 20
24.78695932282479
 30
0.0
 10
387.1951510275336
 20
24.78695932282479
 30
0.0
 10
387.1951510275336
 20
24.78695932282479
 30
0.0
 10
387.1951510275336
 20
24.78695932282479
 30
0.0
 10
388.3448811150849
 20
28.49438767869736
 30
0.0
 10
388.3448811150849
 20
28.49438767869736
 30
0.0
 10
388.3448811150849
 20
28.49438767869736
 30
0.0
 10
387.8711346517413
 20
28.49438767869736
 30
0.0
 10
387.8711346517413
 20
28.49438767869736
 30
0.0
 10
387.8711346517413
 20
28.49438767869736
 30
0.0
 10
387.9704455506427
 20
28.86958202304137
 30
0.0
 10
387.9704455506427
 20
28.86958202304137
 30
0.0
 10
387.9704455506427
 20
28.86958202304137
 30
0.0
 10
388.4491166443289
 20
28.86958202304137
 30
0.0
 10
388.4491166443289
 20
28.86958202304137
 30
0.0
 10
388.4491166443289
 20
28.86958202304137
 30
0.0
 10
388.6184287086733
 20
29.38948015805433
 30
0.0
 10
388.6184287086733
 20
29.38948015805433
 30
0.0
 10
388.7553364078029
 20
29.82536201649855
 30
0.0
 10
388.8715041229524
 20
30.059378665011
 30
0.0
 10
388.971082826525
 20
30.23581730921654
 30
0.0
 10
389.0696051894502
 20
30.41240473379499
 30
0.0
 10
389.2645967461546
 20
30.58586777054282
 30
0.0
 10
389.4668487850558
 20
30.64408553045313
 30
0.0
  0
SPLINE
  5
3C71
102
{ACAD_REACTORS
330
3C64
330
3C75
102
}
330
A
100
AcDbEntity
  8
TEMPLATE
100
AcDbSpline
210
0.0
220
0.0
230
1.0
 70
    11
 71
     3
 72
    38
 73
    34
 74
     0
 42
0.000000001
 43
0.0000000001
 40
0.0
 40
0.0
 40
0.0
 40
0.0
 40
1.0
 40
1.0
 40
1.0
 40
2.0
 40
2.0
 40
2.0
 40
3.0
 40
3.0
 40
3.0
 40
4.0
 40
4.0
 40
4.0
 40
5.0
 40
5.0
 40
5.0
 40
6.0
 40
6.0
 40
6.0
 40
7.0
 40
7.0
 40
7.0
 40
8.0
 40
8.0
 40
8.0
 40
9.0
 40
9.0
 40
9.0
 40
10.0
 40
10.0
 40
10.0
 40
11.0
 40
11.0
 40
11.0
 40
11.0
 10
393.3716045494872
 20
28.85519496098328
 30
0.0
 10
393.3716045494872
 20
28.85519496098328
 30
0.0
 10
393.7413535321836
 20
28.85519496098328
 30
0.0
 10
393.7413535321836
 20
28.85519496098328
 30
0.0
 10
393.7413535321836
 20
28.85519496098328
 30
0.0
 10
393.5761775622055
 20
28.32635512555987
 30
0.0
 10
393.5761775622055
 20
28.32635512555987
 30
0.0
 10
393.7016886847722
 20
28.47480818162555
 30
0.0
 10
393.8997748732327
 20
28.67252241915381
 30
0.0
 10
394.0698903515905
 20
28.77222014702475
 30
0.0
 10
394.3240072284799
 20
28.92067320309043
 30
0.0
 10
394.4692168724166
 20
28.94025270016223
 30
0.0
 10
394.6289177246725
 20
28.93635465439262
 30
0.0
 10
394.6289177246725
 20
28.93635465439262
 30
0.0
 10
394.4728471135151
 20
28.43630382112264
 30
0.0
 10
394.4728471135151
 20
28.43630382112264
 30
0.0
 10
394.3712003627593
 20
28.47934598299858
 30
0.0
 10
394.057958165685
 20
28.39741263165024
 30
0.0
 10
393.8782612313133
 20
28.26815224368685
 30
0.0
 10
393.7162096491659
 20
28.15159769956793
 30
0.0
 10
393.6041780283826
 20
28.0524207030021
 30
0.0
 10
393.4714361796937
 20
27.80309455411968
 30
0.0
 10
393.3397060375404
 20
27.55339645430504
 30
0.0
 10
393.2357383129677
 20
27.15524529842472
 30
0.0
 10
393.0568150365349
 20
26.57765013480655
 30
0.0
 10
393.0568150365349
 20
26.57765013480655
 30
0.0
 10
392.4980257120495
 20
24.78695932282479
 30
0.0
 10
392.4980257120495
 20
24.78695932282479
 30
0.0
 10
392.4980257120495
 20
24.78695932282479
 30
0.0
 10
392.1391674526484
 20
24.78695932282479
 30
0.0
 10
392.1391674526484
 20
24.78695932282479
 30
0.0
 10
392.1391674526484
 20
24.78695932282479
 30
0.0
 10
393.3716045494872
 20
28.85519496098328
 30
0.0
 10
393.3716045494872
 20
28.85519496098328
 30
0.0
  0
SPLINE
  5
3C72
102
{ACAD_REACTORS
330
3C64
330
3C75
102
}
330
A
100
AcDbEntity
  8
TEMPLATE
100
AcDbSpline
210
0.0
220
0.0
230
1.0
 70
    11
 71
     3
 72
   104
 73
   100
 74
     0
 42
0.000000001
 43
0.0000000001
 40
0.0
 40
0.0
 40
0.0
 40
0.0
 40
1.0
 40
1.0
 40
1.0
 40
2.0
 40
2.0
 40
2.0
 40
3.0
 40
3.0
 40
3.0
 40
4.0
 40
4.0
 40
4.0
 40
5.0
 40
5.0
 40
5.0
 40
6.0
 40
6.0
 40
6.0
 40
7.0
 40
7.0
 40
7.0
 40
8.0
 40
8.0
 40
8.0
 40
9.0
 40
9.0
 40
9.0
 40
10.0
 40
10.0
 40
10.0
 40
11.0
 40
11.0
 40
11.0
 40
12.0
 40
12.0
 40
12.0
 40
13.0
 40
13.0
 40
13.0
 40
14.0
 40
14.0
 40
14.0
 40
15.0
 40
15.0
 40
15.0
 40
16.0
 40
16.0
 40
16.0
 40
17.0
 40
17.0
 40
17.0
 40
18.0
 40
18.0
 40
18.0
 40
19.0
 40
19.0
 40
19.0
 40
20.0
 40
20.0
 40
20.0
 40
21.0
 40
21.0
 40
21.0
 40
22.0
 40
22.0
 40
22.0
 40
23.0
 40
23.0
 40
23.0
 40
24.0
 40
24.0
 40
24.0
 40
25.0
 40
25.0
 40
25.0
 40
26.0
 40
26.0
 40
26.0
 40
27.0
 40
27.0
 40
27.0
 40
28.0
 40
28.0
 40
28.0
 40
29.0
 40
29.0
 40
29.0
 40
30.0
 40
30.0
 40
30.0
 40
31.0
 40
31.0
 40
31.0
 40
32.0
 40
32.0
 40
32.0
 40
33.0
 40
33.0
 40
33.0
 40
33.0
 10
395.4068307823444
 20
28.857396910502
 30
0.0
 10
395.4068307823444
 20
28.857396910502
 30
0.0
 10
395.7296544354325
 20
28.857396910502
 30
0.0
 10
395.7296544354325
 20
28.857396910502
 30
0.0
 10
395.7296544354325
 20
28.857396910502
 30
0.0
 10
395.5665613906749
 20
28.32805122181077
 30
0.0
 10
395.5665613906749
 20
28.32805122181077
 30
0.0
 10
395.7081110374387
 20
28.55000178208216
 30
0.0
 10
395.8351694758834
 20
28.64892585201409
 30
0.0
 10
396.0039756869598
 20
28.77675794839777
 30
0.0
 10
396.1732877513042
 20
28.90277492423224
 30
0.0
 10
396.3742602789986
 20
28.92845441659237
 30
0.0
 10
396.5137567566165
 20
28.92845441659237
 30
0.0
 10
396.6864610134627
 20
28.92845441659237
 30
0.0
 10
396.8531842993187
 20
28.8943539551269
 30
0.0
 10
396.9408159389486
 20
28.70506068670399
 30
0.0
 10
397.0079753992694
 20
28.55662250867558
 30
0.0
 10
397.0110997871
 20
28.5391110587869
 30
0.0
 10
396.9919071189977
 20
28.24610299242514
 30
0.0
 10
397.1674382029287
 20
28.54650544331934
 30
0.0
 10
397.2970854198616
 20
28.67589973361832
 30
0.0
 10
397.5174886642549
 20
28.80022061320189
 30
0.0
 10
397.7487826319435
 20
28.92845441659237
 30
0.0
 10
397.8836074058529
 20
28.93805075064353
 30
0.0
 10
398.0402433824273
 20
28.9149600367716
 30
0.0
 10
398.2710017407735
 20
28.88087445334342
 30
0.0
 10
398.4182943099307
 20
28.79853939498828
 30
0.0
 10
398.4953030309365
 20
28.54832056386854
 30
0.0
 10
398.5725795566135
 20
28.29887539068781
 30
0.0
 10
398.5308317839817
 20
28.16507720135141
 30
0.0
 10
398.4354040528126
 20
27.76796750808128
 30
0.0
 10
398.3918411596316
 20
27.58711008680102
 30
0.0
 10
398.3288177936771
 20
27.36812025595006
 30
0.0
 10
398.2463637110236
 20
27.10754631087745
 30
0.0
 10
398.2463637110236
 20
27.10754631087745
 30
0.0
 10
397.5174886642549
 20
24.78695932282479
 30
0.0
 10
397.5174886642549
 20
24.78695932282479
 30
0.0
 10
397.5174886642549
 20
24.78695932282479
 30
0.0
 10
397.1383962741413
 20
24.78695932282479
 30
0.0
 10
397.1383962741413
 20
24.78695932282479
 30
0.0
 10
397.1383962741413
 20
24.78695932282479
 30
0.0
 10
397.7765450495241
 20
26.81569873142421
 30
0.0
 10
397.7765450495241
 20
26.81569873142421
 30
0.0
 10
397.9098225075554
 20
27.24016913526807
 30
0.0
 10
398.0000429256735
 20
27.55015304217612
 30
0.0
 10
398.0467302066851
 20
27.74450484327716
 30
0.0
 10
398.1053199175276
 20
27.98694246089495
 30
0.0
 10
398.1286486799962
 20
28.06694166739577
 30
0.0
 10
398.1009160184902
 20
28.24339518963862
 30
0.0
 10
398.0755043308013
 20
28.4076487213048
 30
0.0
 10
397.9925146388055
 20
28.51460693137258
 30
0.0
 10
397.8504293826993
 20
28.51460693137258
 30
0.0
 10
397.6990007191758
 20
28.51460693137258
 30
0.0
 10
397.5763461797686
 20
28.49775011512458
 30
0.0
 10
397.4047131416073
 20
28.32532854098695
 30
0.0
 10
397.2330503473714
 20
28.15159769956793
 30
0.0
 10
397.0912031398618
 20
27.94766444245305
 30
0.0
 10
396.9799749330922
 20
27.71312706263549
 30
0.0
 10
396.8689847749192
 20
27.47716139123824
 30
0.0
 10
396.7564473008682
 20
27.17806820762544
 30
0.0
 10
396.6423625109393
 20
26.81569873142421
 30
0.0
 10
396.6423625109393
 20
26.81569873142421
 30
0.0
 10
396.0039756869598
 20
24.78695932282479
 30
0.0
 10
396.0039756869598
 20
24.78695932282479
 30
0.0
 10
396.0039756869598
 20
24.78695932282479
 30
0.0
 10
395.6474384013758
 20
24.78695932282479
 30
0.0
 10
395.6474384013758
 20
24.78695932282479
 30
0.0
 10
395.6474384013758
 20
24.78695932282479
 30
0.0
 10
396.3773549107547
 20
27.10650484826726
 30
0.0
 10
396.3773549107547
 20
27.10650484826726
 30
0.0
 10
396.4543636317604
 20
27.35336124295977
 30
0.0
 10
396.5122094407385
 20
27.55457181925085
 30
0.0
 10
396.5503269722719
 20
27.71183267339138
 30
0.0
 10
396.6151357027011
 20
27.98253856185753
 30
0.0
 10
396.6332869081932
 20
28.1655979326565
 30
0.0
 10
396.5842786533645
 20
28.32805122181077
 30
0.0
 10
396.5360440564749
 20
28.48998377965993
 30
0.0
 10
396.4512690000045
 20
28.53134472332225
 30
0.0
 10
396.3096895971661
 20
28.53134472332225
 30
0.0
 10
396.1909331035284
 20
28.53134472332225
 30
0.0
 10
396.0750331930502
 20
28.48038744560878
 30
0.0
 10
395.9427971976291
 20
28.37899362148695
 30
0.0
 10
395.7763119603696
 20
28.25142932977446
 30
0.0
 10
395.7096881093912
 20
28.1466730692254
 30
0.0
 10
395.6280076846768
 20
28.02220340926895
 30
0.0
 10
395.5177911844429
 20
27.85754817059597
 30
0.0
 10
395.4661941511259
 20
27.74670679279587
 30
0.0
 10
395.3731171498484
 20
27.50348063920177
 30
0.0
 10
395.2800103924964
 20
27.25882619402798
 30
0.0
 10
395.1918728995987
 20
26.97412007247326
 30
0.0
 10
395.1303968495222
 20
26.77719437092129
 30
0.0
 10
395.1303968495222
 20
26.77719437092129
 30
0.0
 10
394.5042100161195
 20
24.78695932282479
 30
0.0
 10
394.5042100161195
 20
24.78695932282479
 30
0.0
 10
394.5042100161195
 20
24.78695932282479
 30
0.0
 10
394.1308307923247
 20
24.78695932282479
 30
0.0
 10
394.1308307923247
 20
24.78695932282479
 30
0.0
 10
394.1308307923247
 20
24.78695932282479
 30
0.0
 10
395.4068307823444
 20
28.857396910502
 30
0.0
 10
395.4068307823444
 20
28.857396910502
 30
0.0
  0
SPLINE
  5
3C73
102
{ACAD_REACTORS
330
3C64
330
3C75
102
}
330
A
100
AcDbEntity
  8
TEMPLATE
100
AcDbSpline
210
0.0
220
0.0
230
1.0
 70
    11
 71
     3
 72
    32
 73
    28
 74
     0
 42
0.000000001
 43
0.0000000001
 40
0.0
 40
0.0
 40
0.0
 40
0.0
 40
1.0
 40
1.0
 40
1.0
 40
2.0
 40
2.0
 40
2.0
 40
3.0
 40
3.0
 40
3.0
 40
4.0
 40
4.0
 40
4.0
 40
5.0
 40
5.0
 40
5.0
 40
6.0
 40
6.0
 40
6.0
 40
7.0
 40
7.0
 40
7.0
 40
8.0
 40
8.0
 40
8.0
 40
9.0
 40
9.0
 40
9.0
 40
9.0
 10
390.3419600603343
 20
28.64284073476305
 30
0.0
 10
390.1254548617105
 20
28.36279143887966
 30
0.0
 10
389.9587315758544
 20
28.11075748721071
 30
0.0
 10
389.6888142233646
 20
27.31860614785359
 30
0.0
 10
389.4406634394279
 20
26.59401597582401
 30
0.0
 10
389.2827479516467
 20
26.06685735861421
 30
0.0
 10
389.2588984578731
 20
25.42484029353638
 30
0.0
 10
389.240747252381
 20
24.94707676012474
 30
0.0
 10
389.5316723935223
 20
24.78695932282479
 30
0.0
 10
389.9582257225866
 20
24.78695932282479
 30
0.0
 10
390.1420587513246
 20
24.78695932282479
 30
0.0
 10
390.6059559539832
 20
24.79865346013363
 30
0.0
 10
390.9363078939394
 20
25.20702582763122
 30
0.0
 10
391.1675721055534
 20
25.49393389870466
 30
0.0
 10
391.38071486775
 20
25.79134586410385
 30
0.0
 10
391.6664624519149
 20
26.76695828126675
 30
0.0
 10
391.9042432438614
 20
27.58257228542799
 30
0.0
 10
392.068883604497
 20
28.10971602460051
 30
0.0
 10
392.056713369995
 20
28.40985067082352
 30
0.0
 10
392.056713369995
 20
28.40985067082352
 30
0.0
 10
392.056713369995
 20
28.40985067082352
 30
0.0
 10
392.056713369995
 20
28.40985067082352
 30
0.0
 10
391.9791690396468
 20
28.91055613773418
 30
0.0
 10
391.615639076537
 20
29.01635386089345
 30
0.0
 10
391.4079416759881
 20
29.01635386089345
 30
0.0
 10
391.2033686632698
 20
29.01635386089345
 30
0.0
 10
390.6552022574085
 20
29.05174871160303
 30
0.0
 10
390.3419600603343
 20
28.64284073476305
 30
0.0
  0
SPLINE
  5
3C74
102
{ACAD_REACTORS
330
3C64
330
3C75
102
}
330
A
100
AcDbEntity
  8
TEMPLATE
100
AcDbSpline
210
0.0
220
0.0
230
1.0
 70
    11
 71
     3
 72
    29
 73
    25
 74
     0
 42
0.000000001
 43
0.0000000001
 40
0.0
 40
0.0
 40
0.0
 40
0.0
 40
1.0
 40
1.0
 40
1.0
 40
2.0
 40
2.0
 40
2.0
 40
3.0
 40
3.0
 40
3.0
 40
4.0
 40
4.0
 40
4.0
 40
5.0
 40
5.0
 40
5.0
 40
6.0
 40
6.0
 40
6.0
 40
7.0
 40
7.0
 40
7.0
 40
8.0
 40
8.0
 40
8.0
 40
8.0
 10
389.6462927927937
 20
25.54487629838084
 30
0.0
 10
389.6447157208412
 20
25.82830290872873
 30
0.0
 10
389.7341922370948
 20
26.33186495879882
 30
0.0
 10
389.9634032795631
 20
27.00563175545052
 30
0.0
 10
390.2756040140271
 20
27.91796788002499
 30
0.0
 10
390.4628292352669
 20
28.25142932977446
 30
0.0
 10
390.6266661818889
 20
28.41374871659313
 30
0.0
 10
390.866024045788
 20
28.65010121695988
 30
0.0
 10
391.1878062362659
 20
28.66188462249246
 30
0.0
 10
391.2827281141673
 20
28.65010121695988
 30
0.0
 10
391.4178206927478
 20
28.6338841563153
 30
0.0
 10
391.6086463990114
 20
28.54546398070914
 30
0.0
 10
391.6200429755745
 20
28.24779908867604
 30
0.0
 10
391.629148334395
 20
27.99304245618328
 30
0.0
 10
391.5557400984131
 20
27.51593355641234
 30
0.0
 10
391.2987963944389
 20
26.76695828126675
 30
0.0
 10
391.0026639402465
 20
25.896622855958
 30
0.0
 10
390.824782126424
 20
25.55448751046927
 30
0.0
 10
390.6821910170501
 20
25.40537982076289
 30
0.0
 10
390.413553175767
 20
25.1258512561846
 30
0.0
 10
390.1254548617105
 20
25.15269123545324
 30
0.0
 10
390.0829334311396
 20
25.15269123545324
 30
0.0
 10
390.0277061567243
 20
25.15269123545324
 30
0.0
 10
389.6470664507327
 20
25.21261996965174
 30
0.0
 10
389.6462927927937
 20
25.54487629838084
 30
0.0
  0
MTEXT
  5
3C9A
330
A
100
AcDbEntity
  8
TEMPLATE
390
1D
100
AcDbMText
 10
26.44042890954615
 20
46.02985813878568
 30
0.0
 40
4.8865234375
 41
0.0
 46
12.67064116005098
 71
     1
 72
     1
  1
{固定ビス付属 \P耐荷重: 3kgf}
  7
ＭＳ ゴシック
 73
     1
 44
0.7828267384257843
1001
ACAD
1000
ACAD_MTEXT_DEFINED_HEIGHT_BEGIN
1070
    46
1040
12.67064116005098
1000
ACAD_MTEXT_DEFINED_HEIGHT_END
  0
MTEXT
  5
3CB5
102
{ACAD_XDICTIONARY
360
3CB7
102
}
330
A
100
AcDbEntity
  8
TEMPLATE
100
AcDbMText
 10
15.00779663219942
 20
17.57619761830519
 30
0.0
 40
4.0
 41
0.0
 46
4.0
 71
     1
 72
     1
  1
{20251017M}
  7
ＭＳ ゴシック
 73
     1
 44
1.0
1001
ACAD
1000
ACAD_MTEXT_DEFINED_HEIGHT_BEGIN
1070
    46
1040
4.0
1000
ACAD_MTEXT_DEFINED_HEIGHT_END
  0
POINT
  5
4DC6
330
A
100
AcDbEntity
  8
_0-1_
 62
     7
100
AcDbPoint
 10
747.1022537512462
 20
471.0990261094801
 30
0.0
  0
POINT
  5
4DC7
330
A
100
AcDbEntity
  8
_0-1_
 62
     7
100
AcDbPoint
 10
747.1022537512462
 20
406.0990261094801
 30
0.0
  0
POINT
  5
4DCB
330
A
100
AcDbEntity
  8
_0-1_
 62
     7
100
AcDbPoint
 10
812.1049650937399
 20
245.8313559347941
 30
0.0
  0
POINT
  5
4DCC
330
A
100
AcDbEntity
  8
_0-1_
 62
     7
100
AcDbPoint
 10
777.1022537512471
 20
245.8313559347941
 30
0.0
  0
POINT
  5
4DD1
330
A
100
AcDbEntity
  8
_0-1_
 62
     7
100
AcDbPoint
 10
807.1049650937397
 20
263.8831306737678
 30
0.0
  0
POINT
  5
4DD2
330
A
100
AcDbEntity
  8
_0-1_
 62
     7
100
AcDbPoint
 10
817.1049650937397
 20
263.8831306737678
 30
0.0
  0
POINT
  5
4DD8
330
A
100
AcDbEntity
  8
_0-1_
 62
     7
100
AcDbPoint
 10
692.148672804762
 20
471.0990261094801
 30
0.0
  0
POINT
  5
4DD9
330
A
100
AcDbEntity
  8
_0-1_
 62
     7
100
AcDbPoint
 10
692.148672804762
 20
276.0990261094801
 30
0.0
  0
POINT
  5
4DDC
330
A
100
AcDbEntity
  8
_0-1_
 62
     7
100
AcDbPoint
 10
491.7618237082069
 20
154.2775075987842
 30
0.0
  0
POINT
  5
4DDD
330
A
100
AcDbEntity
  8
_0-1_
 62
     7
100
AcDbPoint
 10
661.761823708207
 20
154.2775075987842
 30
0.0
  0
POINT
  5
5302
330
A
100
AcDbEntity
  8
_0-1_
 62
     7
100
AcDbPoint
 10
483.3965890500892
 20
365.8490777464218
 30
0.0
  0
POINT
  5
5303
330
A
100
AcDbEntity
  8
_0-1_
 62
     7
100
AcDbPoint
 10
483.3965890500892
 20
265.8490777464218
 30
0.0
  0
POINT
  5
5308
330
A
100
AcDbEntity
  8
_0-1_
 62
     7
100
AcDbPoint
 10
513.3965890500892
 20
217.1217366094085
 30
0.0
  0
POINT
  5
5309
330
A
100
AcDbEntity
  8
_0-1_
 62
     7
100
AcDbPoint
 10
646.3965890500892
 20
217.1217366094085
 30
0.0
  0
POINT
  5
530E
330
A
100
AcDbEntity
  8
_0-1_
 62
     7
100
AcDbPoint
 10
518.3465890500893
 20
229.0247586790146
 30
0.0
  0
POINT
  5
530F
330
A
100
AcDbEntity
  8
_0-1_
 62
     7
100
AcDbPoint
 10
641.4465890500892
 20
229.0247586790146
 30
0.0
  0
POINT
  5
5314
330
A
100
AcDbEntity
  8
_0-1_
 62
     7
100
AcDbPoint
 10
676.3965890500892
 20
294.0490777464219
 30
0.0
  0
POINT
  5
5315
330
A
100
AcDbEntity
  8
_0-1_
 62
     7
100
AcDbPoint
 10
676.3965890500892
 20
265.8490777464218
 30
0.0
  0
POINT
  5
531A
330
A
100
AcDbEntity
  8
_0-1_
 62
     7
100
AcDbPoint
 10
745.2037178098002
 20
395.4490777464217
 30
0.0
  0
POINT
  5
531B
330
A
100
AcDbEntity
  8
_0-1_
 62
     7
100
AcDbPoint
 10
763.4037178098002
 20
395.4490777464217
 30
0.0
  0
POINT
  5
5320
330
A
100
AcDbEntity
  8
_0-1_
 62
     7
100
AcDbPoint
 10
698.3037178098
 20
365.4490777464217
 30
0.0
  0
POINT
  5
5323
330
A
100
AcDbEntity
  8
_0-1_
 62
     7
100
AcDbPoint
 10
698.3037178098
 20
348.0490777464219
 30
0.0
  0
POINT
  5
5326
330
A
100
AcDbEntity
  8
_0-1_
 62
     7
100
AcDbPoint
 10
560.8965890500892
 20
169.7575496549062
 30
0.0
  0
POINT
  5
5327
330
A
100
AcDbEntity
  8
_0-1_
 62
     7
100
AcDbPoint
 10
598.8965890500892
 20
169.7575496549062
 30
0.0
  0
POINT
  5
53C3
330
A
100
AcDbEntity
  8
_0-1_
 62
     7
100
AcDbPoint
 10
471.3965890500892
 20
245.7490780735704
 30
0.0
  0
POINT
  5
53C5
330
A
100
AcDbEntity
  8
_0-1_
 62
     7
100
AcDbPoint
 10
471.3965890500892
 20
365.8490779036971
 30
0.0
  0
SPLINE
  5
5CAE
102
{ACAD_REACTORS
330
5F5C
102
}
330
A
100
AcDbEntity
  8
MODEL
100
AcDbSpline
210
0.0
220
0.0
230
1.0
 70
    11
 71
     3
 72
    17
 73
    13
 74
     0
 42
0.000000001
 43
0.0000000001
 40
0.0
 40
0.0
 40
0.0
 40
0.0
 40
1.0
 40
1.0
 40
1.0
 40
2.0
 40
2.0
 40
2.0
 40
3.0
 40
3.0
 40
3.0
 40
4.0
 40
4.0
 40
4.0
 40
4.0
 10
168.0678775506519
 20
469.2874728660003
 30
0.0
 10
168.0678775506519
 20
474.819696973179
 30
0.0
 10
163.5973464450331
 20
479.3046974893816
 30
0.0
 10
158.0826923364198
 20
479.3046974893816
 30
0.0
 10
152.5677798454747
 20
479.3046974893816
 30
0.0
 10
148.0972487398557
 20
474.819696973179
 30
0.0
 10
148.0972487398557
 20
469.2874728660003
 30
0.0
 10
148.0972487398557
 20
463.7552487588213
 30
0.0
 10
152.5677798454747
 20
459.2702482426191
 30
0.0
 10
158.0826923364198
 20
459.2702482426191
 30
0.0
 10
163.5973464450331
 20
459.2702482426191
 30
0.0
 10
168.0678775506519
 20
463.7552487588213
 30
0.0
 10
168.0678775506519
 20
469.2874728660003
 30
0.0
  0
SPLINE
  5
5CAF
330
A
100
AcDbEntity
  8
MODEL
100
AcDbSpline
210
0.0
220
0.0
230
1.0
 70
     8
 71
     3
 72
     8
 73
     4
 74
     0
 42
0.000000001
 43
0.0000000001
 40
0.0
 40
0.0
 40
0.0
 40
0.0
 40
1.0
 40
1.0
 40
1.0
 40
1.0
 10
256.0948622759904
 20
374.2438575370214
 30
0.0
 10
257.1909201276859
 20
374.2438575370214
 30
0.0
 10
258.0792385845763
 20
375.1463870221634
 30
0.0
 10
258.0792385845763
 20
376.2597564900926
 30
0.0
  0
SPLINE
  5
5CB0
330
A
100
AcDbEntity
  8
MODEL
100
AcDbSpline
210
0.0
220
0.0
230
1.0
 70
     8
 71
     3
 72
     8
 73
     4
 74
     0
 42
0.000000001
 43
0.0000000001
 40
0.0
 40
0.0
 40
0.0
 40
0.0
 40
1.0
 40
1.0
 40
1.0
 40
1.0
 10
258.0792385845763
 20
382.2606861472422
 30
0.0
 10
258.0792385845763
 20
383.3740556151715
 30
0.0
 10
257.1909201276859
 20
384.2768434826455
 30
0.0
 10
256.0948622759904
 20
384.2768434826455
 30
0.0
  0
SPLINE
  5
5CB1
330
A
100
AcDbEntity
  8
MODEL
100
AcDbSpline
210
0.0
220
0.0
230
1.0
 70
     8
 71
     3
 72
     8
 73
     4
 74
     0
 42
0.000000001
 43
0.0000000001
 40
0.0
 40
0.0
 40
0.0
 40
0.0
 40
1.0
 40
1.0
 40
1.0
 40
1.0
 10
58.08588770593143
 20
392.7698707304605
 30
0.0
 10
58.08588770593143
 20
382.5557587702115
 30
0.0
 10
66.36600791230455
 20
374.2753801815066
 30
0.0
 10
76.58037825488509
 20
374.2753801815066
 30
0.0
  0
SPLINE
  5
5CB2
330
A
100
AcDbEntity
  8
MODEL
100
AcDbSpline
210
0.0
220
0.0
230
1.0
 70
     8
 71
     3
 72
     8
 73
     4
 74
     0
 42
0.000000001
 43
0.0000000001
 40
0.0
 40
0.0
 40
0.0
 40
0.0
 40
1.0
 40
1.0
 40
1.0
 40
1.0
 10
68.08709262473815
 20
392.7698707304605
 30
0.0
 10
68.08709262473815
 20
388.0791978781077
 30
0.0
 10
71.88970540253229
 20
384.2768434826455
 30
0.0
 10
76.58037825488509
 20
384.2768434826455
 30
0.0
  0
SPLINE
  5
5CB3
330
A
100
AcDbEntity
  8
MODEL
100
AcDbSpline
210
0.0
220
0.0
230
1.0
 70
     8
 71
     3
 72
     8
 73
     4
 74
     0
 42
0.000000001
 43
0.0000000001
 40
0.0
 40
0.0
 40
0.0
 40
0.0
 40
1.0
 40
1.0
 40
1.0
 40
1.0
 10
76.58037825488509
 20
474.2879461342379
 30
0.0
 10
66.36600791230455
 20
474.2879461342379
 30
0.0
 10
58.08588770593143
 20
466.0078259278645
 30
0.0
 10
58.08588770593143
 20
455.7937139676162
 30
0.0
  0
SPLINE
  5
5CB4
330
A
100
AcDbEntity
  8
MODEL
100
AcDbSpline
210
0.0
220
0.0
230
1.0
 70
     8
 71
     3
 72
     8
 73
     4
 74
     0
 42
0.000000001
 43
0.0000000001
 40
0.0
 40
0.0
 40
0.0
 40
0.0
 40
1.0
 40
1.0
 40
1.0
 40
1.0
 10
76.58037825488509
 20
464.2867412154308
 30
0.0
 10
71.88970540253229
 20
464.2867412154308
 30
0.0
 10
68.08709262473815
 20
460.4843868199687
 30
0.0
 10
68.08709262473815
 20
455.7937139676162
 30
0.0
  0
LINE
  5
5CB9
330
A
100
AcDbEntity
  8
MODEL
100
AcDbLine
 10
256.0791009537477
 20
384.2450624558281
 30
0.0
 11
256.0791009537477
 21
384.1815004021938
 31
0.0
  0
LINE
  5
5CBA
330
A
100
AcDbEntity
  8
MODEL
100
AcDbLine
 10
256.0791009537477
 20
384.1815004021938
 30
0.0
 11
256.0791009537477
 21
383.9910726236225
 31
0.0
  0
LINE
  5
5CBB
330
A
100
AcDbEntity
  8
MODEL
100
AcDbLine
 10
256.0791009537477
 20
383.9910726236225
 30
0.0
 11
256.0791009537477
 21
383.7053017645994
 31
0.0
  0
LINE
  5
5CBC
330
A
100
AcDbEntity
  8
MODEL
100
AcDbLine
 10
256.0791009537477
 20
383.7053017645994
 30
0.0
 11
256.0791009537477
 21
383.2924067983078
 31
0.0
  0
LINE
  5
5CBD
330
A
100
AcDbEntity
  8
MODEL
100
AcDbLine
 10
256.0791009537477
 20
383.2924067983078
 30
0.0
 11
256.0791009537477
 21
382.7844271338963
 31
0.0
  0
LINE
  5
5CBE
330
A
100
AcDbEntity
  8
MODEL
100
AcDbLine
 10
256.0791009537477
 20
382.7844271338963
 30
0.0
 11
256.0791009537477
 21
382.1813627713652
 31
0.0
  0
LINE
  5
5CBF
330
A
100
AcDbEntity
  8
MODEL
100
AcDbLine
 10
256.0791009537477
 20
382.1813627713652
 30
0.0
 11
256.0791009537477
 21
381.5144779728677
 31
0.0
  0
LINE
  5
5CC0
330
A
100
AcDbEntity
  8
MODEL
100
AcDbLine
 10
256.0791009537477
 20
381.5144779728677
 30
0.0
 11
256.0791009537477
 21
380.7842895030677
 31
0.0
  0
LINE
  5
5CC1
330
A
100
AcDbEntity
  8
MODEL
100
AcDbLine
 10
256.0791009537477
 20
380.7842895030677
 30
0.0
 11
256.0791009537477
 21
380.0223200064506
 31
0.0
  0
LINE
  5
5CC2
330
A
100
AcDbEntity
  8
MODEL
100
AcDbLine
 10
256.0791009537477
 20
380.0223200064506
 30
0.0
 11
256.0791009537477
 21
379.2603505098334
 31
0.0
  0
LINE
  5
5CC3
330
A
100
AcDbEntity
  8
MODEL
100
AcDbLine
 10
256.0791009537477
 20
379.2603505098334
 30
0.0
 11
256.0791009537477
 21
378.466599986399
 31
0.0
  0
LINE
  5
5CC4
330
A
100
AcDbEntity
  8
MODEL
100
AcDbLine
 10
256.0791009537477
 20
378.466599986399
 30
0.0
 11
256.0791009537477
 21
377.7046304897818
 31
0.0
  0
LINE
  5
5CC5
330
A
100
AcDbEntity
  8
MODEL
100
AcDbLine
 10
256.0791009537477
 20
377.7046304897818
 30
0.0
 11
256.0791009537477
 21
376.97418363765
 31
0.0
  0
LINE
  5
5CC6
330
A
100
AcDbEntity
  8
MODEL
100
AcDbLine
 10
256.0791009537477
 20
376.97418363765
 30
0.0
 11
256.0791009537477
 21
376.3075572214844
 31
0.0
  0
LINE
  5
5CC7
330
A
100
AcDbEntity
  8
MODEL
100
AcDbLine
 10
256.0791009537477
 20
376.3075572214844
 30
0.0
 11
256.0791009537477
 21
375.7042344766214
 31
0.0
  0
LINE
  5
5CC8
330
A
100
AcDbEntity
  8
MODEL
100
AcDbLine
 10
256.0791009537477
 20
375.7042344766214
 30
0.0
 11
256.0791009537477
 21
375.1962548122099
 31
0.0
  0
LINE
  5
5CC9
330
A
100
AcDbEntity
  8
MODEL
100
AcDbLine
 10
256.0791009537477
 20
375.1962548122099
 30
0.0
 11
256.0791009537477
 21
374.7836182282501
 31
0.0
  0
LINE
  5
5CCA
330
A
100
AcDbEntity
  8
MODEL
100
AcDbLine
 10
256.0791009537477
 20
374.7836182282501
 30
0.0
 11
256.0791009537477
 21
374.497847369227
 31
0.0
  0
LINE
  5
5CCB
330
A
100
AcDbEntity
  8
MODEL
100
AcDbLine
 10
256.0791009537477
 20
374.497847369227
 30
0.0
 11
256.0791009537477
 21
374.307161208324
 31
0.0
  0
LINE
  5
5CCC
330
A
100
AcDbEntity
  8
MODEL
100
AcDbLine
 10
256.0791009537477
 20
374.307161208324
 30
0.0
 11
256.0791009537477
 21
374.2438575370214
 31
0.0
  0
LINE
  5
5CCD
330
A
100
AcDbEntity
  8
MODEL
100
AcDbLine
 10
258.0792385845763
 20
376.24399516785
 30
0.0
 11
258.0792385845763
 21
376.3075572214844
 31
0.0
  0
LINE
  5
5CCE
330
A
100
AcDbEntity
  8
MODEL
100
AcDbLine
 10
258.0792385845763
 20
376.3075572214844
 30
0.0
 11
258.0792385845763
 21
376.4662039732385
 31
0.0
  0
LINE
  5
5CCF
330
A
100
AcDbEntity
  8
MODEL
100
AcDbLine
 10
258.0792385845763
 20
376.4662039732385
 30
0.0
 11
258.0792385845763
 21
376.7519748322615
 31
0.0
  0
LINE
  5
5CD0
330
A
100
AcDbEntity
  8
MODEL
100
AcDbLine
 10
258.0792385845763
 20
376.7519748322615
 30
0.0
 11
258.0792385845763
 21
377.133088771736
 31
0.0
  0
LINE
  5
5CD1
330
A
100
AcDbEntity
  8
MODEL
100
AcDbLine
 10
258.0792385845763
 20
377.133088771736
 30
0.0
 11
258.0792385845763
 21
377.5775063825129
 31
0.0
  0
LINE
  5
5CD2
330
A
100
AcDbEntity
  8
MODEL
100
AcDbLine
 10
258.0792385845763
 20
377.5775063825129
 30
0.0
 11
258.0792385845763
 21
378.0854860469245
 31
0.0
  0
LINE
  5
5CD3
330
A
100
AcDbEntity
  8
MODEL
100
AcDbLine
 10
258.0792385845763
 20
378.0854860469245
 30
0.0
 11
258.0792385845763
 21
378.6570277649702
 31
0.0
  0
LINE
  5
5CD4
330
A
100
AcDbEntity
  8
MODEL
100
AcDbLine
 10
258.0792385845763
 20
378.6570277649702
 30
0.0
 11
258.0792385845763
 21
379.2603505098334
 31
0.0
  0
LINE
  5
5CD5
330
A
100
AcDbEntity
  8
MODEL
100
AcDbLine
 10
258.0792385845763
 20
379.2603505098334
 30
0.0
 11
258.0792385845763
 21
379.8316338455473
 31
0.0
  0
LINE
  5
5CD6
330
A
100
AcDbEntity
  8
MODEL
100
AcDbLine
 10
258.0792385845763
 20
379.8316338455473
 30
0.0
 11
258.0792385845763
 21
380.4031755635933
 31
0.0
  0
LINE
  5
5CD7
102
{ACAD_REACTORS
330
5F3E
330
5F4D
102
}
330
A
100
AcDbEntity
  8
MODEL
100
AcDbLine
 10
258.0792385845763
 20
380.4031755635933
 30
0.0
 11
258.0792385845763
 21
380.9111552280046
 31
0.0
  0
LINE
  5
5CD8
330
A
100
AcDbEntity
  8
MODEL
100
AcDbLine
 10
258.0792385845763
 20
380.9111552280046
 30
0.0
 11
258.0792385845763
 21
381.3558312211134
 31
0.0
  0
LINE
  5
5CD9
330
A
100
AcDbEntity
  8
MODEL
100
AcDbLine
 10
258.0792385845763
 20
381.3558312211134
 30
0.0
 11
258.0792385845763
 21
381.7366867782562
 31
0.0
  0
LINE
  5
5CDA
330
A
100
AcDbEntity
  8
MODEL
100
AcDbLine
 10
258.0792385845763
 20
381.7366867782562
 30
0.0
 11
258.0792385845763
 21
382.0224576372793
 31
0.0
  0
LINE
  5
5CDB
330
A
100
AcDbEntity
  8
MODEL
100
AcDbLine
 10
258.0792385845763
 20
382.0224576372793
 30
0.0
 11
258.0792385845763
 21
382.1813627713652
 31
0.0
  0
LINE
  5
5CDC
330
A
100
AcDbEntity
  8
MODEL
100
AcDbLine
 10
258.0792385845763
 20
382.1813627713652
 30
0.0
 11
258.0792385845763
 21
382.2446664426677
 31
0.0
  0
LINE
  5
5D2D
102
{ACAD_REACTORS
330
5F6B
102
}
330
A
100
AcDbEntity
  8
MODEL
100
AcDbLine
 10
76.56435855031054
 20
384.2450624558281
 30
0.0
 11
256.0791009537477
 21
384.2450624558281
 31
0.0
  0
LINE
  5
5D2E
102
{ACAD_REACTORS
330
5F6B
102
}
330
A
100
AcDbEntity
  8
MODEL
100
AcDbLine
 10
76.56435855031054
 20
374.2438575370214
 30
0.0
 11
256.0791009537477
 21
374.2438575370214
 31
0.0
  0
LINE
  5
5D2F
330
A
100
AcDbEntity
  8
MODEL
100
AcDbLine
 10
149.3989789277015
 20
464.2549601886138
 30
0.0
 11
76.56435855031054
 21
464.2549601886138
 31
0.0
  0
LINE
  5
5D30
330
A
100
AcDbEntity
  8
MODEL
100
AcDbLine
 10
149.3989789277015
 20
474.2564234897524
 30
0.0
 11
76.56435855031054
 21
474.2564234897524
 31
0.0
  0
LINE
  5
5D31
330
A
100
AcDbEntity
  8
MODEL
100
AcDbLine
 10
68.05531159792088
 20
455.7779526453734
 30
0.0
 11
68.05531159792088
 21
392.7541094082176
 31
0.0
  0
LINE
  5
5D32
330
A
100
AcDbEntity
  8
MODEL
100
AcDbLine
 10
58.05410667911428
 20
455.7779526453734
 30
0.0
 11
58.05410667911428
 21
392.7541094082176
 31
0.0
  0
SPLINE
  5
5D33
330
A
100
AcDbEntity
  8
MODEL
100
AcDbSpline
210
0.0
220
0.0
230
1.0
 70
     8
 71
     3
 72
    11
 73
     7
 74
     0
 42
0.000000001
 43
0.0000000001
 40
0.0
 40
0.0
 40
0.0
 40
0.0
 40
1.0
 40
1.0
 40
1.0
 40
2.0
 40
2.0
 40
2.0
 40
2.0
 10
63.08661935650077
 20
191.6939239090532
 30
0.0
 10
60.32477061138679
 20
191.6939239090532
 30
0.0
 10
58.08588770593138
 20
189.4552993859296
 30
0.0
 10
58.08588770593138
 20
186.6931922584838
 30
0.0
 10
58.08588770593138
 20
183.9316018957018
 30
0.0
 10
60.32477061138679
 20
181.6929773725784
 30
0.0
 10
63.08661935650077
 20
181.6929773725784
 30
0.0
  0
SPLINE
  5
5D34
330
A
100
AcDbEntity
  8
MODEL
100
AcDbSpline
210
0.0
220
0.0
230
1.0
 70
     8
 71
     3
 72
     8
 73
     4
 74
     0
 42
0.000000001
 43
0.0000000001
 40
0.0
 40
0.0
 40
0.0
 40
0.0
 40
1.0
 40
1.0
 40
1.0
 40
1.0
 10
256.0948622759904
 20
181.6929773725784
 30
0.0
 10
257.1909201276859
 20
181.6929773725784
 30
0.0
 10
258.0792385845762
 20
182.5952484753884
 30
0.0
 10
258.0792385845762
 20
183.7088763256496
 30
0.0
  0
SPLINE
  5
5D35
330
A
100
AcDbEntity
  8
MODEL
100
AcDbSpline
210
0.0
220
0.0
230
1.0
 70
     8
 71
     3
 72
     8
 73
     4
 74
     0
 42
0.000000001
 43
0.0000000001
 40
0.0
 40
0.0
 40
0.0
 40
0.0
 40
1.0
 40
1.0
 40
1.0
 40
1.0
 10
258.1110196113934
 20
189.7095476004673
 30
0.0
 10
258.1110196113934
 20
190.8056054521628
 30
0.0
 10
257.2084901262513
 20
191.6939239090532
 30
0.0
 10
256.0948622759904
 20
191.6939239090532
 30
0.0
  0
SPLINE
  5
5D36
330
A
100
AcDbEntity
  8
MODEL
100
AcDbSpline
210
0.0
220
0.0
230
1.0
 70
     8
 71
     3
 72
    11
 73
     7
 74
     0
 42
0.000000001
 43
0.0000000001
 40
0.0
 40
0.0
 40
0.0
 40
0.0
 40
1.0
 40
1.0
 40
1.0
 40
2.0
 40
2.0
 40
2.0
 40
2.0
 10
360.6447569353059
 20
379.276111832076
 30
0.0
 10
360.6447569353059
 20
376.5145214692939
 30
0.0
 10
362.8838982230931
 20
374.2753801815065
 30
0.0
 10
365.6454885858752
 20
374.2753801815065
 30
0.0
 10
368.4070789486572
 20
374.2753801815065
 30
0.0
 10
370.6462202364444
 20
376.5145214692939
 30
0.0
 10
370.6462202364444
 20
379.276111832076
 30
0.0
  0
SPLINE
  5
5D37
330
A
100
AcDbEntity
  8
MODEL
100
AcDbSpline
210
0.0
220
0.0
230
1.0
 70
     8
 71
     3
 72
    11
 73
     7
 74
     0
 42
0.000000001
 43
0.0000000001
 40
0.0
 40
0.0
 40
0.0
 40
0.0
 40
1.0
 40
1.0
 40
1.0
 40
2.0
 40
2.0
 40
2.0
 40
2.0
 10
370.6462202364444
 20
469.2874728660003
 30
0.0
 10
370.6462202364444
 20
472.0493216111144
 30
0.0
 10
368.4070789486572
 20
474.2879461342379
 30
0.0
 10
365.6454885858752
 20
474.2879461342379
 30
0.0
 10
362.8838982230931
 20
474.2879461342379
 30
0.0
 10
360.6447569353059
 20
472.0493216111144
 30
0.0
 10
360.6447569353059
 20
469.2874728660003
 30
0.0
  0
LINE
  5
5D88
330
A
100
AcDbEntity
  8
MODEL
100
AcDbLine
 10
148.0654677130385
 20
191.7890086071729
 30
0.0
 11
148.0654677130385
 21
191.7574859626876
 31
0.0
  0
LINE
  5
5D89
330
A
100
AcDbEntity
  8
MODEL
100
AcDbLine
 10
148.0654677130385
 20
191.7574859626876
 30
0.0
 11
148.1290297666728
 21
191.6939239090532
 31
0.0
  0
LINE
  5
5D8A
330
A
100
AcDbEntity
  8
MODEL
100
AcDbLine
 10
148.1290297666728
 20
191.6939239090532
 30
0.0
 11
148.1923334379754
 21
191.5667998017844
 31
0.0
  0
LINE
  5
5D8B
330
A
100
AcDbEntity
  8
MODEL
100
AcDbLine
 10
148.1923334379754
 20
191.5667998017844
 30
0.0
 11
148.2558954916098
 21
191.3766304055449
 31
0.0
  0
LINE
  5
5D8C
330
A
100
AcDbEntity
  8
MODEL
100
AcDbLine
 10
148.2558954916098
 20
191.3766304055449
 30
0.0
 11
148.3512385720613
 21
191.1544216001564
 31
0.0
  0
LINE
  5
5D8D
330
A
100
AcDbEntity
  8
MODEL
100
AcDbLine
 10
148.3512385720613
 20
191.1544216001564
 30
0.0
 11
148.4781042969983
 21
190.9001733856188
 31
0.0
  0
LINE
  5
5D8E
330
A
100
AcDbEntity
  8
MODEL
100
AcDbLine
 10
148.4781042969983
 20
190.9001733856188
 30
0.0
 11
148.6052284042671
 21
190.6144025265959
 31
0.0
  0
LINE
  5
5D8F
330
A
100
AcDbEntity
  8
MODEL
100
AcDbLine
 10
148.6052284042671
 20
190.6144025265959
 30
0.0
 11
148.732094129204
 21
190.2971090230876
 31
0.0
  0
LINE
  5
5D90
330
A
100
AcDbEntity
  8
MODEL
100
AcDbLine
 10
148.732094129204
 20
190.2971090230876
 30
0.0
 11
148.8592182364728
 21
189.9162534659451
 31
0.0
  0
LINE
  5
5D91
330
A
100
AcDbEntity
  8
MODEL
100
AcDbLine
 10
148.8592182364728
 20
189.9162534659451
 30
0.0
 11
149.017864988227
 21
189.5348811441386
 31
0.0
  0
LINE
  5
5D92
330
A
100
AcDbEntity
  8
MODEL
100
AcDbLine
 10
149.017864988227
 20
189.5348811441386
 30
0.0
 11
149.1449890954958
 21
189.0904635333615
 31
0.0
  0
LINE
  5
5D93
330
A
100
AcDbEntity
  8
MODEL
100
AcDbLine
 10
149.1449890954958
 20
189.0904635333615
 30
0.0
 11
149.2403321759474
 21
188.6460459225845
 31
0.0
  0
LINE
  5
5D94
330
A
100
AcDbEntity
  8
MODEL
100
AcDbLine
 10
149.2403321759474
 20
188.6460459225845
 30
0.0
 11
149.3354168740671
 21
188.1695889026585
 31
0.0
  0
LINE
  5
5D95
330
A
100
AcDbEntity
  8
MODEL
100
AcDbLine
 10
149.3354168740671
 20
188.1695889026585
 30
0.0
 11
149.3989789277014
 21
187.6616092382469
 31
0.0
  0
LINE
  5
5D96
330
A
100
AcDbEntity
  8
MODEL
100
AcDbLine
 10
149.3989789277014
 20
187.6616092382469
 30
0.0
 11
149.4625409813359
 21
187.1856689829845
 31
0.0
  0
LINE
  5
5D97
330
A
100
AcDbEntity
  8
MODEL
100
AcDbLine
 10
149.4625409813359
 20
187.1856689829845
 30
0.0
 11
149.4625409813359
 21
186.6776893185732
 31
0.0
  0
LINE
  5
5D98
330
A
100
AcDbEntity
  8
MODEL
100
AcDbLine
 10
149.4625409813359
 20
186.6776893185732
 30
0.0
 11
149.4625409813359
 21
186.2012322986471
 31
0.0
  0
LINE
  5
5D99
330
A
100
AcDbEntity
  8
MODEL
100
AcDbLine
 10
149.4625409813359
 20
186.2012322986471
 30
0.0
 11
149.3989789277014
 21
185.6932526342354
 31
0.0
  0
LINE
  5
5D9A
330
A
100
AcDbEntity
  8
MODEL
100
AcDbLine
 10
149.3989789277014
 20
185.6932526342354
 30
0.0
 11
149.3354168740671
 21
185.1852729698242
 31
0.0
  0
LINE
  5
5D9B
330
A
100
AcDbEntity
  8
MODEL
100
AcDbLine
 10
149.3354168740671
 20
185.1852729698242
 30
0.0
 11
149.2403321759474
 21
184.7088159498979
 31
0.0
  0
LINE
  5
5D9C
330
A
100
AcDbEntity
  8
MODEL
100
AcDbLine
 10
149.2403321759474
 20
184.7088159498979
 30
0.0
 11
149.1449890954958
 21
184.264398339121
 31
0.0
  0
LINE
  5
5D9D
330
A
100
AcDbEntity
  8
MODEL
100
AcDbLine
 10
149.1449890954958
 20
184.264398339121
 30
0.0
 11
149.017864988227
 21
183.8199807283439
 31
0.0
  0
LINE
  5
5D9E
330
A
100
AcDbEntity
  8
MODEL
100
AcDbLine
 10
149.017864988227
 20
183.8199807283439
 30
0.0
 11
148.8592182364728
 21
183.4391251712013
 31
0.0
  0
LINE
  5
5D9F
330
A
100
AcDbEntity
  8
MODEL
100
AcDbLine
 10
148.8592182364728
 20
183.4391251712013
 30
0.0
 11
148.732094129204
 21
183.0897922585438
 31
0.0
  0
LINE
  5
5DA0
330
A
100
AcDbEntity
  8
MODEL
100
AcDbLine
 10
148.732094129204
 20
183.0897922585438
 30
0.0
 11
148.6052284042671
 21
182.7404593458866
 31
0.0
  0
LINE
  5
5DA1
330
A
100
AcDbEntity
  8
MODEL
100
AcDbLine
 10
148.6052284042671
 20
182.7404593458866
 30
0.0
 11
148.4781042969983
 21
182.4546884868635
 31
0.0
  0
LINE
  5
5DA2
330
A
100
AcDbEntity
  8
MODEL
100
AcDbLine
 10
148.4781042969983
 20
182.4546884868635
 30
0.0
 11
148.3512385720613
 21
182.2009570369897
 31
0.0
  0
LINE
  5
5DA3
330
A
100
AcDbEntity
  8
MODEL
100
AcDbLine
 10
148.3512385720613
 20
182.2009570369897
 30
0.0
 11
148.2558954916098
 21
181.9787482316013
 31
0.0
  0
LINE
  5
5DA4
330
A
100
AcDbEntity
  8
MODEL
100
AcDbLine
 10
148.2558954916098
 20
181.9787482316013
 30
0.0
 11
148.1923334379754
 21
181.8195847151833
 31
0.0
  0
LINE
  5
5DA5
330
A
100
AcDbEntity
  8
MODEL
100
AcDbLine
 10
148.1923334379754
 20
181.8195847151833
 30
0.0
 11
148.1290297666728
 21
181.6929773725784
 31
0.0
  0
LINE
  5
5DA6
330
A
100
AcDbEntity
  8
MODEL
100
AcDbLine
 10
148.1290297666728
 20
181.6929773725784
 30
0.0
 11
148.0654677130385
 21
181.5973759097948
 31
0.0
  0
LINE
  5
5DA7
330
A
100
AcDbEntity
  8
MODEL
100
AcDbLine
 10
148.0654677130385
 20
181.5973759097948
 30
0.0
 11
148.0654677130385
 21
181.5658532653096
 31
0.0
  0
LINE
  5
5DA8
330
A
100
AcDbEntity
  8
MODEL
100
AcDbLine
 10
168.0678775506519
 20
176.6762260174345
 30
0.0
 11
168.0045738793494
 21
176.6762260174345
 31
0.0
  0
LINE
  5
5DA9
330
A
100
AcDbEntity
  8
MODEL
100
AcDbLine
 10
168.0045738793494
 20
176.6762260174345
 30
0.0
 11
167.8138877184462
 21
176.6762260174345
 31
0.0
  0
LINE
  5
5DAA
330
A
100
AcDbEntity
  8
MODEL
100
AcDbLine
 10
167.8138877184462
 20
176.6762260174345
 30
0.0
 11
167.496594214938
 21
176.6762260174345
 31
0.0
  0
LINE
  5
5DAB
330
A
100
AcDbEntity
  8
MODEL
100
AcDbLine
 10
167.496594214938
 20
176.6762260174345
 30
0.0
 11
167.0836992486462
 21
176.6762260174345
 31
0.0
  0
LINE
  5
5DAC
330
A
100
AcDbEntity
  8
MODEL
100
AcDbLine
 10
167.0836992486462
 20
176.6762260174345
 30
0.0
 11
166.5439385574176
 21
176.6762260174345
 31
0.0
  0
LINE
  5
5DAD
330
A
100
AcDbEntity
  8
MODEL
100
AcDbLine
 10
166.5439385574176
 20
176.6762260174345
 30
0.0
 11
165.8773121412519
 21
176.6762260174345
 31
0.0
  0
LINE
  5
5DAE
330
A
100
AcDbEntity
  8
MODEL
100
AcDbLine
 10
165.8773121412519
 20
176.6762260174345
 30
0.0
 11
165.1468652891201
 21
176.6762260174345
 31
0.0
  0
LINE
  5
5DAF
330
A
100
AcDbEntity
  8
MODEL
100
AcDbLine
 10
165.1468652891201
 20
176.6762260174345
 30
0.0
 11
164.2898110943832
 21
176.6762260174345
 31
0.0
  0
LINE
  5
5DB0
330
A
100
AcDbEntity
  8
MODEL
100
AcDbLine
 10
164.2898110943832
 20
176.6762260174345
 30
0.0
 11
163.4007174904973
 21
176.6762260174345
 31
0.0
  0
LINE
  5
5DB1
330
A
100
AcDbEntity
  8
MODEL
100
AcDbLine
 10
163.4007174904973
 20
176.6762260174345
 30
0.0
 11
162.4165391884915
 21
176.6762260174345
 31
0.0
  0
LINE
  5
5DB2
330
A
100
AcDbEntity
  8
MODEL
100
AcDbLine
 10
162.4165391884915
 20
176.6762260174345
 30
0.0
 11
161.3687988328515
 21
176.6762260174345
 31
0.0
  0
LINE
  5
5DB3
330
A
100
AcDbEntity
  8
MODEL
100
AcDbLine
 10
161.3687988328515
 20
176.6762260174345
 30
0.0
 11
160.2892774503942
 21
176.6762260174345
 31
0.0
  0
LINE
  5
5DB4
330
A
100
AcDbEntity
  8
MODEL
100
AcDbLine
 10
160.2892774503942
 20
176.6762260174345
 30
0.0
 11
159.1779750411198
 21
176.6762260174345
 31
0.0
  0
LINE
  5
5DB5
330
A
100
AcDbEntity
  8
MODEL
100
AcDbLine
 10
159.1779750411198
 20
176.6762260174345
 30
0.0
 11
158.0666726318452
 21
176.6762260174345
 31
0.0
  0
LINE
  5
5DB6
330
A
100
AcDbEntity
  8
MODEL
100
AcDbLine
 10
158.0666726318452
 20
176.6762260174345
 30
0.0
 11
156.9553702225706
 21
176.6762260174345
 31
0.0
  0
LINE
  5
5DB7
330
A
100
AcDbEntity
  8
MODEL
100
AcDbLine
 10
156.9553702225706
 20
176.6762260174345
 30
0.0
 11
155.8443261956281
 21
176.6762260174345
 31
0.0
  0
LINE
  5
5DB8
330
A
100
AcDbEntity
  8
MODEL
100
AcDbLine
 10
155.8443261956281
 20
176.6762260174345
 30
0.0
 11
154.7648048131708
 21
176.6762260174345
 31
0.0
  0
LINE
  5
5DB9
330
A
100
AcDbEntity
  8
MODEL
100
AcDbLine
 10
154.7648048131708
 20
176.6762260174345
 30
0.0
 11
153.7170644575306
 21
176.6762260174345
 31
0.0
  0
LINE
  5
5DBA
330
A
100
AcDbEntity
  8
MODEL
100
AcDbLine
 10
153.7170644575306
 20
176.6762260174345
 30
0.0
 11
152.7326277731931
 21
176.6762260174345
 31
0.0
  0
LINE
  5
5DBB
330
A
100
AcDbEntity
  8
MODEL
100
AcDbLine
 10
152.7326277731931
 20
176.6762260174345
 30
0.0
 11
151.843792551639
 21
176.6762260174345
 31
0.0
  0
LINE
  5
5DBC
330
A
100
AcDbEntity
  8
MODEL
100
AcDbLine
 10
151.843792551639
 20
176.6762260174345
 30
0.0
 11
150.9864799745703
 21
176.6762260174345
 31
0.0
  0
LINE
  5
5DBD
330
A
100
AcDbEntity
  8
MODEL
100
AcDbLine
 10
150.9864799745703
 20
176.6762260174345
 30
0.0
 11
150.2562915047702
 21
176.6762260174345
 31
0.0
  0
LINE
  5
5DBE
330
A
100
AcDbEntity
  8
MODEL
100
AcDbLine
 10
150.2562915047702
 20
176.6762260174345
 30
0.0
 11
149.5894067062728
 21
176.6762260174345
 31
0.0
  0
LINE
  5
5DBF
330
A
100
AcDbEntity
  8
MODEL
100
AcDbLine
 10
149.5894067062728
 20
176.6762260174345
 30
0.0
 11
149.0496460150442
 21
176.6762260174345
 31
0.0
  0
LINE
  5
5DC0
330
A
100
AcDbEntity
  8
MODEL
100
AcDbLine
 10
149.0496460150442
 20
176.6762260174345
 30
0.0
 11
148.6370094310843
 21
176.6762260174345
 31
0.0
  0
LINE
  5
5DC1
330
A
100
AcDbEntity
  8
MODEL
100
AcDbLine
 10
148.6370094310843
 20
176.6762260174345
 30
0.0
 11
148.3194575452441
 21
176.6762260174345
 31
0.0
  0
LINE
  5
5DC2
330
A
100
AcDbEntity
  8
MODEL
100
AcDbLine
 10
148.3194575452441
 20
176.6762260174345
 30
0.0
 11
148.1290297666728
 21
176.6762260174345
 31
0.0
  0
LINE
  5
5DC3
330
A
100
AcDbEntity
  8
MODEL
100
AcDbLine
 10
148.1290297666728
 20
176.6762260174345
 30
0.0
 11
148.0654677130385
 21
176.6762260174345
 31
0.0
  0
LINE
  5
5DC4
330
A
100
AcDbEntity
  8
MODEL
100
AcDbLine
 10
148.0654677130385
 20
191.7890086071729
 30
0.0
 11
148.0654677130385
 21
231.6992603489437
 31
0.0
  0
LINE
  5
5DE1
102
{ACAD_REACTORS
330
5FC2
102
}
330
A
100
AcDbEntity
  8
MODEL
100
AcDbLine
 10
168.0678775506519
 20
231.6992603489437
 30
0.0
 11
168.0678775506519
 21
176.6762260174345
 31
0.0
  0
LINE
  5
5DE2
330
A
100
AcDbEntity
  8
MODEL
100
AcDbLine
 10
148.0654677130385
 20
181.5658532653096
 30
0.0
 11
148.0654677130385
 21
176.6762260174345
 31
0.0
  0
LINE
  5
5DE3
330
A
100
AcDbEntity
  8
MODEL
100
AcDbLine
 10
256.0791009537476
 20
191.6939239090532
 30
0.0
 11
256.0791009537476
 21
191.6303618554188
 31
0.0
  0
LINE
  5
5DE4
330
A
100
AcDbEntity
  8
MODEL
100
AcDbLine
 10
256.0791009537476
 20
191.6303618554188
 30
0.0
 11
256.0791009537476
 21
191.4401924591793
 31
0.0
  0
LINE
  5
5DE5
330
A
100
AcDbEntity
  8
MODEL
100
AcDbLine
 10
256.0791009537476
 20
191.4401924591793
 30
0.0
 11
256.0791009537476
 21
191.1544216001564
 31
0.0
  0
LINE
  5
5DE6
330
A
100
AcDbEntity
  8
MODEL
100
AcDbLine
 10
256.0791009537476
 20
191.1544216001564
 30
0.0
 11
256.0791009537476
 21
190.7415266338647
 31
0.0
  0
LINE
  5
5DE7
330
A
100
AcDbEntity
  8
MODEL
100
AcDbLine
 10
256.0791009537476
 20
190.7415266338647
 30
0.0
 11
256.0791009537476
 21
190.2335469694532
 31
0.0
  0
LINE
  5
5DE8
330
A
100
AcDbEntity
  8
MODEL
100
AcDbLine
 10
256.0791009537476
 20
190.2335469694532
 30
0.0
 11
256.0791009537476
 21
189.630482606922
 31
0.0
  0
LINE
  5
5DE9
330
A
100
AcDbEntity
  8
MODEL
100
AcDbLine
 10
256.0791009537476
 20
189.630482606922
 30
0.0
 11
256.0791009537476
 21
188.9633394260927
 31
0.0
  0
LINE
  5
5DEA
330
A
100
AcDbEntity
  8
MODEL
100
AcDbLine
 10
256.0791009537476
 20
188.9633394260927
 30
0.0
 11
256.0791009537476
 21
188.2331509562927
 31
0.0
  0
LINE
  5
5DEB
330
A
100
AcDbEntity
  8
MODEL
100
AcDbLine
 10
256.0791009537476
 20
188.2331509562927
 30
0.0
 11
256.0791009537476
 21
187.4714398420074
 31
0.0
  0
LINE
  5
5DEC
330
A
100
AcDbEntity
  8
MODEL
100
AcDbLine
 10
256.0791009537476
 20
187.4714398420074
 30
0.0
 11
256.0791009537476
 21
186.6776893185732
 31
0.0
  0
LINE
  5
5DED
330
A
100
AcDbEntity
  8
MODEL
100
AcDbLine
 10
256.0791009537476
 20
186.6776893185732
 30
0.0
 11
256.0791009537476
 21
185.915461439624
 31
0.0
  0
LINE
  5
5DEE
330
A
100
AcDbEntity
  8
MODEL
100
AcDbLine
 10
256.0791009537476
 20
185.915461439624
 30
0.0
 11
256.0791009537476
 21
185.1217109161898
 31
0.0
  0
LINE
  5
5DEF
330
A
100
AcDbEntity
  8
MODEL
100
AcDbLine
 10
256.0791009537476
 20
185.1217109161898
 30
0.0
 11
256.0791009537476
 21
184.423045090875
 31
0.0
  0
LINE
  5
5DF0
330
A
100
AcDbEntity
  8
MODEL
100
AcDbLine
 10
256.0791009537476
 20
184.423045090875
 30
0.0
 11
256.0791009537476
 21
183.7564186747094
 31
0.0
  0
LINE
  5
5DF1
330
A
100
AcDbEntity
  8
MODEL
100
AcDbLine
 10
256.0791009537476
 20
183.7564186747094
 30
0.0
 11
256.0791009537476
 21
183.1533543121782
 31
0.0
  0
LINE
  5
5DF2
330
A
100
AcDbEntity
  8
MODEL
100
AcDbLine
 10
256.0791009537476
 20
183.1533543121782
 30
0.0
 11
256.0791009537476
 21
182.6453746477669
 31
0.0
  0
LINE
  5
5DF3
330
A
100
AcDbEntity
  8
MODEL
100
AcDbLine
 10
256.0791009537476
 20
182.6453746477669
 30
0.0
 11
256.0791009537476
 21
182.232479681475
 31
0.0
  0
LINE
  5
5DF4
330
A
100
AcDbEntity
  8
MODEL
100
AcDbLine
 10
256.0791009537476
 20
182.232479681475
 30
0.0
 11
256.0791009537476
 21
181.9151861779669
 31
0.0
  0
LINE
  5
5DF5
330
A
100
AcDbEntity
  8
MODEL
100
AcDbLine
 10
256.0791009537476
 20
181.9151861779669
 30
0.0
 11
256.0791009537476
 21
181.7560226615489
 31
0.0
  0
LINE
  5
5DF6
330
A
100
AcDbEntity
  8
MODEL
100
AcDbLine
 10
256.0791009537476
 20
181.7560226615489
 30
0.0
 11
256.0791009537476
 21
181.6929773725784
 31
0.0
  0
LINE
  5
5DF7
330
A
100
AcDbEntity
  8
MODEL
100
AcDbLine
 10
258.0792385845762
 20
183.692856621075
 30
0.0
 11
258.0792385845762
 21
183.7248960302242
 31
0.0
  0
LINE
  5
5DF8
330
A
100
AcDbEntity
  8
MODEL
100
AcDbLine
 10
258.0792385845762
 20
183.7248960302242
 30
0.0
 11
258.0792385845762
 21
183.9150654264635
 31
0.0
  0
LINE
  5
5DF9
330
A
100
AcDbEntity
  8
MODEL
100
AcDbLine
 10
258.0792385845762
 20
183.9150654264635
 30
0.0
 11
258.0792385845762
 21
184.2008362854866
 31
0.0
  0
LINE
  5
5DFA
330
A
100
AcDbEntity
  8
MODEL
100
AcDbLine
 10
258.0792385845762
 20
184.2008362854866
 30
0.0
 11
258.0792385845762
 21
184.5501691981438
 31
0.0
  0
LINE
  5
5DFB
330
A
100
AcDbEntity
  8
MODEL
100
AcDbLine
 10
258.0792385845762
 20
184.5501691981438
 30
0.0
 11
258.0792385845762
 21
185.0266262180699
 31
0.0
  0
LINE
  5
5DFC
330
A
100
AcDbEntity
  8
MODEL
100
AcDbLine
 10
258.0792385845762
 20
185.0266262180699
 30
0.0
 11
258.0792385845762
 21
185.5346058824815
 31
0.0
  0
LINE
  5
5DFD
330
A
100
AcDbEntity
  8
MODEL
100
AcDbLine
 10
258.0792385845762
 20
185.5346058824815
 30
0.0
 11
258.0792385845762
 21
186.1061476005272
 31
0.0
  0
LINE
  5
5DFE
330
A
100
AcDbEntity
  8
MODEL
100
AcDbLine
 10
258.0792385845762
 20
186.1061476005272
 30
0.0
 11
258.0792385845762
 21
186.6776893185732
 31
0.0
  0
LINE
  5
5DFF
330
A
100
AcDbEntity
  8
MODEL
100
AcDbLine
 10
258.0792385845762
 20
186.6776893185732
 30
0.0
 11
258.0792385845762
 21
187.2807536811044
 31
0.0
  0
LINE
  5
5E00
330
A
100
AcDbEntity
  8
MODEL
100
AcDbLine
 10
258.0792385845762
 20
187.2807536811044
 30
0.0
 11
258.0792385845762
 21
187.8202559900012
 31
0.0
  0
LINE
  5
5E01
330
A
100
AcDbEntity
  8
MODEL
100
AcDbLine
 10
258.0792385845762
 20
187.8202559900012
 30
0.0
 11
258.0792385845762
 21
188.3602750635617
 31
0.0
  0
LINE
  5
5E02
330
A
100
AcDbEntity
  8
MODEL
100
AcDbLine
 10
258.0792385845762
 20
188.3602750635617
 30
0.0
 11
258.0792385845762
 21
188.8046926743386
 31
0.0
  0
LINE
  5
5E03
330
A
100
AcDbEntity
  8
MODEL
100
AcDbLine
 10
258.0792385845762
 20
188.8046926743386
 30
0.0
 11
258.0792385845762
 21
189.1855482314813
 31
0.0
  0
LINE
  5
5E04
330
A
100
AcDbEntity
  8
MODEL
100
AcDbLine
 10
258.0792385845762
 20
189.1855482314813
 30
0.0
 11
258.0792385845762
 21
189.439796446019
 31
0.0
  0
LINE
  5
5E05
330
A
100
AcDbEntity
  8
MODEL
100
AcDbLine
 10
258.0792385845762
 20
189.439796446019
 30
0.0
 11
258.0792385845762
 21
189.630482606922
 31
0.0
  0
LINE
  5
5E06
330
A
100
AcDbEntity
  8
MODEL
100
AcDbLine
 10
258.0792385845762
 20
189.630482606922
 30
0.0
 11
258.0792385845762
 21
189.6935278958927
 31
0.0
  0
LINE
  5
5E1B
330
A
100
AcDbEntity
  8
MODEL
100
AcDbLine
 10
168.0678775506519
 20
191.6939239090532
 30
0.0
 11
256.0791009537476
 21
191.6939239090532
 31
0.0
  0
LINE
  5
5E1C
330
A
100
AcDbEntity
  8
MODEL
100
AcDbLine
 10
168.0678775506519
 20
181.6929773725784
 30
0.0
 11
256.0791009537476
 21
181.6929773725784
 31
0.0
  0
LINE
  5
5E1D
330
A
100
AcDbEntity
  8
MODEL
100
AcDbLine
 10
148.1290297666728
 20
181.6929773725784
 30
0.0
 11
76.56435855031049
 21
181.6929773725784
 31
0.0
  0
LINE
  5
5E1E
330
A
100
AcDbEntity
  8
MODEL
100
AcDbLine
 10
148.1290297666728
 20
191.6939239090532
 30
0.0
 11
76.56435855031049
 21
191.6939239090532
 31
0.0
  0
LINE
  5
5E1F
330
A
100
AcDbEntity
  8
MODEL
100
AcDbLine
 10
76.56435855031049
 20
181.6929773725784
 30
0.0
 11
75.23084733564752
 21
181.6929773725784
 31
0.0
  0
LINE
  5
5E20
330
A
100
AcDbEntity
  8
MODEL
100
AcDbLine
 10
75.23084733564752
 20
181.6929773725784
 30
0.0
 11
73.9291171478016
 21
181.6929773725784
 31
0.0
  0
LINE
  5
5E21
330
A
100
AcDbEntity
  8
MODEL
100
AcDbLine
 10
73.9291171478016
 20
181.6929773725784
 30
0.0
 11
72.6273869599558
 21
181.6929773725784
 31
0.0
  0
LINE
  5
5E22
330
A
100
AcDbEntity
  8
MODEL
100
AcDbLine
 10
72.6273869599558
 20
181.6929773725784
 30
0.0
 11
71.38921882574442
 21
181.6929773725784
 31
0.0
  0
LINE
  5
5E23
330
A
100
AcDbEntity
  8
MODEL
100
AcDbLine
 10
71.38921882574442
 20
181.6929773725784
 30
0.0
 11
70.18257333601838
 21
181.6929773725784
 31
0.0
  0
LINE
  5
5E24
330
A
100
AcDbEntity
  8
MODEL
100
AcDbLine
 10
70.18257333601838
 20
181.6929773725784
 30
0.0
 11
69.07152930907563
 21
181.6929773725784
 31
0.0
  0
LINE
  5
5E25
330
A
100
AcDbEntity
  8
MODEL
100
AcDbLine
 10
69.07152930907563
 20
181.6929773725784
 30
0.0
 11
67.99200792661833
 21
181.6929773725784
 31
0.0
  0
LINE
  5
5E26
330
A
100
AcDbEntity
  8
MODEL
100
AcDbLine
 10
67.99200792661833
 20
181.6929773725784
 30
0.0
 11
67.00757124228079
 21
181.6929773725784
 31
0.0
  0
LINE
  5
5E27
330
A
100
AcDbEntity
  8
MODEL
100
AcDbLine
 10
67.00757124228079
 20
181.6929773725784
 30
0.0
 11
66.11873602072666
 21
181.6929773725784
 31
0.0
  0
LINE
  5
5E28
330
A
100
AcDbEntity
  8
MODEL
100
AcDbLine
 10
66.11873602072666
 20
181.6929773725784
 30
0.0
 11
65.32498549729229
 21
181.6929773725784
 31
0.0
  0
LINE
  5
5E29
330
A
100
AcDbEntity
  8
MODEL
100
AcDbLine
 10
65.32498549729229
 20
181.6929773725784
 30
0.0
 11
64.65810069879484
 21
181.6929773725784
 31
0.0
  0
LINE
  5
5E2A
330
A
100
AcDbEntity
  8
MODEL
100
AcDbLine
 10
64.65810069879484
 20
181.6929773725784
 30
0.0
 11
64.08655898074909
 21
181.6929773725784
 31
0.0
  0
LINE
  5
5E2B
330
A
100
AcDbEntity
  8
MODEL
100
AcDbLine
 10
64.08655898074909
 20
181.6929773725784
 30
0.0
 11
63.64214136997197
 21
181.6929773725784
 31
0.0
  0
LINE
  5
5E2C
330
A
100
AcDbEntity
  8
MODEL
100
AcDbLine
 10
63.64214136997197
 20
181.6929773725784
 30
0.0
 11
63.32458948413188
 21
181.6929773725784
 31
0.0
  0
LINE
  5
5E2D
330
A
100
AcDbEntity
  8
MODEL
100
AcDbLine
 10
63.32458948413188
 20
181.6929773725784
 30
0.0
 11
63.13416170556053
 21
181.6929773725784
 31
0.0
  0
LINE
  5
5E2E
330
A
100
AcDbEntity
  8
MODEL
100
AcDbLine
 10
63.13416170556053
 20
181.6929773725784
 30
0.0
 11
63.07059965192622
 21
181.6929773725784
 31
0.0
  0
LINE
  5
5E2F
330
A
100
AcDbEntity
  8
MODEL
100
AcDbLine
 10
63.07059965192622
 20
191.6939239090532
 30
0.0
 11
63.13416170556053
 21
191.6939239090532
 31
0.0
  0
LINE
  5
5E30
330
A
100
AcDbEntity
  8
MODEL
100
AcDbLine
 10
63.13416170556053
 20
191.6939239090532
 30
0.0
 11
63.32458948413188
 21
191.6939239090532
 31
0.0
  0
LINE
  5
5E31
330
A
100
AcDbEntity
  8
MODEL
100
AcDbLine
 10
63.32458948413188
 20
191.6939239090532
 30
0.0
 11
63.64214136997197
 21
191.6939239090532
 31
0.0
  0
LINE
  5
5E32
330
A
100
AcDbEntity
  8
MODEL
100
AcDbLine
 10
63.64214136997197
 20
191.6939239090532
 30
0.0
 11
64.08655898074909
 21
191.6939239090532
 31
0.0
  0
LINE
  5
5E33
330
A
100
AcDbEntity
  8
MODEL
100
AcDbLine
 10
64.08655898074909
 20
191.6939239090532
 30
0.0
 11
64.65810069879484
 21
191.6939239090532
 31
0.0
  0
LINE
  5
5E34
330
A
100
AcDbEntity
  8
MODEL
100
AcDbLine
 10
64.65810069879484
 20
191.6939239090532
 30
0.0
 11
65.32498549729229
 21
191.6939239090532
 31
0.0
  0
LINE
  5
5E35
330
A
100
AcDbEntity
  8
MODEL
100
AcDbLine
 10
65.32498549729229
 20
191.6939239090532
 30
0.0
 11
66.11873602072666
 21
191.6939239090532
 31
0.0
  0
LINE
  5
5E36
330
A
100
AcDbEntity
  8
MODEL
100
AcDbLine
 10
66.11873602072666
 20
191.6939239090532
 30
0.0
 11
67.00757124228079
 21
191.6939239090532
 31
0.0
  0
LINE
  5
5E37
330
A
100
AcDbEntity
  8
MODEL
100
AcDbLine
 10
67.00757124228079
 20
191.6939239090532
 30
0.0
 11
67.99200792661833
 21
191.6939239090532
 31
0.0
  0
LINE
  5
5E38
330
A
100
AcDbEntity
  8
MODEL
100
AcDbLine
 10
67.99200792661833
 20
191.6939239090532
 30
0.0
 11
69.07152930907563
 21
191.6939239090532
 31
0.0
  0
LINE
  5
5E39
330
A
100
AcDbEntity
  8
MODEL
100
AcDbLine
 10
69.07152930907563
 20
191.6939239090532
 30
0.0
 11
70.18257333601838
 21
191.6939239090532
 31
0.0
  0
LINE
  5
5E3A
330
A
100
AcDbEntity
  8
MODEL
100
AcDbLine
 10
70.18257333601838
 20
191.6939239090532
 30
0.0
 11
71.38921882574442
 21
191.6939239090532
 31
0.0
  0
LINE
  5
5E3B
330
A
100
AcDbEntity
  8
MODEL
100
AcDbLine
 10
71.38921882574442
 20
191.6939239090532
 30
0.0
 11
72.6273869599558
 21
191.6939239090532
 31
0.0
  0
LINE
  5
5E3C
330
A
100
AcDbEntity
  8
MODEL
100
AcDbLine
 10
72.6273869599558
 20
191.6939239090532
 30
0.0
 11
73.9291171478016
 21
191.6939239090532
 31
0.0
  0
LINE
  5
5E3D
330
A
100
AcDbEntity
  8
MODEL
100
AcDbLine
 10
73.9291171478016
 20
191.6939239090532
 30
0.0
 11
75.23084733564752
 21
191.6939239090532
 31
0.0
  0
LINE
  5
5E3E
330
A
100
AcDbEntity
  8
MODEL
100
AcDbLine
 10
75.23084733564752
 20
191.6939239090532
 30
0.0
 11
76.56435855031049
 21
191.6939239090532
 31
0.0
  0
LINE
  5
5E43
330
A
100
AcDbEntity
  8
MODEL
100
AcDbLine
 10
370.7097822900788
 20
469.2717115437575
 30
0.0
 11
370.7097822900788
 21
468.7634734970143
 31
0.0
  0
LINE
  5
5E44
330
A
100
AcDbEntity
  8
MODEL
100
AcDbLine
 10
370.7097822900788
 20
468.7634734970143
 30
0.0
 11
370.6141808272954
 21
468.2554938326028
 31
0.0
  0
LINE
  5
5E45
330
A
100
AcDbEntity
  8
MODEL
100
AcDbLine
 10
360.6132342908205
 20
468.2554938326028
 30
0.0
 11
360.5496722371862
 21
468.7634734970143
 31
0.0
  0
LINE
  5
5E46
330
A
100
AcDbEntity
  8
MODEL
100
AcDbLine
 10
360.5496722371862
 20
468.7634734970143
 30
0.0
 11
360.5176328280371
 21
469.2717115437575
 31
0.0
  0
LINE
  5
5E47
330
A
100
AcDbEntity
  8
MODEL
100
AcDbLine
 10
360.5176328280371
 20
469.2717115437575
 30
0.0
 11
360.5496722371862
 21
469.779691208169
 31
0.0
  0
LINE
  5
5E48
330
A
100
AcDbEntity
  8
MODEL
100
AcDbLine
 10
360.5496722371862
 20
469.779691208169
 30
0.0
 11
360.6132342908205
 21
470.2558898457634
 31
0.0
  0
LINE
  5
5E49
330
A
100
AcDbEntity
  8
MODEL
100
AcDbLine
 10
360.6132342908205
 20
470.2558898457634
 30
0.0
 11
360.7398416334256
 21
470.7638695101746
 31
0.0
  0
LINE
  5
5E4A
330
A
100
AcDbEntity
  8
MODEL
100
AcDbLine
 10
360.7398416334256
 20
470.7638695101746
 30
0.0
 11
360.8990051498435
 21
471.240068147769
 31
0.0
  0
LINE
  5
5E4B
330
A
100
AcDbEntity
  8
MODEL
100
AcDbLine
 10
360.8990051498435
 20
471.240068147769
 30
0.0
 11
361.121213955232
 21
471.6844857585463
 31
0.0
  0
LINE
  5
5E4C
330
A
100
AcDbEntity
  8
MODEL
100
AcDbLine
 10
361.121213955232
 20
471.6844857585463
 30
0.0
 11
361.4069848142549
 21
472.129161751655
 31
0.0
  0
LINE
  5
5E4D
330
A
100
AcDbEntity
  8
MODEL
100
AcDbLine
 10
361.4069848142549
 20
472.129161751655
 30
0.0
 11
361.6927556732778
 21
472.5100173087976
 31
0.0
  0
LINE
  5
5E4E
330
A
100
AcDbEntity
  8
MODEL
100
AcDbLine
 10
361.6927556732778
 20
472.5100173087976
 30
0.0
 11
362.010049176786
 21
472.8911312482722
 31
0.0
  0
LINE
  5
5E4F
330
A
100
AcDbEntity
  8
MODEL
100
AcDbLine
 10
362.010049176786
 20
472.8911312482722
 30
0.0
 11
362.3593820894433
 21
473.2086831341122
 31
0.0
  0
LINE
  5
5E50
330
A
100
AcDbEntity
  8
MODEL
100
AcDbLine
 10
362.3593820894433
 20
473.2086831341122
 30
0.0
 11
362.7722770557351
 21
473.4941956108033
 31
0.0
  0
LINE
  5
5E51
330
A
100
AcDbEntity
  8
MODEL
100
AcDbLine
 10
362.7722770557351
 20
473.4941956108033
 30
0.0
 11
363.184655257363
 21
473.748443825341
 31
0.0
  0
LINE
  5
5E52
330
A
100
AcDbEntity
  8
MODEL
100
AcDbLine
 10
363.184655257363
 20
473.748443825341
 30
0.0
 11
363.6611122772893
 21
473.9706526307294
 31
0.0
  0
LINE
  5
5E53
330
A
100
AcDbEntity
  8
MODEL
100
AcDbLine
 10
363.6611122772893
 20
473.9706526307294
 30
0.0
 11
364.1370525325516
 21
474.1610804093007
 31
0.0
  0
LINE
  5
5E54
330
A
100
AcDbEntity
  8
MODEL
100
AcDbLine
 10
364.1370525325516
 20
474.1610804093007
 30
0.0
 11
364.6135095524777
 21
474.2564234897524
 31
0.0
  0
LINE
  5
5E55
330
A
100
AcDbEntity
  8
MODEL
100
AcDbLine
 10
364.6135095524777
 20
474.2564234897524
 30
0.0
 11
365.121489216889
 21
474.3515081878721
 31
0.0
  0
LINE
  5
5E56
330
A
100
AcDbEntity
  8
MODEL
100
AcDbLine
 10
365.121489216889
 20
474.3515081878721
 30
0.0
 11
365.6294688813006
 21
474.3832892146895
 31
0.0
  0
LINE
  5
5E57
330
A
100
AcDbEntity
  8
MODEL
100
AcDbLine
 10
365.6294688813006
 20
474.3832892146895
 30
0.0
 11
366.1059259012267
 21
474.3515081878721
 31
0.0
  0
LINE
  5
5E58
330
A
100
AcDbEntity
  8
MODEL
100
AcDbLine
 10
366.1059259012267
 20
474.3515081878721
 30
0.0
 11
366.6139055656381
 21
474.2564234897524
 31
0.0
  0
LINE
  5
5E59
330
A
100
AcDbEntity
  8
MODEL
100
AcDbLine
 10
366.6139055656381
 20
474.2564234897524
 30
0.0
 11
367.0898458209006
 21
474.1610804093007
 31
0.0
  0
LINE
  5
5E5A
330
A
100
AcDbEntity
  8
MODEL
100
AcDbLine
 10
367.0898458209006
 20
474.1610804093007
 30
0.0
 11
367.597825485312
 21
473.9706526307294
 31
0.0
  0
LINE
  5
5E5B
330
A
100
AcDbEntity
  8
MODEL
100
AcDbLine
 10
367.597825485312
 20
473.9706526307294
 30
0.0
 11
368.0427598607528
 21
473.748443825341
 31
0.0
  0
LINE
  5
5E5C
330
A
100
AcDbEntity
  8
MODEL
100
AcDbLine
 10
368.0427598607528
 20
473.748443825341
 30
0.0
 11
368.4551380623808
 21
473.4941956108033
 31
0.0
  0
LINE
  5
5E5D
330
A
100
AcDbEntity
  8
MODEL
100
AcDbLine
 10
368.4551380623808
 20
473.4941956108033
 30
0.0
 11
368.8680330286725
 21
473.2086831341122
 31
0.0
  0
LINE
  5
5E5E
330
A
100
AcDbEntity
  8
MODEL
100
AcDbLine
 10
368.8680330286725
 20
473.2086831341122
 30
0.0
 11
369.2173659413298
 21
472.8911312482722
 31
0.0
  0
LINE
  5
5E5F
330
A
100
AcDbEntity
  8
MODEL
100
AcDbLine
 10
369.2173659413298
 20
472.8911312482722
 30
0.0
 11
369.5346594448381
 21
472.5100173087976
 31
0.0
  0
LINE
  5
5E60
330
A
100
AcDbEntity
  8
MODEL
100
AcDbLine
 10
369.5346594448381
 20
472.5100173087976
 30
0.0
 11
369.85246971301
 21
472.129161751655
 31
0.0
  0
LINE
  5
5E61
330
A
100
AcDbEntity
  8
MODEL
100
AcDbLine
 10
369.85246971301
 20
472.129161751655
 30
0.0
 11
370.106201162884
 21
471.6844857585463
 31
0.0
  0
LINE
  5
5E62
330
A
100
AcDbEntity
  8
MODEL
100
AcDbLine
 10
370.106201162884
 20
471.6844857585463
 30
0.0
 11
370.3284099682725
 21
471.240068147769
 31
0.0
  0
LINE
  5
5E63
330
A
100
AcDbEntity
  8
MODEL
100
AcDbLine
 10
370.3284099682725
 20
471.240068147769
 30
0.0
 11
370.4870567200267
 21
470.7638695101746
 31
0.0
  0
LINE
  5
5E64
330
A
100
AcDbEntity
  8
MODEL
100
AcDbLine
 10
370.4870567200267
 20
470.7638695101746
 30
0.0
 11
370.6141808272954
 21
470.2558898457634
 31
0.0
  0
LINE
  5
5E65
330
A
100
AcDbEntity
  8
MODEL
100
AcDbLine
 10
370.6141808272954
 20
470.2558898457634
 30
0.0
 11
370.7097822900788
 21
469.779691208169
 31
0.0
  0
LINE
  5
5E66
330
A
100
AcDbEntity
  8
MODEL
100
AcDbLine
 10
370.7097822900788
 20
469.779691208169
 30
0.0
 11
370.7097822900788
 21
469.2717115437575
 31
0.0
  0
LINE
  5
5E67
330
A
100
AcDbEntity
  8
MODEL
100
AcDbLine
 10
333.3399456350289
 20
459.2702482426191
 30
0.0
 11
333.3714682795143
 21
459.2702482426191
 31
0.0
  0
LINE
  5
5E68
330
A
100
AcDbEntity
  8
MODEL
100
AcDbLine
 10
333.3714682795143
 20
459.2702482426191
 30
0.0
 11
333.4035076886633
 21
459.2702482426191
 31
0.0
  0
LINE
  5
5E69
330
A
100
AcDbEntity
  8
MODEL
100
AcDbLine
 10
333.4035076886633
 20
459.2702482426191
 30
0.0
 11
333.466552977634
 21
459.3020292694363
 31
0.0
  0
LINE
  5
5E6A
330
A
100
AcDbEntity
  8
MODEL
100
AcDbLine
 10
333.466552977634
 20
459.3020292694363
 30
0.0
 11
333.5936770849028
 21
459.3338102962534
 31
0.0
  0
LINE
  5
5E6B
330
A
100
AcDbEntity
  8
MODEL
100
AcDbLine
 10
333.5936770849028
 20
459.3338102962534
 30
0.0
 11
333.7208011921716
 21
459.3973723498879
 31
0.0
  0
LINE
  5
5E6C
330
A
100
AcDbEntity
  8
MODEL
100
AcDbLine
 10
333.7208011921716
 20
459.3973723498879
 30
0.0
 11
333.9114873530748
 21
459.429153376705
 31
0.0
  0
LINE
  5
5E6D
330
A
100
AcDbEntity
  8
MODEL
100
AcDbLine
 10
333.9114873530748
 20
459.429153376705
 30
0.0
 11
334.2923429102174
 21
459.5242380748247
 31
0.0
  0
LINE
  5
5E6E
330
A
100
AcDbEntity
  8
MODEL
100
AcDbLine
 10
334.2923429102174
 20
459.5242380748247
 30
0.0
 11
334.7682831654798
 21
459.6513621820935
 31
0.0
  0
LINE
  5
5E6F
330
A
100
AcDbEntity
  8
MODEL
100
AcDbLine
 10
334.7682831654798
 20
459.6513621820935
 30
0.0
 11
335.0540540245028
 21
459.6831432089107
 31
0.0
  0
LINE
  5
5E70
330
A
100
AcDbEntity
  8
MODEL
100
AcDbLine
 10
335.0540540245028
 20
459.6831432089107
 30
0.0
 11
335.3398248835257
 21
459.7149242357278
 31
0.0
  0
LINE
  5
5E71
330
A
100
AcDbEntity
  8
MODEL
100
AcDbLine
 10
335.3398248835257
 20
459.7149242357278
 30
0.0
 11
335.6576351516976
 21
459.7467052625452
 31
0.0
  0
LINE
  5
5E72
330
A
100
AcDbEntity
  8
MODEL
100
AcDbLine
 10
335.6576351516976
 20
459.7467052625452
 30
0.0
 11
335.974928655206
 21
459.7782279070303
 31
0.0
  0
LINE
  5
5E73
330
A
100
AcDbEntity
  8
MODEL
100
AcDbLine
 10
335.974928655206
 20
459.7782279070303
 30
0.0
 11
336.2927389233779
 21
459.8100089338477
 31
0.0
  0
LINE
  5
5E74
330
A
100
AcDbEntity
  8
MODEL
100
AcDbLine
 10
336.2927389233779
 20
459.8100089338477
 30
0.0
 11
336.6100324268861
 21
459.8100089338477
 31
0.0
  0
LINE
  5
5E75
330
A
100
AcDbEntity
  8
MODEL
100
AcDbLine
 10
336.6100324268861
 20
459.8100089338477
 30
0.0
 11
336.895803285909
 21
459.8100089338477
 31
0.0
  0
LINE
  5
5E76
330
A
100
AcDbEntity
  8
MODEL
100
AcDbLine
 10
336.895803285909
 20
459.8100089338477
 30
0.0
 11
337.2130967894174
 21
459.7782279070303
 31
0.0
  0
LINE
  5
5E77
330
A
100
AcDbEntity
  8
MODEL
100
AcDbLine
 10
337.2130967894174
 20
459.7782279070303
 30
0.0
 11
337.5309070575893
 21
459.7467052625452
 31
0.0
  0
LINE
  5
5E78
330
A
100
AcDbEntity
  8
MODEL
100
AcDbLine
 10
337.5309070575893
 20
459.7467052625452
 30
0.0
 11
337.8482005610977
 21
459.7149242357278
 31
0.0
  0
LINE
  5
5E79
330
A
100
AcDbEntity
  8
MODEL
100
AcDbLine
 10
337.8482005610977
 20
459.7149242357278
 30
0.0
 11
338.1339714201204
 21
459.6831432089107
 31
0.0
  0
LINE
  5
5E7A
330
A
100
AcDbEntity
  8
MODEL
100
AcDbLine
 10
338.1339714201204
 20
459.6831432089107
 30
0.0
 11
338.4197422791434
 21
459.6513621820935
 31
0.0
  0
LINE
  5
5E7B
330
A
100
AcDbEntity
  8
MODEL
100
AcDbLine
 10
338.4197422791434
 20
459.6513621820935
 30
0.0
 11
338.8961992990695
 21
459.5242380748247
 31
0.0
  0
LINE
  5
5E7C
330
A
100
AcDbEntity
  8
MODEL
100
AcDbLine
 10
338.8961992990695
 20
459.5242380748247
 30
0.0
 11
339.2770548562122
 21
459.429153376705
 31
0.0
  0
LINE
  5
5E7D
330
A
100
AcDbEntity
  8
MODEL
100
AcDbLine
 10
339.2770548562122
 20
459.429153376705
 30
0.0
 11
339.4677410171154
 21
459.3973723498879
 31
0.0
  0
LINE
  5
5E7E
330
A
100
AcDbEntity
  8
MODEL
100
AcDbLine
 10
339.4677410171154
 20
459.3973723498879
 30
0.0
 11
339.5943483597205
 21
459.3338102962534
 31
0.0
  0
LINE
  5
5E7F
330
A
100
AcDbEntity
  8
MODEL
100
AcDbLine
 10
339.5943483597205
 20
459.3338102962534
 30
0.0
 11
339.7214724669893
 21
459.3020292694363
 31
0.0
  0
LINE
  5
5E80
330
A
100
AcDbEntity
  8
MODEL
100
AcDbLine
 10
339.7214724669893
 20
459.3020292694363
 30
0.0
 11
339.7850345206237
 21
459.2702482426191
 31
0.0
  0
LINE
  5
5E81
330
A
100
AcDbEntity
  8
MODEL
100
AcDbLine
 10
339.7850345206237
 20
459.2702482426191
 30
0.0
 11
339.816557165109
 21
459.2702482426191
 31
0.0
  0
LINE
  5
5E82
330
A
100
AcDbEntity
  8
MODEL
100
AcDbLine
 10
339.816557165109
 20
459.2702482426191
 30
0.0
 11
339.848596574258
 21
459.2702482426191
 31
0.0
  0
LINE
  5
5E83
330
A
100
AcDbEntity
  8
MODEL
100
AcDbLine
 10
375.6309321824392
 20
479.2729164625642
 30
0.0
 11
375.6309321824392
 21
479.2093544089299
 31
0.0
  0
LINE
  5
5E84
330
A
100
AcDbEntity
  8
MODEL
100
AcDbLine
 10
375.6309321824392
 20
479.2093544089299
 30
0.0
 11
375.6309321824392
 21
479.0189266303585
 31
0.0
  0
LINE
  5
5E85
330
A
100
AcDbEntity
  8
MODEL
100
AcDbLine
 10
375.6309321824392
 20
479.0189266303585
 30
0.0
 11
375.6309321824392
 21
478.7013747445184
 31
0.0
  0
LINE
  5
5E86
330
A
100
AcDbEntity
  8
MODEL
100
AcDbLine
 10
375.6309321824392
 20
478.7013747445184
 30
0.0
 11
375.6309321824392
 21
478.2884797782269
 31
0.0
  0
LINE
  5
5E87
330
A
100
AcDbEntity
  8
MODEL
100
AcDbLine
 10
375.6309321824392
 20
478.2884797782269
 30
0.0
 11
375.6309321824392
 21
477.7487190869982
 31
0.0
  0
LINE
  5
5E88
330
A
100
AcDbEntity
  8
MODEL
100
AcDbLine
 10
375.6309321824392
 20
477.7487190869982
 30
0.0
 11
375.6309321824392
 21
477.0820926708324
 31
0.0
  0
LINE
  5
5E89
330
A
100
AcDbEntity
  8
MODEL
100
AcDbLine
 10
375.6309321824392
 20
477.0820926708324
 30
0.0
 11
375.6309321824392
 21
476.3519042010327
 31
0.0
  0
LINE
  5
5E8A
330
A
100
AcDbEntity
  8
MODEL
100
AcDbLine
 10
375.6309321824392
 20
476.3519042010327
 30
0.0
 11
375.6309321824392
 21
475.4945916239639
 31
0.0
  0
LINE
  5
5E8B
330
A
100
AcDbEntity
  8
MODEL
100
AcDbLine
 10
375.6309321824392
 20
475.4945916239639
 30
0.0
 11
375.6309321824392
 21
474.5737169932606
 31
0.0
  0
LINE
  5
5E8C
330
A
100
AcDbEntity
  8
MODEL
100
AcDbLine
 10
375.6309321824392
 20
474.5737169932606
 30
0.0
 11
375.6309321824392
 21
473.6213197180721
 31
0.0
  0
LINE
  5
5E8D
330
A
100
AcDbEntity
  8
MODEL
100
AcDbLine
 10
375.6309321824392
 20
473.6213197180721
 30
0.0
 11
375.6309321824392
 21
472.573579362432
 31
0.0
  0
LINE
  5
5E8E
330
A
100
AcDbEntity
  8
MODEL
100
AcDbLine
 10
375.6309321824392
 20
472.573579362432
 30
0.0
 11
375.6309321824392
 21
471.4940579799749
 31
0.0
  0
LINE
  5
5E8F
330
A
100
AcDbEntity
  8
MODEL
100
AcDbLine
 10
375.6309321824392
 20
471.4940579799749
 30
0.0
 11
375.6309321824392
 21
470.3827555707002
 31
0.0
  0
LINE
  5
5E90
330
A
100
AcDbEntity
  8
MODEL
100
AcDbLine
 10
375.6309321824392
 20
470.3827555707002
 30
0.0
 11
375.6309321824392
 21
469.2717115437575
 31
0.0
  0
LINE
  5
5E91
330
A
100
AcDbEntity
  8
MODEL
100
AcDbLine
 10
375.6309321824392
 20
469.2717115437575
 30
0.0
 11
375.6309321824392
 21
468.1604091344831
 31
0.0
  0
LINE
  5
5E92
330
A
100
AcDbEntity
  8
MODEL
100
AcDbLine
 10
375.6309321824392
 20
468.1604091344831
 30
0.0
 11
375.6309321824392
 21
467.0491067252087
 31
0.0
  0
LINE
  5
5E93
330
A
100
AcDbEntity
  8
MODEL
100
AcDbLine
 10
375.6309321824392
 20
467.0491067252087
 30
0.0
 11
375.6309321824392
 21
465.9695853427513
 31
0.0
  0
LINE
  5
5E94
330
A
100
AcDbEntity
  8
MODEL
100
AcDbLine
 10
375.6309321824392
 20
465.9695853427513
 30
0.0
 11
375.6309321824392
 21
464.9218449871112
 31
0.0
  0
LINE
  5
5E95
330
A
100
AcDbEntity
  8
MODEL
100
AcDbLine
 10
375.6309321824392
 20
464.9218449871112
 30
0.0
 11
375.6309321824392
 21
463.9376666851055
 31
0.0
  0
LINE
  5
5E96
330
A
100
AcDbEntity
  8
MODEL
100
AcDbLine
 10
375.6309321824392
 20
463.9376666851055
 30
0.0
 11
375.6309321824392
 21
463.0167920544023
 31
0.0
  0
LINE
  5
5E97
330
A
100
AcDbEntity
  8
MODEL
100
AcDbLine
 10
375.6309321824392
 20
463.0167920544023
 30
0.0
 11
375.6309321824392
 21
462.1912605041509
 31
0.0
  0
LINE
  5
5E98
330
A
100
AcDbEntity
  8
MODEL
100
AcDbLine
 10
375.6309321824392
 20
462.1912605041509
 30
0.0
 11
375.6309321824392
 21
461.4610720343508
 31
0.0
  0
LINE
  5
5E99
330
A
100
AcDbEntity
  8
MODEL
100
AcDbLine
 10
375.6309321824392
 20
461.4610720343508
 30
0.0
 11
375.6309321824392
 21
460.7941872358534
 31
0.0
  0
LINE
  5
5E9A
330
A
100
AcDbEntity
  8
MODEL
100
AcDbLine
 10
375.6309321824392
 20
460.7941872358534
 30
0.0
 11
375.6309321824392
 21
460.2546849269564
 31
0.0
  0
LINE
  5
5E9B
330
A
100
AcDbEntity
  8
MODEL
100
AcDbLine
 10
375.6309321824392
 20
460.2546849269564
 30
0.0
 11
375.6309321824392
 21
459.8417899606649
 31
0.0
  0
LINE
  5
5E9C
330
A
100
AcDbEntity
  8
MODEL
100
AcDbLine
 10
375.6309321824392
 20
459.8417899606649
 30
0.0
 11
375.6309321824392
 21
459.5242380748247
 31
0.0
  0
LINE
  5
5E9D
330
A
100
AcDbEntity
  8
MODEL
100
AcDbLine
 10
375.6309321824392
 20
459.5242380748247
 30
0.0
 11
375.6309321824392
 21
459.3338102962534
 31
0.0
  0
LINE
  5
5E9E
330
A
100
AcDbEntity
  8
MODEL
100
AcDbLine
 10
375.6309321824392
 20
459.3338102962534
 30
0.0
 11
375.6309321824392
 21
459.2702482426191
 31
0.0
  0
LINE
  5
5E9F
102
{ACAD_REACTORS
330
5F7C
102
}
330
A
100
AcDbEntity
  8
MODEL
100
AcDbLine
 10
333.3399456350289
 20
459.2702482426191
 30
0.0
 11
320.5763752064445
 21
459.2702482426191
 31
0.0
  0
LINE
  5
5EBC
102
{ACAD_REACTORS
330
5F7C
102
}
330
A
100
AcDbEntity
  8
MODEL
100
AcDbLine
 10
320.5763752064445
 20
479.2729164625642
 30
0.0
 11
375.6309321824392
 21
479.2729164625642
 31
0.0
  0
LINE
  5
5EBD
330
A
100
AcDbEntity
  8
MODEL
100
AcDbLine
 10
339.848596574258
 20
459.2702482426191
 30
0.0
 11
360.6132342908205
 21
459.2702482426191
 31
0.0
  0
LINE
  5
5EBE
330
A
100
AcDbEntity
  8
MODEL
100
AcDbLine
 10
370.6141808272954
 20
459.2702482426191
 30
0.0
 11
375.6309321824392
 21
459.2702482426191
 31
0.0
  0
LINE
  5
5EE7
330
A
100
AcDbEntity
  8
MODEL
100
AcDbLine
 10
370.6141808272954
 20
392.7541094082176
 30
0.0
 11
370.6141808272954
 21
391.4205981935546
 31
0.0
  0
LINE
  5
5EE8
330
A
100
AcDbEntity
  8
MODEL
100
AcDbLine
 10
370.6141808272954
 20
391.4205981935546
 30
0.0
 11
370.6141808272954
 21
390.1188680057089
 31
0.0
  0
LINE
  5
5EE9
330
A
100
AcDbEntity
  8
MODEL
100
AcDbLine
 10
370.6141808272954
 20
390.1188680057089
 30
0.0
 11
370.6141808272954
 21
388.8171378178629
 31
0.0
  0
LINE
  5
5EEA
330
A
100
AcDbEntity
  8
MODEL
100
AcDbLine
 10
370.6141808272954
 20
388.8171378178629
 30
0.0
 11
370.6141808272954
 21
387.5787113013197
 31
0.0
  0
LINE
  5
5EEB
330
A
100
AcDbEntity
  8
MODEL
100
AcDbLine
 10
370.6141808272954
 20
387.5787113013197
 30
0.0
 11
370.6141808272954
 21
386.3723241939255
 31
0.0
  0
LINE
  5
5EEC
330
A
100
AcDbEntity
  8
MODEL
100
AcDbLine
 10
370.6141808272954
 20
386.3723241939255
 30
0.0
 11
370.6141808272954
 21
385.2610217846509
 31
0.0
  0
LINE
  5
5EED
330
A
100
AcDbEntity
  8
MODEL
100
AcDbLine
 10
370.6141808272954
 20
385.2610217846509
 30
0.0
 11
370.6141808272954
 21
384.1815004021938
 31
0.0
  0
LINE
  5
5EEE
330
A
100
AcDbEntity
  8
MODEL
100
AcDbLine
 10
370.6141808272954
 20
384.1815004021938
 30
0.0
 11
370.6141808272954
 21
383.197322100188
 31
0.0
  0
LINE
  5
5EEF
330
A
100
AcDbEntity
  8
MODEL
100
AcDbLine
 10
370.6141808272954
 20
383.197322100188
 30
0.0
 11
370.6141808272954
 21
382.308228496302
 31
0.0
  0
LINE
  5
5EF0
330
A
100
AcDbEntity
  8
MODEL
100
AcDbLine
 10
370.6141808272954
 20
382.308228496302
 30
0.0
 11
370.6141808272954
 21
381.5144779728677
 31
0.0
  0
LINE
  5
5EF1
330
A
100
AcDbEntity
  8
MODEL
100
AcDbLine
 10
370.6141808272954
 20
381.5144779728677
 30
0.0
 11
370.6141808272954
 21
380.847851556702
 31
0.0
  0
LINE
  5
5EF2
330
A
100
AcDbEntity
  8
MODEL
100
AcDbLine
 10
370.6141808272954
 20
380.847851556702
 30
0.0
 11
370.6141808272954
 21
380.2763098386562
 31
0.0
  0
LINE
  5
5EF3
330
A
100
AcDbEntity
  8
MODEL
100
AcDbLine
 10
370.6141808272954
 20
380.2763098386562
 30
0.0
 11
370.6141808272954
 21
379.8316338455472
 31
0.0
  0
LINE
  5
5EF4
330
A
100
AcDbEntity
  8
MODEL
100
AcDbLine
 10
370.6141808272954
 20
379.8316338455472
 30
0.0
 11
370.6141808272954
 21
379.514340342039
 31
0.0
  0
LINE
  5
5EF5
330
A
100
AcDbEntity
  8
MODEL
100
AcDbLine
 10
370.6141808272954
 20
379.514340342039
 30
0.0
 11
370.6141808272954
 21
379.3236541811359
 31
0.0
  0
LINE
  5
5EF6
330
A
100
AcDbEntity
  8
MODEL
100
AcDbLine
 10
370.6141808272954
 20
379.3236541811359
 30
0.0
 11
370.6141808272954
 21
379.2603505098332
 31
0.0
  0
LINE
  5
5EF7
330
A
100
AcDbEntity
  8
MODEL
100
AcDbLine
 10
360.6132342908205
 20
379.2603505098332
 30
0.0
 11
360.6132342908205
 21
379.3236541811359
 31
0.0
  0
LINE
  5
5EF8
330
A
100
AcDbEntity
  8
MODEL
100
AcDbLine
 10
360.6132342908205
 20
379.3236541811359
 30
0.0
 11
360.6132342908205
 21
379.514340342039
 31
0.0
  0
LINE
  5
5EF9
330
A
100
AcDbEntity
  8
MODEL
100
AcDbLine
 10
360.6132342908205
 20
379.514340342039
 30
0.0
 11
360.6132342908205
 21
379.8316338455472
 31
0.0
  0
LINE
  5
5EFA
330
A
100
AcDbEntity
  8
MODEL
100
AcDbLine
 10
360.6132342908205
 20
379.8316338455472
 30
0.0
 11
360.6132342908205
 21
380.2763098386562
 31
0.0
  0
LINE
  5
5EFB
330
A
100
AcDbEntity
  8
MODEL
100
AcDbLine
 10
360.6132342908205
 20
380.2763098386562
 30
0.0
 11
360.6132342908205
 21
380.847851556702
 31
0.0
  0
LINE
  5
5EFC
330
A
100
AcDbEntity
  8
MODEL
100
AcDbLine
 10
360.6132342908205
 20
380.847851556702
 30
0.0
 11
360.6132342908205
 21
381.5144779728677
 31
0.0
  0
LINE
  5
5EFD
330
A
100
AcDbEntity
  8
MODEL
100
AcDbLine
 10
360.6132342908205
 20
381.5144779728677
 30
0.0
 11
360.6132342908205
 21
382.308228496302
 31
0.0
  0
LINE
  5
5EFE
330
A
100
AcDbEntity
  8
MODEL
100
AcDbLine
 10
360.6132342908205
 20
382.308228496302
 30
0.0
 11
360.6132342908205
 21
383.197322100188
 31
0.0
  0
LINE
  5
5EFF
330
A
100
AcDbEntity
  8
MODEL
100
AcDbLine
 10
360.6132342908205
 20
383.197322100188
 30
0.0
 11
360.6132342908205
 21
384.1815004021938
 31
0.0
  0
LINE
  5
5F00
330
A
100
AcDbEntity
  8
MODEL
100
AcDbLine
 10
360.6132342908205
 20
384.1815004021938
 30
0.0
 11
360.6132342908205
 21
385.2610217846509
 31
0.0
  0
LINE
  5
5F01
330
A
100
AcDbEntity
  8
MODEL
100
AcDbLine
 10
360.6132342908205
 20
385.2610217846509
 30
0.0
 11
360.6132342908205
 21
386.3723241939255
 31
0.0
  0
LINE
  5
5F02
330
A
100
AcDbEntity
  8
MODEL
100
AcDbLine
 10
360.6132342908205
 20
386.3723241939255
 30
0.0
 11
360.6132342908205
 21
387.5787113013197
 31
0.0
  0
LINE
  5
5F03
330
A
100
AcDbEntity
  8
MODEL
100
AcDbLine
 10
360.6132342908205
 20
387.5787113013197
 30
0.0
 11
360.6132342908205
 21
388.8171378178629
 31
0.0
  0
LINE
  5
5F04
330
A
100
AcDbEntity
  8
MODEL
100
AcDbLine
 10
360.6132342908205
 20
388.8171378178629
 30
0.0
 11
360.6132342908205
 21
390.1188680057089
 31
0.0
  0
LINE
  5
5F05
330
A
100
AcDbEntity
  8
MODEL
100
AcDbLine
 10
360.6132342908205
 20
390.1188680057089
 30
0.0
 11
360.6132342908205
 21
391.4205981935546
 31
0.0
  0
LINE
  5
5F06
330
A
100
AcDbEntity
  8
MODEL
100
AcDbLine
 10
360.6132342908205
 20
391.4205981935546
 30
0.0
 11
360.6132342908205
 21
392.7541094082176
 31
0.0
  0
LINE
  5
5F07
330
A
100
AcDbEntity
  8
MODEL
100
AcDbLine
 10
370.6141808272954
 20
455.7779526453734
 30
0.0
 11
370.6141808272954
 21
392.7541094082176
 31
0.0
  0
LINE
  5
5F08
330
A
100
AcDbEntity
  8
MODEL
100
AcDbLine
 10
360.6132342908205
 20
455.7779526453734
 30
0.0
 11
360.6132342908205
 21
392.7541094082176
 31
0.0
  0
LINE
  5
5F09
330
A
100
AcDbEntity
  8
MODEL
100
AcDbLine
 10
370.6141808272954
 20
469.2717115437575
 30
0.0
 11
370.6141808272954
 21
469.2081494901232
 31
0.0
  0
LINE
  5
5F0A
330
A
100
AcDbEntity
  8
MODEL
100
AcDbLine
 10
370.6141808272954
 20
469.2081494901232
 30
0.0
 11
370.6141808272954
 21
469.01746332922
 31
0.0
  0
LINE
  5
5F0B
330
A
100
AcDbEntity
  8
MODEL
100
AcDbLine
 10
370.6141808272954
 20
469.01746332922
 30
0.0
 11
370.6141808272954
 21
468.7001698257117
 31
0.0
  0
LINE
  5
5F0C
330
A
100
AcDbEntity
  8
MODEL
100
AcDbLine
 10
370.6141808272954
 20
468.7001698257117
 30
0.0
 11
370.6141808272954
 21
468.2554938326028
 31
0.0
  0
LINE
  5
5F0D
330
A
100
AcDbEntity
  8
MODEL
100
AcDbLine
 10
370.6141808272954
 20
468.2554938326028
 30
0.0
 11
370.6141808272954
 21
467.6842104968887
 31
0.0
  0
LINE
  5
5F0E
330
A
100
AcDbEntity
  8
MODEL
100
AcDbLine
 10
370.6141808272954
 20
467.6842104968887
 30
0.0
 11
370.6141808272954
 21
466.9855446715744
 31
0.0
  0
LINE
  5
5F0F
330
A
100
AcDbEntity
  8
MODEL
100
AcDbLine
 10
370.6141808272954
 20
466.9855446715744
 30
0.0
 11
370.6141808272954
 21
466.1917941481398
 31
0.0
  0
LINE
  5
5F10
330
A
100
AcDbEntity
  8
MODEL
100
AcDbLine
 10
370.6141808272954
 20
466.1917941481398
 30
0.0
 11
370.6141808272954
 21
465.3029589265859
 31
0.0
  0
LINE
  5
5F11
330
A
100
AcDbEntity
  8
MODEL
100
AcDbLine
 10
370.6141808272954
 20
465.3029589265859
 30
0.0
 11
370.6141808272954
 21
464.3185222422482
 31
0.0
  0
LINE
  5
5F12
330
A
100
AcDbEntity
  8
MODEL
100
AcDbLine
 10
370.6141808272954
 20
464.3185222422482
 30
0.0
 11
370.6141808272954
 21
463.2707818866081
 31
0.0
  0
LINE
  5
5F13
330
A
100
AcDbEntity
  8
MODEL
100
AcDbLine
 10
370.6141808272954
 20
463.2707818866081
 30
0.0
 11
370.6141808272954
 21
462.1279568328483
 31
0.0
  0
LINE
  5
5F14
330
A
100
AcDbEntity
  8
MODEL
100
AcDbLine
 10
370.6141808272954
 20
462.1279568328483
 30
0.0
 11
370.6141808272954
 21
460.9213113431222
 31
0.0
  0
LINE
  5
5F15
330
A
100
AcDbEntity
  8
MODEL
100
AcDbLine
 10
370.6141808272954
 20
460.9213113431222
 30
0.0
 11
370.6141808272954
 21
459.6831432089107
 31
0.0
  0
LINE
  5
5F16
330
A
100
AcDbEntity
  8
MODEL
100
AcDbLine
 10
370.6141808272954
 20
459.6831432089107
 30
0.0
 11
370.6141808272954
 21
458.4129356655503
 31
0.0
  0
LINE
  5
5F17
330
A
100
AcDbEntity
  8
MODEL
100
AcDbLine
 10
370.6141808272954
 20
458.4129356655503
 30
0.0
 11
370.6141808272954
 21
457.0796828332191
 31
0.0
  0
LINE
  5
5F18
330
A
100
AcDbEntity
  8
MODEL
100
AcDbLine
 10
370.6141808272954
 20
457.0796828332191
 30
0.0
 11
370.6141808272954
 21
455.7779526453734
 31
0.0
  0
LINE
  5
5F19
330
A
100
AcDbEntity
  8
MODEL
100
AcDbLine
 10
360.6132342908205
 20
455.7779526453734
 30
0.0
 11
360.6132342908205
 21
457.0796828332191
 31
0.0
  0
LINE
  5
5F1A
330
A
100
AcDbEntity
  8
MODEL
100
AcDbLine
 10
360.6132342908205
 20
457.0796828332191
 30
0.0
 11
360.6132342908205
 21
458.4129356655503
 31
0.0
  0
LINE
  5
5F1B
330
A
100
AcDbEntity
  8
MODEL
100
AcDbLine
 10
360.6132342908205
 20
458.4129356655503
 30
0.0
 11
360.6132342908205
 21
459.6831432089107
 31
0.0
  0
LINE
  5
5F1C
330
A
100
AcDbEntity
  8
MODEL
100
AcDbLine
 10
360.6132342908205
 20
459.6831432089107
 30
0.0
 11
360.6132342908205
 21
460.9213113431222
 31
0.0
  0
LINE
  5
5F1D
330
A
100
AcDbEntity
  8
MODEL
100
AcDbLine
 10
360.6132342908205
 20
460.9213113431222
 30
0.0
 11
360.6132342908205
 21
462.1279568328483
 31
0.0
  0
LINE
  5
5F1E
330
A
100
AcDbEntity
  8
MODEL
100
AcDbLine
 10
360.6132342908205
 20
462.1279568328483
 30
0.0
 11
360.6132342908205
 21
463.2707818866081
 31
0.0
  0
LINE
  5
5F1F
330
A
100
AcDbEntity
  8
MODEL
100
AcDbLine
 10
360.6132342908205
 20
463.2707818866081
 30
0.0
 11
360.6132342908205
 21
464.3185222422482
 31
0.0
  0
LINE
  5
5F20
330
A
100
AcDbEntity
  8
MODEL
100
AcDbLine
 10
360.6132342908205
 20
464.3185222422482
 30
0.0
 11
360.6132342908205
 21
465.3029589265859
 31
0.0
  0
LINE
  5
5F21
330
A
100
AcDbEntity
  8
MODEL
100
AcDbLine
 10
360.6132342908205
 20
465.3029589265859
 30
0.0
 11
360.6132342908205
 21
466.1917941481398
 31
0.0
  0
LINE
  5
5F22
330
A
100
AcDbEntity
  8
MODEL
100
AcDbLine
 10
360.6132342908205
 20
466.1917941481398
 30
0.0
 11
360.6132342908205
 21
466.9855446715744
 31
0.0
  0
LINE
  5
5F23
330
A
100
AcDbEntity
  8
MODEL
100
AcDbLine
 10
360.6132342908205
 20
466.9855446715744
 30
0.0
 11
360.6132342908205
 21
467.6842104968887
 31
0.0
  0
LINE
  5
5F24
330
A
100
AcDbEntity
  8
MODEL
100
AcDbLine
 10
360.6132342908205
 20
467.6842104968887
 30
0.0
 11
360.6132342908205
 21
468.2554938326028
 31
0.0
  0
LINE
  5
5F25
330
A
100
AcDbEntity
  8
MODEL
100
AcDbLine
 10
360.6132342908205
 20
468.2554938326028
 30
0.0
 11
360.6132342908205
 21
468.7001698257117
 31
0.0
  0
LINE
  5
5F26
330
A
100
AcDbEntity
  8
MODEL
100
AcDbLine
 10
360.6132342908205
 20
468.7001698257117
 30
0.0
 11
360.6132342908205
 21
469.01746332922
 31
0.0
  0
LINE
  5
5F27
330
A
100
AcDbEntity
  8
MODEL
100
AcDbLine
 10
360.6132342908205
 20
469.01746332922
 30
0.0
 11
360.6132342908205
 21
469.2081494901232
 31
0.0
  0
LINE
  5
5F28
330
A
100
AcDbEntity
  8
MODEL
100
AcDbLine
 10
360.6132342908205
 20
469.2081494901232
 30
0.0
 11
360.6132342908205
 21
469.2717115437575
 31
0.0
  0
DIMENSION
  5
5F3C
102
{ACAD_REACTORS
330
5F3E
102
}
102
{ACAD_XDICTIONARY
360
5F3D
102
}
330
A
100
AcDbEntity
  8
DIM
100
AcDbDimension
  2
*D24
 10
258.0792385845763
 20
322.9048282009101
 30
0.0
 11
158.0666726318453
 21
328.4057660526045
 31
0.0
 70
    32
 71
     5
 42
200.025131905462
 73
     0
 74
     0
 75
     0
  3
tfrom線あり
100
AcDbAlignedDimension
 13
58.05410667911428
 23
385.5612076495523
 33
0.0
 14
258.0792385845763
 24
380.4031755635933
 34
0.0
100
AcDbRotatedDimension
  0
DIMENSION
  5
5F4B
102
{ACAD_REACTORS
330
5F4D
102
}
102
{ACAD_XDICTIONARY
360
5F4C
102
}
330
A
100
AcDbEntity
  8
DIM
100
AcDbDimension
  2
*D25
 10
258.0792385845763
 20
352.663487405722
 30
0.0
 11
158.6361993753551
 21
352.663487405722
 31
0.0
 70
   160
 71
     5
 42
190.0239269866554
 73
     0
 74
     0
 75
     0
  3
tfrom線あり
100
AcDbAlignedDimension
 13
68.05531159792086
 23
390.3893516967103
 33
0.0
 14
258.0792385845763
 24
380.4031755635933
 34
0.0
100
AcDbRotatedDimension
  0
DIMENSION
  5
5F5A
102
{ACAD_REACTORS
330
5F5C
102
}
102
{ACAD_XDICTIONARY
360
5F5B
102
}
330
A
100
AcDbEntity
  8
DIM
100
AcDbDimension
  2
*D26
 10
30.59559944778488
 20
374.2438575370214
 30
0.0
 11
25.09466159609048
 21
426.7742042934988
 31
0.0
 70
    32
 71
     5
 42
105.0606935129546
 73
     0
 74
     0
 75
     0
  3
tfrom線あり
100
AcDbAlignedDimension
 13
158.1372602530943
 23
479.3045510499761
 33
0.0
 14
68.05531159792088
 24
374.2438575370214
 34
0.0
 50
90.0
100
AcDbRotatedDimension
  0
DIMENSION
  5
5F69
102
{ACAD_REACTORS
330
5F6B
102
}
102
{ACAD_XDICTIONARY
360
5F6A
102
}
330
A
100
AcDbEntity
  8
DIM
100
AcDbDimension
  2
*D27
 10
229.4047597691256
 20
374.2438575370214
 30
0.0
 11
229.4047597691256
 21
399.9242716015667
 31
0.0
 70
   160
 71
     5
 42
10.00120491880671
 73
     0
 74
     1
 75
     1
  3
tfrom線あり
100
AcDbAlignedDimension
 13
215.8187869976581
 23
384.2450624558281
 33
0.0
 14
215.8187869976581
 24
374.2438575370214
 34
0.0
 50
90.0
100
AcDbRotatedDimension
1001
ACAD
1000
DSTYLE
1002
{
1070
     3
1000
%%c<>
1070
   172
1070
     1
1002
}
  0
DIMENSION
  5
5F7A
102
{ACAD_REACTORS
330
5F7C
102
}
102
{ACAD_XDICTIONARY
360
5F7B
102
}
330
A
100
AcDbEntity
  8
DIM
100
AcDbDimension
  2
*D28
 10
253.2867550137339
 20
459.2702482426191
 30
0.0
 11
253.2867550137339
 21
469.2715823525916
 31
0.0
 70
   160
 71
     5
 42
20.00266821994518
 73
     0
 74
     0
 75
     0
  3
tfrom線あり
100
AcDbAlignedDimension
 13
320.5763752064445
 23
479.2729164625642
 33
0.0
 14
320.5763752064445
 24
459.2702482426191
 34
0.0
 50
90.0
100
AcDbRotatedDimension
1001
ACAD
1000
DSTYLE
1002
{
1070
     3
1000
%%c<>
1002
}
  0
LINE
  5
5F89
102
{ACAD_REACTORS
330
5F9E
102
}
330
A
100
AcDbEntity
  8
MODEL
100
AcDbLine
 10
286.5763752064443
 20
469.2715823525916
 30
0.0
 11
289.465195985662
 21
467.8115201293393
 31
0.0
  0
LINE
  5
5F8A
102
{ACAD_REACTORS
330
5F9E
330
5FA3
102
}
330
A
100
AcDbEntity
  8
MODEL
100
AcDbLine
 10
286.5763752064443
 20
469.2715823525916
 30
0.0
 11
289.465195985662
 21
470.731644575844
 31
0.0
  0
LINE
  5
5F8B
102
{ACAD_REACTORS
330
5F9E
102
}
330
A
100
AcDbEntity
  8
MODEL
100
AcDbLine
 10
289.3674194521169
 20
467.1731309630101
 30
0.0
 11
291.5432892917041
 21
471.3616804042151
 31
0.0
  0
LINE
  5
5F8C
102
{ACAD_REACTORS
330
5F9E
102
}
330
A
100
AcDbEntity
  8
MODEL
100
AcDbLine
 10
296.6731209131318
 20
467.1650208809846
 30
0.0
 11
298.8617562083079
 21
471.3781438241987
 31
0.0
  0
LINE
  5
5F8D
102
{ACAD_REACTORS
330
5F9E
102
}
330
A
100
AcDbEntity
  8
MODEL
100
AcDbLine
 10
316.8074467908554
 20
467.1650208809846
 30
0.0
 11
318.9960820860316
 21
471.3781438241987
 31
0.0
  0
LINE
  5
5F8E
102
{ACAD_REACTORS
330
5F9E
102
}
330
A
100
AcDbEntity
  8
MODEL
100
AcDbLine
 10
305.7143309410267
 20
467.1650208809846
 30
0.0
 11
307.902966236203
 21
471.3781438241987
 31
0.0
  0
LINE
  5
5F8F
102
{ACAD_REACTORS
330
5F9E
102
}
330
A
100
AcDbEntity
  8
MODEL
100
AcDbLine
 10
291.2868681305562
 20
467.1650208809846
 30
0.0
 11
293.4755034257324
 21
471.3781438241987
 31
0.0
  0
LINE
  5
5F90
102
{ACAD_REACTORS
330
5F9E
102
}
330
A
100
AcDbEntity
  8
MODEL
100
AcDbLine
 10
302.1234957526429
 20
467.1650208809846
 30
0.0
 11
304.3121310478191
 21
471.3781438241987
 31
0.0
  0
LINE
  5
5F91
102
{ACAD_REACTORS
330
5F9E
102
}
330
A
100
AcDbEntity
  8
MODEL
100
AcDbLine
 10
313.2166116024717
 20
467.1650208809846
 30
0.0
 11
315.4052468976477
 21
471.3781438241987
 31
0.0
  0
LINE
  5
5F92
102
{ACAD_REACTORS
330
5F9E
102
}
330
A
100
AcDbEntity
  8
MODEL
100
AcDbLine
 10
293.0181636678127
 20
467.1650208809846
 30
0.0
 11
295.2067989629889
 21
471.3781438241987
 31
0.0
  0
LINE
  5
5F93
102
{ACAD_REACTORS
330
5F9E
102
}
330
A
100
AcDbEntity
  8
MODEL
100
AcDbLine
 10
311.2929498944087
 20
467.1650208809846
 30
0.0
 11
313.4815851895849
 21
471.3781438241987
 31
0.0
  0
LINE
  5
5F94
102
{ACAD_REACTORS
330
5F9E
102
}
330
A
100
AcDbEntity
  8
MODEL
100
AcDbLine
 10
307.6379926490896
 20
467.1650208809846
 30
0.0
 11
309.8266279442658
 21
471.3781438241987
 31
0.0
  0
LINE
  5
5F95
102
{ACAD_REACTORS
330
5F9E
102
}
330
A
100
AcDbEntity
  8
MODEL
100
AcDbLine
 10
300.1998340445801
 20
467.1650208809846
 30
0.0
 11
302.3884693397562
 21
471.3781438241987
 31
0.0
  0
LINE
  5
5F96
102
{ACAD_REACTORS
330
5F9E
102
}
330
A
100
AcDbEntity
  8
MODEL
100
AcDbLine
 10
294.749459205069
 20
467.1650208809846
 30
0.0
 11
296.9380945002452
 21
471.3781438241987
 31
0.0
  0
LINE
  5
5F97
102
{ACAD_REACTORS
330
5F9E
102
}
330
A
100
AcDbEntity
  8
MODEL
100
AcDbLine
 10
298.4044164503883
 20
467.1650208809846
 30
0.0
 11
300.5930517455643
 21
471.3781438241987
 31
0.0
  0
LINE
  5
5F98
102
{ACAD_REACTORS
330
5F9E
102
}
330
A
100
AcDbEntity
  8
MODEL
100
AcDbLine
 10
309.3692881863461
 20
467.1650208809846
 30
0.0
 11
311.5579234815222
 21
471.3781438241987
 31
0.0
  0
LINE
  5
5F99
102
{ACAD_REACTORS
330
5F9E
102
}
330
A
100
AcDbEntity
  8
MODEL
100
AcDbLine
 10
314.947907139728
 20
467.1650208809846
 30
0.0
 11
317.1365424349041
 21
471.3781438241987
 31
0.0
  0
LINE
  5
5F9A
102
{ACAD_REACTORS
330
5F9E
102
}
330
A
100
AcDbEntity
  8
MODEL
100
AcDbLine
 10
303.8547912898993
 20
467.1650208809846
 30
0.0
 11
306.0434265850755
 21
471.3781438241987
 31
0.0
  0
LINE
  5
5F9B
102
{ACAD_REACTORS
330
5F9E
102
}
330
A
100
AcDbEntity
  8
MODEL
100
AcDbLine
 10
318.7311084989182
 20
467.1650208809846
 30
0.0
 11
320.3926597439821
 21
470.731644575844
 31
0.0
  0
LINE
  5
5F9C
102
{ACAD_REACTORS
330
5F9E
102
}
330
A
100
AcDbEntity
  8
MODEL
100
AcDbLine
 10
320.5763752064446
 20
470.731644575844
 30
0.0
 11
289.465195985662
 21
470.731644575844
 31
0.0
  0
LINE
  5
5F9D
102
{ACAD_REACTORS
330
5F9E
102
}
330
A
100
AcDbEntity
  8
MODEL
100
AcDbLine
 10
320.5763752064444
 20
467.8115201293393
 30
0.0
 11
289.465195985662
 21
467.8115201293393
 31
0.0
  0
LINE
  5
5F9F
102
{ACAD_REACTORS
330
5FA3
102
}
330
A
100
AcDbEntity
  8
MODEL
100
AcDbLine
 10
320.5763752064445
 20
479.2729164625642
 30
0.0
 11
320.5763752064445
 21
459.2702482426191
 31
0.0
  0
LINE
  5
5FA0
330
A
100
AcDbEntity
  8
MODEL
100
AcDbLine
 10
320.5763752064446
 20
470.731644575844
 30
0.0
 11
320.5763752064444
 21
467.8115201293393
 31
0.0
  0
DIMENSION
  5
5FA1
102
{ACAD_REACTORS
330
5FA3
102
}
102
{ACAD_XDICTIONARY
360
5FA2
102
}
330
A
100
AcDbEntity
  8
DIM
100
AcDbDimension
  2
*D29
 10
273.6666662444963
 20
459.2702482426191
 30
0.0
 11
268.1657283928019
 21
464.2709152976054
 31
0.0
 70
    32
 71
     5
 42
10.00133410997256
 73
     0
 74
     1
 75
     1
  3
tfrom線あり
100
AcDbAlignedDimension
 13
286.5763752064443
 23
469.2715823525916
 33
0.0
 14
320.5763752064445
 24
459.2702482426191
 34
0.0
 50
90.0
100
AcDbRotatedDimension
1001
ACAD
1000
DSTYLE
1002
{
1070
   172
1070
     1
1002
}
  0
DIMENSION
  5
5FC0
102
{ACAD_REACTORS
330
5FC2
102
}
102
{ACAD_XDICTIONARY
360
5FC1
102
}
330
A
100
AcDbEntity
  8
DIM
100
AcDbDimension
  2
*D31
 10
274.7711383227897
 20
176.6762260174345
 30
0.0
 11
269.2702004710953
 21
204.1877431831891
 31
0.0
 70
    32
 71
     5
 42
55.02303433150928
 73
     0
 74
     0
 75
     0
  3
tfrom線あり
100
AcDbAlignedDimension
 13
168.0678775506519
 23
231.6992603489437
 33
0.0
 14
168.0678775506519
 24
176.6762260174345
 34
0.0
 50
90.0
100
AcDbRotatedDimension
  0
LINE
  5
5FCF
330
A
100
AcDbEntity
  8
MODEL
100
AcDbLine
 10
148.0654677130385
 20
231.6992603489437
 30
0.0
 11
168.0678775506519
 21
231.6992603489437
 31
0.0
  0
LINE
  5
5FD0
102
{ACAD_REACTORS
330
5FE5
102
}
330
A
100
AcDbEntity
  8
MODEL
100
AcDbLine
 10
158.0666726318452
 20
265.6992603489439
 30
0.0
 11
156.6066104085928
 21
262.8104395697262
 31
0.0
  0
LINE
  5
5FD1
102
{ACAD_REACTORS
330
5FE5
102
}
330
A
100
AcDbEntity
  8
MODEL
100
AcDbLine
 10
158.0666726318452
 20
265.6992603489439
 30
0.0
 11
159.5267348550976
 21
262.8104395697262
 31
0.0
  0
LINE
  5
5FD2
102
{ACAD_REACTORS
330
5FE5
102
}
330
A
100
AcDbEntity
  8
MODEL
100
AcDbLine
 10
155.9682212422636
 20
262.9082161032712
 30
0.0
 11
160.1567706834688
 21
260.7323462636841
 31
0.0
  0
LINE
  5
5FD3
102
{ACAD_REACTORS
330
5FE5
102
}
330
A
100
AcDbEntity
  8
MODEL
100
AcDbLine
 10
155.9601111602382
 20
255.6025146422564
 30
0.0
 11
160.1732341034522
 21
253.4138793470802
 31
0.0
  0
LINE
  5
5FD4
102
{ACAD_REACTORS
330
5FE5
102
}
330
A
100
AcDbEntity
  8
MODEL
100
AcDbLine
 10
155.9601111602382
 20
235.4681887645328
 30
0.0
 11
160.1732341034522
 21
233.2795534693568
 31
0.0
  0
LINE
  5
5FD5
102
{ACAD_REACTORS
330
5FE5
102
}
330
A
100
AcDbEntity
  8
MODEL
100
AcDbLine
 10
155.9601111602382
 20
246.5613046143615
 30
0.0
 11
160.1732341034522
 21
244.3726693191853
 31
0.0
  0
LINE
  5
5FD6
102
{ACAD_REACTORS
330
5FE5
102
}
330
A
100
AcDbEntity
  8
MODEL
100
AcDbLine
 10
155.9601111602382
 20
260.988767424832
 30
0.0
 11
160.1732341034522
 21
258.8001321296558
 31
0.0
  0
LINE
  5
5FD7
102
{ACAD_REACTORS
330
5FE5
102
}
330
A
100
AcDbEntity
  8
MODEL
100
AcDbLine
 10
155.9601111602382
 20
250.1521398027452
 30
0.0
 11
160.1732341034522
 21
247.9635045075693
 31
0.0
  0
LINE
  5
5FD8
102
{ACAD_REACTORS
330
5FE5
102
}
330
A
100
AcDbEntity
  8
MODEL
100
AcDbLine
 10
155.9601111602382
 20
239.0590239529166
 30
0.0
 11
160.1732341034522
 21
236.8703886577405
 31
0.0
  0
LINE
  5
5FD9
102
{ACAD_REACTORS
330
5FE5
102
}
330
A
100
AcDbEntity
  8
MODEL
100
AcDbLine
 10
155.9601111602382
 20
259.2574718875757
 30
0.0
 11
160.1732341034522
 21
257.0688365923994
 31
0.0
  0
LINE
  5
5FDA
102
{ACAD_REACTORS
330
5FE5
102
}
330
A
100
AcDbEntity
  8
MODEL
100
AcDbLine
 10
155.9601111602382
 20
240.9826856609794
 30
0.0
 11
160.1732341034522
 21
238.7940503658033
 31
0.0
  0
LINE
  5
5FDB
102
{ACAD_REACTORS
330
5FE5
102
}
330
A
100
AcDbEntity
  8
MODEL
100
AcDbLine
 10
155.9601111602382
 20
244.6376429062985
 30
0.0
 11
160.1732341034522
 21
242.4490076111223
 31
0.0
  0
LINE
  5
5FDC
102
{ACAD_REACTORS
330
5FE5
102
}
330
A
100
AcDbEntity
  8
MODEL
100
AcDbLine
 10
155.9601111602382
 20
252.0758015108082
 30
0.0
 11
160.1732341034522
 21
249.887166215632
 31
0.0
  0
LINE
  5
5FDD
102
{ACAD_REACTORS
330
5FE5
102
}
330
A
100
AcDbEntity
  8
MODEL
100
AcDbLine
 10
155.9601111602382
 20
257.5261763503194
 30
0.0
 11
160.1732341034522
 21
255.337541055143
 31
0.0
  0
LINE
  5
5FDE
102
{ACAD_REACTORS
330
5FE5
102
}
330
A
100
AcDbEntity
  8
MODEL
100
AcDbLine
 10
155.9601111602382
 20
253.871219105
 30
0.0
 11
160.1732341034522
 21
251.6825838098239
 31
0.0
  0
LINE
  5
5FDF
102
{ACAD_REACTORS
330
5FE5
102
}
330
A
100
AcDbEntity
  8
MODEL
100
AcDbLine
 10
155.9601111602382
 20
242.9063473690421
 30
0.0
 11
160.1732341034522
 21
240.717712073866
 31
0.0
  0
LINE
  5
5FE0
102
{ACAD_REACTORS
330
5FE5
102
}
330
A
100
AcDbEntity
  8
MODEL
100
AcDbLine
 10
155.9601111602382
 20
237.3277284156603
 30
0.0
 11
160.1732341034522
 21
235.1390931204841
 31
0.0
  0
LINE
  5
5FE1
102
{ACAD_REACTORS
330
5FE5
102
}
330
A
100
AcDbEntity
  8
MODEL
100
AcDbLine
 10
155.9601111602382
 20
248.4208442654889
 30
0.0
 11
160.1732341034522
 21
246.2322089703127
 31
0.0
  0
LINE
  5
5FE2
102
{ACAD_REACTORS
330
5FE5
102
}
330
A
100
AcDbEntity
  8
MODEL
100
AcDbLine
 10
155.9601111602382
 20
233.5445270564701
 30
0.0
 11
159.5267348550976
 21
231.8829758114061
 31
0.0
  0
LINE
  5
5FE3
102
{ACAD_REACTORS
330
5FE5
102
}
330
A
100
AcDbEntity
  8
MODEL
100
AcDbLine
 10
159.5267348550976
 20
231.6992603489437
 30
0.0
 11
159.5267348550976
 21
262.8104395697262
 31
0.0
  0
LINE
  5
5FE4
102
{ACAD_REACTORS
330
5FE5
102
}
330
A
100
AcDbEntity
  8
MODEL
100
AcDbLine
 10
156.6066104085928
 20
231.6992603489439
 30
0.0
 11
156.6066104085928
 21
262.8104395697262
 31
0.0
  0
LINE
  5
5FE6
330
A
100
AcDbEntity
  8
MODEL
100
AcDbLine
 10
156.6066104085928
 20
231.6992603489439
 30
0.0
 11
159.5267348550976
 21
231.6992603489437
 31
0.0
  0
DIMENSION
  5
5FE7
330
A
100
AcDbEntity
  8
DIM
100
AcDbDimension
  2
*D32
 10
197.4285703707048
 20
384.2450624558281
 30
0.0
 11
191.9276325190104
 21
421.7576553607696
 31
0.0
 70
    32
 71
     5
 42
75.025185809883
 73
     0
 74
     0
 75
     0
  3
tfrom線あり
100
AcDbAlignedDimension
 13
158.0820069276938
 23
459.2702482657111
 33
0.0
 14
196.9285703707048
 24
384.2450624558281
 34
0.0
 50
90.0
100
AcDbRotatedDimension
  0
MTEXT
  5
5FF6
330
A
100
AcDbEntity
  8
TEMPLATE
390
1D
100
AcDbMText
 10
243.4686349460102
 20
105.2287332404809
 30
0.0
 40
4.8865234375
 41
0.0
 46
33.44683993168732
 71
     1
 72
     1
  1
{APM74-0006-037 ブラッシュドステンレス\PAPM74-0006-081 PVDブラッシュドガンメタル\PAPM74-0006-082 PVDブラッシュドゴールド\PAPM74-0006-083 PVDブラッシュドコッパー\PAPM74-0006-086 PVDブラッシュドアブソルートブラック}
  7
ＭＳ ゴシック
 73
     1
 44
0.7828267384257843
1001
ACAD
1000
ACAD_MTEXT_DEFINED_HEIGHT_BEGIN
1070
    46
1040
33.44683993168732
1000
ACAD_MTEXT_DEFINED_HEIGHT_END
  0
VIEWPORT
  5
349
330
B
100
AcDbEntity
 67
     1
  8
0
100
AcDbViewport
 10
202.5
 20
128.5
 30
0.0
 40
486.0
 41
308.4
 68
     1
 69
     1
 12
202.5
 22
128.5
 13
0.0
 23
0.0
 14
0.5
 24
0.5
 15
0.0
 25
0.0
 16
0.0
 26
0.0
 36
1.0
 17
0.0
 27
0.0
 37
0.0
 42
50.0
 43
0.0
 44
0.0
 45
308.4
 50
0.0
 51
0.0
 72
   100
 90
   557152
  1

281
     0
 71
     1
 74
     0
110
0.0
120
0.0
130
0.0
111
1.0
121
0.0
131
0.0
112
0.0
122
1.0
132
0.0
 79
     0
146
0.0
170
     0
 61
     5
348
26C
292
     1
282
     1
141
0.0
142
0.0
 63
   256
  0
VIEWPORT
  5
34A
330
B
100
AcDbEntity
 67
     1
  8
0
100
AcDbViewport
 10
202.5
 20
128.5
 30
0.0
 40
324.0
 41
205.6
 68
     2
 69
     2
 12
986.6781359294573
 22
1427.077061889956
 13
0.0
 23
0.0
 14
0.5
 24
0.5
 15
0.0
 25
0.0
 16
0.0
 26
0.0
 36
1.0
 17
0.0
 27
0.0
 37
0.0
 42
50.0
 43
0.0
 44
0.0
 45
2890.021615685494
 50
0.0
 51
0.0
 72
   100
 90
   557152
  1

281
     0
 71
     1
 74
     0
110
0.0
120
0.0
130
0.0
111
1.0
121
0.0
131
0.0
112
0.0
122
1.0
132
0.0
 79
     0
146
0.0
170
     0
 61
     5
348
26C
292
     1
282
     1
141
0.0
142
0.0
 63
   256
  0
ENDSEC
  0
SECTION
  2
OBJECTS
  0
DICTIONARY
  5
19
330
0
100
AcDbDictionary
281
     1
  3
ACAD_COLOR
350
674
  3
ACAD_DETAILVIEWSTYLE
350
BBF
  3
ACAD_FIELDLIST
350
3BE4
  3
ACAD_GROUP
350
1A
  3
ACAD_IMAGE_VARS
350
27B
  3
ACAD_LAYOUT
350
1E
  3
ACAD_MATERIAL
350
263
  3
ACAD_MLEADERSTYLE
350
336
  3
ACAD_MLINESTYLE
350
1B
  3
ACAD_PLOTSETTINGS
350
22
  3
ACAD_PLOTSTYLENAME
350
1F
  3
ACAD_SCALELIST
350
241
  3
ACAD_SECTIONVIEWSTYLE
350
BC0
  3
ACAD_TABLESTYLE
350
278
  3
ACAD_VISUALSTYLE
350
267
  3
ACDB_RECOMPOSE_DATA
350
6015
  3
AcDbVariableDictionary
350
330
  3
APPDATA
350
27A
  3
DimOffsetDictionary
350
E38
  0
SUN
  5
904
330
15
100
AcDbSun
 90
        1
290
     0
 63
     7
421
 16777215
 40
1.0
291
     1
 91
  2455826
 92
 54000000
292
     0
 70
     2
 71
   256
280
     1
  0
DICTIONARY
  5
2E1
330
2
100
AcDbDictionary
280
     1
281
     1
  3
ACAD_LAYERSTATES
360
2E2
  3
ACLYDICTIONARY
360
54FC
  0
DICTIONARY
  5
3D3D
330
A
100
AcDbDictionary
280
     1
281
     1
  3
ACAD_SORTENTS
360
3D3E
  0
DICTIONARY
  5
3CB7
330
3CB5
100
AcDbDictionary
280
     1
281
     1
  3
ACAD_FIELD
360
5FFC
  0
DICTIONARY
  5
5F3D
330
5F3C
100
AcDbDictionary
280
     1
281
     1
  3
ACAD_DIMASSOC
360
5F3E
  0
DICTIONARY
  5
5F4C
330
5F4B
100
AcDbDictionary
280
     1
281
     1
  3
ACAD_DIMASSOC
360
5F4D
  0
DICTIONARY
  5
5F5B
330
5F5A
100
AcDbDictionary
280
     1
281
     1
  3
ACAD_DIMASSOC
360
5F5C
  0
DICTIONARY
  5
5F6A
330
5F69
100
AcDbDictionary
280
     1
281
     1
  3
ACAD_DIMASSOC
360
5F6B
  0
DICTIONARY
  5
5F7B
330
5F7A
100
AcDbDictionary
280
     1
281
     1
  3
ACAD_DIMASSOC
360
5F7C
  0
DICTIONARY
  5
5FA2
330
5FA1
100
AcDbDictionary
280
     1
281
     1
  3
ACAD_DIMASSOC
360
5FA3
  0
DICTIONARY
  5
5FC1
330
5FC0
100
AcDbDictionary
280
     1
281
     1
  3
ACAD_DIMASSOC
360
5FC2
  0
DICTIONARY
  5
674
102
{ACAD_REACTORS
330
19
102
}
330
19
100
AcDbDictionary
281
     1
  0
DICTIONARY
  5
BBF
102
{ACAD_REACTORS
330
19
102
}
330
19
100
AcDbDictionary
281
     1
  0
FIELDLIST
  5
3BE4
102
{ACAD_REACTORS
330
19
102
}
330
19
100
AcDbIdSet
 90
        2
330
3CB9
330
3CB6
100
AcDbFieldList
  0
DICTIONARY
  5
1A
102
{ACAD_REACTORS
330
19
102
}
330
19
100
AcDbDictionary
281
     1
  3
*A1
350
3C75
  3
*A2
350
5F9E
  3
*A3
350
5FE5
  0
RASTERVARIABLES
  5
27B
102
{ACAD_REACTORS
330
19
102
}
330
19
100
AcDbRasterVariables
 90
        0
 70
     1
 71
     1
 72
     1
  0
DICTIONARY
  5
1E
102
{ACAD_REACTORS
330
19
102
}
330
19
100
AcDbDictionary
281
     1
  3
Layout1
350
21
  3
Model
350
20
  0
DICTIONARY
  5
263
102
{ACAD_REACTORS
330
19
102
}
330
19
100
AcDbDictionary
281
     1
  3
ByBlock
350
265
  3
ByLayer
350
264
  3
Global
350
266
  0
DICTIONARY
  5
336
102
{ACAD_REACTORS
330
19
102
}
330
19
100
AcDbDictionary
281
     1
  3
Standard
350
D59
  0
DICTIONARY
  5
1B
102
{ACAD_REACTORS
330
19
102
}
330
19
100
AcDbDictionary
281
     1
  3
Standard
350
1C
  0
DICTIONARY
  5
22
102
{ACAD_REACTORS
330
19
102
}
330
19
100
AcDbDictionary
281
     1
  0
ACDBDICTIONARYWDFLT
  5
1F
102
{ACAD_REACTORS
330
19
102
}
330
19
100
AcDbDictionary
281
     1
  3
Normal
350
1D
100
AcDbDictionaryWithDefault
340
1D
  0
DICTIONARY
  5
241
102
{ACAD_REACTORS
330
19
102
}
330
19
100
AcDbDictionary
281
     1
  3
A0
350
242
  3
A1
350
243
  3
A2
350
244
  3
A3
350
245
  3
A4
350
246
  3
A5
350
247
  3
A6
350
248
  3
A7
350
249
  3
A8
350
24A
  3
A9
350
24B
  3
B0
350
24C
  3
B1
350
24D
  3
B2
350
24E
  3
B3
350
24F
  3
B4
350
250
  3
B5
350
251
  3
B6
350
252
  3
B7
350
253
  3
B8
350
254
  3
B9
350
255
  3
C0
350
256
  3
C1
350
257
  3
C2
350
258
  3
C3
350
259
  3
C4
350
25A
  3
C5
350
25B
  3
C6
350
25C
  3
C7
350
25D
  3
C8
350
25E
  3
C9
350
25F
  3
D0
350
260
  3
D1
350
261
  3
D2
350
262
  0
DICTIONARY
  5
BC0
102
{ACAD_REACTORS
330
19
102
}
330
19
100
AcDbDictionary
281
     1
  0
DICTIONARY
  5
278
102
{ACAD_REACTORS
330
19
102
}
330
19
100
AcDbDictionary
281
     1
  3
Standard
350
279
  0
DICTIONARY
  5
267
102
{ACAD_REACTORS
330
19
102
}
330
19
100
AcDbDictionary
281
     1
  3
2dWireframe
350
26C
  3
3D Hidden
350
26E
  3
3dWireframe
350
26D
  3
Basic
350
26F
  3
Brighten
350
273
  3
ColorChange
350
277
  3
Conceptual
350
271
  3
Dim
350
272
  3
EdgeColorOff
350
8FE
  3
Facepattern
350
276
  3
Flat
350
268
  3
FlatWithEdges
350
269
  3
Gouraud
350
26A
  3
GouraudWithEdges
350
26B
  3
Hidden
350
8FB
  3
JitterOff
350
8FC
  3
Linepattern
350
275
  3
OverhangOff
350
8FD
  3
Realistic
350
270
  3
Shaded
350
903
  3
Shaded with edges
350
902
  3
Shades of Gray
350
8FF
  3
Sketchy
350
900
  3
Thicken
350
274
  3
Wireframe
350
8FA
  3
X-Ray
350
901
  0
XRECORD
  5
6015
102
{ACAD_REACTORS
330
19
102
}
330
19
100
AcDbXrecord
280
     1
 90
        1
330
279
  0
DICTIONARY
  5
330
102
{ACAD_REACTORS
330
19
102
}
330
19
100
AcDbDictionary
281
     1
  3
CANNOSCALE
350
331
  3
CMLEADERSTYLE
350
D5E
  3
CTABLESTYLE
350
335
  3
HPTRANSPARENCY
350
D52
  3
XCLIPFRAME
350
896
  0
DICTIONARY
  5
27A
102
{ACAD_REACTORS
330
19
102
}
330
19
100
AcDbDictionary
281
     1
  0
DICTIONARY
  5
E38
102
{ACAD_REACTORS
330
19
102
}
330
19
100
AcDbDictionary
281
     1
  3
DIMRAILANGLE
350
246C
  3
DIMRAILFIRSTOFFSET
350
246A
  3
DIMRAILOFFSET
350
246B
  3
DIMRAILSENABLED
350
246D
  0
DICTIONARY
  5
2E2
102
{ACAD_REACTORS
330
2E1
102
}
330
2E1
100
AcDbDictionary
281
     1
  0
DICTIONARY
  5
54FC
102
{ACAD_REACTORS
330
2E1
102
}
330
2E1
100
AcDbDictionary
281
     1
1001
ACAD
1000
<All
  0
SORTENTSTABLE
  5
3D3E
102
{ACAD_REACTORS
330
3D3D
102
}
330
3D3D
100
AcDbSortentsTable
330
A
331
3C64
  5
3C1F
331
3C65
  5
3C63
331
3C70
  5
3C64
331
3C71
  5
3C65
331
3C72
  5
3C70
331
3C73
  5
3C71
331
3C74
  5
3C72
331
3C9A
  5
3C74
331
3CB5
  5
3C92
  0
DICTIONARY
  5
5FFC
102
{ACAD_REACTORS
330
3CB7
102
}
330
3CB7
100
AcDbDictionary
280
     1
281
     1
  3
TEXT
360
3CB6
  0
DIMASSOC
  5
5F3E
102
{ACAD_REACTORS
330
5F3D
102
}
330
5F3D
100
AcDbDimAssoc
330
5F3C
 90
        2
 70
     0
 71
     1
  1
AcDbOsnapPointRef
 72
    13
331
5CD7
 73
     0
 91
        0
 40
0.0
 10
0.0
 20
0.0
 30
0.0
 75
     0
  0
DIMASSOC
  5
5F4D
102
{ACAD_REACTORS
330
5F4C
102
}
330
5F4C
100
AcDbDimAssoc
330
5F4B
 90
        2
 70
     0
 71
     1
  1
AcDbOsnapPointRef
 72
    13
331
5CD7
 73
     0
 91
        0
 40
0.0
 10
0.0
 20
0.0
 30
0.0
 75
     0
  0
DIMASSOC
  5
5F5C
102
{ACAD_REACTORS
330
5F5B
102
}
330
5F5B
100
AcDbDimAssoc
330
5F5A
 90
        1
 70
     0
 71
     1
  1
AcDbOsnapPointRef
 72
    10
331
5CAE
 73
     0
 91
        0
 40
0.996699571775257
 10
0.0
 20
0.0
 30
0.0
 75
     0
  0
DIMASSOC
  5
5F6B
102
{ACAD_REACTORS
330
5F6A
102
}
330
5F6A
100
AcDbDimAssoc
330
5F69
 90
        3
 70
     0
 71
     1
  1
AcDbOsnapPointRef
 72
    10
331
5D2D
 73
     0
 91
        0
 40
0.7757269769765788
 10
0.0
 20
0.0
 30
0.0
 75
     0
  1
AcDbOsnapPointRef
 72
     8
331
5D2E
 73
     0
 91
        0
 40
0.7757269769765788
 10
0.0
 20
0.0
 30
0.0
 75
     1
  1
AcDbOsnapPointRef
 72
    10
331
5D2D
 73
     0
 91
        0
 40
0.7757269769765788
 10
0.0
 20
0.0
 30
0.0
 75
     0
  0
DIMASSOC
  5
5F7C
102
{ACAD_REACTORS
330
5F7B
102
}
330
5F7B
100
AcDbDimAssoc
330
5F7A
 90
        3
 70
     0
 71
     1
  1
AcDbOsnapPointRef
 72
    13
331
5EBC
 73
     0
 91
        0
 40
0.0
 10
0.0
 20
0.0
 30
0.0
 75
     0
  1
AcDbOsnapPointRef
 72
     1
331
5E9F
 73
     0
 91
        0
 40
0.0
 10
0.0
 20
0.0
 30
0.0
 75
     0
  0
DIMASSOC
  5
5FA3
102
{ACAD_REACTORS
330
5FA2
102
}
330
5FA2
100
AcDbDimAssoc
330
5FA1
 90
        3
 70
     0
 71
     1
  1
AcDbOsnapPointRef
 72
    13
331
5F8A
 73
     0
 91
        0
 40
0.0
 10
0.0
 20
0.0
 30
0.0
 75
     0
  1
AcDbOsnapPointRef
 72
     1
331
5F9F
 73
     0
 91
        0
 40
0.0
 10
0.0
 20
0.0
 30
0.0
 75
     0
  0
DIMASSOC
  5
5FC2
102
{ACAD_REACTORS
330
5FC1
102
}
330
5FC1
100
AcDbDimAssoc
330
5FC0
 90
        3
 70
     0
 71
     1
  1
AcDbOsnapPointRef
 72
    13
331
5DE1
 73
     0
 91
        0
 40
0.0
 10
0.0
 20
0.0
 30
0.0
 75
     0
  1
AcDbOsnapPointRef
 72
     1
331
5DE1
 73
     0
 91
        0
 40
0.0
 10
0.0
 20
0.0
 30
0.0
 75
     0
  0
GROUP
  5
3C75
102
{ACAD_REACTORS
330
1A
102
}
330
1A
100
AcDbGroup
300

 70
     1
 71
     1
340
3C64
340
3C65
340
3C70
340
3C71
340
3C72
340
3C73
340
3C74
  0
GROUP
  5
5F9E
102
{ACAD_REACTORS
330
1A
102
}
330
1A
100
AcDbGroup
300

 70
     1
 71
     1
340
5F89
340
5F8A
340
5F8B
340
5F8C
340
5F8D
340
5F8E
340
5F8F
340
5F90
340
5F91
340
5F92
340
5F93
340
5F94
340
5F95
340
5F96
340
5F97
340
5F98
340
5F99
340
5F9A
340
5F9B
340
5F9C
340
5F9D
  0
GROUP
  5
5FE5
102
{ACAD_REACTORS
330
1A
102
}
330
1A
100
AcDbGroup
300

 70
     1
 71
     1
340
5FD0
340
5FD1
340
5FD2
340
5FD3
340
5FD4
340
5FD5
340
5FD6
340
5FD7
340
5FD8
340
5FD9
340
5FDA
340
5FDB
340
5FDC
340
5FDD
340
5FDE
340
5FDF
340
5FE0
340
5FE1
340
5FE2
340
5FE3
340
5FE4
  0
LAYOUT
  5
21
102
{ACAD_REACTORS
330
1E
102
}
330
1E
100
AcDbPlotSettings
  1

  2
none_device
  4
ISO_A3_(420.00_x_297.00_MM)
  6

 40
7.5
 41
20.0
 42
7.5
 43
20.0
 44
420.0
 45
297.0
 46
0.0
 47
0.0
 48
0.0
 49
0.0
140
0.0
141
0.0
142
1.0
143
1.0
 70
     0
 72
     1
 73
     0
 74
     0
  7

 75
     0
 76
     0
 77
     2
 78
   300
147
1.0
148
0.0
149
0.0
100
AcDbLayout
  1
Layout1
 70
     0
 71
     0
 10
-7.5
 20
-20.0
 11
412.5
 21
277.0
 12
0.0
 22
0.0
 32
0.0
 14
0.0
 24
0.0
 34
0.0
 15
0.0
 25
0.0
 35
0.0
146
0.0
 13
0.0
 23
0.0
 33
0.0
 16
0.0
 26
0.0
 36
0.0
 17
0.0
 27
0.0
 37
0.0
 76
     0
330
B
331
349
  0
LAYOUT
  5
20
102
{ACAD_REACTORS
330
1E
102
}
330
1E
100
AcDbPlotSettings
  1

  2
Microsoft Print to PDF
  4
A4
  6

 40
0.0
 41
0.0
 42
0.0
 43
0.0
 44
210.0
 45
297.0
 46
0.0
 47
0.0
 48
0.0
 49
0.0
140
0.0
141
0.0
142
1.0
143
2.0
 70
  1712
 72
     1
 73
     0
 74
     2
  7
monochrome.ctb
 75
     0
 76
     0
 77
     2
 78
   300
147
0.5
148
-301.0201356708998
149
-223.401285469834
100
AcDbLayout
  1
Model
 70
     0
 71
     1
 10
0.0
 20
0.0
 11
420.0
 21
594.0
 12
0.0
 22
0.0
 32
0.0
 14
0.0
 24
0.0
 34
-0.0000000000000071
 15
420.0
 25
594.0
 35
0.0000000000000071
146
0.0
 13
0.0
 23
0.0
 33
0.0
 16
0.0
 26
0.0
 36
0.0
 17
0.0
 27
0.0
 37
0.0
 76
     0
330
A
331
15
1001
PLOTTRANSPARENCY
1071
        0
  0
MATERIAL
  5
265
102
{ACAD_REACTORS
330
263
102
}
330
263
100
AcDbMaterial
  1
ByBlock
 72
     1
 94
      127
  0
MATERIAL
  5
264
102
{ACAD_REACTORS
330
263
102
}
330
263
100
AcDbMaterial
  1
ByLayer
 72
     1
 94
      127
  0
MATERIAL
  5
266
102
{ACAD_REACTORS
330
263
102
}
330
263
100
AcDbMaterial
  1
Global
 72
     1
 94
      127
  0
MLEADERSTYLE
  5
D59
102
{ACAD_REACTORS
330
336
102
}
330
336
100
AcDbMLeaderStyle
170
     2
171
     1
172
     0
 90
        2
 40
0.0
 41
0.0
173
     1
 91
-1056964608
340
11
 92
       -2
290
     1
 42
2.0
291
     1
 43
8.0
  3
Standard
341
0
 44
4.0
300

342
17
174
     1
178
     6
175
     1
176
     0
 93
-1056964608
 45
4.0
292
     0
297
     0
 46
4.0
343
0
 94
-1056964608
 47
1.0
 49
1.0
140
1.0
293
     1
141
0.0
294
     1
177
     0
142
1.0
295
     0
296
     0
143
3.75
1001
ACAD_MLEADERVER
1070
     2
  0
MLINESTYLE
  5
1C
102
{ACAD_REACTORS
330
1B
102
}
330
1B
100
AcDbMlineStyle
  2
Standard
 70
     0
  3

 62
     0
 51
90.0
 52
90.0
 71
     2
 49
0.5
 62
   256
  6
BYLAYER
 49
-0.5
 62
   256
  6
BYLAYER
  0
ACDBPLACEHOLDER
  5
1D
102
{ACAD_REACTORS
330
1F
102
}
330
1F
  0
SCALE
  5
242
102
{ACAD_REACTORS
330
241
102
}
330
241
100
AcDbScale
 70
     0
300
1:1
140
1.0
141
1.0
290
     1
  0
SCALE
  5
243
102
{ACAD_REACTORS
330
241
102
}
330
241
100
AcDbScale
 70
     0
300
1:2
140
1.0
141
2.0
290
     0
  0
SCALE
  5
244
102
{ACAD_REACTORS
330
241
102
}
330
241
100
AcDbScale
 70
     0
300
1:4
140
1.0
141
4.0
290
     0
  0
SCALE
  5
245
102
{ACAD_REACTORS
330
241
102
}
330
241
100
AcDbScale
 70
     0
300
1:5
140
1.0
141
5.0
290
     0
  0
SCALE
  5
246
102
{ACAD_REACTORS
330
241
102
}
330
241
100
AcDbScale
 70
     0
300
1:8
140
1.0
141
8.0
290
     0
  0
SCALE
  5
247
102
{ACAD_REACTORS
330
241
102
}
330
241
100
AcDbScale
 70
     0
300
1:10
140
1.0
141
10.0
290
     0
  0
SCALE
  5
248
102
{ACAD_REACTORS
330
241
102
}
330
241
100
AcDbScale
 70
     0
300
1:16
140
1.0
141
16.0
290
     0
  0
SCALE
  5
249
102
{ACAD_REACTORS
330
241
102
}
330
241
100
AcDbScale
 70
     0
300
1:20
140
1.0
141
20.0
290
     0
  0
SCALE
  5
24A
102
{ACAD_REACTORS
330
241
102
}
330
241
100
AcDbScale
 70
     0
300
1:30
140
1.0
141
30.0
290
     0
  0
SCALE
  5
24B
102
{ACAD_REACTORS
330
241
102
}
330
241
100
AcDbScale
 70
     0
300
1:40
140
1.0
141
40.0
290
     0
  0
SCALE
  5
24C
102
{ACAD_REACTORS
330
241
102
}
330
241
100
AcDbScale
 70
     0
300
1:50
140
1.0
141
50.0
290
     0
  0
SCALE
  5
24D
102
{ACAD_REACTORS
330
241
102
}
330
241
100
AcDbScale
 70
     0
300
1:100
140
1.0
141
100.0
290
     0
  0
SCALE
  5
24E
102
{ACAD_REACTORS
330
241
102
}
330
241
100
AcDbScale
 70
     0
300
2:1
140
2.0
141
1.0
290
     0
  0
SCALE
  5
24F
102
{ACAD_REACTORS
330
241
102
}
330
241
100
AcDbScale
 70
     0
300
4:1
140
4.0
141
1.0
290
     0
  0
SCALE
  5
250
102
{ACAD_REACTORS
330
241
102
}
330
241
100
AcDbScale
 70
     0
300
8:1
140
8.0
141
1.0
290
     0
  0
SCALE
  5
251
102
{ACAD_REACTORS
330
241
102
}
330
241
100
AcDbScale
 70
     0
300
10:1
140
10.0
141
1.0
290
     0
  0
SCALE
  5
252
102
{ACAD_REACTORS
330
241
102
}
330
241
100
AcDbScale
 70
     0
300
100:1
140
100.0
141
1.0
290
     0
  0
SCALE
  5
253
102
{ACAD_REACTORS
330
241
102
}
330
241
100
AcDbScale
 70
     0
300
1/128" = 1'-0"
140
0.0078125
141
12.0
290
     0
  0
SCALE
  5
254
102
{ACAD_REACTORS
330
241
102
}
330
241
100
AcDbScale
 70
     0
300
1/64" = 1'-0"
140
0.015625
141
12.0
290
     0
  0
SCALE
  5
255
102
{ACAD_REACTORS
330
241
102
}
330
241
100
AcDbScale
 70
     0
300
1/32" = 1'-0"
140
0.03125
141
12.0
290
     0
  0
SCALE
  5
256
102
{ACAD_REACTORS
330
241
102
}
330
241
100
AcDbScale
 70
     0
300
1/16" = 1'-0"
140
0.0625
141
12.0
290
     0
  0
SCALE
  5
257
102
{ACAD_REACTORS
330
241
102
}
330
241
100
AcDbScale
 70
     0
300
3/32" = 1'-0"
140
0.09375
141
12.0
290
     0
  0
SCALE
  5
258
102
{ACAD_REACTORS
330
241
102
}
330
241
100
AcDbScale
 70
     0
300
1/8" = 1'-0"
140
0.125
141
12.0
290
     0
  0
SCALE
  5
259
102
{ACAD_REACTORS
330
241
102
}
330
241
100
AcDbScale
 70
     0
300
3/16" = 1'-0"
140
0.1875
141
12.0
290
     0
  0
SCALE
  5
25A
102
{ACAD_REACTORS
330
241
102
}
330
241
100
AcDbScale
 70
     0
300
1/4" = 1'-0"
140
0.25
141
12.0
290
     0
  0
SCALE
  5
25B
102
{ACAD_REACTORS
330
241
102
}
330
241
100
AcDbScale
 70
     0
300
3/8" = 1'-0"
140
0.375
141
12.0
290
     0
  0
SCALE
  5
25C
102
{ACAD_REACTORS
330
241
102
}
330
241
100
AcDbScale
 70
     0
300
1/2" = 1'-0"
140
0.5
141
12.0
290
     0
  0
SCALE
  5
25D
102
{ACAD_REACTORS
330
241
102
}
330
241
100
AcDbScale
 70
     0
300
3/4" = 1'-0"
140
0.75
141
12.0
290
     0
  0
SCALE
  5
25E
102
{ACAD_REACTORS
330
241
102
}
330
241
100
AcDbScale
 70
     0
300
1" = 1'-0"
140
1.0
141
12.0
290
     0
  0
SCALE
  5
25F
102
{ACAD_REACTORS
330
241
102
}
330
241
100
AcDbScale
 70
     0
300
1-1/2" = 1'-0"
140
1.5
141
12.0
290
     0
  0
SCALE
  5
260
102
{ACAD_REACTORS
330
241
102
}
330
241
100
AcDbScale
 70
     0
300
3" = 1'-0"
140
3.0
141
12.0
290
     0
  0
SCALE
  5
261
102
{ACAD_REACTORS
330
241
102
}
330
241
100
AcDbScale
 70
     0
300
6" = 1'-0"
140
6.0
141
12.0
290
     0
  0
SCALE
  5
262
102
{ACAD_REACTORS
330
241
102
}
330
241
100
AcDbScale
 70
     0
300
1'-0" = 1'-0"
140
12.0
141
12.0
290
     0
  0
TABLESTYLE
  5
279
102
{ACAD_REACTORS
330
278
102
}
102
{ACAD_XDICTIONARY
360
6013
102
}
330
278
100
AcDbTableStyle
  3
Standard
 70
     0
 71
     0
 40
0.06
 41
0.06
280
     0
281
     0
  7
Standard
140
4.5
170
     2
 62
     0
 63
   257
283
     0
 90
        4
 91
        0
  1

274
    -2
284
     1
 64
     0
275
    -2
285
     1
 65
     0
276
    -2
286
     1
 66
     0
277
    -2
287
     1
 67
     0
278
    -2
288
     1
 68
     0
279
    -2
289
     1
 69
     0
  7
Standard
140
6.0
170
     5
 62
     0
 63
   257
283
     0
 90
        4
 91
        0
  1

274
    -2
284
     1
 64
     0
275
    -2
285
     1
 65
     0
276
    -2
286
     1
 66
     0
277
    -2
287
     1
 67
     0
278
    -2
288
     1
 68
     0
279
    -2
289
     1
 69
     0
  7
Standard
140
4.5
170
     5
 62
     0
 63
   257
283
     0
 90
        4
 91
        0
  1

274
    -2
284
     1
 64
     0
275
    -2
285
     1
 65
     0
276
    -2
286
     1
 66
     0
277
    -2
287
     1
 67
     0
278
    -2
288
     1
 68
     0
279
    -2
289
     1
 69
     0
  0
VISUALSTYLE
  5
26C
102
{ACAD_REACTORS
330
267
102
}
330
267
100
AcDbVisualStyle
  2
2dWireframe
 70
     4
 71
     0
 72
     2
 73
     0
 90
        0
 40
-0.6
 41
-30.0
 62
     5
 63
     7
421
 16777215
 74
     1
 91
        4
 64
     7
 65
   257
 75
     1
175
     1
 42
1.0
 92
        0
 66
   257
 43
1.0
 76
     1
 77
     6
 78
     2
 67
     7
 79
     5
170
     0
171
     0
290
     0
174
     0
 93
        1
 44
0.0
173
     0
291
     0
 45
0.0
  0
VISUALSTYLE
  5
26E
102
{ACAD_REACTORS
330
267
102
}
330
267
100
AcDbVisualStyle
  2
3D Hidden
 70
     6
 71
     1
 72
     2
 73
     2
 90
        0
 40
-0.6
 41
-30.0
 62
     5
 63
     7
421
 16777215
 74
     2
 91
        2
 64
     7
 65
   257
 75
     2
175
     1
 42
40.0
 92
        0
 66
   257
 43
1.0
 76
     1
 77
     6
 78
     2
 67
     7
 79
     3
170
     0
171
     0
290
     0
174
     0
 93
        1
 44
0.0
173
     0
291
     0
 45
0.0
  0
VISUALSTYLE
  5
26D
102
{ACAD_REACTORS
330
267
102
}
330
267
100
AcDbVisualStyle
  2
3dWireframe
 70
     5
 71
     0
 72
     2
 73
     0
 90
        0
 40
-0.6
 41
-30.0
 62
     5
 63
     7
421
 16777215
 74
     1
 91
        4
 64
     7
 65
   257
 75
     1
175
     1
 42
1.0
 92
        0
 66
   257
 43
1.0
 76
     1
 77
     6
 78
     2
 67
     7
 79
     5
170
     0
171
     0
290
     0
174
     0
 93
        1
 44
0.0
173
     0
291
     0
 45
0.0
  0
VISUALSTYLE
  5
26F
102
{ACAD_REACTORS
330
267
102
}
330
267
100
AcDbVisualStyle
  2
Basic
 70
     7
 71
     1
 72
     0
 73
     1
 90
        0
 40
-0.6
 41
-30.0
 62
     5
 63
     7
421
 16777215
 74
     0
 91
        4
 64
     7
 65
   257
 75
     1
175
     1
 42
1.0
 92
        8
 66
     7
 43
1.0
 76
     1
 77
     6
 78
     2
 67
     7
 79
     5
170
     0
171
     0
290
     0
174
     0
 93
        1
 44
0.0
173
     0
291
     1
 45
0.0
  0
VISUALSTYLE
  5
273
102
{ACAD_REACTORS
330
267
102
}
330
267
100
AcDbVisualStyle
  2
Brighten
 70
    12
 71
     2
 72
     2
 73
     0
 90
        0
 40
-0.6
 41
-30.0
 62
     5
 63
     7
421
 16777215
 74
     1
 91
        4
 64
     7
 65
   257
 75
     1
175
     1
 42
1.0
 92
        8
 66
     7
 43
1.0
 76
     1
 77
     6
 78
     2
 67
     7
 79
     5
170
     0
171
     0
290
     0
174
     0
 93
        1
 44
50.0
173
     0
291
     1
 45
0.0
  0
VISUALSTYLE
  5
277
102
{ACAD_REACTORS
330
267
102
}
330
267
100
AcDbVisualStyle
  2
ColorChange
 70
    16
 71
     2
 72
     2
 73
     3
 90
        0
 40
-0.6
 41
-30.0
 62
     5
 63
     8
421
  8421504
 74
     1
 91
        4
 64
     7
 65
   257
 75
     1
175
     1
 42
1.0
 92
        8
 66
     8
424
  8421504
 43
1.0
 76
     1
 77
     6
 78
     2
 67
     7
 79
     5
170
     0
171
     0
290
     0
174
     0
 93
        1
 44
0.0
173
     0
291
     1
 45
0.0
  0
VISUALSTYLE
  5
271
102
{ACAD_REACTORS
330
267
102
}
330
267
100
AcDbVisualStyle
  2
Conceptual
 70
     9
 71
     3
 72
     2
 73
     0
 90
        0
 40
-0.6
 41
-30.0
 62
     5
 63
     7
421
 16777215
 74
     2
 91
        2
 64
     7
 65
   257
 75
     1
175
     1
 42
40.0
 92
        8
 66
     7
 43
1.0
 76
     1
 77
     6
 78
     2
 67
     7
 79
     3
170
     0
171
     0
290
     0
174
     0
 93
        1
 44
0.0
173
     0
291
     0
 45
0.0
  0
VISUALSTYLE
  5
272
102
{ACAD_REACTORS
330
267
102
}
330
267
100
AcDbVisualStyle
  2
Dim
 70
    11
 71
     2
 72
     2
 73
     0
 90
        0
 40
-0.6
 41
-30.0
 62
     5
 63
     7
421
 16777215
 74
     1
 91
        4
 64
     7
 65
   257
 75
     1
175
     1
 42
1.0
 92
        8
 66
     7
 43
1.0
 76
     1
 77
     6
 78
     2
 67
     7
 79
     5
170
     0
171
     0
290
     0
174
     0
 93
        1
 44
-50.0
173
     0
291
     1
 45
0.0
  0
VISUALSTYLE
  5
8FE
102
{ACAD_REACTORS
330
267
102
}
330
267
100
AcDbVisualStyle
  2
EdgeColorOff
 70
    22
 71
     2
 72
     2
 73
     0
 90
        0
 40
0.6
 41
30.0
 62
     5
 63
     7
421
 16777215
 74
     1
 91
        4
 64
     7
 65
   257
 75
     1
175
     1
 42
1.0
 92
        8
 66
     7
 43
1.0
 76
     1
 77
     6
 78
     2
 67
     7
 79
     5
170
     0
171
     0
290
     0
174
     0
 93
        1
 44
0.0
173
     0
291
     1
 45
0.0
  0
VISUALSTYLE
  5
276
102
{ACAD_REACTORS
330
267
102
}
330
267
100
AcDbVisualStyle
  2
Facepattern
 70
    15
 71
     2
 72
     2
 73
     0
 90
        0
 40
-0.6
 41
-30.0
 62
     5
 63
     7
421
 16777215
 74
     1
 91
        4
 64
     7
 65
   257
 75
     1
175
     1
 42
1.0
 92
        8
 66
     7
 43
1.0
 76
     1
 77
     6
 78
     2
 67
     7
 79
     5
170
     0
171
     0
290
     0
174
     0
 93
        1
 44
0.0
173
     0
291
     1
 45
0.0
  0
VISUALSTYLE
  5
268
102
{ACAD_REACTORS
330
267
102
}
330
267
100
AcDbVisualStyle
  2
Flat
 70
     0
 71
     2
 72
     1
 73
     1
 90
        2
 40
-0.6
 41
30.0
 62
     5
 63
     7
421
 16777215
 74
     0
 91
        4
 64
     7
 65
   257
 75
     1
175
     1
 42
1.0
 92
        8
 66
     7
 43
1.0
 76
     1
 77
     6
 78
     2
 67
     7
 79
     5
170
     0
171
     0
290
     0
174
     0
 93
       13
 44
0.0
173
     0
291
     1
 45
0.0
  0
VISUALSTYLE
  5
269
102
{ACAD_REACTORS
330
267
102
}
330
267
100
AcDbVisualStyle
  2
FlatWithEdges
 70
     1
 71
     2
 72
     1
 73
     1
 90
        2
 40
-0.6
 41
30.0
 62
     5
 63
     7
421
 16777215
 74
     1
 91
        4
 64
     7
 65
   257
 75
     1
175
     1
 42
1.0
 92
        0
 66
   257
 43
1.0
 76
     1
 77
     6
 78
     2
 67
     7
 79
     5
170
     0
171
     0
290
     0
174
     0
 93
       13
 44
0.0
173
     0
291
     1
 45
0.0
  0
VISUALSTYLE
  5
26A
102
{ACAD_REACTORS
330
267
102
}
330
267
100
AcDbVisualStyle
  2
Gouraud
 70
     2
 71
     2
 72
     2
 73
     1
 90
        2
 40
-0.6
 41
30.0
 62
     5
 63
     7
421
 16777215
 74
     0
 91
        4
 64
     7
 65
   257
 75
     1
175
     1
 42
1.0
 92
        0
 66
     7
 43
1.0
 76
     1
 77
     6
 78
     2
 67
     7
 79
     5
170
     0
171
     0
290
     0
174
     0
 93
       13
 44
0.0
173
     0
291
     1
 45
0.0
  0
VISUALSTYLE
  5
26B
102
{ACAD_REACTORS
330
267
102
}
330
267
100
AcDbVisualStyle
  2
GouraudWithEdges
 70
     3
 71
     2
 72
     2
 73
     1
 90
        2
 40
-0.6
 41
30.0
 62
     5
 63
     7
421
 16777215
 74
     1
 91
        4
 64
     7
 65
   257
 75
     1
175
     1
 42
1.0
 92
        0
 66
   257
 43
1.0
 76
     1
 77
     6
 78
     2
 67
     7
 79
     5
170
     0
171
     0
290
     0
174
     0
 93
       13
 44
0.0
173
     0
291
     1
 45
0.0
  0
VISUALSTYLE
  5
8FB
102
{ACAD_REACTORS
330
267
102
}
330
267
100
AcDbVisualStyle
  2
Hidden
 70
     6
 71
     1
 72
     2
 73
     2
 90
        0
 40
0.6
 41
30.0
 62
     5
 63
     7
421
 16777215
 74
     2
 91
        2
 64
     7
 65
   257
 75
     2
175
     1
 42
40.0
 92
        0
 66
   257
 43
1.0
 76
     1
 77
     6
 78
     2
 67
     7
 79
     3
170
     0
171
     0
290
     0
174
     0
 93
        1
 44
0.0
173
     0
291
     0
 45
0.0
  0
VISUALSTYLE
  5
8FC
102
{ACAD_REACTORS
330
267
102
}
330
267
100
AcDbVisualStyle
  2
JitterOff
 70
    20
 71
     2
 72
     2
 73
     0
 90
        0
 40
0.6
 41
30.0
 62
     5
 63
     7
421
 16777215
 74
     1
 91
        4
 64
     7
 65
   257
 75
     1
175
     1
 42
1.0
 92
       10
 66
     7
 43
1.0
 76
     1
 77
     6
 78
     2
 67
     7
 79
     5
170
     0
171
     0
290
     0
174
     0
 93
        1
 44
0.0
173
     0
291
     1
 45
0.0
  0
VISUALSTYLE
  5
275
102
{ACAD_REACTORS
330
267
102
}
330
267
100
AcDbVisualStyle
  2
Linepattern
 70
    14
 71
     2
 72
     2
 73
     0
 90
        0
 40
-0.6
 41
-30.0
 62
     5
 63
     7
421
 16777215
 74
     1
 91
        4
 64
     7
 65
   257
 75
     7
175
     7
 42
1.0
 92
        8
 66
     7
 43
1.0
 76
     1
 77
     6
 78
     2
 67
     7
 79
     5
170
     0
171
     0
290
     0
174
     0
 93
        1
 44
0.0
173
     0
291
     1
 45
0.0
  0
VISUALSTYLE
  5
8FD
102
{ACAD_REACTORS
330
267
102
}
330
267
100
AcDbVisualStyle
  2
OverhangOff
 70
    21
 71
     2
 72
     2
 73
     0
 90
        0
 40
0.6
 41
30.0
 62
     5
 63
     7
421
 16777215
 74
     1
 91
        4
 64
     7
 65
   257
 75
     1
175
     1
 42
1.0
 92
        9
 66
     7
 43
1.0
 76
     1
 77
     6
 78
     2
 67
     7
 79
     5
170
     0
171
     0
290
     0
174
     0
 93
        1
 44
0.0
173
     0
291
     1
 45
0.0
  0
VISUALSTYLE
  5
270
102
{ACAD_REACTORS
330
267
102
}
330
267
100
AcDbVisualStyle
  2
Realistic
 70
     8
 71
     2
 72
     2
 73
     0
 90
        0
 40
-0.6
 41
-30.0
 62
     5
 63
     7
421
 16777215
 74
     1
 91
        0
 64
     7
 65
   257
 75
     1
175
     1
 42
1.0
 92
        8
 66
     8
424
  7895160
 43
1.0
 76
     1
 77
     6
 78
     2
 67
     7
 79
     5
170
     0
171
     0
290
     0
174
     0
 93
       13
 44
0.0
173
     0
291
     0
 45
0.0
  0
VISUALSTYLE
  5
903
102
{ACAD_REACTORS
330
267
102
}
330
267
100
AcDbVisualStyle
  2
Shaded
 70
    27
 71
     2
 72
     2
 73
     1
 90
        2
 40
0.6
 41
30.0
 62
     5
 63
     7
421
 16777215
 74
     0
 91
        4
 64
     7
 65
   257
 75
     1
175
     1
 42
1.0
 92
        8
 66
   257
 43
1.0
 76
     1
 77
     6
 78
     2
 67
     8
425
  7895160
 79
     3
170
     0
171
     0
290
     0
174
     0
 93
        5
 44
0.0
173
     0
291
     0
 45
0.0
  0
VISUALSTYLE
  5
902
102
{ACAD_REACTORS
330
267
102
}
330
267
100
AcDbVisualStyle
  2
Shaded with edges
 70
    26
 71
     2
 72
     2
 73
     1
 90
        2
 40
0.6
 41
30.0
 62
     5
 63
     7
421
 16777215
 74
     1
 91
       10
 64
     7
 65
   257
 75
     2
175
     1
 42
1.0
 92
        8
 66
   257
 43
1.0
 76
     1
 77
     6
 78
     2
 67
     7
 79
     3
170
     0
171
     0
290
     0
174
     0
 93
        5
 44
0.0
173
     0
291
     0
 45
0.0
  0
VISUALSTYLE
  5
8FF
102
{ACAD_REACTORS
330
267
102
}
330
267
100
AcDbVisualStyle
  2
Shades of Gray
 70
    23
 71
     2
 72
     2
 73
     3
 90
        0
 40
0.6
 41
30.0
 62
     5
 63
     7
421
 16777215
 74
     2
 91
        2
 64
     7
 65
     7
 75
     1
175
     1
 42
40.0
 92
        8
 66
     7
 43
1.0
 76
     1
 77
     6
 78
     2
 67
     7
 79
     3
170
     0
171
     0
290
     0
174
     0
 93
        1
 44
0.0
173
     0
291
     0
 45
0.0
  0
VISUALSTYLE
  5
900
102
{ACAD_REACTORS
330
267
102
}
330
267
100
AcDbVisualStyle
  2
Sketchy
 70
    24
 71
     1
 72
     2
 73
     2
 90
        0
 40
0.6
 41
30.0
 62
     5
 63
     7
421
 16777215
 74
     2
 91
        2
 64
     7
 65
     7
 75
     1
175
     1
 42
40.0
 92
       11
 66
     7
 43
1.0
 76
     1
 77
     6
 78
     2
 67
     7
 79
     6
170
     0
171
     0
290
     0
174
     0
 93
        1
 44
0.0
173
     0
291
     0
 45
0.0
  0
VISUALSTYLE
  5
274
102
{ACAD_REACTORS
330
267
102
}
330
267
100
AcDbVisualStyle
  2
Thicken
 70
    13
 71
     2
 72
     2
 73
     0
 90
        0
 40
-0.6
 41
-30.0
 62
     5
 63
     7
421
 16777215
 74
     1
 91
        4
 64
     7
 65
   257
 75
     1
175
     1
 42
1.0
 92
       12
 66
     7
 43
1.0
 76
     1
 77
     6
 78
     2
 67
     7
 79
     5
170
     0
171
     0
290
     0
174
     0
 93
        1
 44
0.0
173
     0
291
     1
 45
0.0
  0
VISUALSTYLE
  5
8FA
102
{ACAD_REACTORS
330
267
102
}
330
267
100
AcDbVisualStyle
  2
Wireframe
 70
     5
 71
     0
 72
     2
 73
     0
 90
        0
 40
0.6
 41
30.0
 62
     5
 63
     7
421
 16777215
 74
     1
 91
        4
 64
     7
 65
   257
 75
     1
175
     1
 42
1.0
 92
        0
 66
   257
 43
1.0
 76
     1
 77
     6
 78
     2
 67
     7
 79
     3
170
     0
171
     0
290
     0
174
     0
 93
        1
 44
0.0
173
     0
291
     0
 45
0.0
  0
VISUALSTYLE
  5
901
102
{ACAD_REACTORS
330
267
102
}
330
267
100
AcDbVisualStyle
  2
X-Ray
 70
    25
 71
     2
 72
     2
 73
     1
 90
        1
 40
0.5
 41
30.0
 62
     5
 63
     7
421
 16777215
 74
     1
 91
        0
 64
     7
 65
   257
 75
     1
175
     1
 42
1.0
 92
        8
 66
     7
 43
1.0
 76
     1
 77
     6
 78
     2
 67
     7
 79
     3
170
     0
171
     0
290
     0
174
     0
 93
       13
 44
0.0
173
     0
291
     0
 45
0.0
  0
DICTIONARYVAR
  5
331
102
{ACAD_REACTORS
330
330
102
}
330
330
100
DictionaryVariables
280
     0
  1
1:1
  0
DICTIONARYVAR
  5
D5E
102
{ACAD_REACTORS
330
330
102
}
330
330
100
DictionaryVariables
280
     0
  1
Standard
  0
DICTIONARYVAR
  5
335
102
{ACAD_REACTORS
330
330
102
}
330
330
100
DictionaryVariables
280
     0
  1
Standard
  0
DICTIONARYVAR
  5
D52
102
{ACAD_REACTORS
330
330
102
}
330
330
100
DictionaryVariables
280
     0
  1
ByLayer
  0
DICTIONARYVAR
  5
896
102
{ACAD_REACTORS
330
330
102
}
330
330
100
DictionaryVariables
280
     0
  1
0
  0
DICTIONARYVAR
  5
246C
102
{ACAD_REACTORS
330
E38
102
}
330
E38
100
DictionaryVariables
280
     0
  1
0.261799
  0
DICTIONARYVAR
  5
246A
102
{ACAD_REACTORS
330
E38
102
}
330
E38
100
DictionaryVariables
280
     0
  1
0.400000
  0
DICTIONARYVAR
  5
246B
102
{ACAD_REACTORS
330
E38
102
}
330
E38
100
DictionaryVariables
280
     0
  1
0.250000
  0
DICTIONARYVAR
  5
246D
102
{ACAD_REACTORS
330
E38
102
}
330
E38
100
DictionaryVariables
280
     0
  1
1
  0
FIELD
  5
3CB6
102
{ACAD_REACTORS
330
5FFC
102
}
330
5FFC
100
AcDbField
  1
_text
  2
{%<\_FldIdx 0>%M}
 90
        1
360
3CB9
 97
        0
 91
       63
 92
        0
 94
       11
 95
        2
 96
        0
300

 93
        1
  6
ACFD_FIELDTEXT_CHECKSUM
 93
        2
 90
        2
140
4494.0
 94
        0
300

302

304
ACVALUE_END
  7
ACFD_FIELD_VALUE
 93
        6
 90
        4
  1
{20251017M}
 94
        0
300

302

304
ACVALUE_END
301
{20251017M}
 98
       11
  0
DICTIONARY
  5
6013
330
279
100
AcDbDictionary
280
     1
281
     1
  3
ACAD_ROUNDTRIP_2008_TABLESTYLE_CELLSTYLEMAP
360
6014
  0
FIELD
  5
3CB9
330
3CB6
100
AcDbField
  1
AcVar
  2
\AcVar CreateDate \f "yyyyMMdd"
 90
        0
 97
        0
 91
       63
 92
        0
 94
       11
 95
        2
 96
        0
300

 93
        1
  6
Variable
 93
        2
 90
        4
  1
CreateDate
 94
        0
300

302

304
ACVALUE_END
  7
ACFD_FIELD_VALUE
 93
        6
 90
        8
 92
       16
310
E9070A00000011000000190023000000
 94
        0
300
yyyyMMdd
302

304
ACVALUE_END
301
20251017
 98
        8
  0
CELLSTYLEMAP
  5
6014
102
{ACAD_REACTORS
330
6013
102
}
330
6013
100
AcDbCellStyleMap
 90
        3
300
CELLSTYLE
  1
TABLEFORMAT_BEGIN
 90
        5
170
     1
 91
        0
 92
    32768
 62
   257
 93
        1
300
CONTENTFORMAT
  1
CONTENTFORMAT_BEGIN
 90
        0
 91
        0
 92
        4
 93
        0
300

 40
0.0
140
1.0
 94
        5
 62
     0
340
17
144
6.0
309
CONTENTFORMAT_END
171
     1
301
MARGIN
  1
CELLMARGIN_BEGIN
 40
0.06
 40
0.06
 40
0.06
 40
0.06
 40
0.18
 40
0.18
309
CELLMARGIN_END
 94
        6
 95
        1
302
GRIDFORMAT
  1
GRIDFORMAT_BEGIN
 90
        0
 91
        1
 62
     0
 92
       -2
340
0
 93
        0
 40
0.045
309
GRIDFORMAT_END
 95
        2
302
GRIDFORMAT
  1
GRIDFORMAT_BEGIN
 90
        0
 91
        1
 62
     0
 92
       -2
340
0
 93
        0
 40
0.045
309
GRIDFORMAT_END
 95
        4
302
GRIDFORMAT
  1
GRIDFORMAT_BEGIN
 90
        0
 91
        1
 62
     0
 92
       -2
340
0
 93
        0
 40
0.045
309
GRIDFORMAT_END
 95
        8
302
GRIDFORMAT
  1
GRIDFORMAT_BEGIN
 90
        0
 91
        1
 62
     0
 92
       -2
340
0
 93
        0
 40
0.045
309
GRIDFORMAT_END
 95
       16
302
GRIDFORMAT
  1
GRIDFORMAT_BEGIN
 90
        0
 91
        1
 62
     0
 92
       -2
340
0
 93
        0
 40
0.045
309
GRIDFORMAT_END
 95
       32
302
GRIDFORMAT
  1
GRIDFORMAT_BEGIN
 90
        0
 91
        1
 62
     0
 92
       -2
340
0
 93
        0
 40
0.045
309
GRIDFORMAT_END
309
TABLEFORMAT_END
  1
CELLSTYLE_BEGIN
 90
        1
 91
        1
300
_TITLE
309
CELLSTYLE_END
300
CELLSTYLE
  1
TABLEFORMAT_BEGIN
 90
        5
170
     1
 91
        0
 92
        0
 62
   257
 93
        1
300
CONTENTFORMAT
  1
CONTENTFORMAT_BEGIN
 90
        0
 91
        0
 92
        4
 93
        0
300

 40
0.0
140
1.0
 94
        5
 62
     0
340
17
144
4.5
309
CONTENTFORMAT_END
171
     1
301
MARGIN
  1
CELLMARGIN_BEGIN
 40
0.06
 40
0.06
 40
0.06
 40
0.06
 40
0.18
 40
0.18
309
CELLMARGIN_END
 94
        6
 95
        1
302
GRIDFORMAT
  1
GRIDFORMAT_BEGIN
 90
        0
 91
        1
 62
     0
 92
       -2
340
0
 93
        0
 40
0.045
309
GRIDFORMAT_END
 95
        2
302
GRIDFORMAT
  1
GRIDFORMAT_BEGIN
 90
        0
 91
        1
 62
     0
 92
       -2
340
0
 93
        0
 40
0.045
309
GRIDFORMAT_END
 95
        4
302
GRIDFORMAT
  1
GRIDFORMAT_BEGIN
 90
        0
 91
        1
 62
     0
 92
       -2
340
0
 93
        0
 40
0.045
309
GRIDFORMAT_END
 95
        8
302
GRIDFORMAT
  1
GRIDFORMAT_BEGIN
 90
        0
 91
        1
 62
     0
 92
       -2
340
0
 93
        0
 40
0.045
309
GRIDFORMAT_END
 95
       16
302
GRIDFORMAT
  1
GRIDFORMAT_BEGIN
 90
        0
 91
        1
 62
     0
 92
       -2
340
0
 93
        0
 40
0.045
309
GRIDFORMAT_END
 95
       32
302
GRIDFORMAT
  1
GRIDFORMAT_BEGIN
 90
        0
 91
        1
 62
     0
 92
       -2
340
0
 93
        0
 40
0.045
309
GRIDFORMAT_END
309
TABLEFORMAT_END
  1
CELLSTYLE_BEGIN
 90
        2
 91
        1
300
_HEADER
309
CELLSTYLE_END
300
CELLSTYLE
  1
TABLEFORMAT_BEGIN
 90
        5
170
     1
 91
        0
 92
        0
 62
   257
 93
        1
300
CONTENTFORMAT
  1
CONTENTFORMAT_BEGIN
 90
        0
 91
        0
 92
        4
 93
        0
300

 40
0.0
140
1.0
 94
        2
 62
     0
340
17
144
4.5
309
CONTENTFORMAT_END
171
     1
301
MARGIN
  1
CELLMARGIN_BEGIN
 40
0.06
 40
0.06
 40
0.06
 40
0.06
 40
0.18
 40
0.18
309
CELLMARGIN_END
 94
        6
 95
        1
302
GRIDFORMAT
  1
GRIDFORMAT_BEGIN
 90
        0
 91
        1
 62
     0
 92
       -2
340
0
 93
        0
 40
0.045
309
GRIDFORMAT_END
 95
        2
302
GRIDFORMAT
  1
GRIDFORMAT_BEGIN
 90
        0
 91
        1
 62
     0
 92
       -2
340
0
 93
        0
 40
0.045
309
GRIDFORMAT_END
 95
        4
302
GRIDFORMAT
  1
GRIDFORMAT_BEGIN
 90
        0
 91
        1
 62
     0
 92
       -2
340
0
 93
        0
 40
0.045
309
GRIDFORMAT_END
 95
        8
302
GRIDFORMAT
  1
GRIDFORMAT_BEGIN
 90
        0
 91
        1
 62
     0
 92
       -2
340
0
 93
        0
 40
0.045
309
GRIDFORMAT_END
 95
       16
302
GRIDFORMAT
  1
GRIDFORMAT_BEGIN
 90
        0
 91
        1
 62
     0
 92
       -2
340
0
 93
        0
 40
0.045
309
GRIDFORMAT_END
 95
       32
302
GRIDFORMAT
  1
GRIDFORMAT_BEGIN
 90
        0
 91
        1
 62
     0
 92
       -2
340
0
 93
        0
 40
0.045
309
GRIDFORMAT_END
309
TABLEFORMAT_END
  1
CELLSTYLE_BEGIN
 90
        3
 91
        2
300
_DATA
309
CELLSTYLE_END
  0
ENDSEC
  0
EOF
