  0
SECTION
  2
HEADER
  9
$ACADVER
  1
AC1021
  9
$ACADMAINTVER
 70
    25
  9
$DWGCODEPAGE
  3
ANSI_932
  9
$LASTSAVEDBY
  1
tform
  9
$INSBASE
 10
0.0
 20
0.0
 30
0.0
  9
$EXTMIN
 10
0.0
 20
0.0
 30
-0.0000000000000071
  9
$EXTMAX
 10
420.0
 20
594.0
 30
0.0000000000000071
  9
$LIMMIN
 10
0.0
 20
0.0
  9
$LIMMAX
 10
420.0
 20
594.0
  9
$ORTHOMODE
 70
     1
  9
$REGENMODE
 70
     1
  9
$FILLMODE
 70
     1
  9
$QTEXTMODE
 70
     0
  9
$MIRRTEXT
 70
     1
  9
$LTSCALE
 40
1.0
  9
$ATTMODE
 70
     1
  9
$TEXTSIZE
 40
2.5
  9
$TRACEWID
 40
1.0
  9
$TEXTSTYLE
  7
ＭＳ ゴシック
  9
$CLAYER
  8
DIM
  9
$CELTYPE
  6
ByLayer
  9
$CECOLOR
 62
   256
  9
$CELTSCALE
 40
1.0
  9
$DISPSILH
 70
     0
  9
$DIMSCALE
 40
1.0
  9
$DIMASZ
 40
2.0
  9
$DIMEXO
 40
5.0
  9
$DIMDLI
 40
0.9999999999999999
  9
$DIMRND
 40
0.0
  9
$DIMDLE
 40
0.0
  9
$DIMEXE
 40
0.0
  9
$DIMTP
 40
0.0
  9
$DIMTM
 40
0.0
  9
$DIMTXT
 40
5.0
  9
$DIMCEN
 40
0.0
  9
$DIMTSZ
 40
0.0
  9
$DIMTOL
 70
     0
  9
$DIMLIM
 70
     0
  9
$DIMTIH
 70
     0
  9
$DIMTOH
 70
     0
  9
$DIMSE1
 70
     0
  9
$DIMSE2
 70
     0
  9
$DIMTAD
 70
     1
  9
$DIMZIN
 70
    11
  9
$DIMBLK
  1
DOT
  9
$DIMASO
 70
     1
  9
$DIMSHO
 70
     1
  9
$DIMPOST
  1
<>
  9
$DIMAPOST
  1
[]
  9
$DIMALT
 70
     0
  9
$DIMALTD
 70
     1
  9
$DIMALTF
 40
1.0
  9
$DIMLFAC
 40
1.0
  9
$DIMTOFL
 70
     0
  9
$DIMTVP
 40
0.0
  9
$DIMTIX
 70
     1
  9
$DIMSOXD
 70
     0
  9
$DIMSAH
 70
     0
  9
$DIMBLK1
  1

  9
$DIMBLK2
  1

  9
$DIMSTYLE
  2
tfrom線あり
  9
$DIMCLRD
 70
     0
  9
$DIMCLRE
 70
     0
  9
$DIMCLRT
 70
     0
  9
$DIMTFAC
 40
1.0
  9
$DIMGAP
 40
3.0
  9
$DIMJUST
 70
     0
  9
$DIMSD1
 70
     0
  9
$DIMSD2
 70
     0
  9
$DIMTOLJ
 70
     1
  9
$DIMTZIN
 70
    11
  9
$DIMALTZ
 70
    11
  9
$DIMALTTZ
 70
    11
  9
$DIMUPT
 70
     0
  9
$DIMDEC
 70
     0
  9
$DIMTDEC
 70
     1
  9
$DIMALTU
 70
     2
  9
$DIMALTTD
 70
     2
  9
$DIMTXSTY
  7
ＭＳ ゴシック
  9
$DIMAUNIT
 70
     0
  9
$DIMADEC
 70
     2
  9
$DIMALTRND
 40
0.0
  9
$DIMAZIN
 70
     0
  9
$DIMDSEP
 70
    46
  9
$DIMATFIT
 70
     0
  9
$DIMFRAC
 70
     2
  9
$DIMLDRBLK
  1
DOT
  9
$DIMLUNIT
 70
     2
  9
$DIMLWD
 70
    -2
  9
$DIMLWE
 70
    -2
  9
$DIMTMOVE
 70
     0
  9
$DIMFXL
 40
1.0
  9
$DIMFXLON
 70
     0
  9
$DIMJOGANG
 40
0.7853981633974483
  9
$DIMTFILL
 70
     0
  9
$DIMTFILLCLR
 70
     0
  9
$DIMARCSYM
 70
     0
  9
$DIMLTYPE
  6

  9
$DIMLTEX1
  6

  9
$DIMLTEX2
  6

  9
$LUNITS
 70
     2
  9
$LUPREC
 70
     0
  9
$SKETCHINC
 40
0.1
  9
$FILLETRAD
 40
0.0
  9
$AUNITS
 70
     0
  9
$AUPREC
 70
     0
  9
$MENU
  1
acad
  9
$ELEVATION
 40
0.0
  9
$PELEVATION
 40
0.0
  9
$THICKNESS
 40
0.0
  9
$LIMCHECK
 70
     0
  9
$CHAMFERA
 40
0.0
  9
$CHAMFERB
 40
0.0
  9
$CHAMFERC
 40
0.0
  9
$CHAMFERD
 40
0.0
  9
$SKPOLY
 70
     0
  9
$TDCREATE
 40
2447893.375
  9
$TDUCREATE
 40
0.0
  9
$TDUPDATE
 40
2460803.646178137
  9
$TDUUPDATE
 40
2460803.271178137
  9
$TDINDWG
 40
0.0082966435
  9
$TDUSRTIMER
 40
0.0021035069
  9
$USRTIMER
 70
     1
  9
$ANGBASE
 50
0.0
  9
$ANGDIR
 70
     0
  9
$PDMODE
 70
     1
  9
$PDSIZE
 40
-2.0
  9
$PLINEWID
 40
0.0
  9
$SPLFRAME
 70
     0
  9
$SPLINETYPE
 70
     6
  9
$SPLINESEGS
 70
     8
  9
$HANDSEED
  5
5830
  9
$SURFTAB1
 70
     6
  9
$SURFTAB2
 70
     6
  9
$SURFTYPE
 70
     6
  9
$SURFU
 70
     6
  9
$SURFV
 70
     6
  9
$UCSBASE
  2

  9
$UCSNAME
  2

  9
$UCSORG
 10
0.0
 20
0.0
 30
0.0
  9
$UCSXDIR
 10
1.0
 20
0.0
 30
0.0
  9
$UCSYDIR
 10
0.0
 20
1.0
 30
0.0
  9
$UCSORTHOREF
  2

  9
$UCSORTHOVIEW
 70
     0
  9
$UCSORGTOP
 10
0.0
 20
0.0
 30
0.0
  9
$UCSORGBOTTOM
 10
0.0
 20
0.0
 30
0.0
  9
$UCSORGLEFT
 10
0.0
 20
0.0
 30
0.0
  9
$UCSORGRIGHT
 10
0.0
 20
0.0
 30
0.0
  9
$UCSORGFRONT
 10
0.0
 20
0.0
 30
0.0
  9
$UCSORGBACK
 10
0.0
 20
0.0
 30
0.0
  9
$PUCSBASE
  2

  9
$PUCSNAME
  2

  9
$PUCSORG
 10
0.0
 20
0.0
 30
0.0
  9
$PUCSXDIR
 10
1.0
 20
0.0
 30
0.0
  9
$PUCSYDIR
 10
0.0
 20
1.0
 30
0.0
  9
$PUCSORTHOREF
  2

  9
$PUCSORTHOVIEW
 70
     0
  9
$PUCSORGTOP
 10
0.0
 20
0.0
 30
0.0
  9
$PUCSORGBOTTOM
 10
0.0
 20
0.0
 30
0.0
  9
$PUCSORGLEFT
 10
0.0
 20
0.0
 30
0.0
  9
$PUCSORGRIGHT
 10
0.0
 20
0.0
 30
0.0
  9
$PUCSORGFRONT
 10
0.0
 20
0.0
 30
0.0
  9
$PUCSORGBACK
 10
0.0
 20
0.0
 30
0.0
  9
$USERI1
 70
     0
  9
$USERI2
 70
     0
  9
$USERI3
 70
     0
  9
$USERI4
 70
     0
  9
$USERI5
 70
     0
  9
$USERR1
 40
0.0
  9
$USERR2
 40
0.0
  9
$USERR3
 40
0.0
  9
$USERR4
 40
0.0
  9
$USERR5
 40
0.0
  9
$WORLDVIEW
 70
     1
  9
$SHADEDGE
 70
     3
  9
$SHADEDIF
 70
    70
  9
$TILEMODE
 70
     1
  9
$MAXACTVP
 70
    64
  9
$PINSBASE
 10
0.0
 20
0.0
 30
0.0
  9
$PLIMCHECK
 70
     0
  9
$PEXTMIN
 10
0.0
 20
0.0
 30
0.0
  9
$PEXTMAX
 10
0.0
 20
0.0
 30
0.0
  9
$PLIMMIN
 10
-7.5
 20
-20.0
  9
$PLIMMAX
 10
412.5
 20
277.0
  9
$UNITMODE
 70
     0
  9
$VISRETAIN
 70
     0
  9
$PLINEGEN
 70
     1
  9
$PSLTSCALE
 70
     0
  9
$TREEDEPTH
 70
  3020
  9
$CMLSTYLE
  2
Standard
  9
$CMLJUST
 70
     0
  9
$CMLSCALE
 40
1.0
  9
$PROXYGRAPHICS
 70
     0
  9
$MEASUREMENT
 70
     1
  9
$CELWEIGHT
370
    -1
  9
$ENDCAPS
280
     0
  9
$JOINSTYLE
280
     0
  9
$LWDISPLAY
290
     1
  9
$INSUNITS
 70
     4
  9
$HYPERLINKBASE
  1

  9
$STYLESHEET
  1

  9
$XEDIT
290
     1
  9
$CEPSNTYPE
380
     0
  9
$PSTYLEMODE
290
     1
  9
$FINGERPRINTGUID
  2

  9
$VERSIONGUID
  2

  9
$EXTNAMES
290
     1
  9
$PSVPSCALE
 40
0.0
  9
$OLESTARTUP
290
     0
  9
$SORTENTS
280
   127
  9
$INDEXCTL
280
     0
  9
$HIDETEXT
280
     1
  9
$XCLIPFRAME
290
     0
  9
$HALOGAP
280
     0
  9
$OBSCOLOR
 70
   257
  9
$OBSLTYPE
280
     0
  9
$INTERSECTIONDISPLAY
280
     0
  9
$INTERSECTIONCOLOR
 70
   257
  9
$DIMASSOC
280
     2
  9
$PROJECTNAME
  1

  9
$CAMERADISPLAY
290
     0
  9
$LENSLENGTH
 40
50.0
  9
$CAMERAHEIGHT
 40
0.0
  9
$STEPSPERSEC
 40
2.0
  9
$STEPSIZE
 40
6.0
  9
$3DDWFPREC
 40
2.0
  9
$PSOLWIDTH
 40
0.25
  9
$PSOLHEIGHT
 40
4.0
  9
$LOFTANG1
 40
1.570796326794897
  9
$LOFTANG2
 40
1.570796326794897
  9
$LOFTMAG1
 40
0.0
  9
$LOFTMAG2
 40
0.0
  9
$LOFTPARAM
 70
     7
  9
$LOFTNORMALS
280
     1
  9
$LATITUDE
 40
37.795
  9
$LONGITUDE
 40
-122.394
  9
$NORTHDIRECTION
 40
0.0
  9
$TIMEZONE
 70
 -8000
  9
$LIGHTGLYPHDISPLAY
280
     1
  9
$TILEMODELIGHTSYNCH
280
     1
  9
$SOLIDHIST
280
     1
  9
$SHOWHIST
280
     1
  9
$DWFFRAME
280
     2
  9
$DGNFRAME
280
     2
  9
$REALWORLDSCALE
290
     1
  9
$INTERFERECOLOR
 62
   256
  9
$CSHADOW
280
     0
  9
$SHADOWPLANELOCATION
 40
0.0
  0
ENDSEC
  0
SECTION
  2
CLASSES
  0
CLASS
  1
LWPOLYLINE
  2
AcDbPolyline
  3
ObjectDBX Classes
 90
        0
 91
        1
280
     0
281
     1
  0
CLASS
  1
IMAGE
  2
AcDbRasterImage
  3
ISM
 90
      127
 91
        4
280
     0
281
     1
  0
CLASS
  1
OLE2FRAME
  2
AcDbOle2Frame
  3
ObjectDBX Classes
 90
        0
 91
        1
280
     0
281
     1
  0
CLASS
  1
HATCH
  2
AcDbHatch
  3
ObjectDBX Classes
 90
        0
 91
        1
280
     0
281
     1
  0
CLASS
  1
DICTIONARYVAR
  2
AcDbDictionaryVar
  3
ObjectDBX Classes
 90
        0
 91
        3
280
     0
281
     0
  0
CLASS
  1
RASTERVARIABLES
  2
AcDbRasterVariables
  3
ISM
 90
        0
 91
        3
280
     0
281
     0
  0
CLASS
  1
IMAGEDEF
  2
AcDbRasterImageDef
  3
ISM
 90
        0
 91
        3
280
     0
281
     0
  0
CLASS
  1
IMAGEDEF_REACTOR
  2
AcDbRasterImageDefReactor
  3
ISM
 90
        1
 91
        3
280
     0
281
     0
  0
CLASS
  1
IDBUFFER
  2
AcDbIdBuffer
  3
ObjectDBX Classes
 90
        0
 91
        3
280
     0
281
     0
  0
CLASS
  1
SPATIAL_FILTER
  2
AcDbSpatialFilter
  3
ObjectDBX Classes
 90
        0
 91
        3
280
     0
281
     0
  0
CLASS
  1
XRECORD
  2
AcDbXrecord
  3
ObjectDBX Classes
 90
        0
 91
        1
280
     0
281
     0
  0
CLASS
  1
SORTENTSTABLE
  2
AcDbSortentsTable
  3
ObjectDBX Classes
 90
        0
 91
        3
280
     0
281
     0
  0
CLASS
  1
LAYER_INDEX
  2
AcDbLayerIndex
  3
ObjectDBX Classes
 90
        0
 91
        3
280
     0
281
     0
  0
CLASS
  1
SPATIAL_INDEX
  2
AcDbSpatialIndex
  3
AutoCAD 2000
 90
        0
 91
        3
280
     0
281
     0
  0
CLASS
  1
OBJECT_PTR
  2
CAseDLPNTableRecord
  3
ASE-LPNTableRecord
 90
        1
 91
        3
280
     0
281
     0
  0
CLASS
  1
LAYOUT
  2
AcDbLayout
  3
ObjectDBX Classes
 90
        0
 91
        1
280
     0
281
     0
  0
CLASS
  1
PLOTSETTINGS
  2
AcDbPlotSettings
  3
ObjectDBX Classes
 90
        0
 91
        3
280
     0
281
     0
  0
CLASS
  1
ACDBDICTIONARYWDFLT
  2
AcDbDictionaryWithDefault
  3
ObjectDBX Classes
 90
        0
 91
        3
280
     0
281
     0
  0
CLASS
  1
ACDBPLACEHOLDER
  2
AcDbPlaceHolder
  3
ObjectDBX Classes
 90
        0
 91
        1
280
     0
281
     0
  0
CLASS
  1
SCALE
  2
AcDbScale
  3
ObjectDBX Classes
 90
     1153
 91
        3
280
     0
281
     0
  0
CLASS
  1
MATERIAL
  2
AcDbMaterial
  3
ObjectDBX Classes
 90
     1153
 91
        3
280
     0
281
     0
  0
CLASS
  1
VISUALSTYLE
  2
AcDbVisualStyle
  3
ObjectDBX Classes
 90
     4095
 91
        3
280
     0
281
     0
  0
CLASS
  1
TABLESTYLE
  2
AcDbTableStyle
  3
ObjectDBX Classes
 90
     4095
 91
        3
280
     0
281
     0
  0
CLASS
  1
DIMASSOC
  2
AcDbDimAssoc
  3
"AcDbDimAssoc|Product Desc:     AcDim ARX App For Dimension|Company:          Autodesk, Inc.|WEB Address:      www.autodesk.com"
 90
        0
 91
        3
280
     0
281
     0
  0
CLASS
  1
CELLSTYLEMAP
  2
AcDbCellStyleMap
  3
ObjectDBX Classes
 90
     1152
 91
        3
280
     0
281
     0
  0
CLASS
  1
SUN
  2
AcDbSun
  3
SCENEOE
 90
     1153
 91
        3
280
     0
281
     0
  0
CLASS
  1
MLEADERSTYLE
  2
AcDbMLeaderStyle
  3
ACDB_MLEADERSTYLE_CLASS
 90
     4095
 91
        3
280
     0
281
     0
  0
CLASS
  1
FIELD
  2
AcDbField
  3
ObjectDBX Classes
 90
     1152
 91
        3
280
     0
281
     0
  0
CLASS
  1
FIELDLIST
  2
AcDbFieldList
  3
ObjectDBX Classes
 90
     1152
 91
        3
280
     0
281
     0
  0
ENDSEC
  0
SECTION
  2
TABLES
  0
TABLE
  2
VPORT
  5
7
330
0
100
AcDbSymbolTable
 70
     1
  0
VPORT
  5
15
330
7
100
AcDbSymbolTableRecord
100
AcDbViewportTableRecord
  2
*ACTIVE
 70
     0
 10
0.0
 20
0.0
 11
1.0
 21
1.0
 12
301.0201356709009
 22
223.401285469834
 13
0.0
 23
0.0
 14
1.0
 24
1.0
 15
0.0
 25
0.0
 16
0.0
 26
0.0
 36
1.0
 17
-91.02013567090094
 27
73.59871453016603
 37
-46.86809886248109
 40
605.88
 41
2.052208835341366
 42
50.0
 43
0.0
 44
0.0
 50
0.0
 51
0.0
 71
    16
 72
  2000
 73
     1
 74
     1
 75
     0
 76
     0
 77
     0
 78
     0
281
     0
 65
     1
110
0.0
120
0.0
130
0.0
111
1.0
121
0.0
131
0.0
112
0.0
122
1.0
132
0.0
 79
     0
146
0.0
348
26C
 60
     3
 61
     5
292
     1
282
     1
141
0.0
142
0.0
 63
   256
361
904
  0
ENDTAB
  0
TABLE
  2
LTYPE
  5
4
330
0
100
AcDbSymbolTable
 70
     7
  0
LTYPE
  5
11
330
4
100
AcDbSymbolTableRecord
100
AcDbLinetypeTableRecord
  2
ByBlock
 70
     0
  3

 72
    65
 73
     0
 40
0.0
  0
LTYPE
  5
12
330
4
100
AcDbSymbolTableRecord
100
AcDbLinetypeTableRecord
  2
ByLayer
 70
     0
  3

 72
    65
 73
     0
 40
0.0
  0
LTYPE
  5
13
330
4
100
AcDbSymbolTableRecord
100
AcDbLinetypeTableRecord
  2
Continuous
 70
     0
  3
Solid line
 72
    65
 73
     0
 40
0.0
  0
LTYPE
  5
D6C
330
4
100
AcDbSymbolTableRecord
100
AcDbLinetypeTableRecord
  2
BORDER
 70
     0
  3
Border __  __  . __  __  . __  __  . __  __  . 
 72
    65
 73
     6
 40
44.45
 49
12.7
 74
     0
 49
-6.35
 74
     0
 49
12.7
 74
     0
 49
-6.35
 74
     0
 49
0.0
 74
     0
 49
-6.35
 74
     0
  0
LTYPE
  5
D6D
330
4
100
AcDbSymbolTableRecord
100
AcDbLinetypeTableRecord
  2
HIDDEN
 70
     0
  3
Hidden _ _ _ _ _ _ _ _ _ _ _ _ _ _ _ _ _ _ _ _ 
 72
    65
 73
     2
 40
9.524999999999999
 49
6.35
 74
     0
 49
-3.175
 74
     0
  0
LTYPE
  5
3F93
330
4
100
AcDbSymbolTableRecord
100
AcDbLinetypeTableRecord
  2
AI-Linetype-1
 70
     0
  3
Adobe Illustrator Linetype No. 1
 72
    65
 73
     6
 40
6.099884707281719
 49
1.999898593528116
 74
     0
 49
-1.000125672984723
 74
     0
 49
0.0998361742560407
 74
     0
 49
-1.000125672984723
 74
     0
 49
1.999898593528116
 74
     0
 49
0.0
 74
     0
  0
LTYPE
  5
3F94
330
4
100
AcDbSymbolTableRecord
100
AcDbLinetypeTableRecord
  2
AI-Linetype-2
 70
     0
  3
Adobe Illustrator Linetype No. 2
 72
    65
 73
     6
 40
6.099884707281719
 49
1.999898593528116
 74
     0
 49
-1.000125672984723
 74
     0
 49
0.0998361742560407
 74
     0
 49
-1.000125672984723
 74
     0
 49
1.999898593528116
 74
     0
 49
0.0
 74
     0
  0
LTYPE
  5
459F
330
4
100
AcDbSymbolTableRecord
100
AcDbLinetypeTableRecord
  2
DASHDOT
 70
     0
  3
 __ . __ . __ . __ . __ . __ . __ . 
 72
    65
 73
     4
 40
18.5
 49
12.0
 74
     0
 49
-3.0
 74
     0
 49
0.5
 74
     0
 49
-3.0
 74
     0
  0
LTYPE
  5
45A0
330
4
100
AcDbSymbolTableRecord
100
AcDbLinetypeTableRecord
  2
DASHED
 70
     0
  3
__ __ __ __ __ __ __ __ __ __ __ __ __ __ __ __
 72
    65
 73
     2
 40
15.0
 49
12.0
 74
     0
 49
-3.0
 74
     0
  0
ENDTAB
  0
TABLE
  2
LAYER
  5
2
102
{ACAD_XDICTIONARY
360
2E1
102
}
330
0
100
AcDbSymbolTable
 70
     9
  0
LAYER
  5
14
330
2
100
AcDbSymbolTableRecord
100
AcDbLayerTableRecord
  2
0
 70
     0
 62
     7
  6
Continuous
370
    -3
390
1D
347
266
  0
LAYER
  5
4B
330
2
100
AcDbSymbolTableRecord
100
AcDbLayerTableRecord
  2
TEMPLATE
 70
     0
 62
     7
  6
Continuous
370
    20
390
1D
347
266
  0
LAYER
  5
4C
330
2
100
AcDbSymbolTableRecord
100
AcDbLayerTableRecord
  2
DIM
 70
     0
 62
     3
  6
Continuous
370
    13
390
1D
347
266
  0
LAYER
  5
4D
330
2
100
AcDbSymbolTableRecord
100
AcDbLayerTableRecord
  2
MODEL
 70
     0
 62
     7
  6
Continuous
370
    20
390
1D
347
266
  0
LAYER
  5
88C
330
2
100
AcDbSymbolTableRecord
100
AcDbLayerTableRecord
  2
HIDDEN
 70
     0
 62
     8
  6
HIDDEN
370
    20
390
1D
347
266
1001
AcAecLayerStandard
1000

1000

  0
LAYER
  5
D6B
330
2
100
AcDbSymbolTableRecord
100
AcDbLayerTableRecord
  2
BORDER
 70
     0
 62
     4
  6
BORDER
290
     0
370
    20
390
1D
347
266
1001
AcAecLayerStandard
1000

1000

  0
LAYER
  5
D8C
330
2
100
AcDbSymbolTableRecord
100
AcDbLayerTableRecord
  2
Defpoints
 70
     0
 62
     7
  6
Continuous
290
     0
370
    -3
390
1D
347
266
  0
LAYER
  5
3653
330
2
100
AcDbSymbolTableRecord
100
AcDbLayerTableRecord
  2
Standard
 70
     0
 62
     7
  6
Continuous
370
    -3
390
1D
347
266
  0
LAYER
  5
3F91
330
2
100
AcDbSymbolTableRecord
100
AcDbLayerTableRecord
  2
レイヤー 1
 70
     0
 62
     7
  6
Continuous
370
    -3
390
1D
347
266
  0
ENDTAB
  0
TABLE
  2
STYLE
  5
3
330
0
100
AcDbSymbolTable
 70
     5
  0
STYLE
  5
17
330
3
100
AcDbSymbolTableRecord
100
AcDbTextStyleTableRecord
  2
Standard
 70
     0
 40
0.0
 41
1.0
 50
0.0
 71
     0
 42
2.5
  3
txt
  4
BIGFONT.SHX
  0
STYLE
  5
39
330
3
100
AcDbSymbolTableRecord
100
AcDbTextStyleTableRecord
  2
ＭＳ ゴシック
 70
     0
 40
0.0
 41
1.0
 50
0.0
 71
     0
 42
2.5
  3
msgothic.ttc
  4
ＭＳ ゴシック
1001
ACAD
1000
ＭＳ ゴシック
1071
        0
  0
STYLE
  5
3D5B
330
3
100
AcDbSymbolTableRecord
100
AcDbTextStyleTableRecord
  2
EXTFONT
 70
     0
 40
0.0
 41
0.75
 50
0.0
 71
     0
 42
2.5
  3
romans.shx
  4
extfont.shx
  0
STYLE
  5
3D6C
330
3
100
AcDbSymbolTableRecord
100
AcDbTextStyleTableRecord
  2
SLDTEXTSTYLE0
 70
     0
 40
0.0
 41
0.75
 50
0.0
 71
     0
 42
2.5
  3
TXT
  4

  0
STYLE
  5
57D5
330
3
100
AcDbSymbolTableRecord
100
AcDbTextStyleTableRecord
  2
DIMFONT3
 70
     0
 40
0.0
 41
0.7151515151515151
 50
0.0
 71
     0
 42
2.5
  3
HGRSMP.TTF
  4

1001
ACAD
1000
HGMaruGothicMPRO
1071
    32818
  0
ENDTAB
  0
TABLE
  2
VIEW
  5
5
330
0
100
AcDbSymbolTable
 70
     0
  0
ENDTAB
  0
TABLE
  2
UCS
  5
6
330
0
100
AcDbSymbolTable
 70
     0
  0
ENDTAB
  0
TABLE
  2
APPID
  5
8
330
0
100
AcDbSymbolTable
 70
    10
  0
APPID
  5
16
330
8
100
AcDbSymbolTableRecord
100
AcDbRegAppTableRecord
  2
ACAD
 70
     0
  0
APPID
  5
7AC
330
8
100
AcDbSymbolTableRecord
100
AcDbRegAppTableRecord
  2
AcAecLayerStandard
 70
     0
  0
APPID
  5
E29
330
8
100
AcDbSymbolTableRecord
100
AcDbRegAppTableRecord
  2
ACAD_MLEADERVER
 70
     0
  0
APPID
  5
3D69
330
8
100
AcDbSymbolTableRecord
100
AcDbRegAppTableRecord
  2
ACAD_DSTYLE_DIMJAG
 70
     0
  0
APPID
  5
3D6A
330
8
100
AcDbSymbolTableRecord
100
AcDbRegAppTableRecord
  2
ACAD_DSTYLE_DIMTALN
 70
     0
  0
APPID
  5
3D70
330
8
100
AcDbSymbolTableRecord
100
AcDbRegAppTableRecord
  2
PLOTTRANSPARENCY
 70
     0
  0
APPID
  5
56A5
330
8
100
AcDbSymbolTableRecord
100
AcDbRegAppTableRecord
  2
ACAD_NAV_VCDISPLAY
 70
     0
  0
APPID
  5
56A6
330
8
100
AcDbSymbolTableRecord
100
AcDbRegAppTableRecord
  2
ACAD_PSEXT
 70
     0
  0
APPID
  5
57CF
330
8
100
AcDbSymbolTableRecord
100
AcDbRegAppTableRecord
  2
AcadAnnotative
 70
     0
  0
APPID
  5
57D1
330
8
100
AcDbSymbolTableRecord
100
AcDbRegAppTableRecord
  2
ACAD_DSTYLE_DIMBREAK
 70
     0
  0
ENDTAB
  0
TABLE
  2
DIMSTYLE
  5
9
330
0
100
AcDbSymbolTable
 70
    12
100
AcDbDimStyleTable
  0
DIMSTYLE
105
18
330
9
100
AcDbSymbolTableRecord
100
AcDbDimStyleTableRecord
  2
Standard
 70
     0
178
     0
340
17
  0
DIMSTYLE
105
57
102
{ACAD_REACTORS
330
56F8
330
5707
330
5719
330
5737
102
}
330
9
100
AcDbSymbolTableRecord
100
AcDbDimStyleTableRecord
  2
tfrom線あり
 70
     0
  3
<>
  4
[]
 41
2.0
 42
5.0
 43
0.9999999999999999
 44
0.0
 73
     0
 74
     0
 77
     1
 78
    11
140
5.0
141
0.0
143
1.0
147
3.0
171
     1
174
     1
178
     0
179
     2
271
     0
272
     1
276
     2
284
    11
285
    11
286
    11
289
     0
340
39
341
4E
342
4E
  0
DIMSTYLE
105
3D5A
330
9
100
AcDbSymbolTableRecord
100
AcDbDimStyleTableRecord
  2
6
 70
     0
 40
2.0
 41
1.5
 42
1.0
 43
4.0
 44
0.0
 46
1.5
 49
0.0
 69
     1
 70
     0
 73
     0
 74
     0
 77
     1
 78
     9
140
4.0
141
0.0
145
1.0
147
1.5
172
     1
176
   256
177
   256
271
     1
178
     4
271
     1
272
     1
279
     2
284
     9
285
    13
286
    13
340
3D5B
341
3D5C
342
3D64
1001
ACAD_DSTYLE_DIMJAG
1070
   388
1040
1.5
1001
ACAD_DSTYLE_DIMTALN
1070
   392
1070
     0
  0
DIMSTYLE
105
3D6B
330
9
100
AcDbSymbolTableRecord
100
AcDbDimStyleTableRecord
  2
SLDDIMSTYLE0
 70
     0
 41
2.5
 44
0.0
 45
0.000000001
 73
     0
 74
     0
 77
     1
 78
    12
 79
     3
140
2.5
144
2.0
147
0.625
173
     1
178
     0
271
     3
272
     3
276
     2
284
    12
340
3D6C
  0
DIMSTYLE
105
3D6D
330
9
100
AcDbSymbolTableRecord
100
AcDbDimStyleTableRecord
  2
SLDDIMSTYLE1
 70
     0
 41
2.5
 44
0.0
 45
0.000000001
 73
     0
 74
     0
 77
     1
 78
    12
 79
     3
140
2.5
144
2.0
147
0.625
173
     1
178
     0
271
     0
272
     0
276
     2
284
    12
340
3D6C
  0
DIMSTYLE
105
3D6E
330
9
100
AcDbSymbolTableRecord
100
AcDbDimStyleTableRecord
  2
ISO-25
 70
     0
 41
2.5
 42
0.625
 43
3.75
 44
1.25
 73
     0
 74
     0
 77
     1
 78
     8
140
2.5
141
2.5
143
0.03937007874016
147
0.625
171
     3
172
     1
178
     0
271
     2
272
     2
274
     3
278
    44
283
     0
284
     8
340
17
  0
DIMSTYLE
105
3E37
330
9
100
AcDbSymbolTableRecord
100
AcDbDimStyleTableRecord
  2
SLDDIMSTYLE2
 70
     0
 41
2.5
 44
0.0
 45
0.000000001
 73
     0
 74
     0
 77
     1
 78
    12
 79
     3
140
2.5
144
2.0
147
0.625
173
     1
178
     0
271
     0
272
     0
276
     2
284
    12
340
3D6C
  0
DIMSTYLE
105
3E38
330
9
100
AcDbSymbolTableRecord
100
AcDbDimStyleTableRecord
  2
tform線あり
 70
     0
  3
<>
  4
[]
 41
9.999389648437498
 42
25.0
 43
0.9999999999999999
 44
0.0
 73
     0
 74
     0
 77
     1
 78
    11
140
24.4326171875
141
0.0
143
1.0
146
0.8
147
10.0
171
     1
172
     1
174
     1
178
     0
179
     2
271
     1
272
     1
276
     2
284
    11
285
    11
286
    11
289
     0
340
39
341
4E
342
4E
  0
DIMSTYLE
105
57CD
330
9
100
AcDbSymbolTableRecord
100
AcDbDimStyleTableRecord
  2
Annotative
 70
     0
178
     0
340
17
1001
AcadAnnotative
1000
AnnotativeData
1002
{
1070
     1
1070
     1
1002
}
  0
DIMSTYLE
105
57D0
330
9
100
AcDbSymbolTableRecord
100
AcDbDimStyleTableRecord
  2
Basin Dimension
 70
     0
  3
\X
  4
"
 41
9.0
 42
9.0
 44
9.0
 73
     0
 74
     0
140
18.0
143
0.03937007874
178
     0
271
     0
272
     0
340
17
1001
ACAD_DSTYLE_DIMBREAK
1070
   391
1040
0.125
1001
ACAD_DSTYLE_DIMJAG
1070
   388
1040
1.5
1001
ACAD_DSTYLE_DIMTALN
1070
   392
1070
     0
  0
DIMSTYLE
105
57D4
330
9
100
AcDbSymbolTableRecord
100
AcDbDimStyleTableRecord
  2
DIM004
 70
     0
 40
10.0
 41
0.5
 42
0.0
 44
1.0
 45
1.0
 73
     0
 74
     0
 77
     3
140
2.11864406779661
147
0.3
172
     1
176
     7
177
     1
271
     0
178
     1
271
     0
273
     6
277
     6
340
57D5
342
3D64
  0
DIMSTYLE
105
57DB
330
9
100
AcDbSymbolTableRecord
100
AcDbDimStyleTableRecord
  2
1
 70
     0
 40
2.0
 41
0.8
 42
3.5
 43
3.0
 44
0.0
 46
1.5
 69
     1
 70
     0
 73
     0
 74
     0
 77
     1
 78
     9
140
3.5
141
0.0
144
10.0
145
1.0
147
1.0
172
     1
176
   256
177
   256
271
     1
178
     4
271
     1
272
     1
279
     2
284
     9
285
    13
286
    13
340
3D5B
341
3D5C
342
3D64
1001
ACAD_DSTYLE_DIMJAG
1070
   388
1040
1.5
1001
ACAD_DSTYLE_DIMTALN
1070
   392
1070
     0
  0
ENDTAB
  0
TABLE
  2
BLOCK_RECORD
  5
1
330
0
100
AcDbSymbolTable
 70
    39
  0
BLOCK_RECORD
  5
A
102
{ACAD_XDICTIONARY
360
3D3D
102
}
330
1
100
AcDbSymbolTableRecord
100
AcDbBlockTableRecord
  2
*MODEL_SPACE
340
20
 70
     0
280
     1
281
     0
  0
BLOCK_RECORD
  5
B
330
1
100
AcDbSymbolTableRecord
100
AcDbBlockTableRecord
  2
*PAPER_SPACE
340
21
 70
     0
280
     1
281
     0
  0
BLOCK_RECORD
  5
4E
330
1
100
AcDbSymbolTableRecord
100
AcDbBlockTableRecord
  2
_DOT
340
0
102
{BLKREFS
331
3B8C
331
3B8D
331
3B98
331
3B99
331
3BA4
331
3BA5
331
3BB0
331
3BB1
331
3BBC
331
3BBD
331
3BC8
331
3BC9
331
3BD4
331
3BD5
331
3CFD
331
3CFE
331
3D0C
331
3D0D
331
3D2A
331
3D2B
331
3D36
331
3D37
331
3D93
331
3D94
331
3DA4
331
3DA5
331
3DB5
331
3DB6
331
3DC4
331
3DC5
331
3DFA
331
3DFB
331
3E08
331
3E09
331
3E14
331
3E15
331
3E20
331
3E21
331
3EFD
331
3EFE
331
3F0C
331
3F0D
331
3F75
331
3F76
331
3F84
331
3F85
331
457A
331
457B
331
458E
331
458F
331
4D0B
331
4D0C
331
4D1A
331
4D1B
331
4D2C
331
4D2D
331
4D3F
331
4D40
331
52DD
331
52DE
331
5701
331
5702
331
5712
331
5713
331
5722
331
5723
331
5731
331
5732
331
5740
331
5741
102
}
 70
     0
280
     1
281
     0
  0
BLOCK_RECORD
  5
68D
330
1
100
AcDbSymbolTableRecord
100
AcDbBlockTableRecord
  2
block 2
340
0
102
{BLKREFS
331
68C
331
1343
102
}
 70
     0
280
     1
281
     0
  0
BLOCK_RECORD
  5
3B86
330
1
100
AcDbSymbolTableRecord
100
AcDbBlockTableRecord
  2
*D2
340
0
 70
     0
280
     1
281
     0
  0
BLOCK_RECORD
  5
3B92
330
1
100
AcDbSymbolTableRecord
100
AcDbBlockTableRecord
  2
*D3
340
0
 70
     0
280
     1
281
     0
  0
BLOCK_RECORD
  5
3B9E
330
1
100
AcDbSymbolTableRecord
100
AcDbBlockTableRecord
  2
*D4
340
0
 70
     0
280
     1
281
     0
  0
BLOCK_RECORD
  5
3BAA
330
1
100
AcDbSymbolTableRecord
100
AcDbBlockTableRecord
  2
*D5
340
0
 70
     0
280
     1
281
     0
  0
BLOCK_RECORD
  5
3BB6
330
1
100
AcDbSymbolTableRecord
100
AcDbBlockTableRecord
  2
*D6
340
0
 70
     0
280
     1
281
     0
  0
BLOCK_RECORD
  5
3BC2
330
1
100
AcDbSymbolTableRecord
100
AcDbBlockTableRecord
  2
*D7
340
0
 70
     0
280
     1
281
     0
  0
BLOCK_RECORD
  5
3BCE
330
1
100
AcDbSymbolTableRecord
100
AcDbBlockTableRecord
  2
*D8
340
0
 70
     0
280
     1
281
     0
  0
BLOCK_RECORD
  5
3CF8
330
1
100
AcDbSymbolTableRecord
100
AcDbBlockTableRecord
  2
*D9
340
0
 70
     0
280
     1
281
     0
  0
BLOCK_RECORD
  5
3D07
330
1
100
AcDbSymbolTableRecord
100
AcDbBlockTableRecord
  2
*D10
340
0
 70
     0
280
     1
281
     0
  0
BLOCK_RECORD
  5
3D24
330
1
100
AcDbSymbolTableRecord
100
AcDbBlockTableRecord
  2
*D11
340
0
 70
     0
280
     1
281
     0
  0
BLOCK_RECORD
  5
3D30
330
1
100
AcDbSymbolTableRecord
100
AcDbBlockTableRecord
  2
*D12
340
0
 70
     0
280
     1
281
     0
  0
BLOCK_RECORD
  5
3D5C
102
{ACAD_XDICTIONARY
360
3D5D
102
}
330
1
100
AcDbSymbolTableRecord
100
AcDbBlockTableRecord
  2
_Open30
340
0
310
2800000020000000200000000100080000000000000400000000000000000000000000000000000000000000000080000080000000808000800000008000800080800000C0C0C000C0DCC000F0CAA6000020400000206000002080000020A0000020C0000020E00000400000004020000040400000406000004080000040A0
310
000040C0000040E00000600000006020000060400000606000006080000060A0000060C0000060E00000800000008020000080400000806000008080000080A0000080C0000080E00000A0000000A0200000A0400000A0600000A0800000A0A00000A0C00000A0E00000C0000000C0200000C0400000C0600000C0800000C0
310
A00000C0C00000C0E00000E0000000E0200000E0400000E0600000E0800000E0A00000E0C00000E0E00040000000400020004000400040006000400080004000A0004000C0004000E00040200000402020004020400040206000402080004020A0004020C0004020E000404000004040200040404000404060004040800040
310
40A0004040C0004040E00040600000406020004060400040606000406080004060A0004060C0004060E00040800000408020004080400040806000408080004080A0004080C0004080E00040A0000040A0200040A0400040A0600040A0800040A0A00040A0C00040A0E00040C0000040C0200040C0400040C0600040C08000
310
40C0A00040C0C00040C0E00040E0000040E0200040E0400040E0600040E0800040E0A00040E0C00040E0E00080000000800020008000400080006000800080008000A0008000C0008000E00080200000802020008020400080206000802080008020A0008020C0008020E00080400000804020008040400080406000804080
310
008040A0008040C0008040E00080600000806020008060400080606000806080008060A0008060C0008060E00080800000808020008080400080806000808080008080A0008080C0008080E00080A0000080A0200080A0400080A0600080A0800080A0A00080A0C00080A0E00080C0000080C0200080C0400080C0600080C0
310
800080C0A00080C0C00080C0E00080E0000080E0200080E0400080E0600080E0800080E0A00080E0C00080E0E000C0000000C0002000C0004000C0006000C0008000C000A000C000C000C000E000C0200000C0202000C0204000C0206000C0208000C020A000C020C000C020E000C0400000C0402000C0404000C0406000C0
310
408000C040A000C040C000C040E000C0600000C0602000C0604000C0606000C0608000C060A000C060C000C060E000C0800000C0802000C0804000C0806000C0808000C080A000C080C000C080E000C0A00000C0A02000C0A04000C0A06000C0A08000C0A0A000C0A0C000C0A0E000C0C00000C0C02000C0C04000C0C06000
310
C0C08000C0C0A000F0FBFF00A4A0A000808080000000FF0000FF000000FFFF00FF000000FF00FF00FFFF0000FFFFFF0000000000000000000000000000000000000000000000000000000000000000000000000000000000000000000000000000000000000000000000000000000000000000000000000000000000000000
310
00000000000000000000000000000000000000000000000000000000000000000000000000000000000000000000000000000000000000000000000000000000000000000000000000000000000000000000000000000000000000000000000000000000000000000000000000000000000000000000000000000000000000
310
000000000000000000000000000000000000000000000000000000000000000000000000000000000000000000000000000000FFFF0000000000000000000000000000000000000000000000000000000000000000FFFFFFFF0000000000000000000000000000000000000000000000000000000000000000FFFFFFFF0000
310
000000000000000000000000000000000000000000000000000000000000FFFFFF0000000000000000000000000000000000000000000000000000000000000000FFFFFFFF0000000000000000000000000000000000000000000000000000000000000000FFFFFF0000000000000000000000000000000000000000000000
310
000000000000000000FFFFFFFF0000000000000000000000000000000000000000000000000000000000000000FFFFFFFF00000000FFFFFFFFFFFFFFFFFFFFFFFFFFFFFFFFFFFFFFFFFFFFFFFFFFFFFFFFFFFF00000000000000000000000000000000000000000000000000FFFFFFFF000000000000000000000000000000
310
000000000000000000FFFFFFFF000000000000000000000000000000000000000000000000FFFFFFFF000000000000000000000000000000000000000000000000FFFFFFFF000000000000000000000000000000000000000000000000FFFFFFFF000000000000000000000000000000000000000000000000FFFFFFFF0000
310
0000000000000000000000000000000000000000000000FFFFFF0000000000000000000000000000000000000000000000000000000000000000000000000000000000000000000000000000000000000000000000000000000000000000000000000000000000000000000000000000000000000000000000000000000000
310
00000000000000000000000000000000000000000000000000000000000000000000000000000000000000000000000000000000000000000000000000000000000000000000000000000000000000000000000000000000000000000000000000000000000000000000000000000000000000000000000000000000000000
310
0000000000000000000000000000000000000000000000000000000000000000000000000000000000000000000000000000000000000000
 70
     0
280
     1
281
     0
  0
BLOCK_RECORD
  5
3D64
330
1
100
AcDbSymbolTableRecord
100
AcDbBlockTableRecord
  2
_Origin
340
0
 70
     0
280
     1
281
     0
  0
BLOCK_RECORD
  5
3D8E
330
1
100
AcDbSymbolTableRecord
100
AcDbBlockTableRecord
  2
*D15
340
0
 70
     0
280
     1
281
     0
  0
BLOCK_RECORD
  5
3D9D
330
1
100
AcDbSymbolTableRecord
100
AcDbBlockTableRecord
  2
*D16
340
0
 70
     0
280
     1
281
     0
  0
BLOCK_RECORD
  5
3DB0
330
1
100
AcDbSymbolTableRecord
100
AcDbBlockTableRecord
  2
*D17
340
0
 70
     0
280
     1
281
     0
  0
BLOCK_RECORD
  5
3DBF
330
1
100
AcDbSymbolTableRecord
100
AcDbBlockTableRecord
  2
*D18
340
0
 70
     0
280
     1
281
     0
  0
BLOCK_RECORD
  5
3DF4
330
1
100
AcDbSymbolTableRecord
100
AcDbBlockTableRecord
  2
*D19
340
0
 70
     0
280
     1
281
     0
  0
BLOCK_RECORD
  5
3E00
330
1
100
AcDbSymbolTableRecord
100
AcDbBlockTableRecord
  2
*D20
340
0
 70
     0
280
     1
281
     0
  0
BLOCK_RECORD
  5
3E0E
330
1
100
AcDbSymbolTableRecord
100
AcDbBlockTableRecord
  2
*D21
340
0
 70
     0
280
     1
281
     0
  0
BLOCK_RECORD
  5
3E1A
330
1
100
AcDbSymbolTableRecord
100
AcDbBlockTableRecord
  2
*D22
340
0
 70
     0
280
     1
281
     0
  0
BLOCK_RECORD
  5
3EF7
330
1
100
AcDbSymbolTableRecord
100
AcDbBlockTableRecord
  2
*D23
340
0
 70
     0
280
     1
281
     0
  0
BLOCK_RECORD
  5
3F06
330
1
100
AcDbSymbolTableRecord
100
AcDbBlockTableRecord
  2
*D24
340
0
 70
     0
280
     1
281
     0
  0
BLOCK_RECORD
  5
3F70
330
1
100
AcDbSymbolTableRecord
100
AcDbBlockTableRecord
  2
*D25
340
0
 70
     0
280
     1
281
     0
  0
BLOCK_RECORD
  5
3F7F
330
1
100
AcDbSymbolTableRecord
100
AcDbBlockTableRecord
  2
*D26
340
0
 70
     0
280
     1
281
     0
  0
BLOCK_RECORD
  5
4574
330
1
100
AcDbSymbolTableRecord
100
AcDbBlockTableRecord
  2
*D27
340
0
 70
     0
280
     1
281
     0
  0
BLOCK_RECORD
  5
4588
330
1
100
AcDbSymbolTableRecord
100
AcDbBlockTableRecord
  2
*D28
340
0
 70
     0
280
     1
281
     0
  0
BLOCK_RECORD
  5
4D06
330
1
100
AcDbSymbolTableRecord
100
AcDbBlockTableRecord
  2
*D29
340
0
 70
     0
280
     1
281
     0
  0
BLOCK_RECORD
  5
4D15
330
1
100
AcDbSymbolTableRecord
100
AcDbBlockTableRecord
  2
*D30
340
0
 70
     0
280
     1
281
     0
  0
BLOCK_RECORD
  5
4D24
330
1
100
AcDbSymbolTableRecord
100
AcDbBlockTableRecord
  2
*D31
340
0
 70
     0
280
     1
281
     0
  0
BLOCK_RECORD
  5
4D38
330
1
100
AcDbSymbolTableRecord
100
AcDbBlockTableRecord
  2
*D32
340
0
 70
     0
280
     1
281
     0
  0
BLOCK_RECORD
  5
52D7
330
1
100
AcDbSymbolTableRecord
100
AcDbBlockTableRecord
  2
*D33
340
0
 70
     0
280
     1
281
     0
  0
BLOCK_RECORD
  5
56FB
330
1
100
AcDbSymbolTableRecord
100
AcDbBlockTableRecord
  2
*D34
340
0
 70
     0
280
     1
281
     0
  0
BLOCK_RECORD
  5
570A
330
1
100
AcDbSymbolTableRecord
100
AcDbBlockTableRecord
  2
*D35
340
0
 70
     0
280
     1
281
     0
  0
BLOCK_RECORD
  5
571C
330
1
100
AcDbSymbolTableRecord
100
AcDbBlockTableRecord
  2
*D36
340
0
 70
     0
280
     1
281
     0
  0
BLOCK_RECORD
  5
572B
330
1
100
AcDbSymbolTableRecord
100
AcDbBlockTableRecord
  2
*D37
340
0
 70
     0
280
     1
281
     0
  0
BLOCK_RECORD
  5
573A
330
1
100
AcDbSymbolTableRecord
100
AcDbBlockTableRecord
  2
*D38
340
0
 70
     0
280
     1
281
     0
  0
ENDTAB
  0
ENDSEC
  0
SECTION
  2
BLOCKS
  0
BLOCK
  5
D
330
A
100
AcDbEntity
  8
0
390
1D
100
AcDbBlockBegin
  2
*MODEL_SPACE
 70
     0
 10
0.0
 20
0.0
 30
0.0
  3
*MODEL_SPACE
  1
*MODEL_SPACE
  0
ENDBLK
  5
E
330
A
100
AcDbEntity
  8
0
390
1D
100
AcDbBlockEnd
  0
BLOCK
  5
F
330
B
100
AcDbEntity
 67
     1
  8
0
390
1D
100
AcDbBlockBegin
  2
*PAPER_SPACE
 70
     0
 10
0.0
 20
0.0
 30
0.0
  3
*PAPER_SPACE
  1
*PAPER_SPACE
  0
ENDBLK
  5
10
330
B
100
AcDbEntity
 67
     1
  8
0
390
1D
100
AcDbBlockEnd
  0
BLOCK
  5
2462
330
4E
100
AcDbEntity
  8
0
390
1D
100
AcDbBlockBegin
  2
_DOT
 70
     0
 10
0.0
 20
0.0
 30
0.0
  3
_DOT
  1
_DOT
  0
POLYLINE
  5
2464
330
4E
100
AcDbEntity
  8
0
  6
ByBlock
 62
     0
370
    -2
390
1D
100
AcDb2dPolyline
 66
     1
 10
0.0
 20
0.0
 30
0.0
 70
     1
 40
0.5
 41
0.5
  0
VERTEX
  5
2465
330
2464
100
AcDbEntity
  8
0
  6
ByBlock
 62
     0
370
    -2
390
1D
100
AcDbVertex
100
AcDb2dVertex
 10
-0.25
 20
0.0
 30
0.0
 42
1.0
  0
VERTEX
  5
2466
330
2464
100
AcDbEntity
  8
0
  6
ByBlock
 62
     0
370
    -2
390
1D
100
AcDbVertex
100
AcDb2dVertex
 10
0.25
 20
0.0
 30
0.0
 42
1.0
  0
SEQEND
  5
2467
330
2464
100
AcDbEntity
  8
0
390
1D
  0
LINE
  5
2468
330
4E
100
AcDbEntity
  8
0
  6
ByBlock
 62
     0
370
    -2
390
1D
100
AcDbLine
 10
-0.5
 20
0.0
 30
0.0
 11
-1.0
 21
0.0
 31
0.0
  0
ENDBLK
  5
2469
330
4E
100
AcDbEntity
  8
0
390
1D
100
AcDbBlockEnd
  0
BLOCK
  5
68E
330
68D
100
AcDbEntity
  8
0
100
AcDbBlockBegin
  2
block 2
 70
     0
 10
0.0
 20
0.0
 30
0.0
  3
block 2
  1
block 2
  0
ENDBLK
  5
6B0
330
68D
100
AcDbEntity
  8
0
100
AcDbBlockEnd
  0
BLOCK
  5
3B87
330
3B86
100
AcDbEntity
  8
0
100
AcDbBlockBegin
  2
*D2
 70
     1
 10
0.0
 20
0.0
 30
0.0
  3
*D2
  1

  0
LINE
  5
3B89
330
3B86
100
AcDbEntity
  8
DIM
 62
     0
370
    -2
100
AcDbLine
 10
120.4165303244005
 20
319.2077009873063
 30
0.0
 11
80.41653032440028
 21
319.2077009873061
 31
0.0
  0
LINE
  5
3B8A
330
3B86
100
AcDbEntity
  8
DIM
 62
     0
370
    -2
100
AcDbLine
 10
95.2823248987792
 20
182.2077009873063
 30
0.0
 11
80.41653032440077
 21
182.2077009873062
 31
0.0
  0
LINE
  5
3B8B
330
3B86
100
AcDbEntity
  8
DIM
 62
     0
370
    -2
100
AcDbLine
 10
80.41653032440028
 20
317.2077009873061
 30
0.0
 11
80.41653032440077
 21
184.2077009873062
 31
0.0
  0
INSERT
  5
3B8C
330
3B86
100
AcDbEntity
  8
DIM
 62
     0
370
    -2
100
AcDbBlockReference
  2
_DOT
 10
80.41653032440028
 20
319.2077009873061
 30
0.0
 41
2.0
 42
2.0
 43
2.0
 50
90.0000000000002
  0
INSERT
  5
3B8D
330
3B86
100
AcDbEntity
  8
DIM
 62
     0
370
    -2
100
AcDbBlockReference
  2
_DOT
 10
80.41653032440077
 20
182.2077009873062
 30
0.0
 41
2.0
 42
2.0
 43
2.0
 50
270.0000000000002
  0
MTEXT
  5
3B8E
330
3B86
100
AcDbEntity
  8
DIM
 62
     0
 48
0.05
100
AcDbMText
 10
72.41653032440053
 20
250.7077009873063
 30
0.0
 40
5.0
 41
0.0
 46
0.0
 71
     2
 72
     1
  1
\A1;137
  7
ＭＳ ゴシック
 11
-3.526781462166923E-15
 21
1.0
 31
0.0
 73
     1
 44
1.0
  0
POINT
  5
3B8F
330
3B86
100
AcDbEntity
  8
Defpoints
 62
     0
100
AcDbPoint
 10
125.4165303244005
 20
319.2077009873063
 30
0.0
  0
POINT
  5
3B90
330
3B86
100
AcDbEntity
  8
Defpoints
 62
     0
100
AcDbPoint
 10
100.2823248987792
 20
182.2077009873063
 30
0.0
  0
POINT
  5
3B91
330
3B86
100
AcDbEntity
  8
Defpoints
 62
     0
100
AcDbPoint
 10
80.41653032440077
 20
182.2077009873062
 30
0.0
  0
ENDBLK
  5
3B88
330
3B86
100
AcDbEntity
  8
0
100
AcDbBlockEnd
  0
BLOCK
  5
3B93
330
3B92
100
AcDbEntity
  8
0
100
AcDbBlockBegin
  2
*D3
 70
     1
 10
0.0
 20
0.0
 30
0.0
  3
*D3
  1

  0
LINE
  5
3B95
330
3B92
100
AcDbEntity
  8
DIM
 62
     0
370
    -2
100
AcDbLine
 10
100.4165303244005
 20
456.7854077805792
 30
0.0
 11
100.4165303244005
 21
469.9574301222169
 31
0.0
  0
LINE
  5
3B96
330
3B92
100
AcDbEntity
  8
DIM
 62
     0
370
    -2
100
AcDbLine
 10
172.4165303244005
 20
456.7854077805792
 30
0.0
 11
172.4165303244005
 21
469.9574301222169
 31
0.0
  0
LINE
  5
3B97
330
3B92
100
AcDbEntity
  8
DIM
 62
     0
370
    -2
100
AcDbLine
 10
102.4165303244005
 20
469.9574301222169
 30
0.0
 11
170.4165303244005
 21
469.9574301222169
 31
0.0
  0
INSERT
  5
3B98
330
3B92
100
AcDbEntity
  8
DIM
 62
     0
370
    -2
100
AcDbBlockReference
  2
_DOT
 10
100.4165303244005
 20
469.9574301222169
 30
0.0
 41
2.0
 42
2.0
 43
2.0
 50
180.0
  0
INSERT
  5
3B99
330
3B92
100
AcDbEntity
  8
DIM
 62
     0
370
    -2
100
AcDbBlockReference
  2
_DOT
 10
172.4165303244005
 20
469.9574301222169
 30
0.0
 41
2.0
 42
2.0
 43
2.0
  0
MTEXT
  5
3B9A
330
3B92
100
AcDbEntity
  8
DIM
 62
     0
 48
0.05
100
AcDbMText
 10
136.4165303244005
 20
477.9574301222169
 30
0.0
 40
5.0
 41
0.0
 46
0.0
 71
     2
 72
     1
  1
\A1;72
  7
ＭＳ ゴシック
 73
     1
 44
1.0
  0
POINT
  5
3B9B
330
3B92
100
AcDbEntity
  8
Defpoints
 62
     0
100
AcDbPoint
 10
100.4165303244005
 20
451.7854077805792
 30
0.0
  0
POINT
  5
3B9C
330
3B92
100
AcDbEntity
  8
Defpoints
 62
     0
100
AcDbPoint
 10
172.4165303244005
 20
451.7854077805792
 30
0.0
  0
POINT
  5
3B9D
330
3B92
100
AcDbEntity
  8
Defpoints
 62
     0
100
AcDbPoint
 10
172.4165303244005
 20
469.9574301222169
 30
0.0
  0
ENDBLK
  5
3B94
330
3B92
100
AcDbEntity
  8
0
100
AcDbBlockEnd
  0
BLOCK
  5
3B9F
330
3B9E
100
AcDbEntity
  8
0
100
AcDbBlockBegin
  2
*D4
 70
     1
 10
0.0
 20
0.0
 30
0.0
  3
*D4
  1

  0
LINE
  5
3BA1
330
3B9E
100
AcDbEntity
  8
DIM
 62
     0
370
    -2
100
AcDbLine
 10
95.4165303244005
 20
448.3104475998533
 30
0.0
 11
80.41653032440041
 21
448.3104475998533
 31
0.0
  0
LINE
  5
3BA2
330
3B9E
100
AcDbEntity
  8
DIM
 62
     0
370
    -2
100
AcDbLine
 10
120.4165303244005
 20
380.0604475998529
 30
0.0
 11
80.41653032440065
 21
380.0604475998528
 31
0.0
  0
LINE
  5
3BA3
330
3B9E
100
AcDbEntity
  8
DIM
 62
     0
370
    -2
100
AcDbLine
 10
80.41653032440041
 20
446.3104475998533
 30
0.0
 11
80.41653032440065
 21
382.0604475998528
 31
0.0
  0
INSERT
  5
3BA4
330
3B9E
100
AcDbEntity
  8
DIM
 62
     0
370
    -2
100
AcDbBlockReference
  2
_DOT
 10
80.41653032440041
 20
448.3104475998533
 30
0.0
 41
2.0
 42
2.0
 43
2.0
 50
90.0000000000002
  0
INSERT
  5
3BA5
330
3B9E
100
AcDbEntity
  8
DIM
 62
     0
370
    -2
100
AcDbBlockReference
  2
_DOT
 10
80.41653032440065
 20
380.0604475998528
 30
0.0
 41
2.0
 42
2.0
 43
2.0
 50
270.0000000000002
  0
MTEXT
  5
3BA6
330
3B9E
100
AcDbEntity
  8
DIM
 62
     0
 48
0.05
100
AcDbMText
 10
72.41653032440053
 20
414.1854475998531
 30
0.0
 40
5.0
 41
0.0
 46
0.0
 71
     2
 72
     1
  1
\A1;68
  7
ＭＳ ゴシック
 11
-3.539700075581425E-15
 21
1.0
 31
0.0
 73
     1
 44
1.0
  0
POINT
  5
3BA7
330
3B9E
100
AcDbEntity
  8
Defpoints
 62
     0
100
AcDbPoint
 10
100.4165303244005
 20
448.3104475998533
 30
0.0
  0
POINT
  5
3BA8
330
3B9E
100
AcDbEntity
  8
Defpoints
 62
     0
100
AcDbPoint
 10
125.4165303244005
 20
380.0604475998529
 30
0.0
  0
POINT
  5
3BA9
330
3B9E
100
AcDbEntity
  8
Defpoints
 62
     0
100
AcDbPoint
 10
80.41653032440065
 20
380.0604475998528
 30
0.0
  0
ENDBLK
  5
3BA0
330
3B9E
100
AcDbEntity
  8
0
100
AcDbBlockEnd
  0
BLOCK
  5
3BAB
330
3BAA
100
AcDbEntity
  8
0
100
AcDbBlockBegin
  2
*D5
 70
     1
 10
0.0
 20
0.0
 30
0.0
  3
*D5
  1

  0
LINE
  5
3BAD
330
3BAA
100
AcDbEntity
  8
DIM
 62
     0
370
    -2
100
AcDbLine
 10
125.4165303244005
 20
375.0604475998529
 30
0.0
 11
125.4165303244005
 21
361.7949884833052
 31
0.0
  0
LINE
  5
3BAE
330
3BAA
100
AcDbEntity
  8
DIM
 62
     0
370
    -2
100
AcDbLine
 10
147.4165303244005
 20
375.0604475998529
 30
0.0
 11
147.4165303244005
 21
361.7949884833052
 31
0.0
  0
LINE
  5
3BAF
330
3BAA
100
AcDbEntity
  8
DIM
 62
     0
370
    -2
100
AcDbLine
 10
127.4165303244005
 20
361.7949884833052
 30
0.0
 11
145.4165303244005
 21
361.7949884833052
 31
0.0
  0
INSERT
  5
3BB0
330
3BAA
100
AcDbEntity
  8
DIM
 62
     0
370
    -2
100
AcDbBlockReference
  2
_DOT
 10
125.4165303244005
 20
361.7949884833052
 30
0.0
 41
2.0
 42
2.0
 43
2.0
 50
180.0
  0
INSERT
  5
3BB1
330
3BAA
100
AcDbEntity
  8
DIM
 62
     0
370
    -2
100
AcDbBlockReference
  2
_DOT
 10
147.4165303244005
 20
361.7949884833052
 30
0.0
 41
2.0
 42
2.0
 43
2.0
  0
MTEXT
  5
3BB2
330
3BAA
100
AcDbEntity
  8
DIM
 62
     0
 48
0.05
100
AcDbMText
 10
136.4165303244005
 20
369.7949884833052
 30
0.0
 40
5.0
 41
0.0
 46
0.0
 71
     2
 72
     1
  1
\A1;22
  7
ＭＳ ゴシック
 73
     1
 44
1.0
  0
POINT
  5
3BB3
330
3BAA
100
AcDbEntity
  8
Defpoints
 62
     0
100
AcDbPoint
 10
125.4165303244005
 20
380.0604475998529
 30
0.0
  0
POINT
  5
3BB4
330
3BAA
100
AcDbEntity
  8
Defpoints
 62
     0
100
AcDbPoint
 10
147.4165303244005
 20
380.0604475998529
 30
0.0
  0
POINT
  5
3BB5
330
3BAA
100
AcDbEntity
  8
Defpoints
 62
     0
100
AcDbPoint
 10
147.4165303244005
 20
361.7949884833052
 30
0.0
  0
ENDBLK
  5
3BAC
330
3BAA
100
AcDbEntity
  8
0
100
AcDbBlockEnd
  0
BLOCK
  5
3BB7
330
3BB6
100
AcDbEntity
  8
0
100
AcDbBlockBegin
  2
*D6
 70
     1
 10
0.0
 20
0.0
 30
0.0
  3
*D6
  1

  0
LINE
  5
3BB9
330
3BB6
100
AcDbEntity
  8
DIM
 62
     0
370
    -2
100
AcDbLine
 10
176.6454837165862
 20
212.2077009873064
 30
0.0
 11
193.3903881603889
 21
212.2077009873063
 31
0.0
  0
LINE
  5
3BBA
330
3BB6
100
AcDbEntity
  8
DIM
 62
     0
370
    -2
100
AcDbLine
 10
176.6454837165862
 20
182.2077009873063
 30
0.0
 11
193.3903881603889
 21
182.2077009873062
 31
0.0
  0
LINE
  5
3BBB
330
3BB6
100
AcDbEntity
  8
DIM
 62
     0
370
    -2
100
AcDbLine
 10
193.3903881603889
 20
210.2077009873063
 30
0.0
 11
193.3903881603889
 21
184.2077009873062
 31
0.0
  0
INSERT
  5
3BBC
330
3BB6
100
AcDbEntity
  8
DIM
 62
     0
370
    -2
100
AcDbBlockReference
  2
_DOT
 10
193.3903881603889
 20
212.2077009873063
 30
0.0
 41
2.0
 42
2.0
 43
2.0
 50
89.99999999999982
  0
INSERT
  5
3BBD
330
3BB6
100
AcDbEntity
  8
DIM
 62
     0
370
    -2
100
AcDbBlockReference
  2
_DOT
 10
193.3903881603889
 20
182.2077009873062
 30
0.0
 41
2.0
 42
2.0
 43
2.0
 50
269.9999999999998
  0
MTEXT
  5
3BBE
330
3BB6
100
AcDbEntity
  8
DIM
 62
     0
 48
0.05
100
AcDbMText
 10
185.3903881603889
 20
197.2077009873064
 30
0.0
 40
5.0
 41
0.0
 46
0.0
 71
     2
 72
     1
  1
\A1;30
  7
ＭＳ ゴシック
 11
2.842170943040393E-15
 21
1.0
 31
0.0
 73
     1
 44
1.0
  0
POINT
  5
3BBF
330
3BB6
100
AcDbEntity
  8
Defpoints
 62
     0
100
AcDbPoint
 10
171.6454837165862
 20
212.2077009873064
 30
0.0
  0
POINT
  5
3BC0
330
3BB6
100
AcDbEntity
  8
Defpoints
 62
     0
100
AcDbPoint
 10
171.6454837165862
 20
182.2077009873063
 30
0.0
  0
POINT
  5
3BC1
330
3BB6
100
AcDbEntity
  8
Defpoints
 62
     0
100
AcDbPoint
 10
193.3903881603888
 20
182.2077009873062
 30
0.0
  0
ENDBLK
  5
3BB8
330
3BB6
100
AcDbEntity
  8
0
100
AcDbBlockEnd
  0
BLOCK
  5
3BC3
330
3BC2
100
AcDbEntity
  8
0
100
AcDbBlockBegin
  2
*D7
 70
     1
 10
0.0
 20
0.0
 30
0.0
  3
*D7
  1

  0
LINE
  5
3BC5
330
3BC2
100
AcDbEntity
  8
DIM
 62
     0
370
    -2
100
AcDbLine
 10
177.9901558885232
 20
438.06044758632
 30
0.0
 11
190.3107608583836
 21
438.06044758632
 31
0.0
  0
LINE
  5
3BC6
330
3BC2
100
AcDbEntity
  8
DIM
 62
     0
370
    -2
100
AcDbLine
 10
177.4165317216699
 20
448.31044758632
 30
0.0
 11
190.3107608583836
 21
448.31044758632
 31
0.0
  0
LINE
  5
3BC7
330
3BC2
100
AcDbEntity
  8
DIM
 62
     0
370
    -2
100
AcDbLine
 10
190.3107608583836
 20
440.06044758632
 30
0.0
 11
190.3107608583836
 21
446.31044758632
 31
0.0
  0
INSERT
  5
3BC8
330
3BC2
100
AcDbEntity
  8
DIM
 62
     0
370
    -2
100
AcDbBlockReference
  2
_DOT
 10
190.3107608583836
 20
438.06044758632
 30
0.0
 41
2.0
 42
2.0
 43
2.0
 50
270.0
  0
INSERT
  5
3BC9
330
3BC2
100
AcDbEntity
  8
DIM
 62
     0
370
    -2
100
AcDbBlockReference
  2
_DOT
 10
190.3107608583836
 20
448.31044758632
 30
0.0
 41
2.0
 42
2.0
 43
2.0
 50
90.0
  0
MTEXT
  5
3BCA
330
3BC2
100
AcDbEntity
  8
DIM
 62
     0
 48
0.05
100
AcDbMText
 10
182.3107608583836
 20
443.18544758632
 30
0.0
 40
5.0
 41
0.0
 46
0.0
 71
     2
 72
     1
  1
\A1;10
  7
ＭＳ ゴシック
 11
0.0
 21
1.0
 31
0.0
 73
     1
 44
1.0
  0
POINT
  5
3BCB
330
3BC2
100
AcDbEntity
  8
Defpoints
 62
     0
100
AcDbPoint
 10
172.9901558885232
 20
438.06044758632
 30
0.0
  0
POINT
  5
3BCC
330
3BC2
100
AcDbEntity
  8
Defpoints
 62
     0
100
AcDbPoint
 10
172.4165317216699
 20
448.31044758632
 30
0.0
  0
POINT
  5
3BCD
330
3BC2
100
AcDbEntity
  8
Defpoints
 62
     0
100
AcDbPoint
 10
190.3107608583836
 20
448.31044758632
 30
0.0
  0
ENDBLK
  5
3BC4
330
3BC2
100
AcDbEntity
  8
0
100
AcDbBlockEnd
  0
BLOCK
  5
3BCF
330
3BCE
100
AcDbEntity
  8
0
100
AcDbBlockBegin
  2
*D8
 70
     1
 10
0.0
 20
0.0
 30
0.0
  3
*D8
  1

  0
LINE
  5
3BD1
330
3BCE
100
AcDbEntity
  8
DIM
 62
     0
370
    -2
100
AcDbLine
 10
182.9901558885232
 20
438.06044758632
 30
0.0
 11
190.3107608583836
 21
438.06044758632
 31
0.0
  0
LINE
  5
3BD2
330
3BCE
100
AcDbEntity
  8
DIM
 62
     0
370
    -2
100
AcDbLine
 10
150.8011504144714
 20
380.0604500198659
 30
0.0
 11
190.3107608583836
 21
380.0604500198659
 31
0.0
  0
LINE
  5
3BD3
330
3BCE
100
AcDbEntity
  8
DIM
 62
     0
370
    -2
100
AcDbLine
 10
190.3107608583836
 20
436.06044758632
 30
0.0
 11
190.3107608583836
 21
382.0604500198659
 31
0.0
  0
INSERT
  5
3BD4
330
3BCE
100
AcDbEntity
  8
DIM
 62
     0
370
    -2
100
AcDbBlockReference
  2
_DOT
 10
190.3107608583836
 20
438.06044758632
 30
0.0
 41
2.0
 42
2.0
 43
2.0
 50
90.0
  0
INSERT
  5
3BD5
330
3BCE
100
AcDbEntity
  8
DIM
 62
     0
370
    -2
100
AcDbBlockReference
  2
_DOT
 10
190.3107608583836
 20
380.0604500198659
 30
0.0
 41
2.0
 42
2.0
 43
2.0
 50
270.0
  0
MTEXT
  5
3BD6
330
3BCE
100
AcDbEntity
  8
DIM
 62
     0
 48
0.05
100
AcDbMText
 10
184.8107608583836
 20
409.060448803093
 30
0.0
 40
5.0
 41
0.0
 46
0.0
 71
     5
 72
     1
  1
\A1;58
  7
ＭＳ ゴシック
 11
0.0
 21
1.0
 31
0.0
 73
     1
 44
1.0
  0
POINT
  5
3BD7
330
3BCE
100
AcDbEntity
  8
Defpoints
 62
     0
100
AcDbPoint
 10
177.9901558885232
 20
438.06044758632
 30
0.0
  0
POINT
  5
3BD8
330
3BCE
100
AcDbEntity
  8
Defpoints
 62
     0
100
AcDbPoint
 10
145.8011504144714
 20
380.0604500198659
 30
0.0
  0
POINT
  5
3BD9
330
3BCE
100
AcDbEntity
  8
Defpoints
 62
     0
100
AcDbPoint
 10
190.3107608583836
 20
380.0604500198659
 30
0.0
  0
ENDBLK
  5
3BD0
330
3BCE
100
AcDbEntity
  8
0
100
AcDbBlockEnd
  0
BLOCK
  5
3CF9
330
3CF8
100
AcDbEntity
  8
0
100
AcDbBlockBegin
  2
*D9
 70
     1
 10
0.0
 20
0.0
 30
0.0
  3
*D9
  1

  0
LINE
  5
3CFA
330
3CF8
100
AcDbEntity
  8
DIM
 62
     0
370
    -2
100
AcDbLine
 10
0.5
 20
67.50177050455927
 30
0.0
 11
0.5
 21
97.57489301398171
 31
0.0
  0
LINE
  5
3CFB
330
3CF8
100
AcDbEntity
  8
DIM
 62
     0
370
    -2
100
AcDbLine
 10
57.58899696048613
 20
67.50177050455927
 30
0.0
 11
57.58899696048613
 21
97.57489301398171
 31
0.0
  0
LINE
  5
3CFC
330
3CF8
100
AcDbEntity
  8
DIM
 62
     0
370
    -2
100
AcDbLine
 10
2.5
 20
97.57489301398171
 30
0.0
 11
55.58899696048613
 21
97.57489301398171
 31
0.0
  0
INSERT
  5
3CFD
330
3CF8
100
AcDbEntity
  8
DIM
 62
     0
370
    -2
100
AcDbBlockReference
  2
_DOT
 10
0.5
 20
97.57489301398171
 30
0.0
 41
2.0
 42
2.0
 43
2.0
 50
180.0
  0
INSERT
  5
3CFE
330
3CF8
100
AcDbEntity
  8
DIM
 62
     0
370
    -2
100
AcDbBlockReference
  2
_DOT
 10
57.58899696048613
 20
97.57489301398171
 30
0.0
 41
2.0
 42
2.0
 43
2.0
  0
MTEXT
  5
3CFF
330
3CF8
100
AcDbEntity
  8
DIM
 62
     0
100
AcDbMText
 10
29.04449848024305
 20
103.0748930139817
 30
0.0
 40
5.0
 41
0.0
 46
0.0
 71
     5
 72
     1
  1
\A1;57
  7
ＭＳ ゴシック
 73
     1
 44
1.0
  0
POINT
  5
3D00
330
3CF8
100
AcDbEntity
  8
Defpoints
 62
     0
100
AcDbPoint
 10
0.5
 20
62.50177050455927
 30
0.0
  0
POINT
  5
3D01
330
3CF8
100
AcDbEntity
  8
Defpoints
 62
     0
100
AcDbPoint
 10
57.58899696048613
 20
62.50177050455927
 30
0.0
  0
POINT
  5
3D02
330
3CF8
100
AcDbEntity
  8
Defpoints
 62
     0
100
AcDbPoint
 10
57.58899696048613
 20
97.57489301398171
 30
0.0
  0
ENDBLK
  5
3D03
330
3CF8
100
AcDbEntity
  8
0
100
AcDbBlockEnd
  0
BLOCK
  5
3D08
330
3D07
100
AcDbEntity
  8
0
100
AcDbBlockBegin
  2
*D10
 70
     1
 10
0.0
 20
0.0
 30
0.0
  3
*D10
  1

  0
LINE
  5
3D09
330
3D07
100
AcDbEntity
  8
DIM
 62
     0
370
    -2
100
AcDbLine
 10
10.10104278775087
 20
57.50177050455927
 30
0.0
 11
10.10104278775087
 21
19.15243768996962
 31
0.0
  0
LINE
  5
3D0A
330
3D07
100
AcDbEntity
  8
DIM
 62
     0
370
    -2
100
AcDbLine
 10
47.98795417273527
 20
57.50177050455927
 30
0.0
 11
47.98795417273527
 21
19.15243768996962
 31
0.0
  0
LINE
  5
3D0B
330
3D07
100
AcDbEntity
  8
DIM
 62
     0
370
    -2
100
AcDbLine
 10
12.10104278775087
 20
19.15243768996962
 30
0.0
 11
45.98795417273527
 21
19.15243768996962
 31
0.0
  0
INSERT
  5
3D0C
330
3D07
100
AcDbEntity
  8
DIM
 62
     0
370
    -2
100
AcDbBlockReference
  2
_DOT
 10
10.10104278775087
 20
19.15243768996962
 30
0.0
 41
2.0
 42
2.0
 43
2.0
 50
180.0
  0
INSERT
  5
3D0D
330
3D07
100
AcDbEntity
  8
DIM
 62
     0
370
    -2
100
AcDbBlockReference
  2
_DOT
 10
47.98795417273527
 20
19.15243768996962
 30
0.0
 41
2.0
 42
2.0
 43
2.0
  0
MTEXT
  5
3D0E
330
3D07
100
AcDbEntity
  8
DIM
 62
     0
100
AcDbMText
 10
29.04449848024307
 20
24.65243768996962
 30
0.0
 40
5.0
 41
0.0
 46
0.0
 71
     5
 72
     1
  1
\A1;38
  7
ＭＳ ゴシック
 73
     1
 44
1.0
  0
POINT
  5
3D0F
330
3D07
100
AcDbEntity
  8
Defpoints
 62
     0
100
AcDbPoint
 10
10.10104278775087
 20
62.50177050455927
 30
0.0
  0
POINT
  5
3D10
330
3D07
100
AcDbEntity
  8
Defpoints
 62
     0
100
AcDbPoint
 10
47.98795417273527
 20
62.50177050455927
 30
0.0
  0
POINT
  5
3D11
330
3D07
100
AcDbEntity
  8
Defpoints
 62
     0
100
AcDbPoint
 10
47.98795417273527
 20
19.15243768996962
 30
0.0
  0
ENDBLK
  5
3D12
330
3D07
100
AcDbEntity
  8
0
100
AcDbBlockEnd
  0
BLOCK
  5
3D25
330
3D24
100
AcDbEntity
  8
0
100
AcDbBlockBegin
  2
*D11
 70
     1
 10
0.0
 20
0.0
 30
0.0
  3
*D11
  1

  0
LINE
  5
3D27
330
3D24
100
AcDbEntity
  8
DIM
 62
     0
370
    -2
100
AcDbLine
 10
164.9604863221886
 20
338.6076747477204
 30
0.0
 11
164.9604863221886
 21
403.7539197665653
 31
0.0
  0
LINE
  5
3D28
330
3D24
100
AcDbEntity
  8
DIM
 62
     0
370
    -2
100
AcDbLine
 10
279.1384802431609
 20
338.6076747477204
 30
0.0
 11
279.1384802431609
 21
403.7539197665653
 31
0.0
  0
LINE
  5
3D29
330
3D24
100
AcDbEntity
  8
DIM
 62
     0
370
    -2
100
AcDbLine
 10
166.9604863221886
 20
403.7539197665653
 30
0.0
 11
277.1384802431609
 21
403.7539197665653
 31
0.0
  0
INSERT
  5
3D2A
330
3D24
100
AcDbEntity
  8
DIM
 62
     0
370
    -2
100
AcDbBlockReference
  2
_DOT
 10
164.9604863221886
 20
403.7539197665653
 30
0.0
 41
2.0
 42
2.0
 43
2.0
 50
180.0
  0
INSERT
  5
3D2B
330
3D24
100
AcDbEntity
  8
DIM
 62
     0
370
    -2
100
AcDbBlockReference
  2
_DOT
 10
279.1384802431609
 20
403.7539197665653
 30
0.0
 41
2.0
 42
2.0
 43
2.0
  0
MTEXT
  5
3D2C
330
3D24
100
AcDbEntity
  8
DIM
 62
     0
100
AcDbMText
 10
222.0494832826747
 20
409.2539197665653
 30
0.0
 40
5.0
 41
0.0
 46
0.0
 71
     5
 72
     1
  1
\A1;114
  7
ＭＳ ゴシック
 73
     1
 44
1.0
  0
POINT
  5
3D2D
330
3D24
100
AcDbEntity
  8
Defpoints
 62
     0
100
AcDbPoint
 10
164.9604863221886
 20
333.6076747477204
 30
0.0
  0
POINT
  5
3D2E
330
3D24
100
AcDbEntity
  8
Defpoints
 62
     0
100
AcDbPoint
 10
279.1384802431609
 20
333.6076747477204
 30
0.0
  0
POINT
  5
3D2F
330
3D24
100
AcDbEntity
  8
Defpoints
 62
     0
100
AcDbPoint
 10
279.1384802431609
 20
403.7539197665653
 30
0.0
  0
ENDBLK
  5
3D26
330
3D24
100
AcDbEntity
  8
0
100
AcDbBlockEnd
  0
BLOCK
  5
3D31
330
3D30
100
AcDbEntity
  8
0
100
AcDbBlockBegin
  2
*D12
 70
     1
 10
0.0
 20
0.0
 30
0.0
  3
*D12
  1

  0
LINE
  5
3D33
330
3D30
100
AcDbEntity
  8
DIM
 62
     0
370
    -2
100
AcDbLine
 10
184.1625718976903
 20
328.6076747477204
 30
0.0
 11
184.1625718976903
 21
246.9090091185411
 31
0.0
  0
LINE
  5
3D34
330
3D30
100
AcDbEntity
  8
DIM
 62
     0
370
    -2
100
AcDbLine
 10
259.9363946676591
 20
328.6076747477204
 30
0.0
 11
259.9363946676591
 21
246.9090091185411
 31
0.0
  0
LINE
  5
3D35
330
3D30
100
AcDbEntity
  8
DIM
 62
     0
370
    -2
100
AcDbLine
 10
186.1625718976903
 20
246.9090091185411
 30
0.0
 11
257.9363946676591
 21
246.9090091185411
 31
0.0
  0
INSERT
  5
3D36
330
3D30
100
AcDbEntity
  8
DIM
 62
     0
370
    -2
100
AcDbBlockReference
  2
_DOT
 10
184.1625718976903
 20
246.9090091185411
 30
0.0
 41
2.0
 42
2.0
 43
2.0
 50
180.0
  0
INSERT
  5
3D37
330
3D30
100
AcDbEntity
  8
DIM
 62
     0
370
    -2
100
AcDbBlockReference
  2
_DOT
 10
259.9363946676591
 20
246.9090091185411
 30
0.0
 41
2.0
 42
2.0
 43
2.0
  0
MTEXT
  5
3D38
330
3D30
100
AcDbEntity
  8
DIM
 62
     0
100
AcDbMText
 10
222.0494832826747
 20
252.4090091185411
 30
0.0
 40
5.0
 41
0.0
 46
0.0
 71
     5
 72
     1
  1
\A1;76
  7
ＭＳ ゴシック
 73
     1
 44
1.0
  0
POINT
  5
3D39
330
3D30
100
AcDbEntity
  8
Defpoints
 62
     0
100
AcDbPoint
 10
184.1625718976903
 20
333.6076747477204
 30
0.0
  0
POINT
  5
3D3A
330
3D30
100
AcDbEntity
  8
Defpoints
 62
     0
100
AcDbPoint
 10
259.9363946676591
 20
333.6076747477204
 30
0.0
  0
POINT
  5
3D3B
330
3D30
100
AcDbEntity
  8
Defpoints
 62
     0
100
AcDbPoint
 10
259.9363946676591
 20
246.9090091185411
 30
0.0
  0
ENDBLK
  5
3D32
330
3D30
100
AcDbEntity
  8
0
100
AcDbBlockEnd
  0
BLOCK
  5
3D5F
330
3D5C
100
AcDbEntity
  8
0
100
AcDbBlockBegin
  2
_Open30
 70
     0
 10
0.0
 20
0.0
 30
0.0
  3
_Open30
  1

  0
LINE
  5
3D60
330
3D5C
100
AcDbEntity
  8
0
 62
     0
370
    -2
100
AcDbLine
 10
-1.0
 20
0.2679491899998538
 30
0.0
 11
0.0
 21
0.0
 31
0.0
  0
LINE
  5
3D61
330
3D5C
100
AcDbEntity
  8
0
 62
     0
370
    -2
100
AcDbLine
 10
0.0
 20
0.0
 30
0.0
 11
-1.0
 21
-0.2679491899998538
 31
0.0
  0
LINE
  5
3D62
330
3D5C
100
AcDbEntity
  8
0
 62
     0
370
    -2
100
AcDbLine
 10
0.0
 20
0.0
 30
0.0
 11
-1.0
 21
0.0
 31
0.0
  0
ENDBLK
  5
3D63
330
3D5C
100
AcDbEntity
  8
0
100
AcDbBlockEnd
  0
BLOCK
  5
3D65
330
3D64
100
AcDbEntity
  8
0
100
AcDbBlockBegin
  2
_Origin
 70
     0
 10
0.0
 20
0.0
 30
0.0
  3
_Origin
  1

  0
CIRCLE
  5
3D66
330
3D64
100
AcDbEntity
  8
0
  6
ByBlock
 62
     0
370
    -2
100
AcDbCircle
 10
0.0
 20
0.0
 30
0.0
 40
0.5
  0
LINE
  5
3D67
330
3D64
100
AcDbEntity
  8
0
  6
ByBlock
 62
     0
370
    -2
100
AcDbLine
 10
0.0
 20
0.0
 30
0.0
 11
-1.0
 21
0.0
 31
0.0
  0
ENDBLK
  5
3D68
330
3D64
100
AcDbEntity
  8
0
100
AcDbBlockEnd
  0
BLOCK
  5
3D8F
330
3D8E
100
AcDbEntity
  8
0
100
AcDbBlockBegin
  2
*D15
 70
     1
 10
0.0
 20
0.0
 30
0.0
  3
*D15
  1

  0
LINE
  5
3D90
330
3D8E
100
AcDbEntity
  8
DIM
 62
     0
370
    -2
100
AcDbLine
 10
1.499999999999886
 20
339.6333330623177
 30
0.0
 11
1.499999999999886
 21
447.1025673560956
 31
0.0
  0
LINE
  5
3D91
330
3D8E
100
AcDbEntity
  8
DIM
 62
     0
370
    -2
100
AcDbLine
 10
601.5
 20
339.6333330623187
 30
0.0
 11
601.5
 21
447.1025673560956
 31
0.0
  0
LINE
  5
3D92
330
3D8E
100
AcDbEntity
  8
DIM
 62
     0
370
    -2
100
AcDbLine
 10
3.499999999999886
 20
447.1025673560956
 30
0.0
 11
599.5
 21
447.1025673560956
 31
0.0
  0
INSERT
  5
3D93
330
3D8E
100
AcDbEntity
  8
DIM
 62
     0
370
    -2
100
AcDbBlockReference
  2
_DOT
 10
1.499999999999886
 20
447.1025673560956
 30
0.0
 41
2.0
 42
2.0
 43
2.0
 50
180.0
  0
INSERT
  5
3D94
330
3D8E
100
AcDbEntity
  8
DIM
 62
     0
370
    -2
100
AcDbBlockReference
  2
_DOT
 10
601.5
 20
447.1025673560956
 30
0.0
 41
2.0
 42
2.0
 43
2.0
  0
MTEXT
  5
3D95
330
3D8E
100
AcDbEntity
  8
DIM
 62
     0
100
AcDbMText
 10
301.4999999999999
 20
452.6025673560956
 30
0.0
 40
5.0
 41
0.0
 46
0.0
 71
     5
 72
     1
  1
\A1;600
  7
ＭＳ ゴシック
 73
     1
 44
1.0
  0
POINT
  5
3D96
330
3D8E
100
AcDbEntity
  8
Defpoints
 62
     0
100
AcDbPoint
 10
1.499999999999886
 20
334.6333330623177
 30
0.0
  0
POINT
  5
3D97
330
3D8E
100
AcDbEntity
  8
Defpoints
 62
     0
100
AcDbPoint
 10
601.5
 20
334.6333330623187
 30
0.0
  0
POINT
  5
3D98
330
3D8E
100
AcDbEntity
  8
Defpoints
 62
     0
100
AcDbPoint
 10
601.5
 20
447.1025673560956
 30
0.0
  0
ENDBLK
  5
3D99
330
3D8E
100
AcDbEntity
  8
0
100
AcDbBlockEnd
  0
BLOCK
  5
3D9E
330
3D9D
100
AcDbEntity
  8
0
100
AcDbBlockBegin
  2
*D16
 70
     1
 10
0.0
 20
0.0
 30
0.0
  3
*D16
  1

  0
LINE
  5
3D9F
330
3D9D
100
AcDbEntity
  8
DIM
 62
     0
370
    -2
100
AcDbLine
 10
710.2238209053022
 20
343.6333330554037
 30
0.0
 11
679.9554759260565
 21
343.6333330554037
 31
0.0
  0
LINE
  5
3DA0
330
3D9D
100
AcDbEntity
  8
DIM
 62
     0
370
    -2
100
AcDbLine
 10
710.2238209053022
 20
325.6333330554046
 30
0.0
 11
679.9554759260565
 21
325.6333330554046
 31
0.0
  0
LINE
  5
3DA1
330
3D9D
100
AcDbEntity
  8
DIM
 62
     0
370
    -2
100
AcDbLine
 10
679.9554759260565
 20
343.6333330554037
 30
0.0
 11
679.9554759260565
 21
325.6333330554046
 31
0.0
  0
LINE
  5
3DA2
330
3D9D
100
AcDbEntity
  8
DIM
 62
     0
370
    -2
100
AcDbLine
 10
679.9554759260565
 20
345.6333330554037
 30
0.0
 11
679.9554759260565
 21
347.6333330554037
 31
0.0
  0
LINE
  5
3DA3
330
3D9D
100
AcDbEntity
  8
DIM
 62
     0
370
    -2
100
AcDbLine
 10
679.9554759260565
 20
323.6333330554046
 30
0.0
 11
679.9554759260565
 21
321.6333330554046
 31
0.0
  0
INSERT
  5
3DA4
330
3D9D
100
AcDbEntity
  8
DIM
 62
     0
370
    -2
100
AcDbBlockReference
  2
_DOT
 10
679.9554759260565
 20
343.6333330554037
 30
0.0
 41
2.0
 42
2.0
 43
2.0
 50
270.0
  0
INSERT
  5
3DA5
330
3D9D
100
AcDbEntity
  8
DIM
 62
     0
370
    -2
100
AcDbBlockReference
  2
_DOT
 10
679.9554759260565
 20
325.6333330554046
 30
0.0
 41
2.0
 42
2.0
 43
2.0
 50
90.0
  0
MTEXT
  5
3DA6
330
3D9D
100
AcDbEntity
  8
DIM
 62
     0
100
AcDbMText
 10
674.4545380743621
 20
334.6333330554041
 30
0.0
 40
5.0
 41
0.0
 46
0.0
 71
     5
 72
     1
  1
\A1;%%c18
  7
ＭＳ ゴシック
 11
0.0
 21
1.0
 31
0.0
 73
     1
 44
1.0
  0
POINT
  5
3DA7
330
3D9D
100
AcDbEntity
  8
Defpoints
 62
     0
100
AcDbPoint
 10
715.2238209053022
 20
343.6333330554037
 30
0.0
  0
POINT
  5
3DCD
330
3D9D
100
AcDbEntity
  8
Defpoints
 62
     0
100
AcDbPoint
 10
715.2238209053022
 20
325.6333330554046
 30
0.0
  0
POINT
  5
3DCE
330
3D9D
100
AcDbEntity
  8
Defpoints
 62
     0
100
AcDbPoint
 10
679.9554759260565
 20
325.6333330554046
 30
0.0
  0
ENDBLK
  5
3DA8
330
3D9D
100
AcDbEntity
  8
0
100
AcDbBlockEnd
  0
BLOCK
  5
3DB1
330
3DB0
100
AcDbEntity
  8
0
100
AcDbBlockBegin
  2
*D17
 70
     1
 10
0.0
 20
0.0
 30
0.0
  3
*D17
  1

  0
LINE
  5
3DB2
330
3DB0
100
AcDbEntity
  8
DIM
 62
     0
370
    -2
100
AcDbLine
 10
10.50000333786031
 20
75.4999982714653
 30
0.0
 11
10.50000333786033
 21
168.9320169323024
 31
0.0
  0
LINE
  5
3DB3
330
3DB0
100
AcDbEntity
  8
DIM
 62
     0
370
    -2
100
AcDbLine
 10
592.4999966621399
 20
75.4999982714653
 30
0.0
 11
592.4999966621399
 21
168.9320169323024
 31
0.0
  0
LINE
  5
3DB4
330
3DB0
100
AcDbEntity
  8
DIM
 62
     0
370
    -2
100
AcDbLine
 10
12.50000333786033
 20
168.9320169323024
 30
0.0
 11
590.4999966621399
 21
168.9320169323024
 31
0.0
  0
INSERT
  5
3DB5
330
3DB0
100
AcDbEntity
  8
DIM
 62
     0
370
    -2
100
AcDbBlockReference
  2
_DOT
 10
10.50000333786033
 20
168.9320169323024
 30
0.0
 41
2.0
 42
2.0
 43
2.0
 50
180.0
  0
INSERT
  5
3DB6
330
3DB0
100
AcDbEntity
  8
DIM
 62
     0
370
    -2
100
AcDbBlockReference
  2
_DOT
 10
592.4999966621399
 20
168.9320169323024
 30
0.0
 41
2.0
 42
2.0
 43
2.0
  0
MTEXT
  5
3DB7
330
3DB0
100
AcDbEntity
  8
DIM
 62
     0
100
AcDbMText
 10
301.5000000000001
 20
174.4329547839968
 30
0.0
 40
5.0
 41
0.0
 46
0.0
 71
     5
 72
     1
  1
\A1;582
  7
ＭＳ ゴシック
 73
     1
 44
1.0
  0
POINT
  5
3DB8
330
3DB0
100
AcDbEntity
  8
Defpoints
 62
     0
100
AcDbPoint
 10
10.50000333786031
 20
70.4999982714653
 30
0.0
  0
POINT
  5
3DB9
330
3DB0
100
AcDbEntity
  8
Defpoints
 62
     0
100
AcDbPoint
 10
592.4999966621399
 20
70.4999982714653
 30
0.0
  0
POINT
  5
3DBA
330
3DB0
100
AcDbEntity
  8
Defpoints
 62
     0
100
AcDbPoint
 10
592.4999966621399
 20
168.9320169323024
 30
0.0
  0
ENDBLK
  5
3DBB
330
3DB0
100
AcDbEntity
  8
0
100
AcDbBlockEnd
  0
BLOCK
  5
3DC0
330
3DBF
100
AcDbEntity
  8
0
100
AcDbBlockBegin
  2
*D18
 70
     1
 10
0.0
 20
0.0
 30
0.0
  3
*D18
  1

  0
LINE
  5
3DC1
330
3DBF
100
AcDbEntity
  8
DIM
 62
     0
370
    -2
100
AcDbLine
 10
606.5
 20
70.4999982714653
 30
0.0
 11
672.7030837825646
 21
70.4999982714653
 31
0.0
  0
LINE
  5
3DC2
330
3DBF
100
AcDbEntity
  8
DIM
 62
     0
370
    -2
100
AcDbLine
 10
606.5
 20
1.5
 30
0.0
 11
672.7030837825646
 21
1.499999999999996
 31
0.0
  0
LINE
  5
3DC3
330
3DBF
100
AcDbEntity
  8
DIM
 62
     0
370
    -2
100
AcDbLine
 10
672.7030837825646
 20
68.4999982714653
 30
0.0
 11
672.7030837825646
 21
3.499999999999996
 31
0.0
  0
INSERT
  5
3DC4
330
3DBF
100
AcDbEntity
  8
DIM
 62
     0
370
    -2
100
AcDbBlockReference
  2
_DOT
 10
672.7030837825646
 20
70.4999982714653
 30
0.0
 41
2.0
 42
2.0
 43
2.0
 50
90.0
  0
INSERT
  5
3DC5
330
3DBF
100
AcDbEntity
  8
DIM
 62
     0
370
    -2
100
AcDbBlockReference
  2
_DOT
 10
672.7030837825646
 20
1.499999999999996
 30
0.0
 41
2.0
 42
2.0
 43
2.0
 50
270.0
  0
MTEXT
  5
3DC6
330
3DBF
100
AcDbEntity
  8
DIM
 62
     0
100
AcDbMText
 10
667.2030837825646
 20
35.99999913573265
 30
0.0
 40
5.0
 41
0.0
 46
0.0
 71
     5
 72
     1
  1
\A1;69
  7
ＭＳ ゴシック
 11
0.0
 21
1.0
 31
0.0
 73
     1
 44
1.0
  0
POINT
  5
3DC7
330
3DBF
100
AcDbEntity
  8
Defpoints
 62
     0
100
AcDbPoint
 10
601.5
 20
70.4999982714653
 30
0.0
  0
POINT
  5
3DC8
330
3DBF
100
AcDbEntity
  8
Defpoints
 62
     0
100
AcDbPoint
 10
601.5
 20
1.5
 30
0.0
  0
POINT
  5
3DC9
330
3DBF
100
AcDbEntity
  8
Defpoints
 62
     0
100
AcDbPoint
 10
672.7030837825646
 20
1.499999999999996
 30
0.0
  0
ENDBLK
  5
3DCA
330
3DBF
100
AcDbEntity
  8
0
100
AcDbBlockEnd
  0
BLOCK
  5
3DF5
330
3DF4
100
AcDbEntity
  8
0
100
AcDbBlockBegin
  2
*D19
 70
     1
 10
0.0
 20
0.0
 30
0.0
  3
*D19
  1

  0
LINE
  5
3DF7
330
3DF4
100
AcDbEntity
  8
DIM
 62
     0
370
    -2
100
AcDbLine
 10
515.9274991644287
 20
455.766537763537
 30
0.0
 11
515.9274991644287
 21
563.235772057315
 31
0.0
  0
LINE
  5
3DF8
330
3DF4
100
AcDbEntity
  8
DIM
 62
     0
370
    -2
100
AcDbLine
 10
1115.927499164429
 20
455.7665377635381
 30
0.0
 11
1115.927499164429
 21
563.235772057315
 31
0.0
  0
LINE
  5
3DF9
330
3DF4
100
AcDbEntity
  8
DIM
 62
     0
370
    -2
100
AcDbLine
 10
517.9274991644287
 20
563.235772057315
 30
0.0
 11
1113.927499164429
 21
563.235772057315
 31
0.0
  0
INSERT
  5
3DFA
330
3DF4
100
AcDbEntity
  8
DIM
 62
     0
370
    -2
100
AcDbBlockReference
  2
_DOT
 10
515.9274991644287
 20
563.235772057315
 30
0.0
 41
2.0
 42
2.0
 43
2.0
 50
180.0
  0
INSERT
  5
3DFB
330
3DF4
100
AcDbEntity
  8
DIM
 62
     0
370
    -2
100
AcDbBlockReference
  2
_DOT
 10
1115.927499164429
 20
563.235772057315
 30
0.0
 41
2.0
 42
2.0
 43
2.0
  0
MTEXT
  5
3DFC
330
3DF4
100
AcDbEntity
  8
DIM
 62
     0
100
AcDbMText
 10
815.9274991644288
 20
568.735772057315
 30
0.0
 40
5.0
 41
0.0
 46
0.0
 71
     5
 72
     1
  1
\A1;600
  7
ＭＳ ゴシック
 73
     1
 44
1.0
  0
POINT
  5
3DFD
330
3DF4
100
AcDbEntity
  8
Defpoints
 62
     0
100
AcDbPoint
 10
515.9274991644287
 20
450.766537763537
 30
0.0
  0
POINT
  5
3DFE
330
3DF4
100
AcDbEntity
  8
Defpoints
 62
     0
100
AcDbPoint
 10
1115.927499164429
 20
450.7665377635381
 30
0.0
  0
POINT
  5
3DFF
330
3DF4
100
AcDbEntity
  8
Defpoints
 62
     0
100
AcDbPoint
 10
1115.927499164429
 20
563.235772057315
 30
0.0
  0
ENDBLK
  5
3DF6
330
3DF4
100
AcDbEntity
  8
0
100
AcDbBlockEnd
  0
BLOCK
  5
3E01
330
3E00
100
AcDbEntity
  8
0
100
AcDbBlockBegin
  2
*D20
 70
     1
 10
0.0
 20
0.0
 30
0.0
  3
*D20
  1

  0
LINE
  5
3E03
330
3E00
100
AcDbEntity
  8
DIM
 62
     0
370
    -2
100
AcDbLine
 10
1224.651320069731
 20
459.7665377566231
 30
0.0
 11
1194.382975090485
 21
459.7665377566231
 31
0.0
  0
LINE
  5
3E04
330
3E00
100
AcDbEntity
  8
DIM
 62
     0
370
    -2
100
AcDbLine
 10
1224.651320069731
 20
441.766537756624
 30
0.0
 11
1194.382975090485
 21
441.766537756624
 31
0.0
  0
LINE
  5
3E05
330
3E00
100
AcDbEntity
  8
DIM
 62
     0
370
    -2
100
AcDbLine
 10
1194.382975090485
 20
459.7665377566231
 30
0.0
 11
1194.382975090485
 21
441.766537756624
 31
0.0
  0
LINE
  5
3E06
330
3E00
100
AcDbEntity
  8
DIM
 62
     0
370
    -2
100
AcDbLine
 10
1194.382975090485
 20
461.7665377566231
 30
0.0
 11
1194.382975090485
 21
463.7665377566231
 31
0.0
  0
LINE
  5
3E07
330
3E00
100
AcDbEntity
  8
DIM
 62
     0
370
    -2
100
AcDbLine
 10
1194.382975090485
 20
439.766537756624
 30
0.0
 11
1194.382975090485
 21
437.766537756624
 31
0.0
  0
INSERT
  5
3E08
330
3E00
100
AcDbEntity
  8
DIM
 62
     0
370
    -2
100
AcDbBlockReference
  2
_DOT
 10
1194.382975090485
 20
459.7665377566231
 30
0.0
 41
2.0
 42
2.0
 43
2.0
 50
270.0
  0
INSERT
  5
3E09
330
3E00
100
AcDbEntity
  8
DIM
 62
     0
370
    -2
100
AcDbBlockReference
  2
_DOT
 10
1194.382975090485
 20
441.766537756624
 30
0.0
 41
2.0
 42
2.0
 43
2.0
 50
90.0
  0
MTEXT
  5
3E0A
330
3E00
100
AcDbEntity
  8
DIM
 62
     0
100
AcDbMText
 10
1188.882037238791
 20
450.7665377566235
 30
0.0
 40
5.0
 41
0.0
 46
0.0
 71
     5
 72
     1
  1
\A1;%%c18
  7
ＭＳ ゴシック
 11
0.0
 21
1.0
 31
0.0
 73
     1
 44
1.0
  0
POINT
  5
3E0B
330
3E00
100
AcDbEntity
  8
Defpoints
 62
     0
100
AcDbPoint
 10
1229.651320069731
 20
459.7665377566231
 30
0.0
  0
POINT
  5
3E0C
330
3E00
100
AcDbEntity
  8
Defpoints
 62
     0
100
AcDbPoint
 10
1229.651320069731
 20
441.766537756624
 30
0.0
  0
POINT
  5
3E0D
330
3E00
100
AcDbEntity
  8
Defpoints
 62
     0
100
AcDbPoint
 10
1194.382975090485
 20
441.766537756624
 30
0.0
  0
ENDBLK
  5
3E02
330
3E00
100
AcDbEntity
  8
0
100
AcDbBlockEnd
  0
BLOCK
  5
3E0F
330
3E0E
100
AcDbEntity
  8
0
100
AcDbBlockBegin
  2
*D21
 70
     1
 10
0.0
 20
0.0
 30
0.0
  3
*D21
  1

  0
LINE
  5
3E11
330
3E0E
100
AcDbEntity
  8
DIM
 62
     0
370
    -2
100
AcDbLine
 10
524.9275025022891
 20
191.6332029726847
 30
0.0
 11
524.9275025022891
 21
285.0652216335218
 31
0.0
  0
LINE
  5
3E12
330
3E0E
100
AcDbEntity
  8
DIM
 62
     0
370
    -2
100
AcDbLine
 10
1106.927495826569
 20
191.6332029726847
 30
0.0
 11
1106.927495826569
 21
285.0652216335218
 31
0.0
  0
LINE
  5
3E13
330
3E0E
100
AcDbEntity
  8
DIM
 62
     0
370
    -2
100
AcDbLine
 10
526.9275025022891
 20
285.0652216335218
 30
0.0
 11
1104.927495826569
 21
285.0652216335218
 31
0.0
  0
INSERT
  5
3E14
330
3E0E
100
AcDbEntity
  8
DIM
 62
     0
370
    -2
100
AcDbBlockReference
  2
_DOT
 10
524.9275025022891
 20
285.0652216335218
 30
0.0
 41
2.0
 42
2.0
 43
2.0
 50
180.0
  0
INSERT
  5
3E15
330
3E0E
100
AcDbEntity
  8
DIM
 62
     0
370
    -2
100
AcDbBlockReference
  2
_DOT
 10
1106.927495826569
 20
285.0652216335218
 30
0.0
 41
2.0
 42
2.0
 43
2.0
  0
MTEXT
  5
3E16
330
3E0E
100
AcDbEntity
  8
DIM
 62
     0
100
AcDbMText
 10
815.9274991644289
 20
290.5661594852162
 30
0.0
 40
5.0
 41
0.0
 46
0.0
 71
     5
 72
     1
  1
\A1;582
  7
ＭＳ ゴシック
 73
     1
 44
1.0
  0
POINT
  5
3E17
330
3E0E
100
AcDbEntity
  8
Defpoints
 62
     0
100
AcDbPoint
 10
524.9275025022891
 20
186.6332029726847
 30
0.0
  0
POINT
  5
3E18
330
3E0E
100
AcDbEntity
  8
Defpoints
 62
     0
100
AcDbPoint
 10
1106.927495826569
 20
186.6332029726847
 30
0.0
  0
POINT
  5
3E19
330
3E0E
100
AcDbEntity
  8
Defpoints
 62
     0
100
AcDbPoint
 10
1106.927495826569
 20
285.0652216335218
 30
0.0
  0
ENDBLK
  5
3E10
330
3E0E
100
AcDbEntity
  8
0
100
AcDbBlockEnd
  0
BLOCK
  5
3E1B
330
3E1A
100
AcDbEntity
  8
0
100
AcDbBlockBegin
  2
*D22
 70
     1
 10
0.0
 20
0.0
 30
0.0
  3
*D22
  1

  0
LINE
  5
3E1D
330
3E1A
100
AcDbEntity
  8
DIM
 62
     0
370
    -2
100
AcDbLine
 10
1120.927499164429
 20
186.6332029726847
 30
0.0
 11
1187.130582946993
 21
186.6332029726847
 31
0.0
  0
LINE
  5
3E1E
330
3E1A
100
AcDbEntity
  8
DIM
 62
     0
370
    -2
100
AcDbLine
 10
1120.927499164429
 20
117.6332047012194
 30
0.0
 11
1187.130582946993
 21
117.6332047012194
 31
0.0
  0
LINE
  5
3E1F
330
3E1A
100
AcDbEntity
  8
DIM
 62
     0
370
    -2
100
AcDbLine
 10
1187.130582946993
 20
184.6332029726847
 30
0.0
 11
1187.130582946993
 21
119.6332047012194
 31
0.0
  0
INSERT
  5
3E20
330
3E1A
100
AcDbEntity
  8
DIM
 62
     0
370
    -2
100
AcDbBlockReference
  2
_DOT
 10
1187.130582946993
 20
186.6332029726847
 30
0.0
 41
2.0
 42
2.0
 43
2.0
 50
90.0
  0
INSERT
  5
3E21
330
3E1A
100
AcDbEntity
  8
DIM
 62
     0
370
    -2
100
AcDbBlockReference
  2
_DOT
 10
1187.130582946993
 20
117.6332047012194
 30
0.0
 41
2.0
 42
2.0
 43
2.0
 50
270.0
  0
MTEXT
  5
3E22
330
3E1A
100
AcDbEntity
  8
DIM
 62
     0
100
AcDbMText
 10
1181.630582946993
 20
152.133203836952
 30
0.0
 40
5.0
 41
0.0
 46
0.0
 71
     5
 72
     1
  1
\A1;69
  7
ＭＳ ゴシック
 11
0.0
 21
1.0
 31
0.0
 73
     1
 44
1.0
  0
POINT
  5
3E23
330
3E1A
100
AcDbEntity
  8
Defpoints
 62
     0
100
AcDbPoint
 10
1115.927499164429
 20
186.6332029726847
 30
0.0
  0
POINT
  5
3E24
330
3E1A
100
AcDbEntity
  8
Defpoints
 62
     0
100
AcDbPoint
 10
1115.927499164429
 20
117.6332047012194
 30
0.0
  0
POINT
  5
3E25
330
3E1A
100
AcDbEntity
  8
Defpoints
 62
     0
100
AcDbPoint
 10
1187.130582946993
 20
117.6332047012194
 30
0.0
  0
ENDBLK
  5
3E1C
330
3E1A
100
AcDbEntity
  8
0
100
AcDbBlockEnd
  0
BLOCK
  5
3EF8
330
3EF7
100
AcDbEntity
  8
0
100
AcDbBlockBegin
  2
*D23
 70
     1
 10
0.0
 20
0.0
 30
0.0
  3
*D23
  1

  0
LINE
  5
3EFA
330
3EF7
100
AcDbEntity
  8
DIM
 62
     0
370
    -2
100
AcDbLine
 10
49.57286374535047
 20
285.1766060950847
 30
0.0
 11
49.57286374535047
 21
311.2676215064819
 31
0.0
  0
LINE
  5
3EFB
330
3EF7
100
AcDbEntity
  8
DIM
 62
     0
370
    -2
100
AcDbLine
 10
269.7165038666234
 20
285.1766060950848
 30
0.0
 11
269.7165038666234
 21
311.2676215064819
 31
0.0
  0
LINE
  5
3EFC
330
3EF7
100
AcDbEntity
  8
DIM
 62
     0
370
    -2
100
AcDbLine
 10
51.57286374535047
 20
311.2676215064819
 30
0.0
 11
267.7165038666234
 21
311.2676215064819
 31
0.0
  0
INSERT
  5
3EFD
330
3EF7
100
AcDbEntity
  8
DIM
 62
     0
370
    -2
100
AcDbBlockReference
  2
_DOT
 10
49.57286374535047
 20
311.2676215064819
 30
0.0
 41
2.0
 42
2.0
 43
2.0
 50
180.0
  0
INSERT
  5
3EFE
330
3EF7
100
AcDbEntity
  8
DIM
 62
     0
370
    -2
100
AcDbBlockReference
  2
_DOT
 10
269.7165038666234
 20
311.2676215064819
 30
0.0
 41
2.0
 42
2.0
 43
2.0
  0
MTEXT
  5
3EFF
330
3EF7
100
AcDbEntity
  8
DIM
 62
     0
100
AcDbMText
 10
159.6446838059869
 20
316.7685593581763
 30
0.0
 40
5.0
 41
0.0
 46
0.0
 71
     5
 72
     1
  1
\A1;220
  7
ＭＳ ゴシック
 73
     1
 44
1.0
  0
POINT
  5
3F00
330
3EF7
100
AcDbEntity
  8
Defpoints
 62
     0
100
AcDbPoint
 10
49.57286374535047
 20
280.1766060950847
 30
0.0
  0
POINT
  5
3F01
330
3EF7
100
AcDbEntity
  8
Defpoints
 62
     0
100
AcDbPoint
 10
269.7165038666234
 20
280.1766060950848
 30
0.0
  0
POINT
  5
3F02
330
3EF7
100
AcDbEntity
  8
Defpoints
 62
     0
100
AcDbPoint
 10
269.7165038666234
 20
311.2676215064819
 30
0.0
  0
ENDBLK
  5
3EF9
330
3EF7
100
AcDbEntity
  8
0
100
AcDbBlockEnd
  0
BLOCK
  5
3F07
330
3F06
100
AcDbEntity
  8
0
100
AcDbBlockBegin
  2
*D24
 70
     1
 10
0.0
 20
0.0
 30
0.0
  3
*D24
  1

  0
LINE
  5
3F09
330
3F06
100
AcDbEntity
  8
DIM
 62
     0
370
    -2
100
AcDbLine
 10
281.9165065369112
 20
192.8399247979739
 30
0.0
 11
311.6378906536338
 21
192.8399247979739
 31
0.0
  0
LINE
  5
3F0A
330
3F06
100
AcDbEntity
  8
DIM
 62
     0
370
    -2
100
AcDbLine
 10
281.9165065369112
 20
248.0399234151461
 30
0.0
 11
311.6378906536338
 21
248.0399234151461
 31
0.0
  0
LINE
  5
3F0B
330
3F06
100
AcDbEntity
  8
DIM
 62
     0
370
    -2
100
AcDbLine
 10
311.6378906536338
 20
194.8399247979739
 30
0.0
 11
311.6378906536338
 21
246.0399234151461
 31
0.0
  0
INSERT
  5
3F0C
330
3F06
100
AcDbEntity
  8
DIM
 62
     0
370
    -2
100
AcDbBlockReference
  2
_DOT
 10
311.6378906536338
 20
192.8399247979739
 30
0.0
 41
2.0
 42
2.0
 43
2.0
 50
270.0
  0
INSERT
  5
3F0D
330
3F06
100
AcDbEntity
  8
DIM
 62
     0
370
    -2
100
AcDbBlockReference
  2
_DOT
 10
311.6378906536338
 20
248.0399234151461
 30
0.0
 41
2.0
 42
2.0
 43
2.0
 50
90.0
  0
MTEXT
  5
3F0E
330
3F06
100
AcDbEntity
  8
DIM
 62
     0
100
AcDbMText
 10
306.1369528019394
 20
220.43992410656
 30
0.0
 40
5.0
 41
0.0
 46
0.0
 71
     5
 72
     1
  1
\A1;55
  7
ＭＳ ゴシック
 11
0.0
 21
1.0
 31
0.0
 73
     1
 44
1.0
  0
POINT
  5
3F0F
330
3F06
100
AcDbEntity
  8
Defpoints
 62
     0
100
AcDbPoint
 10
276.9165065369112
 20
192.8399247979739
 30
0.0
  0
POINT
  5
3F10
330
3F06
100
AcDbEntity
  8
Defpoints
 62
     0
100
AcDbPoint
 10
276.9165065369112
 20
248.0399234151461
 30
0.0
  0
POINT
  5
3F11
330
3F06
100
AcDbEntity
  8
Defpoints
 62
     0
100
AcDbPoint
 10
311.6378906536338
 20
248.0399234151461
 30
0.0
  0
ENDBLK
  5
3F08
330
3F06
100
AcDbEntity
  8
0
100
AcDbBlockEnd
  0
BLOCK
  5
3F71
330
3F70
100
AcDbEntity
  8
0
100
AcDbBlockBegin
  2
*D25
 70
     1
 10
0.0
 20
0.0
 30
0.0
  3
*D25
  1

  0
LINE
  5
3F72
330
3F70
100
AcDbEntity
  8
DIM
 62
     0
370
    -2
100
AcDbLine
 10
7.200002670288683
 20
103.8132936712834
 30
0.0
 11
7.200002670288683
 21
129.9043090826806
 31
0.0
  0
LINE
  5
3F73
330
3F70
100
AcDbEntity
  8
DIM
 62
     0
370
    -2
100
AcDbLine
 10
227.3436427915616
 20
103.8132936712835
 30
0.0
 11
227.3436427915616
 21
129.9043090826806
 31
0.0
  0
LINE
  5
3F74
330
3F70
100
AcDbEntity
  8
DIM
 62
     0
370
    -2
100
AcDbLine
 10
9.200002670288683
 20
129.9043090826806
 30
0.0
 11
225.3436427915616
 21
129.9043090826806
 31
0.0
  0
INSERT
  5
3F75
330
3F70
100
AcDbEntity
  8
DIM
 62
     0
370
    -2
100
AcDbBlockReference
  2
_DOT
 10
7.200002670288683
 20
129.9043090826806
 30
0.0
 41
2.0
 42
2.0
 43
2.0
 50
180.0
  0
INSERT
  5
3F76
330
3F70
100
AcDbEntity
  8
DIM
 62
     0
370
    -2
100
AcDbBlockReference
  2
_DOT
 10
227.3436427915616
 20
129.9043090826806
 30
0.0
 41
2.0
 42
2.0
 43
2.0
  0
MTEXT
  5
3F77
330
3F70
100
AcDbEntity
  8
DIM
 62
     0
100
AcDbMText
 10
117.2718227309251
 20
135.405246934375
 30
0.0
 40
5.0
 41
0.0
 46
0.0
 71
     5
 72
     1
  1
\A1;220
  7
ＭＳ ゴシック
 73
     1
 44
1.0
  0
POINT
  5
3F78
330
3F70
100
AcDbEntity
  8
Defpoints
 62
     0
100
AcDbPoint
 10
7.200002670288683
 20
98.81329367128342
 30
0.0
  0
POINT
  5
3F79
330
3F70
100
AcDbEntity
  8
Defpoints
 62
     0
100
AcDbPoint
 10
227.3436427915616
 20
98.81329367128347
 30
0.0
  0
POINT
  5
3F7A
330
3F70
100
AcDbEntity
  8
Defpoints
 62
     0
100
AcDbPoint
 10
227.3436427915616
 20
129.9043090826806
 30
0.0
  0
ENDBLK
  5
3F7B
330
3F70
100
AcDbEntity
  8
0
100
AcDbBlockEnd
  0
BLOCK
  5
3F80
330
3F7F
100
AcDbEntity
  8
0
100
AcDbBlockBegin
  2
*D26
 70
     1
 10
0.0
 20
0.0
 30
0.0
  3
*D26
  1

  0
LINE
  5
3F81
330
3F7F
100
AcDbEntity
  8
DIM
 62
     0
370
    -2
100
AcDbLine
 10
239.5436454618495
 20
11.47661237417256
 30
0.0
 11
269.265029578572
 21
11.47661237417256
 31
0.0
  0
LINE
  5
3F82
330
3F7F
100
AcDbEntity
  8
DIM
 62
     0
370
    -2
100
AcDbLine
 10
239.5436454618495
 20
66.6766109913448
 30
0.0
 11
269.265029578572
 21
66.6766109913448
 31
0.0
  0
LINE
  5
3F83
330
3F7F
100
AcDbEntity
  8
DIM
 62
     0
370
    -2
100
AcDbLine
 10
269.265029578572
 20
13.47661237417256
 30
0.0
 11
269.265029578572
 21
64.6766109913448
 31
0.0
  0
INSERT
  5
3F84
330
3F7F
100
AcDbEntity
  8
DIM
 62
     0
370
    -2
100
AcDbBlockReference
  2
_DOT
 10
269.265029578572
 20
11.47661237417256
 30
0.0
 41
2.0
 42
2.0
 43
2.0
 50
270.0
  0
INSERT
  5
3F85
330
3F7F
100
AcDbEntity
  8
DIM
 62
     0
370
    -2
100
AcDbBlockReference
  2
_DOT
 10
269.265029578572
 20
66.6766109913448
 30
0.0
 41
2.0
 42
2.0
 43
2.0
 50
90.0
  0
MTEXT
  5
3F86
330
3F7F
100
AcDbEntity
  8
DIM
 62
     0
100
AcDbMText
 10
263.7640917268776
 20
39.07661168275868
 30
0.0
 40
5.0
 41
0.0
 46
0.0
 71
     5
 72
     1
  1
\A1;55
  7
ＭＳ ゴシック
 11
0.0
 21
1.0
 31
0.0
 73
     1
 44
1.0
  0
POINT
  5
3F87
330
3F7F
100
AcDbEntity
  8
Defpoints
 62
     0
100
AcDbPoint
 10
234.5436454618495
 20
11.47661237417256
 30
0.0
  0
POINT
  5
3F88
330
3F7F
100
AcDbEntity
  8
Defpoints
 62
     0
100
AcDbPoint
 10
234.5436454618495
 20
66.6766109913448
 30
0.0
  0
POINT
  5
3F89
330
3F7F
100
AcDbEntity
  8
Defpoints
 62
     0
100
AcDbPoint
 10
269.265029578572
 20
66.6766109913448
 30
0.0
  0
ENDBLK
  5
3F8A
330
3F7F
100
AcDbEntity
  8
0
100
AcDbBlockEnd
  0
BLOCK
  5
4575
330
4574
100
AcDbEntity
  8
0
100
AcDbBlockBegin
  2
*D27
 70
     1
 10
0.0
 20
0.0
 30
0.0
  3
*D27
  1

  0
LINE
  5
4577
330
4574
100
AcDbEntity
  8
DIM
 62
     0
370
    -2
100
AcDbLine
 10
239.2308757920651
 20
308.9141184056131
 30
0.0
 11
239.2308757920651
 21
283.8208127046062
 31
0.0
  0
LINE
  5
4578
330
4574
100
AcDbEntity
  8
DIM
 62
     0
370
    -2
100
AcDbLine
 10
304.2312577404074
 20
309.384918234554
 30
0.0
 11
304.2312577404074
 21
283.8208127046062
 31
0.0
  0
LINE
  5
4579
330
4574
100
AcDbEntity
  8
DIM
 62
     0
370
    -2
100
AcDbLine
 10
241.2308757920651
 20
283.8208127046062
 30
0.0
 11
302.2312577404074
 21
283.8208127046062
 31
0.0
  0
INSERT
  5
457A
330
4574
100
AcDbEntity
  8
DIM
 62
     0
370
    -2
100
AcDbBlockReference
  2
_DOT
 10
239.2308757920651
 20
283.8208127046062
 30
0.0
 41
2.0
 42
2.0
 43
2.0
 50
180.0
  0
INSERT
  5
457B
330
4574
100
AcDbEntity
  8
DIM
 62
     0
370
    -2
100
AcDbBlockReference
  2
_DOT
 10
304.2312577404074
 20
283.8208127046062
 30
0.0
 41
2.0
 42
2.0
 43
2.0
  0
MTEXT
  5
457C
330
4574
100
AcDbEntity
  8
DIM
 62
     0
100
AcDbMText
 10
271.7310667662363
 20
289.3217505563006
 30
0.0
 40
5.0
 41
0.0
 46
0.0
 71
     5
 72
     1
  1
\A1;65
  7
ＭＳ ゴシック
 73
     1
 44
1.0
  0
POINT
  5
457D
330
4574
100
AcDbEntity
  8
Defpoints
 62
     0
100
AcDbPoint
 10
239.2308757920651
 20
313.9141184056131
 30
0.0
  0
POINT
  5
457E
330
4574
100
AcDbEntity
  8
Defpoints
 62
     0
100
AcDbPoint
 10
304.2312577404074
 20
314.384918234554
 30
0.0
  0
POINT
  5
457F
330
4574
100
AcDbEntity
  8
Defpoints
 62
     0
100
AcDbPoint
 10
304.2312577404074
 20
283.8208127046062
 30
0.0
  0
ENDBLK
  5
4576
330
4574
100
AcDbEntity
  8
0
100
AcDbBlockEnd
  0
BLOCK
  5
4589
330
4588
100
AcDbEntity
  8
0
100
AcDbBlockBegin
  2
*D28
 70
     1
 10
0.0
 20
0.0
 30
0.0
  3
*D28
  1

  0
LINE
  5
458B
330
4588
100
AcDbEntity
  8
DIM
 62
     0
370
    -2
100
AcDbLine
 10
113.8086683022071
 20
355.6474282131165
 30
0.0
 11
113.8086683022071
 21
381.2648367374538
 31
0.0
  0
LINE
  5
458C
330
4588
100
AcDbEntity
  8
DIM
 62
     0
370
    -2
100
AcDbLine
 10
163.8086683022071
 20
356.9231535682972
 30
0.0
 11
163.8086683022071
 21
381.2648367374538
 31
0.0
  0
LINE
  5
458D
330
4588
100
AcDbEntity
  8
DIM
 62
     0
370
    -2
100
AcDbLine
 10
115.8086683022071
 20
381.2648367374538
 30
0.0
 11
161.8086683022071
 21
381.2648367374538
 31
0.0
  0
INSERT
  5
458E
330
4588
100
AcDbEntity
  8
DIM
 62
     0
370
    -2
100
AcDbBlockReference
  2
_DOT
 10
113.8086683022071
 20
381.2648367374538
 30
0.0
 41
2.0
 42
2.0
 43
2.0
 50
180.0
  0
INSERT
  5
458F
330
4588
100
AcDbEntity
  8
DIM
 62
     0
370
    -2
100
AcDbBlockReference
  2
_DOT
 10
163.8086683022071
 20
381.2648367374538
 30
0.0
 41
2.0
 42
2.0
 43
2.0
  0
MTEXT
  5
4590
330
4588
100
AcDbEntity
  8
DIM
 62
     0
100
AcDbMText
 10
138.8086683022071
 20
386.7657745891482
 30
0.0
 40
5.0
 41
0.0
 46
0.0
 71
     5
 72
     1
  1
\A1;%%c50
  7
ＭＳ ゴシック
 73
     1
 44
1.0
  0
POINT
  5
4591
330
4588
100
AcDbEntity
  8
Defpoints
 62
     0
100
AcDbPoint
 10
113.8086683022071
 20
350.6474282131165
 30
0.0
  0
POINT
  5
4592
330
4588
100
AcDbEntity
  8
Defpoints
 62
     0
100
AcDbPoint
 10
163.8086683022071
 20
351.9231535682972
 30
0.0
  0
POINT
  5
4593
330
4588
100
AcDbEntity
  8
Defpoints
 62
     0
100
AcDbPoint
 10
163.8086683022071
 20
381.2648367374538
 30
0.0
  0
ENDBLK
  5
458A
330
4588
100
AcDbEntity
  8
0
100
AcDbBlockEnd
  0
BLOCK
  5
4D07
330
4D06
100
AcDbEntity
  8
0
100
AcDbBlockBegin
  2
*D29
 70
     1
 10
0.0
 20
0.0
 30
0.0
  3
*D29
  1

  0
LINE
  5
4D08
330
4D06
100
AcDbEntity
  8
DIM
 62
     0
370
    -2
100
AcDbLine
 10
405.171364075867
 20
131.6635796265515
 30
0.0
 11
470.3167335242809
 21
131.6635796265515
 31
0.0
  0
LINE
  5
4D09
330
4D06
100
AcDbEntity
  8
DIM
 62
     0
370
    -2
100
AcDbLine
 10
405.171364075867
 20
61.6635796265515
 30
0.0
 11
470.3167335242809
 21
61.66357962655149
 31
0.0
  0
LINE
  5
4D0A
330
4D06
100
AcDbEntity
  8
DIM
 62
     0
370
    -2
100
AcDbLine
 10
470.3167335242809
 20
129.6635796265515
 30
0.0
 11
470.3167335242809
 21
63.66357962655149
 31
0.0
  0
INSERT
  5
4D0B
330
4D06
100
AcDbEntity
  8
DIM
 62
     0
370
    -2
100
AcDbBlockReference
  2
_DOT
 10
470.3167335242809
 20
131.6635796265515
 30
0.0
 41
2.0
 42
2.0
 43
2.0
 50
90.0
  0
INSERT
  5
4D0C
330
4D06
100
AcDbEntity
  8
DIM
 62
     0
370
    -2
100
AcDbBlockReference
  2
_DOT
 10
470.3167335242809
 20
61.66357962655149
 30
0.0
 41
2.0
 42
2.0
 43
2.0
 50
270.0
  0
MTEXT
  5
4D0D
330
4D06
100
AcDbEntity
  8
DIM
 62
     0
100
AcDbMText
 10
464.8157956725865
 20
96.6635796265515
 30
0.0
 40
5.0
 41
0.0
 46
0.0
 71
     5
 72
     1
  1
\A1;70
  7
ＭＳ ゴシック
 11
0.0
 21
1.0
 31
0.0
 73
     1
 44
1.0
  0
POINT
  5
4D0E
330
4D06
100
AcDbEntity
  8
Defpoints
 62
     0
100
AcDbPoint
 10
400.171364075867
 20
131.6635796265515
 30
0.0
  0
POINT
  5
4D0F
330
4D06
100
AcDbEntity
  8
Defpoints
 62
     0
100
AcDbPoint
 10
400.171364075867
 20
61.6635796265515
 30
0.0
  0
POINT
  5
4D10
330
4D06
100
AcDbEntity
  8
Defpoints
 62
     0
100
AcDbPoint
 10
470.3167335242809
 20
61.66357962655149
 30
0.0
  0
ENDBLK
  5
4D11
330
4D06
100
AcDbEntity
  8
0
100
AcDbBlockEnd
  0
BLOCK
  5
4D16
330
4D15
100
AcDbEntity
  8
0
100
AcDbBlockBegin
  2
*D30
 70
     1
 10
0.0
 20
0.0
 30
0.0
  3
*D30
  1

  0
LINE
  5
4D17
330
4D15
100
AcDbEntity
  8
DIM
 62
     0
370
    -2
100
AcDbLine
 10
399.2152664320689
 20
158.7513343937534
 30
0.0
 11
399.2152664320689
 21
193.9741984683254
 31
0.0
  0
LINE
  5
4D18
330
4D15
100
AcDbEntity
  8
DIM
 62
     0
370
    -2
100
AcDbLine
 10
325.127460941586
 20
158.7513647810425
 30
0.0
 11
325.127460941586
 21
193.9741984683254
 31
0.0
  0
LINE
  5
4D19
330
4D15
100
AcDbEntity
  8
DIM
 62
     0
370
    -2
100
AcDbLine
 10
397.2152664320689
 20
193.9741984683254
 30
0.0
 11
327.127460941586
 21
193.9741984683254
 31
0.0
  0
INSERT
  5
4D1A
330
4D15
100
AcDbEntity
  8
DIM
 62
     0
370
    -2
100
AcDbBlockReference
  2
_DOT
 10
399.2152664320689
 20
193.9741984683254
 30
0.0
 41
2.0
 42
2.0
 43
2.0
  0
INSERT
  5
4D1B
330
4D15
100
AcDbEntity
  8
DIM
 62
     0
370
    -2
100
AcDbBlockReference
  2
_DOT
 10
325.127460941586
 20
193.9741984683254
 30
0.0
 41
2.0
 42
2.0
 43
2.0
 50
180.0
  0
MTEXT
  5
4D1C
330
4D15
100
AcDbEntity
  8
DIM
 62
     0
100
AcDbMText
 10
362.1713636868279
 20
199.4751363200198
 30
0.0
 40
5.0
 41
0.0
 46
0.0
 71
     5
 72
     1
  1
\A1;%%c75
  7
ＭＳ ゴシック
 73
     1
 44
1.0
  0
POINT
  5
4D1D
330
4D15
100
AcDbEntity
  8
Defpoints
 62
     0
100
AcDbPoint
 10
399.2152664320689
 20
153.7513343937534
 30
0.0
  0
POINT
  5
4D1E
330
4D15
100
AcDbEntity
  8
Defpoints
 62
     0
100
AcDbPoint
 10
325.127460941586
 20
153.7513647810425
 30
0.0
  0
POINT
  5
4D1F
330
4D15
100
AcDbEntity
  8
Defpoints
 62
     0
100
AcDbPoint
 10
325.127460941586
 20
193.9741984683254
 30
0.0
  0
ENDBLK
  5
4D20
330
4D15
100
AcDbEntity
  8
0
100
AcDbBlockEnd
  0
BLOCK
  5
4D25
330
4D24
100
AcDbEntity
  8
0
100
AcDbBlockBegin
  2
*D31
 70
     1
 10
0.0
 20
0.0
 30
0.0
  3
*D31
  1

  0
LINE
  5
4D26
330
4D24
100
AcDbEntity
  8
DIM
 62
     0
370
    -2
100
AcDbLine
 10
338.2698640758668
 20
57.51892362655144
 30
0.0
 11
338.2698640758668
 21
1.426584774442517
 31
0.0
  0
LINE
  5
4D27
330
4D24
100
AcDbEntity
  8
DIM
 62
     0
370
    -2
100
AcDbLine
 10
386.072864075867
 20
57.51892362655144
 30
0.0
 11
386.072864075867
 21
1.426584774442517
 31
0.0
  0
LINE
  5
4D28
330
4D24
100
AcDbEntity
  8
DIM
 62
     0
370
    -2
100
AcDbLine
 10
338.2698640758668
 20
1.426584774442517
 30
0.0
 11
256.0573243480881
 21
1.426584774442517
 31
0.0
  0
LINE
  5
4D29
330
4D24
100
AcDbEntity
  8
DIM
 62
     0
370
    -2
100
AcDbLine
 10
338.2698640758668
 20
1.426584774442517
 30
0.0
 11
386.072864075867
 21
1.426584774442517
 31
0.0
  0
LINE
  5
4D2A
330
4D24
100
AcDbEntity
  8
DIM
 62
     0
370
    -2
100
AcDbLine
 10
336.2698640758668
 20
1.426584774442517
 30
0.0
 11
334.2698640758668
 21
1.426584774442517
 31
0.0
  0
LINE
  5
4D2B
330
4D24
100
AcDbEntity
  8
DIM
 62
     0
370
    -2
100
AcDbLine
 10
388.072864075867
 20
1.426584774442517
 30
0.0
 11
390.072864075867
 21
1.426584774442517
 31
0.0
  0
INSERT
  5
4D2C
330
4D24
100
AcDbEntity
  8
DIM
 62
     0
370
    -2
100
AcDbBlockReference
  2
_DOT
 10
338.2698640758668
 20
1.426584774442517
 30
0.0
 41
2.0
 42
2.0
 43
2.0
  0
INSERT
  5
4D2D
330
4D24
100
AcDbEntity
  8
DIM
 62
     0
370
    -2
100
AcDbBlockReference
  2
_DOT
 10
386.072864075867
 20
1.426584774442517
 30
0.0
 41
2.0
 42
2.0
 43
2.0
 50
180.0
  0
MTEXT
  5
4D2E
330
4D24
100
AcDbEntity
  8
DIM
 62
     0
100
AcDbMText
 10
268.5033666139378
 20
7.460222388547807
 30
0.0
 40
5.0
 41
0.0
 46
0.0
 71
     5
 72
     1
  1
\A1;G1 1/2
  7
ＭＳ ゴシック
 73
     1
 44
1.0
  0
POINT
  5
4D2F
330
4D24
100
AcDbEntity
  8
Defpoints
 62
     0
100
AcDbPoint
 10
338.2698640758668
 20
62.51892362655144
 30
0.0
  0
POINT
  5
4D30
330
4D24
100
AcDbEntity
  8
Defpoints
 62
     0
100
AcDbPoint
 10
386.072864075867
 20
62.51892362655144
 30
0.0
  0
POINT
  5
4D31
330
4D24
100
AcDbEntity
  8
Defpoints
 62
     0
100
AcDbPoint
 10
386.072864075867
 20
1.426584774442517
 30
0.0
  0
ENDBLK
  5
4D32
330
4D24
100
AcDbEntity
  8
0
100
AcDbBlockEnd
  0
BLOCK
  5
4D39
330
4D38
100
AcDbEntity
  8
0
100
AcDbBlockBegin
  2
*D32
 70
     1
 10
0.0
 20
0.0
 30
0.0
  3
*D32
  1

  0
LINE
  5
4D3A
330
4D38
100
AcDbEntity
  8
DIM
 62
     0
370
    -2
100
AcDbLine
 10
39.42439189268302
 20
514.6515306884055
 30
0.0
 11
34.43273196707602
 21
545.1883552490823
 31
0.0
  0
LINE
  5
4D3B
330
4D38
100
AcDbEntity
  8
DIM
 62
     0
370
    -2
100
AcDbLine
 10
6.702152800656933
 20
509.3026349894685
 30
0.0
 11
1.710492875049928
 21
539.8394595501453
 31
0.0
  0
LINE
  5
4D3C
330
4D38
100
AcDbEntity
  8
DIM
 62
     0
370
    -2
100
AcDbLine
 10
34.43273196707602
 20
545.1883552490823
 30
0.0
 11
1.710492875049928
 21
539.8394595501453
 31
0.0
  0
LINE
  5
4D3D
330
4D38
100
AcDbEntity
  8
DIM
 62
     0
370
    -2
100
AcDbLine
 10
36.40653544328843
 20
545.511000313033
 30
0.0
 11
38.38033891950084
 21
545.8336453769838
 31
0.0
  0
LINE
  5
4D3E
330
4D38
100
AcDbEntity
  8
DIM
 62
     0
370
    -2
100
AcDbLine
 10
-0.2633106011624833
 20
539.5168144861946
 30
0.0
 11
-2.237114077374895
 21
539.1941694222438
 31
0.0
  0
INSERT
  5
4D3F
330
4D38
100
AcDbEntity
  8
DIM
 62
     0
370
    -2
100
AcDbBlockReference
  2
_DOT
 10
34.43273196707602
 20
545.1883552490823
 30
0.0
 41
2.0
 42
2.0
 43
2.0
 50
189.2836690372368
  0
INSERT
  5
4D40
330
4D38
100
AcDbEntity
  8
DIM
 62
     0
370
    -2
100
AcDbBlockReference
  2
_DOT
 10
1.710492875049928
 20
539.8394595501453
 30
0.0
 41
2.0
 42
2.0
 43
2.0
 50
9.283669037236841
  0
MTEXT
  5
4D41
330
4D38
100
AcDbEntity
  8
DIM
 62
     0
100
AcDbMText
 10
17.18418719858837
 20
547.9427925266652
 30
0.0
 40
5.0
 41
0.0
 46
0.0
 71
     5
 72
     1
  1
\A1;33
  7
ＭＳ ゴシック
 11
0.9869017381062056
 21
0.1613225319753895
 31
0.0
 73
     1
 44
1.0
  0
POINT
  5
4D42
330
4D38
100
AcDbEntity
  8
Defpoints
 62
     0
100
AcDbPoint
 10
40.23100455255997
 20
509.7170219978744
 30
0.0
  0
POINT
  5
4D46
330
4D38
100
AcDbEntity
  8
Defpoints
 62
     0
100
AcDbPoint
 10
7.50876546053388
 20
504.3681262989375
 30
0.0
  0
POINT
  5
4D47
330
4D38
100
AcDbEntity
  8
Defpoints
 62
     0
100
AcDbPoint
 10
1.710492875049928
 20
539.8394595501453
 30
0.0
  0
ENDBLK
  5
4D43
330
4D38
100
AcDbEntity
  8
0
100
AcDbBlockEnd
  0
BLOCK
  5
52D8
330
52D7
100
AcDbEntity
  8
0
100
AcDbBlockBegin
  2
*D33
 70
     1
 10
0.0
 20
0.0
 30
0.0
  3
*D33
  1

  0
LINE
  5
52DA
330
52D7
100
AcDbEntity
  8
DIM
 62
     0
370
    -2
100
AcDbLine
 10
52.3199834261642
 20
132.9129693535997
 30
0.0
 11
7.511801648198775
 21
132.9129693535997
 31
0.0
  0
LINE
  5
52DB
330
52D7
100
AcDbEntity
  8
DIM
 62
     0
370
    -2
100
AcDbLine
 10
52.3199834261642
 20
272.9129693496662
 30
0.0
 11
7.511801648198784
 21
272.9129693496662
 31
0.0
  0
LINE
  5
52DC
330
52D7
100
AcDbEntity
  8
DIM
 62
     0
370
    -2
100
AcDbLine
 10
7.511801648198775
 20
134.9129693535997
 30
0.0
 11
7.511801648198784
 21
270.9129693496662
 31
0.0
  0
INSERT
  5
52DD
330
52D7
100
AcDbEntity
  8
DIM
 62
     0
370
    -2
100
AcDbBlockReference
  2
_DOT
 10
7.511801648198775
 20
132.9129693535997
 30
0.0
 41
2.0
 42
2.0
 43
2.0
 50
270.0
  0
INSERT
  5
52DE
330
52D7
100
AcDbEntity
  8
DIM
 62
     0
370
    -2
100
AcDbBlockReference
  2
_DOT
 10
7.511801648198784
 20
272.9129693496662
 30
0.0
 41
2.0
 42
2.0
 43
2.0
 50
90.0
  0
MTEXT
  5
52DF
330
52D7
100
AcDbEntity
  8
DIM
 62
     0
100
AcDbMText
 10
2.010863796504405
 20
202.9129693516329
 30
0.0
 40
5.0
 41
0.0
 46
0.0
 71
     5
 72
     1
  1
\A1;140
  7
ＭＳ ゴシック
 11
6.344131569464857E-17
 21
1.0
 31
0.0
 73
     1
 44
1.0
  0
POINT
  5
52E0
330
52D7
100
AcDbEntity
  8
Defpoints
 62
     0
100
AcDbPoint
 10
57.3199834261642
 20
132.9129693535997
 30
0.0
  0
POINT
  5
52E1
330
52D7
100
AcDbEntity
  8
Defpoints
 62
     0
100
AcDbPoint
 10
57.3199834261642
 20
272.9129693496662
 30
0.0
  0
POINT
  5
52E2
330
52D7
100
AcDbEntity
  8
Defpoints
 62
     0
100
AcDbPoint
 10
7.511801648198784
 20
272.9129693496662
 30
0.0
  0
ENDBLK
  5
52D9
330
52D7
100
AcDbEntity
  8
0
100
AcDbBlockEnd
  0
BLOCK
  5
56FC
330
56FB
100
AcDbEntity
  8
0
100
AcDbBlockBegin
  2
*D34
 70
     1
 10
0.0
 20
0.0
 30
0.0
  3
*D34
  1

  0
LINE
  5
56FE
330
56FB
100
AcDbEntity
  8
DIM
 62
     0
370
    -2
100
AcDbLine
 10
97.66076252819684
 20
422.3732038169696
 30
0.0
 11
97.66076252819684
 21
452.183013344339
 31
0.0
  0
LINE
  5
56FF
330
56FB
100
AcDbEntity
  8
DIM
 62
     0
370
    -2
100
AcDbLine
 10
129.64367207401
 20
422.3732038169696
 30
0.0
 11
129.64367207401
 21
452.183013344339
 31
0.0
  0
LINE
  5
5700
330
56FB
100
AcDbEntity
  8
DIM
 62
     0
370
    -2
100
AcDbLine
 10
99.66076252819684
 20
452.183013344339
 30
0.0
 11
127.64367207401
 21
452.183013344339
 31
0.0
  0
INSERT
  5
5701
330
56FB
100
AcDbEntity
  8
DIM
 62
     0
370
    -2
100
AcDbBlockReference
  2
_DOT
 10
97.66076252819684
 20
452.183013344339
 30
0.0
 41
2.0
 42
2.0
 43
2.0
 50
180.0
  0
INSERT
  5
5702
330
56FB
100
AcDbEntity
  8
DIM
 62
     0
370
    -2
100
AcDbBlockReference
  2
_DOT
 10
129.64367207401
 20
452.183013344339
 30
0.0
 41
2.0
 42
2.0
 43
2.0
  0
MTEXT
  5
5703
330
56FB
100
AcDbEntity
  8
DIM
 62
     0
100
AcDbMText
 10
113.6522173011034
 20
457.6839511960334
 30
0.0
 40
5.0
 41
0.0
 46
0.0
 71
     5
 72
     1
  1
\A1;%%c32
  7
ＭＳ ゴシック
 73
     1
 44
1.0
  0
POINT
  5
5704
330
56FB
100
AcDbEntity
  8
Defpoints
 62
     0
100
AcDbPoint
 10
97.66076252819684
 20
417.3732038169696
 30
0.0
  0
POINT
  5
5705
330
56FB
100
AcDbEntity
  8
Defpoints
 62
     0
100
AcDbPoint
 10
129.64367207401
 20
417.3732038169696
 30
0.0
  0
POINT
  5
5706
330
56FB
100
AcDbEntity
  8
Defpoints
 62
     0
100
AcDbPoint
 10
129.64367207401
 20
452.183013344339
 30
0.0
  0
ENDBLK
  5
56FD
330
56FB
100
AcDbEntity
  8
0
100
AcDbBlockEnd
  0
BLOCK
  5
570B
330
570A
100
AcDbEntity
  8
0
100
AcDbBlockBegin
  2
*D35
 70
     1
 10
0.0
 20
0.0
 30
0.0
  3
*D35
  1

  0
LINE
  5
570D
330
570A
100
AcDbEntity
  8
DIM
 62
     0
370
    -2
100
AcDbLine
 10
103.6509262548528
 20
282.9667695274716
 30
0.0
 11
103.6509262548528
 21
278.7958615960334
 31
0.0
  0
LINE
  5
570E
330
570A
100
AcDbEntity
  8
DIM
 62
     0
370
    -2
100
AcDbLine
 10
123.6323209961427
 20
282.9667695274716
 30
0.0
 11
123.6323209961427
 21
278.7958615960334
 31
0.0
  0
LINE
  5
570F
330
570A
100
AcDbEntity
  8
DIM
 62
     0
370
    -2
100
AcDbLine
 10
123.6323209961427
 20
278.7958615960334
 30
0.0
 11
158.2598543593963
 21
278.7958615960334
 31
0.0
  0
LINE
  5
5710
330
570A
100
AcDbEntity
  8
DIM
 62
     0
370
    -2
100
AcDbLine
 10
105.6509262548528
 20
278.7958615960334
 30
0.0
 11
121.6323209961427
 21
278.7958615960334
 31
0.0
  0
LINE
  5
5711
330
570A
100
AcDbEntity
  8
DIM
 62
     0
370
    -2
100
AcDbLine
 10
121.6323209961427
 20
278.7958615960334
 30
0.0
 11
119.6323209961427
 21
278.7958615960334
 31
0.0
  0
INSERT
  5
5712
330
570A
100
AcDbEntity
  8
DIM
 62
     0
370
    -2
100
AcDbBlockReference
  2
_DOT
 10
103.6509262548528
 20
278.7958615960334
 30
0.0
 41
2.0
 42
2.0
 43
2.0
 50
180.0
  0
INSERT
  5
5713
330
570A
100
AcDbEntity
  8
DIM
 62
     0
370
    -2
100
AcDbBlockReference
  2
_DOT
 10
123.6323209961427
 20
278.7958615960334
 30
0.0
 41
2.0
 42
2.0
 43
2.0
  0
MTEXT
  5
5714
330
570A
100
AcDbEntity
  8
DIM
 62
     0
100
AcDbMText
 10
150.5746208343244
 20
284.2967994477278
 30
0.0
 40
5.0
 41
0.0
 46
0.0
 71
     5
 72
     1
  1
\A1;%%c20
  7
ＭＳ ゴシック
 73
     1
 44
1.0
  0
POINT
  5
5715
330
570A
100
AcDbEntity
  8
Defpoints
 62
     0
100
AcDbPoint
 10
103.6509262548528
 20
277.9667695274716
 30
0.0
  0
POINT
  5
5716
330
570A
100
AcDbEntity
  8
Defpoints
 62
     0
100
AcDbPoint
 10
123.6323209961427
 20
277.9667695274716
 30
0.0
  0
POINT
  5
5717
330
570A
100
AcDbEntity
  8
Defpoints
 62
     0
100
AcDbPoint
 10
123.6323209961427
 20
278.7958615960334
 30
0.0
  0
ENDBLK
  5
570C
330
570A
100
AcDbEntity
  8
0
100
AcDbBlockEnd
  0
BLOCK
  5
571D
330
571C
100
AcDbEntity
  8
0
100
AcDbBlockBegin
  2
*D36
 70
     1
 10
0.0
 20
0.0
 30
0.0
  3
*D36
  1

  0
LINE
  5
571F
330
571C
100
AcDbEntity
  8
DIM
 62
     0
370
    -2
100
AcDbLine
 10
357.6436106802039
 20
397.0166805608554
 30
0.0
 11
357.6436106802039
 21
372.3642997381704
 31
0.0
  0
LINE
  5
5720
330
571C
100
AcDbEntity
  8
DIM
 62
     0
370
    -2
100
AcDbLine
 10
234.62261484115
 20
402.371912770719
 30
0.0
 11
234.62261484115
 21
372.3642997381704
 31
0.0
  0
LINE
  5
5721
330
571C
100
AcDbEntity
  8
DIM
 62
     0
370
    -2
100
AcDbLine
 10
355.6436106802039
 20
372.3642997381704
 30
0.0
 11
236.62261484115
 21
372.3642997381704
 31
0.0
  0
INSERT
  5
5722
330
571C
100
AcDbEntity
  8
DIM
 62
     0
370
    -2
100
AcDbBlockReference
  2
_DOT
 10
357.6436106802039
 20
372.3642997381704
 30
0.0
 41
2.0
 42
2.0
 43
2.0
  0
INSERT
  5
5723
330
571C
100
AcDbEntity
  8
DIM
 62
     0
370
    -2
100
AcDbBlockReference
  2
_DOT
 10
234.62261484115
 20
372.3642997381704
 30
0.0
 41
2.0
 42
2.0
 43
2.0
 50
180.0
  0
MTEXT
  5
5724
330
571C
100
AcDbEntity
  8
DIM
 62
     0
100
AcDbMText
 10
296.133112760677
 20
377.8652375898648
 30
0.0
 40
5.0
 41
0.0
 46
0.0
 71
     5
 72
     1
  1
\A1;123
  7
ＭＳ ゴシック
 73
     1
 44
1.0
  0
POINT
  5
5725
330
571C
100
AcDbEntity
  8
Defpoints
 62
     0
100
AcDbPoint
 10
357.6436106802039
 20
402.0166805608554
 30
0.0
  0
POINT
  5
5726
330
571C
100
AcDbEntity
  8
Defpoints
 62
     0
100
AcDbPoint
 10
234.62261484115
 20
407.371912770719
 30
0.0
  0
POINT
  5
5727
330
571C
100
AcDbEntity
  8
Defpoints
 62
     0
100
AcDbPoint
 10
234.62261484115
 20
372.3642997381704
 30
0.0
  0
ENDBLK
  5
571E
330
571C
100
AcDbEntity
  8
0
100
AcDbBlockEnd
  0
BLOCK
  5
572C
330
572B
100
AcDbEntity
  8
0
100
AcDbBlockBegin
  2
*D37
 70
     1
 10
0.0
 20
0.0
 30
0.0
  3
*D37
  1

  0
LINE
  5
572E
330
572B
100
AcDbEntity
  8
DIM
 62
     0
370
    -2
100
AcDbLine
 10
234.62261484115
 20
432.3533075120089
 30
0.0
 11
234.62261484115
 21
444.8680240909415
 31
0.0
  0
LINE
  5
572F
330
572B
100
AcDbEntity
  8
DIM
 62
     0
370
    -2
100
AcDbLine
 10
200.6226148411499
 20
422.36252401392
 30
0.0
 11
200.6226148411499
 21
444.8680240909415
 31
0.0
  0
LINE
  5
5730
330
572B
100
AcDbEntity
  8
DIM
 62
     0
370
    -2
100
AcDbLine
 10
232.62261484115
 20
444.8680240909415
 30
0.0
 11
202.6226148411499
 21
444.8680240909415
 31
0.0
  0
INSERT
  5
5731
330
572B
100
AcDbEntity
  8
DIM
 62
     0
370
    -2
100
AcDbBlockReference
  2
_DOT
 10
234.62261484115
 20
444.8680240909415
 30
0.0
 41
2.0
 42
2.0
 43
2.0
  0
INSERT
  5
5732
330
572B
100
AcDbEntity
  8
DIM
 62
     0
370
    -2
100
AcDbBlockReference
  2
_DOT
 10
200.6226148411499
 20
444.8680240909415
 30
0.0
 41
2.0
 42
2.0
 43
2.0
 50
180.0
  0
MTEXT
  5
5733
330
572B
100
AcDbEntity
  8
DIM
 62
     0
100
AcDbMText
 10
217.62261484115
 20
450.3689619426359
 30
0.0
 40
5.0
 41
0.0
 46
0.0
 71
     5
 72
     1
  1
\A1;34
  7
ＭＳ ゴシック
 73
     1
 44
1.0
  0
POINT
  5
5734
330
572B
100
AcDbEntity
  8
Defpoints
 62
     0
100
AcDbPoint
 10
234.62261484115
 20
427.3533075120089
 30
0.0
  0
POINT
  5
5735
330
572B
100
AcDbEntity
  8
Defpoints
 62
     0
100
AcDbPoint
 10
200.6226148411499
 20
417.36252401392
 30
0.0
  0
POINT
  5
5736
330
572B
100
AcDbEntity
  8
Defpoints
 62
     0
100
AcDbPoint
 10
200.6226148411499
 20
444.8680240909415
 30
0.0
  0
ENDBLK
  5
572D
330
572B
100
AcDbEntity
  8
0
100
AcDbBlockEnd
  0
BLOCK
  5
573B
330
573A
100
AcDbEntity
  8
0
100
AcDbBlockBegin
  2
*D38
 70
     1
 10
0.0
 20
0.0
 30
0.0
  3
*D38
  1

  0
LINE
  5
573D
330
573A
100
AcDbEntity
  8
DIM
 62
     0
370
    -2
100
AcDbLine
 10
229.62261484115
 20
407.371912770719
 30
0.0
 11
181.0617871603853
 21
407.371912770719
 31
0.0
  0
LINE
  5
573E
330
573A
100
AcDbEntity
  8
DIM
 62
     0
370
    -2
100
AcDbLine
 10
195.6226148411499
 20
417.36252401392
 30
0.0
 11
181.0617871603853
 21
417.36252401392
 31
0.0
  0
LINE
  5
573F
330
573A
100
AcDbEntity
  8
DIM
 62
     0
370
    -2
100
AcDbLine
 10
181.0617871603853
 20
409.371912770719
 30
0.0
 11
181.0617871603853
 21
415.36252401392
 31
0.0
  0
INSERT
  5
5740
330
573A
100
AcDbEntity
  8
DIM
 62
     0
370
    -2
100
AcDbBlockReference
  2
_DOT
 10
181.0617871603853
 20
407.371912770719
 30
0.0
 41
2.0
 42
2.0
 43
2.0
 50
270.0
  0
INSERT
  5
5741
330
573A
100
AcDbEntity
  8
DIM
 62
     0
370
    -2
100
AcDbBlockReference
  2
_DOT
 10
181.0617871603853
 20
417.36252401392
 30
0.0
 41
2.0
 42
2.0
 43
2.0
 50
90.0
  0
MTEXT
  5
5742
330
573A
100
AcDbEntity
  8
DIM
 62
     0
100
AcDbMText
 10
175.5608493086909
 20
412.3672183923195
 30
0.0
 40
5.0
 41
0.0
 46
0.0
 71
     5
 72
     1
  1
\A1;10
  7
ＭＳ ゴシック
 11
0.0
 21
1.0
 31
0.0
 73
     1
 44
1.0
  0
POINT
  5
5743
330
573A
100
AcDbEntity
  8
Defpoints
 62
     0
100
AcDbPoint
 10
234.62261484115
 20
407.371912770719
 30
0.0
  0
POINT
  5
5744
330
573A
100
AcDbEntity
  8
Defpoints
 62
     0
100
AcDbPoint
 10
200.6226148411499
 20
417.36252401392
 30
0.0
  0
POINT
  5
5745
330
573A
100
AcDbEntity
  8
Defpoints
 62
     0
100
AcDbPoint
 10
181.0617871603853
 20
417.36252401392
 30
0.0
  0
ENDBLK
  5
573C
330
573A
100
AcDbEntity
  8
0
100
AcDbBlockEnd
  0
ENDSEC
  0
SECTION
  2
ENTITIES
  0
MTEXT
  5
177
330
A
100
AcDbEntity
  8
TEMPLATE
390
1D
100
AcDbMText
 10
15.84042890954615
 20
68.74635032628565
 30
0.0
 40
3.257682291666665
 41
0.0
 46
0.0
 71
     1
 72
     1
  1
品名
  7
ＭＳ ゴシック
 73
     1
 44
0.7828267384257843
  0
MTEXT
  5
178
330
A
100
AcDbEntity
  8
TEMPLATE
390
1D
100
AcDbMText
 10
15.84042890954615
 20
51.7463503262856
 30
0.0
 40
3.257682291666665
 41
0.0
 46
0.0
 71
     1
 72
     1
  1
仕様
  7
ＭＳ ゴシック
 73
     1
 44
0.7828267384257843
  0
LINE
  5
179
330
A
100
AcDbEntity
  8
TEMPLATE
390
1D
100
AcDbLine
 10
404.4404289094496
 20
53.42933470128568
 30
0.0
 11
14.44042890944975
 21
53.42933470128568
 31
0.0
  0
LWPOLYLINE
  5
17A
330
A
100
AcDbEntity
  8
TEMPLATE
390
1D
100
AcDbPolyline
 90
        5
 70
   128
 43
0.0
 10
404.4404289094496
 20
579.4293347012853
 10
14.44042890944975
 20
579.4293347012853
 10
14.44042890944975
 20
19.42933470128565
 10
404.4404289094496
 20
19.42933470128565
 10
404.4404289094496
 20
579.4293347012853
  0
LINE
  5
17B
330
A
100
AcDbEntity
  8
TEMPLATE
390
1D
100
AcDbLine
 10
404.4404289094496
 20
70.42933470128564
 30
0.0
 11
14.44042890944975
 21
70.42933470128564
 31
0.0
  0
LINE
  5
17C
330
A
100
AcDbEntity
  8
TEMPLATE
390
1D
100
AcDbLine
 10
404.4404289095464
 20
36.42933470128565
 30
0.0
 11
253.840428909546
 21
36.42933470128565
 31
0.0
  0
MTEXT
  5
17E
330
A
100
AcDbEntity
  8
TEMPLATE
390
1D
100
AcDbMText
 10
259.8147101599982
 20
30.44725580662403
 30
0.0
 40
4.8865234375
 41
0.0
 46
0.0
 71
     1
 72
     1
  1
大洋金物株式会社 ティーフォルム事業部
  7
ＭＳ ゴシック
 73
     1
 44
0.7828267384257843
  0
MTEXT
  5
180
330
A
100
AcDbEntity
  8
TEMPLATE
390
1D
100
AcDbMText
 10
366.240428909598
 20
46.02985813878564
 30
0.0
 40
4.8865234375
 41
0.0
 46
4.8865234375
 71
     1
 72
     1
  1
{1:2}
  7
ＭＳ ゴシック
 73
     1
 44
0.7828267384257843
1001
ACAD
1000
ACAD_MTEXT_DEFINED_HEIGHT_BEGIN
1070
    46
1040
4.8865234375
1000
ACAD_MTEXT_DEFINED_HEIGHT_END
  0
MTEXT
  5
181
330
A
100
AcDbEntity
  8
TEMPLATE
390
1D
100
AcDbMText
 10
355.640428909598
 20
51.7463503262856
 30
0.0
 40
3.257682291666665
 41
0.0
 46
0.0
 71
     1
 72
     1
  1
縮尺
  7
ＭＳ ゴシック
 73
     1
 44
0.7828267384257843
  0
LINE
  5
182
330
A
100
AcDbEntity
  8
TEMPLATE
390
1D
100
AcDbLine
 10
354.240428909598
 20
36.42933470128565
 30
0.0
 11
354.240428909598
 21
53.42933470128568
 31
0.0
  0
MTEXT
  5
183
330
A
100
AcDbEntity
  8
TEMPLATE
390
1D
100
AcDbMText
 10
305.440428909598
 20
51.7463503262856
 30
0.0
 40
3.257682291666665
 41
0.0
 46
0.0
 71
     1
 72
     1
  1
容量
  7
ＭＳ ゴシック
 73
     1
 44
0.7828267384257843
  0
LINE
  5
184
330
A
100
AcDbEntity
  8
TEMPLATE
390
1D
100
AcDbLine
 10
304.040428909598
 20
36.42933470128565
 30
0.0
 11
304.040428909598
 21
53.42933470128568
 31
0.0
  0
MTEXT
  5
186
330
A
100
AcDbEntity
  8
TEMPLATE
390
1D
100
AcDbMText
 10
255.240428909598
 20
51.7463503262856
 30
0.0
 40
3.257682291666665
 41
0.0
 46
0.0
 71
     1
 72
     1
  1
重量
  7
ＭＳ ゴシック
 73
     1
 44
0.7828267384257843
  0
LINE
  5
188
330
A
100
AcDbEntity
  8
TEMPLATE
390
1D
100
AcDbLine
 10
253.840428909598
 20
19.42933470128565
 30
0.0
 11
253.840428909598
 21
70.42933470128564
 31
0.0
  0
MTEXT
  5
189
330
A
100
AcDbEntity
  8
TEMPLATE
390
1D
100
AcDbMText
 10
26.44042890954615
 20
63.02985813878564
 30
0.0
 40
4.8865234375
 41
0.0
 46
5.507344722044204
 71
     1
 72
     1
  1
{トイレットペーパーストッカー　-PERFORMA DESIGN,Choco}
  7
ＭＳ ゴシック
 73
     1
 44
0.7828267384257843
1001
ACAD
1000
ACAD_MTEXT_DEFINED_HEIGHT_BEGIN
1070
    46
1040
5.507344722044204
1000
ACAD_MTEXT_DEFINED_HEIGHT_END
  0
INSERT
  5
68C
330
A
100
AcDbEntity
  8
TEMPLATE
100
AcDbBlockReference
  2
block 2
 10
367.7097207081031
 20
3.349230605734547
 30
0.0
 41
0.1524
 42
0.1524
 43
0.1524
  0
LWPOLYLINE
  5
D69
330
A
100
AcDbEntity
  8
BORDER
100
AcDbPolyline
 90
        4
 70
     1
 43
0.0
 10
0.0
 20
0.0
 10
0.0
 20
594.0
 10
420.0
 20
594.0
 10
420.0
 20
0.0
  0
INSERT
  5
1343
330
A
100
AcDbEntity
  8
TEMPLATE
100
AcDbBlockReference
  2
block 2
 10
838.6973883465873
 20
9.774128564918277
 30
0.0
 41
0.1524
 42
0.1524
 43
0.1524
  0
HATCH
  5
3C64
102
{ACAD_REACTORS
330
3C75
102
}
330
A
100
AcDbEntity
  8
TEMPLATE
100
AcDbHatch
 10
0.0
 20
0.0
 30
0.0
210
0.0
220
0.0
230
1.0
  2
SOLID
 70
     1
 71
     1
 91
        6
 92
        1
 93
        8
 72
     1
 10
386.9584116981973
 20
30.78695932253559
 11
386.9584116981973
 21
29.60507779640349
 72
     1
 10
386.9584116981973
 20
29.60507779640349
 11
385.086293388135
 21
29.60507779640349
 72
     1
 10
385.086293388135
 20
29.60507779640349
 11
385.086293388135
 21
24.78695932282479
 72
     1
 10
385.086293388135
 20
24.78695932282479
 11
383.4397707574798
 21
24.78695932282479
 72
     1
 10
383.4397707574798
 20
24.78695932282479
 11
383.4397707574798
 21
29.60507779640349
 72
     1
 10
383.4397707574798
 20
29.60507779640349
 11
381.6008304705712
 21
29.60507779640349
 72
     1
 10
381.6008304705712
 20
29.60507779640349
 11
381.6008304705712
 21
30.78695932253559
 72
     1
 10
381.6008304705712
 20
30.78695932253559
 11
386.9584116981973
 21
30.78695932253559
 97
        1
330
3C65
 92
        1
 93
        1
 72
     4
 94
        3
 73
     0
 74
     1
 95
       56
 96
       52
 40
0.0
 40
0.0
 40
0.0
 40
0.0
 40
1.0
 40
1.0
 40
1.0
 40
2.0
 40
2.0
 40
2.0
 40
3.0
 40
3.0
 40
3.0
 40
4.0
 40
4.0
 40
4.0
 40
5.0
 40
5.0
 40
5.0
 40
6.0
 40
6.0
 40
6.0
 40
7.0
 40
7.0
 40
7.0
 40
8.0
 40
8.0
 40
8.0
 40
9.0
 40
9.0
 40
9.0
 40
10.0
 40
10.0
 40
10.0
 40
11.0
 40
11.0
 40
11.0
 40
12.0
 40
12.0
 40
12.0
 40
13.0
 40
13.0
 40
13.0
 40
14.0
 40
14.0
 40
14.0
 40
15.0
 40
15.0
 40
15.0
 40
16.0
 40
16.0
 40
16.0
 40
17.0
 40
17.0
 40
17.0
 40
17.0
 10
389.4668487850558
 20
30.64408553045313
 10
389.6976220214394
 20
30.70904304125516
 10
389.9955398401064
 20
30.65470844907718
 10
389.9955398401064
 20
30.65470844907718
 10
389.9955398401064
 20
30.65470844907718
 10
389.85241312139
 20
30.22519439059248
 10
389.85241312139
 20
30.22519439059248
 10
389.85241312139
 20
30.22519439059248
 10
389.5599406643706
 20
30.29287458221835
 10
389.3343598630008
 20
30.1149927683958
 10
389.1590668276665
 20
29.97588311974736
 10
389.0455027690426
 20
29.60625316134929
 10
389.0019398758616
 20
29.46571522112114
 10
389.0019398758616
 20
29.46571522112114
 10
388.8077219770962
 20
28.86958202304137
 10
388.8077219770962
 20
28.86958202304137
 10
388.8077219770962
 20
28.86958202304137
 10
389.4445466071603
 20
28.86958202304137
 10
389.4445466071603
 20
28.86958202304137
 10
389.4445466071603
 20
28.86958202304137
 10
389.34550351293
 20
28.49438767869736
 10
389.34550351293
 20
28.49438767869736
 10
389.34550351293
 20
28.49438767869736
 10
388.7034864478522
 20
28.49438767869736
 10
388.7034864478522
 20
28.49438767869736
 10
388.7034864478522
 20
28.49438767869736
 10
387.5547978229109
 20
24.78695932282479
 10
387.5547978229109
 20
24.78695932282479
 10
387.5547978229109
 20
24.78695932282479
 10
387.1951510275336
 20
24.78695932282479
 10
387.1951510275336
 20
24.78695932282479
 10
387.1951510275336
 20
24.78695932282479
 10
388.3448811150849
 20
28.49438767869736
 10
388.3448811150849
 20
28.49438767869736
 10
388.3448811150849
 20
28.49438767869736
 10
387.8711346517413
 20
28.49438767869736
 10
387.8711346517413
 20
28.49438767869736
 10
387.8711346517413
 20
28.49438767869736
 10
387.9704455506427
 20
28.86958202304137
 10
387.9704455506427
 20
28.86958202304137
 10
387.9704455506427
 20
28.86958202304137
 10
388.4491166443289
 20
28.86958202304137
 10
388.4491166443289
 20
28.86958202304137
 10
388.4491166443289
 20
28.86958202304137
 10
388.6184287086733
 20
29.38948015805433
 10
388.6184287086733
 20
29.38948015805433
 10
388.7553364078029
 20
29.82536201649855
 10
388.8715041229524
 20
30.059378665011
 10
388.971082826525
 20
30.23581730921654
 10
389.0696051894502
 20
30.41240473379499
 10
389.2645967461546
 20
30.58586777054282
 10
389.4668487850558
 20
30.64408553045313
 97
        1
330
3C70
 92
        1
 93
        1
 72
     4
 94
        3
 73
     0
 74
     1
 95
       32
 96
       28
 40
0.0
 40
0.0
 40
0.0
 40
0.0
 40
1.0
 40
1.0
 40
1.0
 40
2.0
 40
2.0
 40
2.0
 40
3.0
 40
3.0
 40
3.0
 40
4.0
 40
4.0
 40
4.0
 40
5.0
 40
5.0
 40
5.0
 40
6.0
 40
6.0
 40
6.0
 40
7.0
 40
7.0
 40
7.0
 40
8.0
 40
8.0
 40
8.0
 40
9.0
 40
9.0
 40
9.0
 40
9.0
 10
390.3419600603343
 20
28.64284073476305
 10
390.1254548617105
 20
28.36279143887966
 10
389.9587315758544
 20
28.11075748721071
 10
389.6888142233646
 20
27.31860614785359
 10
389.4406634394279
 20
26.59401597582401
 10
389.2827479516467
 20
26.06685735861421
 10
389.2588984578731
 20
25.42484029353638
 10
389.240747252381
 20
24.94707676012474
 10
389.5316723935223
 20
24.78695932282479
 10
389.9582257225866
 20
24.78695932282479
 10
390.1420587513246
 20
24.78695932282479
 10
390.6059559539832
 20
24.79865346013363
 10
390.9363078939394
 20
25.20702582763122
 10
391.1675721055534
 20
25.49393389870466
 10
391.38071486775
 20
25.79134586410385
 10
391.6664624519149
 20
26.76695828126675
 10
391.9042432438614
 20
27.58257228542799
 10
392.068883604497
 20
28.10971602460051
 10
392.056713369995
 20
28.40985067082352
 10
392.056713369995
 20
28.40985067082352
 10
392.056713369995
 20
28.40985067082352
 10
392.056713369995
 20
28.40985067082352
 10
391.9791690396468
 20
28.91055613773418
 10
391.615639076537
 20
29.01635386089345
 10
391.4079416759881
 20
29.01635386089345
 10
391.2033686632698
 20
29.01635386089345
 10
390.6552022574085
 20
29.05174871160303
 10
390.3419600603343
 20
28.64284073476305
 97
        1
330
3C73
 92
        1
 93
        1
 72
     4
 94
        3
 73
     0
 74
     1
 95
       38
 96
       34
 40
0.0
 40
0.0
 40
0.0
 40
0.0
 40
1.0
 40
1.0
 40
1.0
 40
2.0
 40
2.0
 40
2.0
 40
3.0
 40
3.0
 40
3.0
 40
4.0
 40
4.0
 40
4.0
 40
5.0
 40
5.0
 40
5.0
 40
6.0
 40
6.0
 40
6.0
 40
7.0
 40
7.0
 40
7.0
 40
8.0
 40
8.0
 40
8.0
 40
9.0
 40
9.0
 40
9.0
 40
10.0
 40
10.0
 40
10.0
 40
11.0
 40
11.0
 40
11.0
 40
11.0
 10
393.3716045494872
 20
28.85519496098328
 10
393.3716045494872
 20
28.85519496098328
 10
393.7413535321836
 20
28.85519496098328
 10
393.7413535321836
 20
28.85519496098328
 10
393.7413535321836
 20
28.85519496098328
 10
393.5761775622055
 20
28.32635512555987
 10
393.5761775622055
 20
28.32635512555987
 10
393.7016886847722
 20
28.47480818162555
 10
393.8997748732327
 20
28.67252241915381
 10
394.0698903515905
 20
28.77222014702475
 10
394.3240072284799
 20
28.92067320309043
 10
394.4692168724166
 20
28.94025270016223
 10
394.6289177246725
 20
28.93635465439262
 10
394.6289177246725
 20
28.93635465439262
 10
394.4728471135151
 20
28.43630382112264
 10
394.4728471135151
 20
28.43630382112264
 10
394.3712003627593
 20
28.47934598299858
 10
394.057958165685
 20
28.39741263165024
 10
393.8782612313133
 20
28.26815224368685
 10
393.7162096491659
 20
28.15159769956793
 10
393.6041780283826
 20
28.0524207030021
 10
393.4714361796937
 20
27.80309455411968
 10
393.3397060375404
 20
27.55339645430504
 10
393.2357383129677
 20
27.15524529842472
 10
393.0568150365349
 20
26.57765013480655
 10
393.0568150365349
 20
26.57765013480655
 10
392.4980257120495
 20
24.78695932282479
 10
392.4980257120495
 20
24.78695932282479
 10
392.4980257120495
 20
24.78695932282479
 10
392.1391674526484
 20
24.78695932282479
 10
392.1391674526484
 20
24.78695932282479
 10
392.1391674526484
 20
24.78695932282479
 10
393.3716045494872
 20
28.85519496098328
 10
393.3716045494872
 20
28.85519496098328
 97
        1
330
3C71
 92
        1
 93
        1
 72
     4
 94
        3
 73
     0
 74
     1
 95
      104
 96
      100
 40
0.0
 40
0.0
 40
0.0
 40
0.0
 40
1.0
 40
1.0
 40
1.0
 40
2.0
 40
2.0
 40
2.0
 40
3.0
 40
3.0
 40
3.0
 40
4.0
 40
4.0
 40
4.0
 40
5.0
 40
5.0
 40
5.0
 40
6.0
 40
6.0
 40
6.0
 40
7.0
 40
7.0
 40
7.0
 40
8.0
 40
8.0
 40
8.0
 40
9.0
 40
9.0
 40
9.0
 40
10.0
 40
10.0
 40
10.0
 40
11.0
 40
11.0
 40
11.0
 40
12.0
 40
12.0
 40
12.0
 40
13.0
 40
13.0
 40
13.0
 40
14.0
 40
14.0
 40
14.0
 40
15.0
 40
15.0
 40
15.0
 40
16.0
 40
16.0
 40
16.0
 40
17.0
 40
17.0
 40
17.0
 40
18.0
 40
18.0
 40
18.0
 40
19.0
 40
19.0
 40
19.0
 40
20.0
 40
20.0
 40
20.0
 40
21.0
 40
21.0
 40
21.0
 40
22.0
 40
22.0
 40
22.0
 40
23.0
 40
23.0
 40
23.0
 40
24.0
 40
24.0
 40
24.0
 40
25.0
 40
25.0
 40
25.0
 40
26.0
 40
26.0
 40
26.0
 40
27.0
 40
27.0
 40
27.0
 40
28.0
 40
28.0
 40
28.0
 40
29.0
 40
29.0
 40
29.0
 40
30.0
 40
30.0
 40
30.0
 40
31.0
 40
31.0
 40
31.0
 40
32.0
 40
32.0
 40
32.0
 40
33.0
 40
33.0
 40
33.0
 40
33.0
 10
395.4068307823444
 20
28.857396910502
 10
395.4068307823444
 20
28.857396910502
 10
395.7296544354325
 20
28.857396910502
 10
395.7296544354325
 20
28.857396910502
 10
395.7296544354325
 20
28.857396910502
 10
395.5665613906749
 20
28.32805122181077
 10
395.5665613906749
 20
28.32805122181077
 10
395.7081110374387
 20
28.55000178208216
 10
395.8351694758834
 20
28.64892585201409
 10
396.0039756869598
 20
28.77675794839777
 10
396.1732877513042
 20
28.90277492423224
 10
396.3742602789986
 20
28.92845441659237
 10
396.5137567566165
 20
28.92845441659237
 10
396.6864610134627
 20
28.92845441659237
 10
396.8531842993187
 20
28.8943539551269
 10
396.9408159389486
 20
28.70506068670399
 10
397.0079753992694
 20
28.55662250867558
 10
397.0110997871
 20
28.5391110587869
 10
396.9919071189977
 20
28.24610299242514
 10
397.1674382029287
 20
28.54650544331934
 10
397.2970854198616
 20
28.67589973361832
 10
397.5174886642549
 20
28.80022061320189
 10
397.7487826319435
 20
28.92845441659237
 10
397.8836074058529
 20
28.93805075064353
 10
398.0402433824273
 20
28.9149600367716
 10
398.2710017407735
 20
28.88087445334342
 10
398.4182943099307
 20
28.79853939498828
 10
398.4953030309365
 20
28.54832056386854
 10
398.5725795566135
 20
28.29887539068781
 10
398.5308317839817
 20
28.16507720135141
 10
398.4354040528126
 20
27.76796750808128
 10
398.3918411596316
 20
27.58711008680102
 10
398.3288177936771
 20
27.36812025595006
 10
398.2463637110236
 20
27.10754631087745
 10
398.2463637110236
 20
27.10754631087745
 10
397.5174886642549
 20
24.78695932282479
 10
397.5174886642549
 20
24.78695932282479
 10
397.5174886642549
 20
24.78695932282479
 10
397.1383962741413
 20
24.78695932282479
 10
397.1383962741413
 20
24.78695932282479
 10
397.1383962741413
 20
24.78695932282479
 10
397.7765450495241
 20
26.81569873142421
 10
397.7765450495241
 20
26.81569873142421
 10
397.9098225075554
 20
27.24016913526807
 10
398.0000429256735
 20
27.55015304217612
 10
398.0467302066851
 20
27.74450484327716
 10
398.1053199175276
 20
27.98694246089495
 10
398.1286486799962
 20
28.06694166739577
 10
398.1009160184902
 20
28.24339518963862
 10
398.0755043308013
 20
28.4076487213048
 10
397.9925146388055
 20
28.51460693137258
 10
397.8504293826993
 20
28.51460693137258
 10
397.6990007191758
 20
28.51460693137258
 10
397.5763461797686
 20
28.49775011512458
 10
397.4047131416073
 20
28.32532854098695
 10
397.2330503473714
 20
28.15159769956793
 10
397.0912031398618
 20
27.94766444245305
 10
396.9799749330922
 20
27.71312706263549
 10
396.8689847749192
 20
27.47716139123824
 10
396.7564473008682
 20
27.17806820762544
 10
396.6423625109393
 20
26.81569873142421
 10
396.6423625109393
 20
26.81569873142421
 10
396.0039756869598
 20
24.78695932282479
 10
396.0039756869598
 20
24.78695932282479
 10
396.0039756869598
 20
24.78695932282479
 10
395.6474384013758
 20
24.78695932282479
 10
395.6474384013758
 20
24.78695932282479
 10
395.6474384013758
 20
24.78695932282479
 10
396.3773549107547
 20
27.10650484826726
 10
396.3773549107547
 20
27.10650484826726
 10
396.4543636317604
 20
27.35336124295977
 10
396.5122094407385
 20
27.55457181925085
 10
396.5503269722719
 20
27.71183267339138
 10
396.6151357027011
 20
27.98253856185753
 10
396.6332869081932
 20
28.1655979326565
 10
396.5842786533645
 20
28.32805122181077
 10
396.5360440564749
 20
28.48998377965993
 10
396.4512690000045
 20
28.53134472332225
 10
396.3096895971661
 20
28.53134472332225
 10
396.1909331035284
 20
28.53134472332225
 10
396.0750331930502
 20
28.48038744560878
 10
395.9427971976291
 20
28.37899362148695
 10
395.7763119603696
 20
28.25142932977446
 10
395.7096881093912
 20
28.1466730692254
 10
395.6280076846768
 20
28.02220340926895
 10
395.5177911844429
 20
27.85754817059597
 10
395.4661941511259
 20
27.74670679279587
 10
395.3731171498484
 20
27.50348063920177
 10
395.2800103924964
 20
27.25882619402798
 10
395.1918728995987
 20
26.97412007247326
 10
395.1303968495222
 20
26.77719437092129
 10
395.1303968495222
 20
26.77719437092129
 10
394.5042100161195
 20
24.78695932282479
 10
394.5042100161195
 20
24.78695932282479
 10
394.5042100161195
 20
24.78695932282479
 10
394.1308307923247
 20
24.78695932282479
 10
394.1308307923247
 20
24.78695932282479
 10
394.1308307923247
 20
24.78695932282479
 10
395.4068307823444
 20
28.857396910502
 10
395.4068307823444
 20
28.857396910502
 97
        1
330
3C72
 92
       16
 93
        1
 72
     4
 94
        3
 73
     0
 74
     1
 95
       29
 96
       25
 40
0.0
 40
0.0
 40
0.0
 40
0.0
 40
1.0
 40
1.0
 40
1.0
 40
2.0
 40
2.0
 40
2.0
 40
3.0
 40
3.0
 40
3.0
 40
4.0
 40
4.0
 40
4.0
 40
5.0
 40
5.0
 40
5.0
 40
6.0
 40
6.0
 40
6.0
 40
7.0
 40
7.0
 40
7.0
 40
8.0
 40
8.0
 40
8.0
 40
8.0
 10
389.6462927927937
 20
25.54487629838084
 10
389.6447157208412
 20
25.82830290872873
 10
389.7341922370948
 20
26.33186495879882
 10
389.9634032795631
 20
27.00563175545052
 10
390.2756040140271
 20
27.91796788002499
 10
390.4628292352669
 20
28.25142932977446
 10
390.6266661818889
 20
28.41374871659313
 10
390.866024045788
 20
28.65010121695988
 10
391.1878062362659
 20
28.66188462249246
 10
391.2827281141673
 20
28.65010121695988
 10
391.4178206927478
 20
28.6338841563153
 10
391.6086463990114
 20
28.54546398070914
 10
391.6200429755745
 20
28.24779908867604
 10
391.629148334395
 20
27.99304245618328
 10
391.5557400984131
 20
27.51593355641234
 10
391.2987963944389
 20
26.76695828126675
 10
391.0026639402465
 20
25.896622855958
 10
390.824782126424
 20
25.55448751046927
 10
390.6821910170501
 20
25.40537982076289
 10
390.413553175767
 20
25.1258512561846
 10
390.1254548617105
 20
25.15269123545324
 10
390.0829334311396
 20
25.15269123545324
 10
390.0277061567243
 20
25.15269123545324
 10
389.6470664507327
 20
25.21261996965174
 10
389.6462927927937
 20
25.54487629838084
 97
        1
330
3C74
 75
     0
 76
     1
 98
        1
 10
371.9300318427923
 20
14.61939790801677
1001
ACAD
1010
0.0
1020
0.0
1030
0.0
  0
POLYLINE
  5
3C65
102
{ACAD_REACTORS
330
3C64
330
3C75
102
}
330
A
100
AcDbEntity
  8
TEMPLATE
100
AcDb2dPolyline
 66
     1
 10
0.0
 20
0.0
 30
0.0
  0
VERTEX
  5
3C66
330
3C65
100
AcDbEntity
  8
TEMPLATE
100
AcDbVertex
100
AcDb2dVertex
 10
386.9584116981973
 20
30.78695932253559
 30
0.0
  0
VERTEX
  5
3C67
330
3C65
100
AcDbEntity
  8
TEMPLATE
100
AcDbVertex
100
AcDb2dVertex
 10
386.9584116981973
 20
29.60507779640349
 30
0.0
  0
VERTEX
  5
3C68
330
3C65
100
AcDbEntity
  8
TEMPLATE
100
AcDbVertex
100
AcDb2dVertex
 10
385.086293388135
 20
29.60507779640349
 30
0.0
  0
VERTEX
  5
3C69
330
3C65
100
AcDbEntity
  8
TEMPLATE
100
AcDbVertex
100
AcDb2dVertex
 10
385.086293388135
 20
24.78695932282479
 30
0.0
  0
VERTEX
  5
3C6A
330
3C65
100
AcDbEntity
  8
TEMPLATE
100
AcDbVertex
100
AcDb2dVertex
 10
383.4397707574798
 20
24.78695932282479
 30
0.0
  0
VERTEX
  5
3C6B
330
3C65
100
AcDbEntity
  8
TEMPLATE
100
AcDbVertex
100
AcDb2dVertex
 10
383.4397707574798
 20
29.60507779640349
 30
0.0
  0
VERTEX
  5
3C6C
330
3C65
100
AcDbEntity
  8
TEMPLATE
100
AcDbVertex
100
AcDb2dVertex
 10
381.6008304705712
 20
29.60507779640349
 30
0.0
  0
VERTEX
  5
3C6D
330
3C65
100
AcDbEntity
  8
TEMPLATE
100
AcDbVertex
100
AcDb2dVertex
 10
381.6008304705712
 20
30.78695932253559
 30
0.0
  0
VERTEX
  5
3C6E
330
3C65
100
AcDbEntity
  8
TEMPLATE
100
AcDbVertex
100
AcDb2dVertex
 10
386.9584116981973
 20
30.78695932253559
 30
0.0
  0
SEQEND
  5
3C6F
330
3C65
100
AcDbEntity
  8
TEMPLATE
  0
SPLINE
  5
3C70
102
{ACAD_REACTORS
330
3C64
330
3C75
102
}
330
A
100
AcDbEntity
  8
TEMPLATE
100
AcDbSpline
210
0.0
220
0.0
230
1.0
 70
    11
 71
     3
 72
    56
 73
    52
 74
     0
 42
0.000000001
 43
0.0000000001
 40
0.0
 40
0.0
 40
0.0
 40
0.0
 40
1.0
 40
1.0
 40
1.0
 40
2.0
 40
2.0
 40
2.0
 40
3.0
 40
3.0
 40
3.0
 40
4.0
 40
4.0
 40
4.0
 40
5.0
 40
5.0
 40
5.0
 40
6.0
 40
6.0
 40
6.0
 40
7.0
 40
7.0
 40
7.0
 40
8.0
 40
8.0
 40
8.0
 40
9.0
 40
9.0
 40
9.0
 40
10.0
 40
10.0
 40
10.0
 40
11.0
 40
11.0
 40
11.0
 40
12.0
 40
12.0
 40
12.0
 40
13.0
 40
13.0
 40
13.0
 40
14.0
 40
14.0
 40
14.0
 40
15.0
 40
15.0
 40
15.0
 40
16.0
 40
16.0
 40
16.0
 40
17.0
 40
17.0
 40
17.0
 40
17.0
 10
389.4668487850558
 20
30.64408553045313
 30
0.0
 10
389.6976220214394
 20
30.70904304125516
 30
0.0
 10
389.9955398401064
 20
30.65470844907718
 30
0.0
 10
389.9955398401064
 20
30.65470844907718
 30
0.0
 10
389.9955398401064
 20
30.65470844907718
 30
0.0
 10
389.85241312139
 20
30.22519439059248
 30
0.0
 10
389.85241312139
 20
30.22519439059248
 30
0.0
 10
389.85241312139
 20
30.22519439059248
 30
0.0
 10
389.5599406643706
 20
30.29287458221835
 30
0.0
 10
389.3343598630008
 20
30.1149927683958
 30
0.0
 10
389.1590668276665
 20
29.97588311974736
 30
0.0
 10
389.0455027690426
 20
29.60625316134929
 30
0.0
 10
389.0019398758616
 20
29.46571522112114
 30
0.0
 10
389.0019398758616
 20
29.46571522112114
 30
0.0
 10
388.8077219770962
 20
28.86958202304137
 30
0.0
 10
388.8077219770962
 20
28.86958202304137
 30
0.0
 10
388.8077219770962
 20
28.86958202304137
 30
0.0
 10
389.4445466071603
 20
28.86958202304137
 30
0.0
 10
389.4445466071603
 20
28.86958202304137
 30
0.0
 10
389.4445466071603
 20
28.86958202304137
 30
0.0
 10
389.34550351293
 20
28.49438767869736
 30
0.0
 10
389.34550351293
 20
28.49438767869736
 30
0.0
 10
389.34550351293
 20
28.49438767869736
 30
0.0
 10
388.7034864478522
 20
28.49438767869736
 30
0.0
 10
388.7034864478522
 20
28.49438767869736
 30
0.0
 10
388.7034864478522
 20
28.49438767869736
 30
0.0
 10
387.5547978229109
 20
24.78695932282479
 30
0.0
 10
387.5547978229109
 20
24.78695932282479
 30
0.0
 10
387.5547978229109
 20
24.78695932282479
 30
0.0
 10
387.1951510275336
 20
24.78695932282479
 30
0.0
 10
387.1951510275336
 20
24.78695932282479
 30
0.0
 10
387.1951510275336
 20
24.78695932282479
 30
0.0
 10
388.3448811150849
 20
28.49438767869736
 30
0.0
 10
388.3448811150849
 20
28.49438767869736
 30
0.0
 10
388.3448811150849
 20
28.49438767869736
 30
0.0
 10
387.8711346517413
 20
28.49438767869736
 30
0.0
 10
387.8711346517413
 20
28.49438767869736
 30
0.0
 10
387.8711346517413
 20
28.49438767869736
 30
0.0
 10
387.9704455506427
 20
28.86958202304137
 30
0.0
 10
387.9704455506427
 20
28.86958202304137
 30
0.0
 10
387.9704455506427
 20
28.86958202304137
 30
0.0
 10
388.4491166443289
 20
28.86958202304137
 30
0.0
 10
388.4491166443289
 20
28.86958202304137
 30
0.0
 10
388.4491166443289
 20
28.86958202304137
 30
0.0
 10
388.6184287086733
 20
29.38948015805433
 30
0.0
 10
388.6184287086733
 20
29.38948015805433
 30
0.0
 10
388.7553364078029
 20
29.82536201649855
 30
0.0
 10
388.8715041229524
 20
30.059378665011
 30
0.0
 10
388.971082826525
 20
30.23581730921654
 30
0.0
 10
389.0696051894502
 20
30.41240473379499
 30
0.0
 10
389.2645967461546
 20
30.58586777054282
 30
0.0
 10
389.4668487850558
 20
30.64408553045313
 30
0.0
  0
SPLINE
  5
3C71
102
{ACAD_REACTORS
330
3C64
330
3C75
102
}
330
A
100
AcDbEntity
  8
TEMPLATE
100
AcDbSpline
210
0.0
220
0.0
230
1.0
 70
    11
 71
     3
 72
    38
 73
    34
 74
     0
 42
0.000000001
 43
0.0000000001
 40
0.0
 40
0.0
 40
0.0
 40
0.0
 40
1.0
 40
1.0
 40
1.0
 40
2.0
 40
2.0
 40
2.0
 40
3.0
 40
3.0
 40
3.0
 40
4.0
 40
4.0
 40
4.0
 40
5.0
 40
5.0
 40
5.0
 40
6.0
 40
6.0
 40
6.0
 40
7.0
 40
7.0
 40
7.0
 40
8.0
 40
8.0
 40
8.0
 40
9.0
 40
9.0
 40
9.0
 40
10.0
 40
10.0
 40
10.0
 40
11.0
 40
11.0
 40
11.0
 40
11.0
 10
393.3716045494872
 20
28.85519496098328
 30
0.0
 10
393.3716045494872
 20
28.85519496098328
 30
0.0
 10
393.7413535321836
 20
28.85519496098328
 30
0.0
 10
393.7413535321836
 20
28.85519496098328
 30
0.0
 10
393.7413535321836
 20
28.85519496098328
 30
0.0
 10
393.5761775622055
 20
28.32635512555987
 30
0.0
 10
393.5761775622055
 20
28.32635512555987
 30
0.0
 10
393.7016886847722
 20
28.47480818162555
 30
0.0
 10
393.8997748732327
 20
28.67252241915381
 30
0.0
 10
394.0698903515905
 20
28.77222014702475
 30
0.0
 10
394.3240072284799
 20
28.92067320309043
 30
0.0
 10
394.4692168724166
 20
28.94025270016223
 30
0.0
 10
394.6289177246725
 20
28.93635465439262
 30
0.0
 10
394.6289177246725
 20
28.93635465439262
 30
0.0
 10
394.4728471135151
 20
28.43630382112264
 30
0.0
 10
394.4728471135151
 20
28.43630382112264
 30
0.0
 10
394.3712003627593
 20
28.47934598299858
 30
0.0
 10
394.057958165685
 20
28.39741263165024
 30
0.0
 10
393.8782612313133
 20
28.26815224368685
 30
0.0
 10
393.7162096491659
 20
28.15159769956793
 30
0.0
 10
393.6041780283826
 20
28.0524207030021
 30
0.0
 10
393.4714361796937
 20
27.80309455411968
 30
0.0
 10
393.3397060375404
 20
27.55339645430504
 30
0.0
 10
393.2357383129677
 20
27.15524529842472
 30
0.0
 10
393.0568150365349
 20
26.57765013480655
 30
0.0
 10
393.0568150365349
 20
26.57765013480655
 30
0.0
 10
392.4980257120495
 20
24.78695932282479
 30
0.0
 10
392.4980257120495
 20
24.78695932282479
 30
0.0
 10
392.4980257120495
 20
24.78695932282479
 30
0.0
 10
392.1391674526484
 20
24.78695932282479
 30
0.0
 10
392.1391674526484
 20
24.78695932282479
 30
0.0
 10
392.1391674526484
 20
24.78695932282479
 30
0.0
 10
393.3716045494872
 20
28.85519496098328
 30
0.0
 10
393.3716045494872
 20
28.85519496098328
 30
0.0
  0
SPLINE
  5
3C72
102
{ACAD_REACTORS
330
3C64
330
3C75
102
}
330
A
100
AcDbEntity
  8
TEMPLATE
100
AcDbSpline
210
0.0
220
0.0
230
1.0
 70
    11
 71
     3
 72
   104
 73
   100
 74
     0
 42
0.000000001
 43
0.0000000001
 40
0.0
 40
0.0
 40
0.0
 40
0.0
 40
1.0
 40
1.0
 40
1.0
 40
2.0
 40
2.0
 40
2.0
 40
3.0
 40
3.0
 40
3.0
 40
4.0
 40
4.0
 40
4.0
 40
5.0
 40
5.0
 40
5.0
 40
6.0
 40
6.0
 40
6.0
 40
7.0
 40
7.0
 40
7.0
 40
8.0
 40
8.0
 40
8.0
 40
9.0
 40
9.0
 40
9.0
 40
10.0
 40
10.0
 40
10.0
 40
11.0
 40
11.0
 40
11.0
 40
12.0
 40
12.0
 40
12.0
 40
13.0
 40
13.0
 40
13.0
 40
14.0
 40
14.0
 40
14.0
 40
15.0
 40
15.0
 40
15.0
 40
16.0
 40
16.0
 40
16.0
 40
17.0
 40
17.0
 40
17.0
 40
18.0
 40
18.0
 40
18.0
 40
19.0
 40
19.0
 40
19.0
 40
20.0
 40
20.0
 40
20.0
 40
21.0
 40
21.0
 40
21.0
 40
22.0
 40
22.0
 40
22.0
 40
23.0
 40
23.0
 40
23.0
 40
24.0
 40
24.0
 40
24.0
 40
25.0
 40
25.0
 40
25.0
 40
26.0
 40
26.0
 40
26.0
 40
27.0
 40
27.0
 40
27.0
 40
28.0
 40
28.0
 40
28.0
 40
29.0
 40
29.0
 40
29.0
 40
30.0
 40
30.0
 40
30.0
 40
31.0
 40
31.0
 40
31.0
 40
32.0
 40
32.0
 40
32.0
 40
33.0
 40
33.0
 40
33.0
 40
33.0
 10
395.4068307823444
 20
28.857396910502
 30
0.0
 10
395.4068307823444
 20
28.857396910502
 30
0.0
 10
395.7296544354325
 20
28.857396910502
 30
0.0
 10
395.7296544354325
 20
28.857396910502
 30
0.0
 10
395.7296544354325
 20
28.857396910502
 30
0.0
 10
395.5665613906749
 20
28.32805122181077
 30
0.0
 10
395.5665613906749
 20
28.32805122181077
 30
0.0
 10
395.7081110374387
 20
28.55000178208216
 30
0.0
 10
395.8351694758834
 20
28.64892585201409
 30
0.0
 10
396.0039756869598
 20
28.77675794839777
 30
0.0
 10
396.1732877513042
 20
28.90277492423224
 30
0.0
 10
396.3742602789986
 20
28.92845441659237
 30
0.0
 10
396.5137567566165
 20
28.92845441659237
 30
0.0
 10
396.6864610134627
 20
28.92845441659237
 30
0.0
 10
396.8531842993187
 20
28.8943539551269
 30
0.0
 10
396.9408159389486
 20
28.70506068670399
 30
0.0
 10
397.0079753992694
 20
28.55662250867558
 30
0.0
 10
397.0110997871
 20
28.5391110587869
 30
0.0
 10
396.9919071189977
 20
28.24610299242514
 30
0.0
 10
397.1674382029287
 20
28.54650544331934
 30
0.0
 10
397.2970854198616
 20
28.67589973361832
 30
0.0
 10
397.5174886642549
 20
28.80022061320189
 30
0.0
 10
397.7487826319435
 20
28.92845441659237
 30
0.0
 10
397.8836074058529
 20
28.93805075064353
 30
0.0
 10
398.0402433824273
 20
28.9149600367716
 30
0.0
 10
398.2710017407735
 20
28.88087445334342
 30
0.0
 10
398.4182943099307
 20
28.79853939498828
 30
0.0
 10
398.4953030309365
 20
28.54832056386854
 30
0.0
 10
398.5725795566135
 20
28.29887539068781
 30
0.0
 10
398.5308317839817
 20
28.16507720135141
 30
0.0
 10
398.4354040528126
 20
27.76796750808128
 30
0.0
 10
398.3918411596316
 20
27.58711008680102
 30
0.0
 10
398.3288177936771
 20
27.36812025595006
 30
0.0
 10
398.2463637110236
 20
27.10754631087745
 30
0.0
 10
398.2463637110236
 20
27.10754631087745
 30
0.0
 10
397.5174886642549
 20
24.78695932282479
 30
0.0
 10
397.5174886642549
 20
24.78695932282479
 30
0.0
 10
397.5174886642549
 20
24.78695932282479
 30
0.0
 10
397.1383962741413
 20
24.78695932282479
 30
0.0
 10
397.1383962741413
 20
24.78695932282479
 30
0.0
 10
397.1383962741413
 20
24.78695932282479
 30
0.0
 10
397.7765450495241
 20
26.81569873142421
 30
0.0
 10
397.7765450495241
 20
26.81569873142421
 30
0.0
 10
397.9098225075554
 20
27.24016913526807
 30
0.0
 10
398.0000429256735
 20
27.55015304217612
 30
0.0
 10
398.0467302066851
 20
27.74450484327716
 30
0.0
 10
398.1053199175276
 20
27.98694246089495
 30
0.0
 10
398.1286486799962
 20
28.06694166739577
 30
0.0
 10
398.1009160184902
 20
28.24339518963862
 30
0.0
 10
398.0755043308013
 20
28.4076487213048
 30
0.0
 10
397.9925146388055
 20
28.51460693137258
 30
0.0
 10
397.8504293826993
 20
28.51460693137258
 30
0.0
 10
397.6990007191758
 20
28.51460693137258
 30
0.0
 10
397.5763461797686
 20
28.49775011512458
 30
0.0
 10
397.4047131416073
 20
28.32532854098695
 30
0.0
 10
397.2330503473714
 20
28.15159769956793
 30
0.0
 10
397.0912031398618
 20
27.94766444245305
 30
0.0
 10
396.9799749330922
 20
27.71312706263549
 30
0.0
 10
396.8689847749192
 20
27.47716139123824
 30
0.0
 10
396.7564473008682
 20
27.17806820762544
 30
0.0
 10
396.6423625109393
 20
26.81569873142421
 30
0.0
 10
396.6423625109393
 20
26.81569873142421
 30
0.0
 10
396.0039756869598
 20
24.78695932282479
 30
0.0
 10
396.0039756869598
 20
24.78695932282479
 30
0.0
 10
396.0039756869598
 20
24.78695932282479
 30
0.0
 10
395.6474384013758
 20
24.78695932282479
 30
0.0
 10
395.6474384013758
 20
24.78695932282479
 30
0.0
 10
395.6474384013758
 20
24.78695932282479
 30
0.0
 10
396.3773549107547
 20
27.10650484826726
 30
0.0
 10
396.3773549107547
 20
27.10650484826726
 30
0.0
 10
396.4543636317604
 20
27.35336124295977
 30
0.0
 10
396.5122094407385
 20
27.55457181925085
 30
0.0
 10
396.5503269722719
 20
27.71183267339138
 30
0.0
 10
396.6151357027011
 20
27.98253856185753
 30
0.0
 10
396.6332869081932
 20
28.1655979326565
 30
0.0
 10
396.5842786533645
 20
28.32805122181077
 30
0.0
 10
396.5360440564749
 20
28.48998377965993
 30
0.0
 10
396.4512690000045
 20
28.53134472332225
 30
0.0
 10
396.3096895971661
 20
28.53134472332225
 30
0.0
 10
396.1909331035284
 20
28.53134472332225
 30
0.0
 10
396.0750331930502
 20
28.48038744560878
 30
0.0
 10
395.9427971976291
 20
28.37899362148695
 30
0.0
 10
395.7763119603696
 20
28.25142932977446
 30
0.0
 10
395.7096881093912
 20
28.1466730692254
 30
0.0
 10
395.6280076846768
 20
28.02220340926895
 30
0.0
 10
395.5177911844429
 20
27.85754817059597
 30
0.0
 10
395.4661941511259
 20
27.74670679279587
 30
0.0
 10
395.3731171498484
 20
27.50348063920177
 30
0.0
 10
395.2800103924964
 20
27.25882619402798
 30
0.0
 10
395.1918728995987
 20
26.97412007247326
 30
0.0
 10
395.1303968495222
 20
26.77719437092129
 30
0.0
 10
395.1303968495222
 20
26.77719437092129
 30
0.0
 10
394.5042100161195
 20
24.78695932282479
 30
0.0
 10
394.5042100161195
 20
24.78695932282479
 30
0.0
 10
394.5042100161195
 20
24.78695932282479
 30
0.0
 10
394.1308307923247
 20
24.78695932282479
 30
0.0
 10
394.1308307923247
 20
24.78695932282479
 30
0.0
 10
394.1308307923247
 20
24.78695932282479
 30
0.0
 10
395.4068307823444
 20
28.857396910502
 30
0.0
 10
395.4068307823444
 20
28.857396910502
 30
0.0
  0
SPLINE
  5
3C73
102
{ACAD_REACTORS
330
3C64
330
3C75
102
}
330
A
100
AcDbEntity
  8
TEMPLATE
100
AcDbSpline
210
0.0
220
0.0
230
1.0
 70
    11
 71
     3
 72
    32
 73
    28
 74
     0
 42
0.000000001
 43
0.0000000001
 40
0.0
 40
0.0
 40
0.0
 40
0.0
 40
1.0
 40
1.0
 40
1.0
 40
2.0
 40
2.0
 40
2.0
 40
3.0
 40
3.0
 40
3.0
 40
4.0
 40
4.0
 40
4.0
 40
5.0
 40
5.0
 40
5.0
 40
6.0
 40
6.0
 40
6.0
 40
7.0
 40
7.0
 40
7.0
 40
8.0
 40
8.0
 40
8.0
 40
9.0
 40
9.0
 40
9.0
 40
9.0
 10
390.3419600603343
 20
28.64284073476305
 30
0.0
 10
390.1254548617105
 20
28.36279143887966
 30
0.0
 10
389.9587315758544
 20
28.11075748721071
 30
0.0
 10
389.6888142233646
 20
27.31860614785359
 30
0.0
 10
389.4406634394279
 20
26.59401597582401
 30
0.0
 10
389.2827479516467
 20
26.06685735861421
 30
0.0
 10
389.2588984578731
 20
25.42484029353638
 30
0.0
 10
389.240747252381
 20
24.94707676012474
 30
0.0
 10
389.5316723935223
 20
24.78695932282479
 30
0.0
 10
389.9582257225866
 20
24.78695932282479
 30
0.0
 10
390.1420587513246
 20
24.78695932282479
 30
0.0
 10
390.6059559539832
 20
24.79865346013363
 30
0.0
 10
390.9363078939394
 20
25.20702582763122
 30
0.0
 10
391.1675721055534
 20
25.49393389870466
 30
0.0
 10
391.38071486775
 20
25.79134586410385
 30
0.0
 10
391.6664624519149
 20
26.76695828126675
 30
0.0
 10
391.9042432438614
 20
27.58257228542799
 30
0.0
 10
392.068883604497
 20
28.10971602460051
 30
0.0
 10
392.056713369995
 20
28.40985067082352
 30
0.0
 10
392.056713369995
 20
28.40985067082352
 30
0.0
 10
392.056713369995
 20
28.40985067082352
 30
0.0
 10
392.056713369995
 20
28.40985067082352
 30
0.0
 10
391.9791690396468
 20
28.91055613773418
 30
0.0
 10
391.615639076537
 20
29.01635386089345
 30
0.0
 10
391.4079416759881
 20
29.01635386089345
 30
0.0
 10
391.2033686632698
 20
29.01635386089345
 30
0.0
 10
390.6552022574085
 20
29.05174871160303
 30
0.0
 10
390.3419600603343
 20
28.64284073476305
 30
0.0
  0
SPLINE
  5
3C74
102
{ACAD_REACTORS
330
3C64
330
3C75
102
}
330
A
100
AcDbEntity
  8
TEMPLATE
100
AcDbSpline
210
0.0
220
0.0
230
1.0
 70
    11
 71
     3
 72
    29
 73
    25
 74
     0
 42
0.000000001
 43
0.0000000001
 40
0.0
 40
0.0
 40
0.0
 40
0.0
 40
1.0
 40
1.0
 40
1.0
 40
2.0
 40
2.0
 40
2.0
 40
3.0
 40
3.0
 40
3.0
 40
4.0
 40
4.0
 40
4.0
 40
5.0
 40
5.0
 40
5.0
 40
6.0
 40
6.0
 40
6.0
 40
7.0
 40
7.0
 40
7.0
 40
8.0
 40
8.0
 40
8.0
 40
8.0
 10
389.6462927927937
 20
25.54487629838084
 30
0.0
 10
389.6447157208412
 20
25.82830290872873
 30
0.0
 10
389.7341922370948
 20
26.33186495879882
 30
0.0
 10
389.9634032795631
 20
27.00563175545052
 30
0.0
 10
390.2756040140271
 20
27.91796788002499
 30
0.0
 10
390.4628292352669
 20
28.25142932977446
 30
0.0
 10
390.6266661818889
 20
28.41374871659313
 30
0.0
 10
390.866024045788
 20
28.65010121695988
 30
0.0
 10
391.1878062362659
 20
28.66188462249246
 30
0.0
 10
391.2827281141673
 20
28.65010121695988
 30
0.0
 10
391.4178206927478
 20
28.6338841563153
 30
0.0
 10
391.6086463990114
 20
28.54546398070914
 30
0.0
 10
391.6200429755745
 20
28.24779908867604
 30
0.0
 10
391.629148334395
 20
27.99304245618328
 30
0.0
 10
391.5557400984131
 20
27.51593355641234
 30
0.0
 10
391.2987963944389
 20
26.76695828126675
 30
0.0
 10
391.0026639402465
 20
25.896622855958
 30
0.0
 10
390.824782126424
 20
25.55448751046927
 30
0.0
 10
390.6821910170501
 20
25.40537982076289
 30
0.0
 10
390.413553175767
 20
25.1258512561846
 30
0.0
 10
390.1254548617105
 20
25.15269123545324
 30
0.0
 10
390.0829334311396
 20
25.15269123545324
 30
0.0
 10
390.0277061567243
 20
25.15269123545324
 30
0.0
 10
389.6470664507327
 20
25.21261996965174
 30
0.0
 10
389.6462927927937
 20
25.54487629838084
 30
0.0
  0
MTEXT
  5
3CB5
102
{ACAD_XDICTIONARY
360
3CB7
102
}
330
A
100
AcDbEntity
  8
TEMPLATE
100
AcDbMText
 10
15.00779663219942
 20
17.57619761830519
 30
0.0
 40
4.0
 41
0.0
 46
4.0
 71
     1
 72
     1
  1
{20250304M}
  7
ＭＳ ゴシック
 73
     1
 44
1.0
1001
ACAD
1000
ACAD_MTEXT_DEFINED_HEIGHT_BEGIN
1070
    46
1040
4.0
1000
ACAD_MTEXT_DEFINED_HEIGHT_END
  0
SPLINE
  5
54B7
102
{ACAD_REACTORS
330
56FA
102
}
330
A
100
AcDbEntity
  8
MODEL
100
AcDbSpline
210
0.0
220
0.0
230
1.0
 70
    11
 71
     3
 72
    17
 73
    13
 74
     0
 42
0.000000001
 43
0.0000000001
 40
0.0
 40
0.0
 40
0.0
 40
0.0
 40
1.0
 40
1.0
 40
1.0
 40
2.0
 40
2.0
 40
2.0
 40
3.0
 40
3.0
 40
3.0
 40
4.0
 40
4.0
 40
4.0
 40
4.0
 10
129.64367207401
 20
417.3732038169696
 30
0.0
 10
129.64367207401
 20
426.2050564292802
 30
0.0
 10
122.4838976585261
 20
433.3646585898762
 30
0.0
 10
113.6522173011034
 20
433.3646585898762
 30
0.0
 10
104.8203646887928
 20
433.3646585898762
 30
0.0
 10
97.66076252819684
 20
426.2050564292802
 30
0.0
 10
97.66076252819684
 20
417.3732038169696
 30
0.0
 10
97.66076252819684
 20
408.541351204659
 30
0.0
 10
104.8203646887928
 20
401.381749044063
 30
0.0
 10
113.6522173011034
 20
401.381749044063
 30
0.0
 10
122.4838976585261
 20
401.381749044063
 30
0.0
 10
129.64367207401
 20
408.541351204659
 30
0.0
 10
129.64367207401
 20
417.3732038169696
 30
0.0
  0
POLYLINE
  5
54B8
330
A
100
AcDbEntity
  8
MODEL
100
AcDb2dPolyline
 66
     1
 10
0.0
 20
0.0
 30
0.0
  0
VERTEX
  5
54B9
330
54B8
100
AcDbEntity
  8
MODEL
100
AcDbVertex
100
AcDb2dVertex
 10
129.64367207401
 20
206.4197034208194
 30
0.0
  0
VERTEX
  5
54BA
330
54B8
100
AcDbEntity
  8
MODEL
100
AcDbVertex
100
AcDb2dVertex
 10
129.6012973715871
 20
206.4197034208194
 30
0.0
  0
VERTEX
  5
54BB
330
54B8
100
AcDbEntity
  8
MODEL
100
AcDbVertex
100
AcDb2dVertex
 10
129.4743455192062
 20
206.4197034208194
 30
0.0
  0
VERTEX
  5
54BC
330
54B8
100
AcDbEntity
  8
MODEL
100
AcDbVertex
100
AcDb2dVertex
 10
129.2838316131909
 20
206.4197034208194
 30
0.0
  0
VERTEX
  5
54BD
330
54B8
100
AcDbEntity
  8
MODEL
100
AcDbVertex
100
AcDb2dVertex
 10
128.9873809511183
 20
206.4197034208194
 30
0.0
  0
VERTEX
  5
54BE
330
54B8
100
AcDbEntity
  8
MODEL
100
AcDbVertex
100
AcDb2dVertex
 10
128.6275404902992
 20
206.4197034208194
 30
0.0
  0
VERTEX
  5
54BF
330
54B8
100
AcDbEntity
  8
MODEL
100
AcDbVertex
100
AcDb2dVertex
 10
128.2043102307336
 20
206.4197034208194
 30
0.0
  0
VERTEX
  5
54C0
330
54B8
100
AcDbEntity
  8
MODEL
100
AcDbVertex
100
AcDb2dVertex
 10
127.6751432151107
 20
206.4197034208194
 30
0.0
  0
VERTEX
  5
54C1
330
54B8
100
AcDbEntity
  8
MODEL
100
AcDbVertex
100
AcDb2dVertex
 10
127.1036014970649
 20
206.4197034208194
 30
0.0
  0
VERTEX
  5
54C2
330
54B8
100
AcDbEntity
  8
MODEL
100
AcDbVertex
100
AcDb2dVertex
 10
126.4474826290611
 20
206.4197034208194
 30
0.0
  0
VERTEX
  5
54C3
330
54B8
100
AcDbEntity
  8
MODEL
100
AcDbVertex
100
AcDb2dVertex
 10
125.7278017074229
 20
206.4197034208194
 30
0.0
  0
VERTEX
  5
54C4
330
54B8
100
AcDbEntity
  8
MODEL
100
AcDbVertex
100
AcDb2dVertex
 10
124.9657460833618
 20
206.4197034208194
 30
0.0
  0
VERTEX
  5
54C5
330
54B8
100
AcDbEntity
  8
MODEL
100
AcDbVertex
100
AcDb2dVertex
 10
124.1191133093427
 20
206.4197034208194
 30
0.0
  0
VERTEX
  5
54C6
330
54B8
100
AcDbEntity
  8
MODEL
100
AcDbVertex
100
AcDb2dVertex
 10
123.2301058329006
 20
206.4197034208194
 30
0.0
  0
VERTEX
  5
54C7
330
54B8
100
AcDbEntity
  8
MODEL
100
AcDbVertex
100
AcDb2dVertex
 10
122.2987236540357
 20
206.4197034208194
 30
0.0
  0
VERTEX
  5
54C8
330
54B8
100
AcDbEntity
  8
MODEL
100
AcDbVertex
100
AcDb2dVertex
 10
121.3039516764242
 20
206.4197034208194
 30
0.0
  0
VERTEX
  5
54C9
330
54B8
100
AcDbEntity
  8
MODEL
100
AcDbVertex
100
AcDb2dVertex
 10
120.2879923476014
 20
206.4197034208194
 30
0.0
  0
VERTEX
  5
54CA
330
54B8
100
AcDbEntity
  8
MODEL
100
AcDbVertex
100
AcDb2dVertex
 10
119.2296583163555
 20
206.4197034208194
 30
0.0
  0
VERTEX
  5
54CB
330
54B8
100
AcDbEntity
  8
MODEL
100
AcDbVertex
100
AcDb2dVertex
 10
118.1501369338982
 20
206.4197034208194
 30
0.0
  0
VERTEX
  5
54CC
330
54B8
100
AcDbEntity
  8
MODEL
100
AcDbVertex
100
AcDb2dVertex
 10
117.0494282002295
 20
206.4197034208194
 30
0.0
  0
VERTEX
  5
54CD
330
54B8
100
AcDbEntity
  8
MODEL
100
AcDbVertex
100
AcDb2dVertex
 10
115.9275321153492
 20
206.4197034208194
 30
0.0
  0
VERTEX
  5
54CE
330
54B8
100
AcDbEntity
  8
MODEL
100
AcDbVertex
100
AcDb2dVertex
 10
114.7846209341455
 20
206.4197034208194
 30
0.0
  0
VERTEX
  5
54CF
330
54B8
100
AcDbEntity
  8
MODEL
100
AcDbVertex
100
AcDb2dVertex
 10
113.6415374980538
 20
206.4197034208194
 30
0.0
  0
VERTEX
  5
54D0
330
54B8
100
AcDbEntity
  8
MODEL
100
AcDbVertex
100
AcDb2dVertex
 10
112.49862631685
 20
206.4197034208194
 30
0.0
  0
VERTEX
  5
54D1
330
54B8
100
AcDbEntity
  8
MODEL
100
AcDbVertex
100
AcDb2dVertex
 10
111.3555428807583
 20
206.4197034208194
 30
0.0
  0
VERTEX
  5
54D2
330
54B8
100
AcDbEntity
  8
MODEL
100
AcDbVertex
100
AcDb2dVertex
 10
110.233819050766
 20
206.4197034208194
 30
0.0
  0
VERTEX
  5
54D3
330
54B8
100
AcDbEntity
  8
MODEL
100
AcDbVertex
100
AcDb2dVertex
 10
109.1331103170972
 20
206.4197034208194
 30
0.0
  0
VERTEX
  5
54D4
330
54B8
100
AcDbEntity
  8
MODEL
100
AcDbVertex
100
AcDb2dVertex
 10
108.0535889346399
 20
206.4197034208194
 30
0.0
  0
VERTEX
  5
54D5
330
54B8
100
AcDbEntity
  8
MODEL
100
AcDbVertex
100
AcDb2dVertex
 10
106.9952549033941
 20
206.4197034208194
 30
0.0
  0
VERTEX
  5
54D6
330
54B8
100
AcDbEntity
  8
MODEL
100
AcDbVertex
100
AcDb2dVertex
 10
105.9792955745712
 20
206.4197034208194
 30
0.0
  0
VERTEX
  5
54D7
330
54B8
100
AcDbEntity
  8
MODEL
100
AcDbVertex
100
AcDb2dVertex
 10
104.9843513420718
 20
206.4197034208194
 30
0.0
  0
VERTEX
  5
54D8
330
54B8
100
AcDbEntity
  8
MODEL
100
AcDbVertex
100
AcDb2dVertex
 10
104.0531414180948
 20
206.4197034208194
 30
0.0
  0
VERTEX
  5
54D9
330
54B8
100
AcDbEntity
  8
MODEL
100
AcDbVertex
100
AcDb2dVertex
 10
103.1641339416528
 20
206.4197034208194
 30
0.0
  0
VERTEX
  5
54DA
330
54B8
100
AcDbEntity
  8
MODEL
100
AcDbVertex
100
AcDb2dVertex
 10
102.3173289127458
 20
206.4197034208194
 30
0.0
  0
VERTEX
  5
54DB
330
54B8
100
AcDbEntity
  8
MODEL
100
AcDbVertex
100
AcDb2dVertex
 10
101.5554455435726
 20
206.4197034208194
 30
0.0
  0
VERTEX
  5
54DC
330
54B8
100
AcDbEntity
  8
MODEL
100
AcDbVertex
100
AcDb2dVertex
 10
100.8357646219344
 20
206.4197034208194
 30
0.0
  0
VERTEX
  5
54DD
330
54B8
100
AcDbEntity
  8
MODEL
100
AcDbVertex
100
AcDb2dVertex
 10
100.1796457539306
 20
206.4197034208194
 30
0.0
  0
VERTEX
  5
54DE
330
54B8
100
AcDbEntity
  8
MODEL
100
AcDbVertex
100
AcDb2dVertex
 10
99.60810403588474
 20
206.4197034208194
 30
0.0
  0
VERTEX
  5
54DF
330
54B8
100
AcDbEntity
  8
MODEL
100
AcDbVertex
100
AcDb2dVertex
 10
99.07893702026182
 20
206.4197034208194
 30
0.0
  0
VERTEX
  5
54E0
330
54B8
100
AcDbEntity
  8
MODEL
100
AcDbVertex
100
AcDb2dVertex
 10
98.65553450580833
 20
206.4197034208194
 30
0.0
  0
VERTEX
  5
54E1
330
54B8
100
AcDbEntity
  8
MODEL
100
AcDbVertex
100
AcDb2dVertex
 10
98.29569404498923
 20
206.4197034208194
 30
0.0
  0
VERTEX
  5
54E2
330
54B8
100
AcDbEntity
  8
MODEL
100
AcDbVertex
100
AcDb2dVertex
 10
97.99941563780453
 20
206.4197034208194
 30
0.0
  0
VERTEX
  5
54E3
330
54B8
100
AcDbEntity
  8
MODEL
100
AcDbVertex
100
AcDb2dVertex
 10
97.80890173178925
 20
206.4197034208194
 30
0.0
  0
VERTEX
  5
54E4
330
54B8
100
AcDbEntity
  8
MODEL
100
AcDbVertex
100
AcDb2dVertex
 10
97.68194987940836
 20
206.4197034208194
 30
0.0
  0
VERTEX
  5
54E5
330
54B8
100
AcDbEntity
  8
MODEL
100
AcDbVertex
100
AcDb2dVertex
 10
97.63957517698543
 20
206.4197034208194
 30
0.0
  0
SEQEND
  5
54E6
330
54B8
100
AcDbEntity
  8
MODEL
  0
POLYLINE
  5
54E7
330
A
100
AcDbEntity
  8
MODEL
100
AcDb2dPolyline
 66
     1
 10
0.0
 20
0.0
 30
0.0
  0
VERTEX
  5
54E8
330
54E7
100
AcDbEntity
  8
MODEL
100
AcDbVertex
100
AcDb2dVertex
 10
129.64367207401
 20
206.4197034208194
 30
0.0
  0
VERTEX
  5
54E9
330
54E7
100
AcDbEntity
  8
MODEL
100
AcDbVertex
100
AcDb2dVertex
 10
129.64367207401
 20
209.4252067048652
 30
0.0
  0
VERTEX
  5
54EA
330
54E7
100
AcDbEntity
  8
MODEL
100
AcDbVertex
100
AcDb2dVertex
 10
129.6012973715871
 20
209.4252067048652
 30
0.0
  0
VERTEX
  5
54EB
330
54E7
100
AcDbEntity
  8
MODEL
100
AcDbVertex
100
AcDb2dVertex
 10
129.4743455192062
 20
209.4252067048652
 30
0.0
  0
VERTEX
  5
54EC
330
54E7
100
AcDbEntity
  8
MODEL
100
AcDbVertex
100
AcDb2dVertex
 10
129.2838316131909
 20
209.4252067048652
 30
0.0
  0
VERTEX
  5
54ED
330
54E7
100
AcDbEntity
  8
MODEL
100
AcDbVertex
100
AcDb2dVertex
 10
128.9873809511183
 20
209.4252067048652
 30
0.0
  0
VERTEX
  5
54EE
330
54E7
100
AcDbEntity
  8
MODEL
100
AcDbVertex
100
AcDb2dVertex
 10
128.6275404902992
 20
209.4252067048652
 30
0.0
  0
VERTEX
  5
54EF
330
54E7
100
AcDbEntity
  8
MODEL
100
AcDbVertex
100
AcDb2dVertex
 10
128.2043102307336
 20
209.4252067048652
 30
0.0
  0
VERTEX
  5
54F0
330
54E7
100
AcDbEntity
  8
MODEL
100
AcDbVertex
100
AcDb2dVertex
 10
127.6751432151107
 20
209.4252067048652
 30
0.0
  0
VERTEX
  5
54F1
330
54E7
100
AcDbEntity
  8
MODEL
100
AcDbVertex
100
AcDb2dVertex
 10
127.1036014970649
 20
209.4252067048652
 30
0.0
  0
VERTEX
  5
54F2
330
54E7
100
AcDbEntity
  8
MODEL
100
AcDbVertex
100
AcDb2dVertex
 10
126.4474826290611
 20
209.4252067048652
 30
0.0
  0
VERTEX
  5
54F3
330
54E7
100
AcDbEntity
  8
MODEL
100
AcDbVertex
100
AcDb2dVertex
 10
125.7278017074229
 20
209.4252067048652
 30
0.0
  0
VERTEX
  5
54F4
330
54E7
100
AcDbEntity
  8
MODEL
100
AcDbVertex
100
AcDb2dVertex
 10
124.9657460833618
 20
209.4252067048652
 30
0.0
  0
VERTEX
  5
54F5
330
54E7
100
AcDbEntity
  8
MODEL
100
AcDbVertex
100
AcDb2dVertex
 10
124.1191133093427
 20
209.4252067048652
 30
0.0
  0
VERTEX
  5
54F6
330
54E7
100
AcDbEntity
  8
MODEL
100
AcDbVertex
100
AcDb2dVertex
 10
123.2301058329006
 20
209.4252067048652
 30
0.0
  0
VERTEX
  5
54F7
330
54E7
100
AcDbEntity
  8
MODEL
100
AcDbVertex
100
AcDb2dVertex
 10
122.2987236540357
 20
209.4252067048652
 30
0.0
  0
VERTEX
  5
54F8
330
54E7
100
AcDbEntity
  8
MODEL
100
AcDbVertex
100
AcDb2dVertex
 10
121.3039516764242
 20
209.4252067048652
 30
0.0
  0
VERTEX
  5
54F9
330
54E7
100
AcDbEntity
  8
MODEL
100
AcDbVertex
100
AcDb2dVertex
 10
120.2879923476014
 20
209.4252067048652
 30
0.0
  0
VERTEX
  5
54FA
330
54E7
100
AcDbEntity
  8
MODEL
100
AcDbVertex
100
AcDb2dVertex
 10
119.2296583163555
 20
209.4252067048652
 30
0.0
  0
VERTEX
  5
54FB
330
54E7
100
AcDbEntity
  8
MODEL
100
AcDbVertex
100
AcDb2dVertex
 10
118.1501369338982
 20
209.4252067048652
 30
0.0
  0
VERTEX
  5
54FC
330
54E7
100
AcDbEntity
  8
MODEL
100
AcDbVertex
100
AcDb2dVertex
 10
117.0494282002295
 20
209.4252067048652
 30
0.0
  0
VERTEX
  5
54FD
330
54E7
100
AcDbEntity
  8
MODEL
100
AcDbVertex
100
AcDb2dVertex
 10
115.9275321153492
 20
209.4252067048652
 30
0.0
  0
VERTEX
  5
54FE
330
54E7
100
AcDbEntity
  8
MODEL
100
AcDbVertex
100
AcDb2dVertex
 10
114.7846209341455
 20
209.4252067048652
 30
0.0
  0
VERTEX
  5
54FF
330
54E7
100
AcDbEntity
  8
MODEL
100
AcDbVertex
100
AcDb2dVertex
 10
113.6415374980538
 20
209.4252067048652
 30
0.0
  0
VERTEX
  5
5500
330
54E7
100
AcDbEntity
  8
MODEL
100
AcDbVertex
100
AcDb2dVertex
 10
112.49862631685
 20
209.4252067048652
 30
0.0
  0
VERTEX
  5
5501
330
54E7
100
AcDbEntity
  8
MODEL
100
AcDbVertex
100
AcDb2dVertex
 10
111.3555428807583
 20
209.4252067048652
 30
0.0
  0
VERTEX
  5
5502
330
54E7
100
AcDbEntity
  8
MODEL
100
AcDbVertex
100
AcDb2dVertex
 10
110.233819050766
 20
209.4252067048652
 30
0.0
  0
VERTEX
  5
5503
330
54E7
100
AcDbEntity
  8
MODEL
100
AcDbVertex
100
AcDb2dVertex
 10
109.1331103170972
 20
209.4252067048652
 30
0.0
  0
VERTEX
  5
5504
330
54E7
100
AcDbEntity
  8
MODEL
100
AcDbVertex
100
AcDb2dVertex
 10
108.0535889346399
 20
209.4252067048652
 30
0.0
  0
VERTEX
  5
5505
330
54E7
100
AcDbEntity
  8
MODEL
100
AcDbVertex
100
AcDb2dVertex
 10
106.9952549033941
 20
209.4252067048652
 30
0.0
  0
VERTEX
  5
5506
330
54E7
100
AcDbEntity
  8
MODEL
100
AcDbVertex
100
AcDb2dVertex
 10
105.9792955745712
 20
209.4252067048652
 30
0.0
  0
VERTEX
  5
5507
330
54E7
100
AcDbEntity
  8
MODEL
100
AcDbVertex
100
AcDb2dVertex
 10
104.9843513420718
 20
209.4252067048652
 30
0.0
  0
VERTEX
  5
5508
330
54E7
100
AcDbEntity
  8
MODEL
100
AcDbVertex
100
AcDb2dVertex
 10
104.0531414180948
 20
209.4252067048652
 30
0.0
  0
VERTEX
  5
5509
330
54E7
100
AcDbEntity
  8
MODEL
100
AcDbVertex
100
AcDb2dVertex
 10
103.1641339416528
 20
209.4252067048652
 30
0.0
  0
VERTEX
  5
550A
330
54E7
100
AcDbEntity
  8
MODEL
100
AcDbVertex
100
AcDb2dVertex
 10
102.3173289127458
 20
209.4252067048652
 30
0.0
  0
VERTEX
  5
550B
330
54E7
100
AcDbEntity
  8
MODEL
100
AcDbVertex
100
AcDb2dVertex
 10
101.5554455435726
 20
209.4252067048652
 30
0.0
  0
VERTEX
  5
550C
330
54E7
100
AcDbEntity
  8
MODEL
100
AcDbVertex
100
AcDb2dVertex
 10
100.8357646219344
 20
209.4252067048652
 30
0.0
  0
VERTEX
  5
550D
330
54E7
100
AcDbEntity
  8
MODEL
100
AcDbVertex
100
AcDb2dVertex
 10
100.1796457539306
 20
209.4252067048652
 30
0.0
  0
VERTEX
  5
550E
330
54E7
100
AcDbEntity
  8
MODEL
100
AcDbVertex
100
AcDb2dVertex
 10
99.60810403588474
 20
209.4252067048652
 30
0.0
  0
VERTEX
  5
550F
330
54E7
100
AcDbEntity
  8
MODEL
100
AcDbVertex
100
AcDb2dVertex
 10
99.07893702026182
 20
209.4252067048652
 30
0.0
  0
VERTEX
  5
5510
330
54E7
100
AcDbEntity
  8
MODEL
100
AcDbVertex
100
AcDb2dVertex
 10
98.65553450580833
 20
209.4252067048652
 30
0.0
  0
VERTEX
  5
5511
330
54E7
100
AcDbEntity
  8
MODEL
100
AcDbVertex
100
AcDb2dVertex
 10
98.29569404498923
 20
209.4252067048652
 30
0.0
  0
VERTEX
  5
5512
330
54E7
100
AcDbEntity
  8
MODEL
100
AcDbVertex
100
AcDb2dVertex
 10
97.99941563780453
 20
209.4252067048652
 30
0.0
  0
VERTEX
  5
5513
330
54E7
100
AcDbEntity
  8
MODEL
100
AcDbVertex
100
AcDb2dVertex
 10
97.80890173178925
 20
209.4252067048652
 30
0.0
  0
VERTEX
  5
5514
330
54E7
100
AcDbEntity
  8
MODEL
100
AcDbVertex
100
AcDb2dVertex
 10
97.68194987940836
 20
209.4252067048652
 30
0.0
  0
VERTEX
  5
5515
330
54E7
100
AcDbEntity
  8
MODEL
100
AcDbVertex
100
AcDb2dVertex
 10
97.63957517698543
 20
209.4252067048652
 30
0.0
  0
VERTEX
  5
5516
330
54E7
100
AcDbEntity
  8
MODEL
100
AcDbVertex
100
AcDb2dVertex
 10
97.63957517698543
 20
206.4197034208194
 30
0.0
  0
SEQEND
  5
5517
330
54E7
100
AcDbEntity
  8
MODEL
  0
POLYLINE
  5
5518
102
{ACAD_REACTORS
330
5709
102
}
330
A
100
AcDbEntity
  8
MODEL
100
AcDb2dPolyline
 66
     1
 10
0.0
 20
0.0
 30
0.0
  0
VERTEX
  5
5519
330
5518
100
AcDbEntity
  8
MODEL
100
AcDbVertex
100
AcDb2dVertex
 10
103.6509262548528
 20
209.4252067048652
 30
0.0
  0
VERTEX
  5
551A
330
5518
100
AcDbEntity
  8
MODEL
100
AcDbVertex
100
AcDb2dVertex
 10
103.6509262548528
 20
329.4191673988861
 30
0.0
  0
VERTEX
  5
551B
330
5518
100
AcDbEntity
  8
MODEL
100
AcDbVertex
100
AcDb2dVertex
 10
103.6933009572757
 20
329.4191673988861
 30
0.0
  0
VERTEX
  5
551C
330
5518
100
AcDbEntity
  8
MODEL
100
AcDbVertex
100
AcDb2dVertex
 10
103.8202528096566
 20
329.4191673988861
 30
0.0
  0
VERTEX
  5
551D
330
5518
100
AcDbEntity
  8
MODEL
100
AcDbVertex
100
AcDb2dVertex
 10
104.0319540668833
 20
329.4191673988861
 30
0.0
  0
VERTEX
  5
551E
330
5518
100
AcDbEntity
  8
MODEL
100
AcDbVertex
100
AcDb2dVertex
 10
104.3070451228566
 20
329.4191673988861
 30
0.0
  0
VERTEX
  5
551F
330
5518
100
AcDbEntity
  8
MODEL
100
AcDbVertex
100
AcDb2dVertex
 10
104.6880729348871
 20
329.4191673988861
 30
0.0
  0
VERTEX
  5
5520
330
5518
100
AcDbEntity
  8
MODEL
100
AcDbVertex
100
AcDb2dVertex
 10
105.1326628005521
 20
329.4191673988861
 30
0.0
  0
VERTEX
  5
5521
330
5518
100
AcDbEntity
  8
MODEL
100
AcDbVertex
100
AcDb2dVertex
 10
105.661829816175
 20
329.4191673988861
 30
0.0
  0
VERTEX
  5
5522
330
5518
100
AcDbEntity
  8
MODEL
100
AcDbVertex
100
AcDb2dVertex
 10
106.2543866305444
 20
329.4191673988861
 30
0.0
  0
VERTEX
  5
5523
330
5518
100
AcDbEntity
  8
MODEL
100
AcDbVertex
100
AcDb2dVertex
 10
106.9105054985482
 20
329.4191673988861
 30
0.0
  0
VERTEX
  5
5524
330
5518
100
AcDbEntity
  8
MODEL
100
AcDbVertex
100
AcDb2dVertex
 10
107.608999068975
 20
329.4191673988861
 30
0.0
  0
VERTEX
  5
5525
330
5518
100
AcDbEntity
  8
MODEL
100
AcDbVertex
100
AcDb2dVertex
 10
108.3710546930361
 20
329.4191673988861
 30
0.0
  0
VERTEX
  5
5526
330
5518
100
AcDbEntity
  8
MODEL
100
AcDbVertex
100
AcDb2dVertex
 10
109.1754850195201
 20
329.4191673988861
 30
0.0
  0
VERTEX
  5
5527
330
5518
100
AcDbEntity
  8
MODEL
100
AcDbVertex
100
AcDb2dVertex
 10
110.0221177935392
 20
329.4191673988861
 30
0.0
  0
VERTEX
  5
5528
330
5518
100
AcDbEntity
  8
MODEL
100
AcDbVertex
100
AcDb2dVertex
 10
110.9111252699812
 20
329.4191673988861
 30
0.0
  0
VERTEX
  5
5529
330
5518
100
AcDbEntity
  8
MODEL
100
AcDbVertex
100
AcDb2dVertex
 10
111.8001327464233
 20
329.4191673988861
 30
0.0
  0
VERTEX
  5
552A
330
5518
100
AcDbEntity
  8
MODEL
100
AcDbVertex
100
AcDb2dVertex
 10
112.7103275740767
 20
329.4191673988861
 30
0.0
  0
VERTEX
  5
552B
330
5518
100
AcDbEntity
  8
MODEL
100
AcDbVertex
100
AcDb2dVertex
 10
113.6415374980538
 20
329.4191673988861
 30
0.0
  0
VERTEX
  5
552C
330
5518
100
AcDbEntity
  8
MODEL
100
AcDbVertex
100
AcDb2dVertex
 10
114.5729196769187
 20
329.4191673988861
 30
0.0
  0
VERTEX
  5
552D
330
5518
100
AcDbEntity
  8
MODEL
100
AcDbVertex
100
AcDb2dVertex
 10
115.4831145045722
 20
329.4191673988861
 30
0.0
  0
VERTEX
  5
552E
330
5518
100
AcDbEntity
  8
MODEL
100
AcDbVertex
100
AcDb2dVertex
 10
116.3721219810142
 20
329.4191673988861
 30
0.0
  0
VERTEX
  5
552F
330
5518
100
AcDbEntity
  8
MODEL
100
AcDbVertex
100
AcDb2dVertex
 10
117.2611294574562
 20
329.4191673988861
 30
0.0
  0
VERTEX
  5
5530
330
5518
100
AcDbEntity
  8
MODEL
100
AcDbVertex
100
AcDb2dVertex
 10
118.1077622314753
 20
329.4191673988861
 30
0.0
  0
VERTEX
  5
5531
330
5518
100
AcDbEntity
  8
MODEL
100
AcDbVertex
100
AcDb2dVertex
 10
118.9120203030715
 20
329.4191673988861
 30
0.0
  0
VERTEX
  5
5532
330
5518
100
AcDbEntity
  8
MODEL
100
AcDbVertex
100
AcDb2dVertex
 10
119.6740759271326
 20
329.4191673988861
 30
0.0
  0
VERTEX
  5
5533
330
5518
100
AcDbEntity
  8
MODEL
100
AcDbVertex
100
AcDb2dVertex
 10
120.3725694975593
 20
329.4191673988861
 30
0.0
  0
VERTEX
  5
5534
330
5518
100
AcDbEntity
  8
MODEL
100
AcDbVertex
100
AcDb2dVertex
 10
121.0286883655631
 20
329.4191673988861
 30
0.0
  0
VERTEX
  5
5535
330
5518
100
AcDbEntity
  8
MODEL
100
AcDbVertex
100
AcDb2dVertex
 10
121.6214174348204
 20
329.4191673988861
 30
0.0
  0
VERTEX
  5
5536
330
5518
100
AcDbEntity
  8
MODEL
100
AcDbVertex
100
AcDb2dVertex
 10
122.1505844504433
 20
329.4191673988861
 30
0.0
  0
VERTEX
  5
5537
330
5518
100
AcDbEntity
  8
MODEL
100
AcDbVertex
100
AcDb2dVertex
 10
122.5951743161083
 20
329.4191673988861
 30
0.0
  0
VERTEX
  5
5538
330
5518
100
AcDbEntity
  8
MODEL
100
AcDbVertex
100
AcDb2dVertex
 10
122.976029873251
 20
329.4191673988861
 30
0.0
  0
VERTEX
  5
5539
330
5518
100
AcDbEntity
  8
MODEL
100
AcDbVertex
100
AcDb2dVertex
 10
123.2512931841121
 20
329.4191673988861
 30
0.0
  0
VERTEX
  5
553A
330
5518
100
AcDbEntity
  8
MODEL
100
AcDbVertex
100
AcDb2dVertex
 10
123.4629944413389
 20
329.4191673988861
 30
0.0
  0
VERTEX
  5
553B
330
5518
100
AcDbEntity
  8
MODEL
100
AcDbVertex
100
AcDb2dVertex
 10
123.5899462937197
 20
329.4191673988861
 30
0.0
  0
VERTEX
  5
553C
330
5518
100
AcDbEntity
  8
MODEL
100
AcDbVertex
100
AcDb2dVertex
 10
123.6323209961427
 20
329.4191673988861
 30
0.0
  0
VERTEX
  5
553D
330
5518
100
AcDbEntity
  8
MODEL
100
AcDbVertex
100
AcDb2dVertex
 10
123.6323209961427
 20
209.4252067048652
 30
0.0
  0
SEQEND
  5
553E
330
5518
100
AcDbEntity
  8
MODEL
  0
POLYLINE
  5
5546
102
{ACAD_REACTORS
330
571B
102
}
330
A
100
AcDbEntity
  8
MODEL
100
AcDb2dPolyline
 66
     1
 10
0.0
 20
0.0
 30
0.0
  0
VERTEX
  5
5547
330
5546
100
AcDbEntity
  8
MODEL
100
AcDbVertex
100
AcDb2dVertex
 10
357.6436106802039
 20
433.3646585898762
 30
0.0
  0
VERTEX
  5
5548
330
5546
100
AcDbEntity
  8
MODEL
100
AcDbVertex
100
AcDb2dVertex
 10
357.6436106802039
 20
433.3222838874534
 30
0.0
  0
VERTEX
  5
5549
330
5546
100
AcDbEntity
  8
MODEL
100
AcDbVertex
100
AcDb2dVertex
 10
357.6436106802039
 20
433.1951597801845
 30
0.0
  0
VERTEX
  5
554A
330
5546
100
AcDbEntity
  8
MODEL
100
AcDbVertex
100
AcDb2dVertex
 10
357.6436106802039
 20
433.0046458741693
 30
0.0
  0
VERTEX
  5
554B
330
5546
100
AcDbEntity
  8
MODEL
100
AcDbVertex
100
AcDb2dVertex
 10
357.6436106802039
 20
432.7083674669845
 30
0.0
  0
VERTEX
  5
554C
330
5546
100
AcDbEntity
  8
MODEL
100
AcDbVertex
100
AcDb2dVertex
 10
357.6436106802039
 20
432.3485270061654
 30
0.0
  0
VERTEX
  5
554D
330
5546
100
AcDbEntity
  8
MODEL
100
AcDbVertex
100
AcDb2dVertex
 10
357.6436106802039
 20
431.9252967465998
 30
0.0
  0
VERTEX
  5
554E
330
5546
100
AcDbEntity
  8
MODEL
100
AcDbVertex
100
AcDb2dVertex
 10
357.6436106802039
 20
431.396129730977
 30
0.0
  0
VERTEX
  5
554F
330
5546
100
AcDbEntity
  8
MODEL
100
AcDbVertex
100
AcDb2dVertex
 10
357.6436106802039
 20
430.8245880129311
 30
0.0
  0
VERTEX
  5
5550
330
5546
100
AcDbEntity
  8
MODEL
100
AcDbVertex
100
AcDb2dVertex
 10
357.6436106802039
 20
430.1684691449273
 30
0.0
  0
VERTEX
  5
5551
330
5546
100
AcDbEntity
  8
MODEL
100
AcDbVertex
100
AcDb2dVertex
 10
357.6436106802039
 20
429.4487882232891
 30
0.0
  0
VERTEX
  5
5552
330
5546
100
AcDbEntity
  8
MODEL
100
AcDbVertex
100
AcDb2dVertex
 10
357.6436106802039
 20
428.6867325992279
 30
0.0
  0
VERTEX
  5
5553
330
5546
100
AcDbEntity
  8
MODEL
100
AcDbVertex
100
AcDb2dVertex
 10
357.6436106802039
 20
427.8400998252089
 30
0.0
  0
VERTEX
  5
5554
330
5546
100
AcDbEntity
  8
MODEL
100
AcDbVertex
100
AcDb2dVertex
 10
357.6436106802039
 20
426.9510923487668
 30
0.0
  0
VERTEX
  5
5555
330
5546
100
AcDbEntity
  8
MODEL
100
AcDbVertex
100
AcDb2dVertex
 10
357.6436106802039
 20
426.0197101699019
 30
0.0
  0
VERTEX
  5
5556
330
5546
100
AcDbEntity
  8
MODEL
100
AcDbVertex
100
AcDb2dVertex
 10
357.6436106802039
 20
425.0249381922904
 30
0.0
  0
VERTEX
  5
5557
330
5546
100
AcDbEntity
  8
MODEL
100
AcDbVertex
100
AcDb2dVertex
 10
357.6436106802039
 20
424.0088066085797
 30
0.0
  0
VERTEX
  5
5558
330
5546
100
AcDbEntity
  8
MODEL
100
AcDbVertex
100
AcDb2dVertex
 10
357.6436106802039
 20
422.9504725773339
 30
0.0
  0
VERTEX
  5
5559
330
5546
100
AcDbEntity
  8
MODEL
100
AcDbVertex
100
AcDb2dVertex
 10
357.6436106802039
 20
421.8711234497644
 30
0.0
  0
VERTEX
  5
555A
330
5546
100
AcDbEntity
  8
MODEL
100
AcDbVertex
100
AcDb2dVertex
 10
357.6436106802039
 20
420.7704147160957
 30
0.0
  0
VERTEX
  5
555B
330
5546
100
AcDbEntity
  8
MODEL
100
AcDbVertex
100
AcDb2dVertex
 10
357.6436106802039
 20
419.6485186312155
 30
0.0
  0
VERTEX
  5
555C
330
5546
100
AcDbEntity
  8
MODEL
100
AcDbVertex
100
AcDb2dVertex
 10
357.6436106802039
 20
418.5056074500117
 30
0.0
  0
VERTEX
  5
555D
330
5546
100
AcDbEntity
  8
MODEL
100
AcDbVertex
100
AcDb2dVertex
 10
357.6436106802039
 20
417.36252401392
 30
0.0
  0
VERTEX
  5
555E
330
5546
100
AcDbEntity
  8
MODEL
100
AcDbVertex
100
AcDb2dVertex
 10
357.6436106802039
 20
416.2196128327162
 30
0.0
  0
VERTEX
  5
555F
330
5546
100
AcDbEntity
  8
MODEL
100
AcDbVertex
100
AcDb2dVertex
 10
357.6436106802039
 20
415.0765293966245
 30
0.0
  0
VERTEX
  5
5560
330
5546
100
AcDbEntity
  8
MODEL
100
AcDbVertex
100
AcDb2dVertex
 10
357.6436106802039
 20
413.9546333117443
 30
0.0
  0
VERTEX
  5
5561
330
5546
100
AcDbEntity
  8
MODEL
100
AcDbVertex
100
AcDb2dVertex
 10
357.6436106802039
 20
412.8540968329634
 30
0.0
  0
VERTEX
  5
5562
330
5546
100
AcDbEntity
  8
MODEL
100
AcDbVertex
100
AcDb2dVertex
 10
357.6436106802039
 20
411.7745754505061
 30
0.0
  0
VERTEX
  5
5563
330
5546
100
AcDbEntity
  8
MODEL
100
AcDbVertex
100
AcDb2dVertex
 10
357.6436106802039
 20
410.7162414192603
 30
0.0
  0
VERTEX
  5
5564
330
5546
100
AcDbEntity
  8
MODEL
100
AcDbVertex
100
AcDb2dVertex
 10
357.6436106802039
 20
409.7002820904374
 30
0.0
  0
VERTEX
  5
5565
330
5546
100
AcDbEntity
  8
MODEL
100
AcDbVertex
100
AcDb2dVertex
 10
357.6436106802039
 20
408.7053378579381
 30
0.0
  0
VERTEX
  5
5566
330
5546
100
AcDbEntity
  8
MODEL
100
AcDbVertex
100
AcDb2dVertex
 10
357.6436106802039
 20
407.774127933961
 30
0.0
  0
VERTEX
  5
5567
330
5546
100
AcDbEntity
  8
MODEL
100
AcDbVertex
100
AcDb2dVertex
 10
357.6436106802039
 20
406.885120457519
 30
0.0
  0
VERTEX
  5
5568
330
5546
100
AcDbEntity
  8
MODEL
100
AcDbVertex
100
AcDb2dVertex
 10
357.6436106802039
 20
406.0383154286121
 30
0.0
  0
VERTEX
  5
5569
330
5546
100
AcDbEntity
  8
MODEL
100
AcDbVertex
100
AcDb2dVertex
 10
357.6436106802039
 20
405.2764320594388
 30
0.0
  0
VERTEX
  5
556A
330
5546
100
AcDbEntity
  8
MODEL
100
AcDbVertex
100
AcDb2dVertex
 10
357.6436106802039
 20
404.5567511378006
 30
0.0
  0
VERTEX
  5
556B
330
5546
100
AcDbEntity
  8
MODEL
100
AcDbVertex
100
AcDb2dVertex
 10
357.6436106802039
 20
403.9004600149089
 30
0.0
  0
VERTEX
  5
556C
330
5546
100
AcDbEntity
  8
MODEL
100
AcDbVertex
100
AcDb2dVertex
 10
357.6436106802039
 20
403.329090551751
 30
0.0
  0
VERTEX
  5
556D
330
5546
100
AcDbEntity
  8
MODEL
100
AcDbVertex
100
AcDb2dVertex
 10
357.6436106802039
 20
402.799923536128
 30
0.0
  0
VERTEX
  5
556E
330
5546
100
AcDbEntity
  8
MODEL
100
AcDbVertex
100
AcDb2dVertex
 10
357.6436106802039
 20
402.3765210216745
 30
0.0
  0
VERTEX
  5
556F
330
5546
100
AcDbEntity
  8
MODEL
100
AcDbVertex
100
AcDb2dVertex
 10
357.6436106802039
 20
402.0166805608554
 30
0.0
  0
VERTEX
  5
5570
330
5546
100
AcDbEntity
  8
MODEL
100
AcDbVertex
100
AcDb2dVertex
 10
357.6436106802039
 20
401.7204021536707
 30
0.0
  0
VERTEX
  5
5571
330
5546
100
AcDbEntity
  8
MODEL
100
AcDbVertex
100
AcDb2dVertex
 10
357.6436106802039
 20
401.5298882476555
 30
0.0
  0
VERTEX
  5
5572
330
5546
100
AcDbEntity
  8
MODEL
100
AcDbVertex
100
AcDb2dVertex
 10
357.6436106802039
 20
401.4029363952746
 30
0.0
  0
VERTEX
  5
5573
330
5546
100
AcDbEntity
  8
MODEL
100
AcDbVertex
100
AcDb2dVertex
 10
357.6436106802039
 20
401.3605616928516
 30
0.0
  0
SEQEND
  5
5574
330
5546
100
AcDbEntity
  8
MODEL
  0
POLYLINE
  5
5575
330
A
100
AcDbEntity
  8
MODEL
100
AcDb2dPolyline
 66
     1
 10
0.0
 20
0.0
 30
0.0
  0
VERTEX
  5
5576
330
5575
100
AcDbEntity
  8
MODEL
100
AcDbVertex
100
AcDb2dVertex
 10
357.6436106802039
 20
433.3646585898762
 30
0.0
  0
VERTEX
  5
5577
330
5575
100
AcDbEntity
  8
MODEL
100
AcDbVertex
100
AcDb2dVertex
 10
354.6377628863823
 20
433.3646585898762
 30
0.0
  0
VERTEX
  5
5578
330
5575
100
AcDbEntity
  8
MODEL
100
AcDbVertex
100
AcDb2dVertex
 10
354.6377628863823
 20
433.3222838874534
 30
0.0
  0
VERTEX
  5
5579
330
5575
100
AcDbEntity
  8
MODEL
100
AcDbVertex
100
AcDb2dVertex
 10
354.6377628863823
 20
433.1951597801845
 30
0.0
  0
VERTEX
  5
557A
330
5575
100
AcDbEntity
  8
MODEL
100
AcDbVertex
100
AcDb2dVertex
 10
354.6377628863823
 20
433.0046458741693
 30
0.0
  0
VERTEX
  5
557B
330
5575
100
AcDbEntity
  8
MODEL
100
AcDbVertex
100
AcDb2dVertex
 10
354.6377628863823
 20
432.7083674669845
 30
0.0
  0
VERTEX
  5
557C
330
5575
100
AcDbEntity
  8
MODEL
100
AcDbVertex
100
AcDb2dVertex
 10
354.6377628863823
 20
432.3485270061654
 30
0.0
  0
VERTEX
  5
557D
330
5575
100
AcDbEntity
  8
MODEL
100
AcDbVertex
100
AcDb2dVertex
 10
354.6377628863823
 20
431.9252967465998
 30
0.0
  0
VERTEX
  5
557E
330
5575
100
AcDbEntity
  8
MODEL
100
AcDbVertex
100
AcDb2dVertex
 10
354.6377628863823
 20
431.396129730977
 30
0.0
  0
VERTEX
  5
557F
330
5575
100
AcDbEntity
  8
MODEL
100
AcDbVertex
100
AcDb2dVertex
 10
354.6377628863823
 20
430.8245880129311
 30
0.0
  0
VERTEX
  5
5580
330
5575
100
AcDbEntity
  8
MODEL
100
AcDbVertex
100
AcDb2dVertex
 10
354.6377628863823
 20
430.1684691449273
 30
0.0
  0
VERTEX
  5
5581
330
5575
100
AcDbEntity
  8
MODEL
100
AcDbVertex
100
AcDb2dVertex
 10
354.6377628863823
 20
429.4487882232891
 30
0.0
  0
VERTEX
  5
5582
330
5575
100
AcDbEntity
  8
MODEL
100
AcDbVertex
100
AcDb2dVertex
 10
354.6377628863823
 20
428.6867325992279
 30
0.0
  0
VERTEX
  5
5583
330
5575
100
AcDbEntity
  8
MODEL
100
AcDbVertex
100
AcDb2dVertex
 10
354.6377628863823
 20
427.8400998252089
 30
0.0
  0
VERTEX
  5
5584
330
5575
100
AcDbEntity
  8
MODEL
100
AcDbVertex
100
AcDb2dVertex
 10
354.6377628863823
 20
426.9510923487668
 30
0.0
  0
VERTEX
  5
5585
330
5575
100
AcDbEntity
  8
MODEL
100
AcDbVertex
100
AcDb2dVertex
 10
354.6377628863823
 20
426.0197101699019
 30
0.0
  0
VERTEX
  5
5586
330
5575
100
AcDbEntity
  8
MODEL
100
AcDbVertex
100
AcDb2dVertex
 10
354.6377628863823
 20
425.0249381922904
 30
0.0
  0
VERTEX
  5
5587
330
5575
100
AcDbEntity
  8
MODEL
100
AcDbVertex
100
AcDb2dVertex
 10
354.6377628863823
 20
424.0088066085797
 30
0.0
  0
VERTEX
  5
5588
330
5575
100
AcDbEntity
  8
MODEL
100
AcDbVertex
100
AcDb2dVertex
 10
354.6377628863823
 20
422.9504725773339
 30
0.0
  0
VERTEX
  5
5589
330
5575
100
AcDbEntity
  8
MODEL
100
AcDbVertex
100
AcDb2dVertex
 10
354.6377628863823
 20
421.8711234497644
 30
0.0
  0
VERTEX
  5
558A
330
5575
100
AcDbEntity
  8
MODEL
100
AcDbVertex
100
AcDb2dVertex
 10
354.6377628863823
 20
420.7704147160957
 30
0.0
  0
VERTEX
  5
558B
330
5575
100
AcDbEntity
  8
MODEL
100
AcDbVertex
100
AcDb2dVertex
 10
354.6377628863823
 20
419.6485186312155
 30
0.0
  0
VERTEX
  5
558C
330
5575
100
AcDbEntity
  8
MODEL
100
AcDbVertex
100
AcDb2dVertex
 10
354.6377628863823
 20
418.5056074500117
 30
0.0
  0
VERTEX
  5
558D
330
5575
100
AcDbEntity
  8
MODEL
100
AcDbVertex
100
AcDb2dVertex
 10
354.6377628863823
 20
417.36252401392
 30
0.0
  0
VERTEX
  5
558E
330
5575
100
AcDbEntity
  8
MODEL
100
AcDbVertex
100
AcDb2dVertex
 10
354.6377628863823
 20
416.2196128327162
 30
0.0
  0
VERTEX
  5
558F
330
5575
100
AcDbEntity
  8
MODEL
100
AcDbVertex
100
AcDb2dVertex
 10
354.6377628863823
 20
415.0765293966245
 30
0.0
  0
VERTEX
  5
5590
330
5575
100
AcDbEntity
  8
MODEL
100
AcDbVertex
100
AcDb2dVertex
 10
354.6377628863823
 20
413.9546333117443
 30
0.0
  0
VERTEX
  5
5591
330
5575
100
AcDbEntity
  8
MODEL
100
AcDbVertex
100
AcDb2dVertex
 10
354.6377628863823
 20
412.8540968329634
 30
0.0
  0
VERTEX
  5
5592
330
5575
100
AcDbEntity
  8
MODEL
100
AcDbVertex
100
AcDb2dVertex
 10
354.6377628863823
 20
411.7745754505061
 30
0.0
  0
VERTEX
  5
5593
330
5575
100
AcDbEntity
  8
MODEL
100
AcDbVertex
100
AcDb2dVertex
 10
354.6377628863823
 20
410.7162414192603
 30
0.0
  0
VERTEX
  5
5594
330
5575
100
AcDbEntity
  8
MODEL
100
AcDbVertex
100
AcDb2dVertex
 10
354.6377628863823
 20
409.7002820904374
 30
0.0
  0
VERTEX
  5
5595
330
5575
100
AcDbEntity
  8
MODEL
100
AcDbVertex
100
AcDb2dVertex
 10
354.6377628863823
 20
408.7053378579381
 30
0.0
  0
VERTEX
  5
5596
330
5575
100
AcDbEntity
  8
MODEL
100
AcDbVertex
100
AcDb2dVertex
 10
354.6377628863823
 20
407.774127933961
 30
0.0
  0
VERTEX
  5
5597
330
5575
100
AcDbEntity
  8
MODEL
100
AcDbVertex
100
AcDb2dVertex
 10
354.6377628863823
 20
406.885120457519
 30
0.0
  0
VERTEX
  5
5598
330
5575
100
AcDbEntity
  8
MODEL
100
AcDbVertex
100
AcDb2dVertex
 10
354.6377628863823
 20
406.0383154286121
 30
0.0
  0
VERTEX
  5
5599
330
5575
100
AcDbEntity
  8
MODEL
100
AcDbVertex
100
AcDb2dVertex
 10
354.6377628863823
 20
405.2764320594388
 30
0.0
  0
VERTEX
  5
559A
330
5575
100
AcDbEntity
  8
MODEL
100
AcDbVertex
100
AcDb2dVertex
 10
354.6377628863823
 20
404.5567511378006
 30
0.0
  0
VERTEX
  5
559B
330
5575
100
AcDbEntity
  8
MODEL
100
AcDbVertex
100
AcDb2dVertex
 10
354.6377628863823
 20
403.9004600149089
 30
0.0
  0
VERTEX
  5
559C
330
5575
100
AcDbEntity
  8
MODEL
100
AcDbVertex
100
AcDb2dVertex
 10
354.6377628863823
 20
403.329090551751
 30
0.0
  0
VERTEX
  5
559D
330
5575
100
AcDbEntity
  8
MODEL
100
AcDbVertex
100
AcDb2dVertex
 10
354.6377628863823
 20
402.799923536128
 30
0.0
  0
VERTEX
  5
559E
330
5575
100
AcDbEntity
  8
MODEL
100
AcDbVertex
100
AcDb2dVertex
 10
354.6377628863823
 20
402.3765210216745
 30
0.0
  0
VERTEX
  5
559F
330
5575
100
AcDbEntity
  8
MODEL
100
AcDbVertex
100
AcDb2dVertex
 10
354.6377628863823
 20
402.0166805608554
 30
0.0
  0
VERTEX
  5
55A0
330
5575
100
AcDbEntity
  8
MODEL
100
AcDbVertex
100
AcDb2dVertex
 10
354.6377628863823
 20
401.7204021536707
 30
0.0
  0
VERTEX
  5
55A1
330
5575
100
AcDbEntity
  8
MODEL
100
AcDbVertex
100
AcDb2dVertex
 10
354.6377628863823
 20
401.5298882476555
 30
0.0
  0
VERTEX
  5
55A2
330
5575
100
AcDbEntity
  8
MODEL
100
AcDbVertex
100
AcDb2dVertex
 10
354.6377628863823
 20
401.4029363952746
 30
0.0
  0
VERTEX
  5
55A3
330
5575
100
AcDbEntity
  8
MODEL
100
AcDbVertex
100
AcDb2dVertex
 10
354.6377628863823
 20
401.3605616928516
 30
0.0
  0
VERTEX
  5
55A4
330
5575
100
AcDbEntity
  8
MODEL
100
AcDbVertex
100
AcDb2dVertex
 10
357.6436106802039
 20
401.3605616928516
 30
0.0
  0
SEQEND
  5
55A5
330
5575
100
AcDbEntity
  8
MODEL
  0
POLYLINE
  5
55A6
330
A
100
AcDbEntity
  8
MODEL
100
AcDb2dPolyline
 66
     1
 10
0.0
 20
0.0
 30
0.0
  0
VERTEX
  5
55A7
330
55A6
100
AcDbEntity
  8
MODEL
100
AcDbVertex
100
AcDb2dVertex
 10
247.3861852697344
 20
407.371912770719
 30
0.0
  0
VERTEX
  5
55A8
330
55A6
100
AcDbEntity
  8
MODEL
100
AcDbVertex
100
AcDb2dVertex
 10
247.4073726209458
 20
407.371912770719
 30
0.0
  0
VERTEX
  5
55A9
330
55A6
100
AcDbEntity
  8
MODEL
100
AcDbVertex
100
AcDb2dVertex
 10
247.4285599721573
 20
407.371912770719
 30
0.0
  0
VERTEX
  5
55AA
330
55A6
100
AcDbEntity
  8
MODEL
100
AcDbVertex
100
AcDb2dVertex
 10
247.4709346745802
 20
407.3931001219304
 30
0.0
  0
VERTEX
  5
55AB
330
55A6
100
AcDbEntity
  8
MODEL
100
AcDbVertex
100
AcDb2dVertex
 10
247.5131371221152
 20
407.4142874731419
 30
0.0
  0
VERTEX
  5
55AC
330
55A6
100
AcDbEntity
  8
MODEL
100
AcDbVertex
100
AcDb2dVertex
 10
247.5766991757496
 20
407.4142874731419
 30
0.0
  0
VERTEX
  5
55AD
330
55A6
100
AcDbEntity
  8
MODEL
100
AcDbVertex
100
AcDb2dVertex
 10
247.6190738781726
 20
407.4354748243534
 30
0.0
  0
VERTEX
  5
55AE
330
55A6
100
AcDbEntity
  8
MODEL
100
AcDbVertex
100
AcDb2dVertex
 10
247.682635931807
 20
407.4564899206769
 30
0.0
  0
VERTEX
  5
55AF
330
55A6
100
AcDbEntity
  8
MODEL
100
AcDbVertex
100
AcDb2dVertex
 10
247.7672130817649
 20
407.4776772718884
 30
0.0
  0
VERTEX
  5
55B0
330
55A6
100
AcDbEntity
  8
MODEL
100
AcDbVertex
100
AcDb2dVertex
 10
247.8517902317229
 20
407.4988646230999
 30
0.0
  0
VERTEX
  5
55B1
330
55A6
100
AcDbEntity
  8
MODEL
100
AcDbVertex
100
AcDb2dVertex
 10
247.9365396365687
 20
407.5200519743113
 30
0.0
  0
VERTEX
  5
55B2
330
55A6
100
AcDbEntity
  8
MODEL
100
AcDbVertex
100
AcDb2dVertex
 10
248.0212890414146
 20
407.5624266767343
 30
0.0
  0
VERTEX
  5
55B3
330
55A6
100
AcDbEntity
  8
MODEL
100
AcDbVertex
100
AcDb2dVertex
 10
248.127053542584
 20
407.5836140279458
 30
0.0
  0
VERTEX
  5
55B4
330
55A6
100
AcDbEntity
  8
MODEL
100
AcDbVertex
100
AcDb2dVertex
 10
248.2328180437534
 20
407.6046291242693
 30
0.0
  0
VERTEX
  5
55B5
330
55A6
100
AcDbEntity
  8
MODEL
100
AcDbVertex
100
AcDb2dVertex
 10
248.3387547998108
 20
407.6258164754808
 30
0.0
  0
VERTEX
  5
55B6
330
55A6
100
AcDbEntity
  8
MODEL
100
AcDbVertex
100
AcDb2dVertex
 10
248.4445193009802
 20
407.6470038266922
 30
0.0
  0
VERTEX
  5
55B7
330
55A6
100
AcDbEntity
  8
MODEL
100
AcDbVertex
100
AcDb2dVertex
 10
248.5504560570375
 20
407.6893785291152
 30
0.0
  0
VERTEX
  5
55B8
330
55A6
100
AcDbEntity
  8
MODEL
100
AcDbVertex
100
AcDb2dVertex
 10
248.6774079094184
 20
407.7105658803267
 30
0.0
  0
VERTEX
  5
55B9
330
55A6
100
AcDbEntity
  8
MODEL
100
AcDbVertex
100
AcDb2dVertex
 10
248.8043597617993
 20
407.7317532315381
 30
0.0
  0
VERTEX
  5
55BA
330
55A6
100
AcDbEntity
  8
MODEL
100
AcDbVertex
100
AcDb2dVertex
 10
248.9524989653916
 20
407.7529405827495
 30
0.0
  0
VERTEX
  5
55BB
330
55A6
100
AcDbEntity
  8
MODEL
100
AcDbVertex
100
AcDb2dVertex
 10
249.0796230726604
 20
407.774127933961
 30
0.0
  0
VERTEX
  5
55BC
330
55A6
100
AcDbEntity
  8
MODEL
100
AcDbVertex
100
AcDb2dVertex
 10
249.2277622762528
 20
407.7951430302846
 30
0.0
  0
VERTEX
  5
55BD
330
55A6
100
AcDbEntity
  8
MODEL
100
AcDbVertex
100
AcDb2dVertex
 10
249.3759014798451
 20
407.816330381496
 30
0.0
  0
VERTEX
  5
55BE
330
55A6
100
AcDbEntity
  8
MODEL
100
AcDbVertex
100
AcDb2dVertex
 10
249.5240406834375
 20
407.8375177327075
 30
0.0
  0
VERTEX
  5
55BF
330
55A6
100
AcDbEntity
  8
MODEL
100
AcDbVertex
100
AcDb2dVertex
 10
249.6933672382413
 20
407.858705083919
 30
0.0
  0
VERTEX
  5
55C0
330
55A6
100
AcDbEntity
  8
MODEL
100
AcDbVertex
100
AcDb2dVertex
 10
249.8415064418336
 20
407.8798924351304
 30
0.0
  0
VERTEX
  5
55C1
330
55A6
100
AcDbEntity
  8
MODEL
100
AcDbVertex
100
AcDb2dVertex
 10
249.989645645426
 20
407.8798924351304
 30
0.0
  0
VERTEX
  5
55C2
330
55A6
100
AcDbEntity
  8
MODEL
100
AcDbVertex
100
AcDb2dVertex
 10
250.1589722002298
 20
407.9010797863419
 30
0.0
  0
VERTEX
  5
55C3
330
55A6
100
AcDbEntity
  8
MODEL
100
AcDbVertex
100
AcDb2dVertex
 10
250.3072836587101
 20
407.9010797863419
 30
0.0
  0
VERTEX
  5
55C4
330
55A6
100
AcDbEntity
  8
MODEL
100
AcDbVertex
100
AcDb2dVertex
 10
250.4766102135139
 20
407.9010797863419
 30
0.0
  0
VERTEX
  5
55C5
330
55A6
100
AcDbEntity
  8
MODEL
100
AcDbVertex
100
AcDb2dVertex
 10
250.6247494171062
 20
407.9010797863419
 30
0.0
  0
VERTEX
  5
55C6
330
55A6
100
AcDbEntity
  8
MODEL
100
AcDbVertex
100
AcDb2dVertex
 10
250.7728886206986
 20
407.9010797863419
 30
0.0
  0
VERTEX
  5
55C7
330
55A6
100
AcDbEntity
  8
MODEL
100
AcDbVertex
100
AcDb2dVertex
 10
250.9422151755024
 20
407.9010797863419
 30
0.0
  0
VERTEX
  5
55C8
330
55A6
100
AcDbEntity
  8
MODEL
100
AcDbVertex
100
AcDb2dVertex
 10
251.0903543790948
 20
407.9010797863419
 30
0.0
  0
VERTEX
  5
55C9
330
55A6
100
AcDbEntity
  8
MODEL
100
AcDbVertex
100
AcDb2dVertex
 10
251.2596809338986
 20
407.8798924351304
 30
0.0
  0
VERTEX
  5
55CA
330
55A6
100
AcDbEntity
  8
MODEL
100
AcDbVertex
100
AcDb2dVertex
 10
251.4078201374909
 20
407.8798924351304
 30
0.0
  0
VERTEX
  5
55CB
330
55A6
100
AcDbEntity
  8
MODEL
100
AcDbVertex
100
AcDb2dVertex
 10
251.5771466922947
 20
407.858705083919
 30
0.0
  0
VERTEX
  5
55CC
330
55A6
100
AcDbEntity
  8
MODEL
100
AcDbVertex
100
AcDb2dVertex
 10
251.725458150775
 20
407.8375177327075
 30
0.0
  0
VERTEX
  5
55CD
330
55A6
100
AcDbEntity
  8
MODEL
100
AcDbVertex
100
AcDb2dVertex
 10
251.8735973543673
 20
407.816330381496
 30
0.0
  0
VERTEX
  5
55CE
330
55A6
100
AcDbEntity
  8
MODEL
100
AcDbVertex
100
AcDb2dVertex
 10
252.0217365579597
 20
407.7951430302846
 30
0.0
  0
VERTEX
  5
55CF
330
55A6
100
AcDbEntity
  8
MODEL
100
AcDbVertex
100
AcDb2dVertex
 10
252.1698757615521
 20
407.774127933961
 30
0.0
  0
VERTEX
  5
55D0
330
55A6
100
AcDbEntity
  8
MODEL
100
AcDbVertex
100
AcDb2dVertex
 10
252.2968276139329
 20
407.7529405827495
 30
0.0
  0
VERTEX
  5
55D1
330
55A6
100
AcDbEntity
  8
MODEL
100
AcDbVertex
100
AcDb2dVertex
 10
252.4451390724132
 20
407.7317532315381
 30
0.0
  0
VERTEX
  5
55D2
330
55A6
100
AcDbEntity
  8
MODEL
100
AcDbVertex
100
AcDb2dVertex
 10
252.5720909247941
 20
407.7105658803267
 30
0.0
  0
VERTEX
  5
55D3
330
55A6
100
AcDbEntity
  8
MODEL
100
AcDbVertex
100
AcDb2dVertex
 10
252.699042777175
 20
407.6893785291152
 30
0.0
  0
VERTEX
  5
55D4
330
55A6
100
AcDbEntity
  8
MODEL
100
AcDbVertex
100
AcDb2dVertex
 10
252.8048072783444
 20
407.6470038266922
 30
0.0
  0
VERTEX
  5
55D5
330
55A6
100
AcDbEntity
  8
MODEL
100
AcDbVertex
100
AcDb2dVertex
 10
252.9319313856132
 20
407.6258164754808
 30
0.0
  0
VERTEX
  5
55D6
330
55A6
100
AcDbEntity
  8
MODEL
100
AcDbVertex
100
AcDb2dVertex
 10
253.0376958867826
 20
407.6046291242693
 30
0.0
  0
VERTEX
  5
55D7
330
55A6
100
AcDbEntity
  8
MODEL
100
AcDbVertex
100
AcDb2dVertex
 10
253.1224452916285
 20
407.5836140279458
 30
0.0
  0
VERTEX
  5
55D8
330
55A6
100
AcDbEntity
  8
MODEL
100
AcDbVertex
100
AcDb2dVertex
 10
253.2282097927979
 20
407.5624266767343
 30
0.0
  0
VERTEX
  5
55D9
330
55A6
100
AcDbEntity
  8
MODEL
100
AcDbVertex
100
AcDb2dVertex
 10
253.3129591976437
 20
407.5200519743113
 30
0.0
  0
VERTEX
  5
55DA
330
55A6
100
AcDbEntity
  8
MODEL
100
AcDbVertex
100
AcDb2dVertex
 10
253.3975363476017
 20
407.4988646230999
 30
0.0
  0
VERTEX
  5
55DB
330
55A6
100
AcDbEntity
  8
MODEL
100
AcDbVertex
100
AcDb2dVertex
 10
253.4822857524476
 20
407.4776772718884
 30
0.0
  0
VERTEX
  5
55DC
330
55A6
100
AcDbEntity
  8
MODEL
100
AcDbVertex
100
AcDb2dVertex
 10
253.5668629024055
 20
407.4564899206769
 30
0.0
  0
VERTEX
  5
55DD
330
55A6
100
AcDbEntity
  8
MODEL
100
AcDbVertex
100
AcDb2dVertex
 10
253.6304249560399
 20
407.4354748243534
 30
0.0
  0
VERTEX
  5
55DE
330
55A6
100
AcDbEntity
  8
MODEL
100
AcDbVertex
100
AcDb2dVertex
 10
253.6938147547864
 20
407.4142874731419
 30
0.0
  0
VERTEX
  5
55DF
330
55A6
100
AcDbEntity
  8
MODEL
100
AcDbVertex
100
AcDb2dVertex
 10
253.7361894572093
 20
407.4142874731419
 30
0.0
  0
VERTEX
  5
55E0
330
55A6
100
AcDbEntity
  8
MODEL
100
AcDbVertex
100
AcDb2dVertex
 10
253.7785641596323
 20
407.3931001219304
 30
0.0
  0
VERTEX
  5
55E1
330
55A6
100
AcDbEntity
  8
MODEL
100
AcDbVertex
100
AcDb2dVertex
 10
253.8209388620552
 20
407.371912770719
 30
0.0
  0
VERTEX
  5
55E2
330
55A6
100
AcDbEntity
  8
MODEL
100
AcDbVertex
100
AcDb2dVertex
 10
253.8421262132667
 20
407.371912770719
 30
0.0
  0
VERTEX
  5
55E3
330
55A6
100
AcDbEntity
  8
MODEL
100
AcDbVertex
100
AcDb2dVertex
 10
253.8631413095902
 20
407.371912770719
 30
0.0
  0
VERTEX
  5
55E4
330
55A6
100
AcDbEntity
  8
MODEL
100
AcDbVertex
100
AcDb2dVertex
 10
253.8843286608017
 20
407.371912770719
 30
0.0
  0
SEQEND
  5
55E5
330
55A6
100
AcDbEntity
  8
MODEL
  0
POLYLINE
  5
55E6
330
A
100
AcDbEntity
  8
MODEL
100
AcDb2dPolyline
 66
     1
 10
0.0
 20
0.0
 30
0.0
  0
VERTEX
  5
55E7
330
55E6
100
AcDbEntity
  8
MODEL
100
AcDbVertex
100
AcDb2dVertex
 10
234.62261484115
 20
407.371912770719
 30
0.0
  0
VERTEX
  5
55E8
330
55E6
100
AcDbEntity
  8
MODEL
100
AcDbVertex
100
AcDb2dVertex
 10
234.62261484115
 20
407.4142874731419
 30
0.0
  0
VERTEX
  5
55E9
330
55E6
100
AcDbEntity
  8
MODEL
100
AcDbVertex
100
AcDb2dVertex
 10
234.62261484115
 20
407.5412393255228
 30
0.0
  0
VERTEX
  5
55EA
330
55E6
100
AcDbEntity
  8
MODEL
100
AcDbVertex
100
AcDb2dVertex
 10
234.62261484115
 20
407.7529405827495
 30
0.0
  0
VERTEX
  5
55EB
330
55E6
100
AcDbEntity
  8
MODEL
100
AcDbVertex
100
AcDb2dVertex
 10
234.62261484115
 20
408.0280316387228
 30
0.0
  0
VERTEX
  5
55EC
330
55E6
100
AcDbEntity
  8
MODEL
100
AcDbVertex
100
AcDb2dVertex
 10
234.62261484115
 20
408.4090594507533
 30
0.0
  0
VERTEX
  5
55ED
330
55E6
100
AcDbEntity
  8
MODEL
100
AcDbVertex
100
AcDb2dVertex
 10
234.62261484115
 20
408.8534770615304
 30
0.0
  0
VERTEX
  5
55EE
330
55E6
100
AcDbEntity
  8
MODEL
100
AcDbVertex
100
AcDb2dVertex
 10
234.62261484115
 20
409.3826440771533
 30
0.0
  0
VERTEX
  5
55EF
330
55E6
100
AcDbEntity
  8
MODEL
100
AcDbVertex
100
AcDb2dVertex
 10
234.62261484115
 20
409.9753731464106
 30
0.0
  0
VERTEX
  5
55F0
330
55E6
100
AcDbEntity
  8
MODEL
100
AcDbVertex
100
AcDb2dVertex
 10
234.62261484115
 20
410.6314920144144
 30
0.0
  0
VERTEX
  5
55F1
330
55E6
100
AcDbEntity
  8
MODEL
100
AcDbVertex
100
AcDb2dVertex
 10
234.62261484115
 20
411.3299855848412
 30
0.0
  0
VERTEX
  5
55F2
330
55E6
100
AcDbEntity
  8
MODEL
100
AcDbVertex
100
AcDb2dVertex
 10
234.62261484115
 20
412.0920412089023
 30
0.0
  0
VERTEX
  5
55F3
330
55E6
100
AcDbEntity
  8
MODEL
100
AcDbVertex
100
AcDb2dVertex
 10
234.62261484115
 20
412.8962992804985
 30
0.0
  0
VERTEX
  5
55F4
330
55E6
100
AcDbEntity
  8
MODEL
100
AcDbVertex
100
AcDb2dVertex
 10
234.62261484115
 20
413.7431043094055
 30
0.0
  0
VERTEX
  5
55F5
330
55E6
100
AcDbEntity
  8
MODEL
100
AcDbVertex
100
AcDb2dVertex
 10
234.62261484115
 20
414.6321117858475
 30
0.0
  0
VERTEX
  5
55F6
330
55E6
100
AcDbEntity
  8
MODEL
100
AcDbVertex
100
AcDb2dVertex
 10
234.62261484115
 20
415.5211192622895
 30
0.0
  0
VERTEX
  5
55F7
330
55E6
100
AcDbEntity
  8
MODEL
100
AcDbVertex
100
AcDb2dVertex
 10
234.62261484115
 20
416.431314089943
 30
0.0
  0
VERTEX
  5
55F8
330
55E6
100
AcDbEntity
  8
MODEL
100
AcDbVertex
100
AcDb2dVertex
 10
234.62261484115
 20
417.36252401392
 30
0.0
  0
VERTEX
  5
55F9
330
55E6
100
AcDbEntity
  8
MODEL
100
AcDbVertex
100
AcDb2dVertex
 10
234.62261484115
 20
418.293906192785
 30
0.0
  0
VERTEX
  5
55FA
330
55E6
100
AcDbEntity
  8
MODEL
100
AcDbVertex
100
AcDb2dVertex
 10
234.62261484115
 20
419.2041010204384
 30
0.0
  0
VERTEX
  5
55FB
330
55E6
100
AcDbEntity
  8
MODEL
100
AcDbVertex
100
AcDb2dVertex
 10
234.62261484115
 20
420.0931084968805
 30
0.0
  0
VERTEX
  5
55FC
330
55E6
100
AcDbEntity
  8
MODEL
100
AcDbVertex
100
AcDb2dVertex
 10
234.62261484115
 20
420.9821159733224
 30
0.0
  0
VERTEX
  5
55FD
330
55E6
100
AcDbEntity
  8
MODEL
100
AcDbVertex
100
AcDb2dVertex
 10
234.62261484115
 20
421.8287487473415
 30
0.0
  0
VERTEX
  5
55FE
330
55E6
100
AcDbEntity
  8
MODEL
100
AcDbVertex
100
AcDb2dVertex
 10
234.62261484115
 20
422.6330068189376
 30
0.0
  0
VERTEX
  5
55FF
330
55E6
100
AcDbEntity
  8
MODEL
100
AcDbVertex
100
AcDb2dVertex
 10
234.62261484115
 20
423.3950624429988
 30
0.0
  0
VERTEX
  5
5600
330
55E6
100
AcDbEntity
  8
MODEL
100
AcDbVertex
100
AcDb2dVertex
 10
234.62261484115
 20
424.0935560134255
 30
0.0
  0
VERTEX
  5
5601
330
55E6
100
AcDbEntity
  8
MODEL
100
AcDbVertex
100
AcDb2dVertex
 10
234.62261484115
 20
424.7496748814294
 30
0.0
  0
VERTEX
  5
5602
330
55E6
100
AcDbEntity
  8
MODEL
100
AcDbVertex
100
AcDb2dVertex
 10
234.62261484115
 20
425.3424039506867
 30
0.0
  0
VERTEX
  5
5603
330
55E6
100
AcDbEntity
  8
MODEL
100
AcDbVertex
100
AcDb2dVertex
 10
234.62261484115
 20
425.8715709663095
 30
0.0
  0
VERTEX
  5
5604
330
55E6
100
AcDbEntity
  8
MODEL
100
AcDbVertex
100
AcDb2dVertex
 10
234.62261484115
 20
426.3159885770866
 30
0.0
  0
VERTEX
  5
5605
330
55E6
100
AcDbEntity
  8
MODEL
100
AcDbVertex
100
AcDb2dVertex
 10
234.62261484115
 20
426.6970163891172
 30
0.0
  0
VERTEX
  5
5606
330
55E6
100
AcDbEntity
  8
MODEL
100
AcDbVertex
100
AcDb2dVertex
 10
234.62261484115
 20
426.9722796999783
 30
0.0
  0
VERTEX
  5
5607
330
55E6
100
AcDbEntity
  8
MODEL
100
AcDbVertex
100
AcDb2dVertex
 10
234.62261484115
 20
427.1838087023172
 30
0.0
  0
VERTEX
  5
5608
330
55E6
100
AcDbEntity
  8
MODEL
100
AcDbVertex
100
AcDb2dVertex
 10
234.62261484115
 20
427.3109328095859
 30
0.0
  0
VERTEX
  5
5609
330
55E6
100
AcDbEntity
  8
MODEL
100
AcDbVertex
100
AcDb2dVertex
 10
234.62261484115
 20
427.3533075120089
 30
0.0
  0
SEQEND
  5
560A
330
55E6
100
AcDbEntity
  8
MODEL
  0
POLYLINE
  5
560B
330
A
100
AcDbEntity
  8
MODEL
100
AcDb2dPolyline
 66
     1
 10
0.0
 20
0.0
 30
0.0
  0
VERTEX
  5
560C
330
560B
100
AcDbEntity
  8
MODEL
100
AcDbVertex
100
AcDb2dVertex
 10
354.6377628863823
 20
407.371912770719
 30
0.0
  0
VERTEX
  5
560D
330
560B
100
AcDbEntity
  8
MODEL
100
AcDbVertex
100
AcDb2dVertex
 10
253.8843286608017
 20
407.371912770719
 30
0.0
  0
SEQEND
  5
560E
330
560B
100
AcDbEntity
  8
MODEL
  0
POLYLINE
  5
560F
102
{ACAD_REACTORS
330
571B
330
5739
102
}
330
A
100
AcDbEntity
  8
MODEL
100
AcDb2dPolyline
 66
     1
 10
0.0
 20
0.0
 30
0.0
  0
VERTEX
  5
5610
330
560F
100
AcDbEntity
  8
MODEL
100
AcDbVertex
100
AcDb2dVertex
 10
247.3861852697344
 20
407.371912770719
 30
0.0
  0
VERTEX
  5
5611
330
560F
100
AcDbEntity
  8
MODEL
100
AcDbVertex
100
AcDb2dVertex
 10
234.62261484115
 20
407.371912770719
 30
0.0
  0
SEQEND
  5
5612
330
560F
100
AcDbEntity
  8
MODEL
  0
POLYLINE
  5
5613
102
{ACAD_REACTORS
330
572A
102
}
330
A
100
AcDbEntity
  8
MODEL
100
AcDb2dPolyline
 66
     1
 10
0.0
 20
0.0
 30
0.0
  0
VERTEX
  5
5614
330
5613
100
AcDbEntity
  8
MODEL
100
AcDbVertex
100
AcDb2dVertex
 10
354.6377628863823
 20
427.3533075120089
 30
0.0
  0
VERTEX
  5
5615
330
5613
100
AcDbEntity
  8
MODEL
100
AcDbVertex
100
AcDb2dVertex
 10
234.62261484115
 20
427.3533075120089
 30
0.0
  0
SEQEND
  5
5616
330
5613
100
AcDbEntity
  8
MODEL
  0
POLYLINE
  5
5617
330
A
100
AcDbEntity
  8
MODEL
100
AcDb2dPolyline
 66
     1
 10
0.0
 20
0.0
 30
0.0
  0
VERTEX
  5
5618
330
5617
100
AcDbEntity
  8
MODEL
100
AcDbVertex
100
AcDb2dVertex
 10
253.5668629024055
 20
406.969697607477
 30
0.0
  0
VERTEX
  5
5619
330
5617
100
AcDbEntity
  8
MODEL
100
AcDbVertex
100
AcDb2dVertex
 10
253.5244881999826
 20
406.969697607477
 30
0.0
  0
VERTEX
  5
561A
330
5617
100
AcDbEntity
  8
MODEL
100
AcDbVertex
100
AcDb2dVertex
 10
253.4187236988132
 20
406.969697607477
 30
0.0
  0
VERTEX
  5
561B
330
5617
100
AcDbEntity
  8
MODEL
100
AcDbVertex
100
AcDb2dVertex
 10
253.2493971440094
 20
406.969697607477
 30
0.0
  0
VERTEX
  5
561C
330
5617
100
AcDbEntity
  8
MODEL
100
AcDbVertex
100
AcDb2dVertex
 10
253.0165085355711
 20
406.969697607477
 30
0.0
  0
VERTEX
  5
561D
330
5617
100
AcDbEntity
  8
MODEL
100
AcDbVertex
100
AcDb2dVertex
 10
252.699042777175
 20
406.969697607477
 30
0.0
  0
VERTEX
  5
561E
330
5617
100
AcDbEntity
  8
MODEL
100
AcDbVertex
100
AcDb2dVertex
 10
252.3603896675673
 20
406.969697607477
 30
0.0
  0
VERTEX
  5
561F
330
5617
100
AcDbEntity
  8
MODEL
100
AcDbVertex
100
AcDb2dVertex
 10
251.9581745043253
 20
406.969697607477
 30
0.0
  0
VERTEX
  5
5620
330
5617
100
AcDbEntity
  8
MODEL
100
AcDbVertex
100
AcDb2dVertex
 10
251.5349442447597
 20
406.969697607477
 30
0.0
  0
VERTEX
  5
5621
330
5617
100
AcDbEntity
  8
MODEL
100
AcDbVertex
100
AcDb2dVertex
 10
251.0903543790948
 20
406.969697607477
 30
0.0
  0
VERTEX
  5
5622
330
5617
100
AcDbEntity
  8
MODEL
100
AcDbVertex
100
AcDb2dVertex
 10
250.6247494171062
 20
406.969697607477
 30
0.0
  0
VERTEX
  5
5623
330
5617
100
AcDbEntity
  8
MODEL
100
AcDbVertex
100
AcDb2dVertex
 10
250.1589722002298
 20
406.969697607477
 30
0.0
  0
VERTEX
  5
5624
330
5617
100
AcDbEntity
  8
MODEL
100
AcDbVertex
100
AcDb2dVertex
 10
249.7145545894528
 20
406.969697607477
 30
0.0
  0
VERTEX
  5
5625
330
5617
100
AcDbEntity
  8
MODEL
100
AcDbVertex
100
AcDb2dVertex
 10
249.2911520749993
 20
406.969697607477
 30
0.0
  0
VERTEX
  5
5626
330
5617
100
AcDbEntity
  8
MODEL
100
AcDbVertex
100
AcDb2dVertex
 10
248.8891091666451
 20
406.969697607477
 30
0.0
  0
VERTEX
  5
5627
330
5617
100
AcDbEntity
  8
MODEL
100
AcDbVertex
100
AcDb2dVertex
 10
248.5504560570375
 20
406.969697607477
 30
0.0
  0
VERTEX
  5
5628
330
5617
100
AcDbEntity
  8
MODEL
100
AcDbVertex
100
AcDb2dVertex
 10
248.2540053949649
 20
406.969697607477
 30
0.0
  0
VERTEX
  5
5629
330
5617
100
AcDbEntity
  8
MODEL
100
AcDbVertex
100
AcDb2dVertex
 10
248.0001016902031
 20
406.969697607477
 30
0.0
  0
VERTEX
  5
562A
330
5617
100
AcDbEntity
  8
MODEL
100
AcDbVertex
100
AcDb2dVertex
 10
247.8307751353993
 20
406.969697607477
 30
0.0
  0
VERTEX
  5
562B
330
5617
100
AcDbEntity
  8
MODEL
100
AcDbVertex
100
AcDb2dVertex
 10
247.724838379342
 20
406.969697607477
 30
0.0
  0
VERTEX
  5
562C
330
5617
100
AcDbEntity
  8
MODEL
100
AcDbVertex
100
AcDb2dVertex
 10
247.682635931807
 20
406.969697607477
 30
0.0
  0
SEQEND
  5
562D
330
5617
100
AcDbEntity
  8
MODEL
  0
POLYLINE
  5
562E
330
A
100
AcDbEntity
  8
MODEL
100
AcDb2dPolyline
 66
     1
 10
0.0
 20
0.0
 30
0.0
  0
VERTEX
  5
562F
330
562E
100
AcDbEntity
  8
MODEL
100
AcDbVertex
100
AcDb2dVertex
 10
248.1906155962184
 20
406.4617179430655
 30
0.0
  0
VERTEX
  5
5630
330
562E
100
AcDbEntity
  8
MODEL
100
AcDbVertex
100
AcDb2dVertex
 10
248.2118029474299
 20
406.4617179430655
 30
0.0
  0
VERTEX
  5
5631
330
562E
100
AcDbEntity
  8
MODEL
100
AcDbVertex
100
AcDb2dVertex
 10
248.3387547998108
 20
406.4617179430655
 30
0.0
  0
VERTEX
  5
5632
330
562E
100
AcDbEntity
  8
MODEL
100
AcDbVertex
100
AcDb2dVertex
 10
248.5080813546146
 20
406.4617179430655
 30
0.0
  0
VERTEX
  5
5633
330
562E
100
AcDbEntity
  8
MODEL
100
AcDbVertex
100
AcDb2dVertex
 10
248.7619850593764
 20
406.4617179430655
 30
0.0
  0
VERTEX
  5
5634
330
562E
100
AcDbEntity
  8
MODEL
100
AcDbVertex
100
AcDb2dVertex
 10
249.058435721449
 20
406.4617179430655
 30
0.0
  0
VERTEX
  5
5635
330
562E
100
AcDbEntity
  8
MODEL
100
AcDbVertex
100
AcDb2dVertex
 10
249.3970888310566
 20
406.4617179430655
 30
0.0
  0
VERTEX
  5
5636
330
562E
100
AcDbEntity
  8
MODEL
100
AcDbVertex
100
AcDb2dVertex
 10
249.7993039942986
 20
406.4617179430655
 30
0.0
  0
VERTEX
  5
5637
330
562E
100
AcDbEntity
  8
MODEL
100
AcDbVertex
100
AcDb2dVertex
 10
250.2013469026527
 20
406.4617179430655
 30
0.0
  0
VERTEX
  5
5638
330
562E
100
AcDbEntity
  8
MODEL
100
AcDbVertex
100
AcDb2dVertex
 10
250.6247494171062
 20
406.4617179430655
 30
0.0
  0
VERTEX
  5
5639
330
562E
100
AcDbEntity
  8
MODEL
100
AcDbVertex
100
AcDb2dVertex
 10
251.0479796766718
 20
406.4617179430655
 30
0.0
  0
VERTEX
  5
563A
330
562E
100
AcDbEntity
  8
MODEL
100
AcDbVertex
100
AcDb2dVertex
 10
251.4713821911253
 20
406.4617179430655
 30
0.0
  0
VERTEX
  5
563B
330
562E
100
AcDbEntity
  8
MODEL
100
AcDbVertex
100
AcDb2dVertex
 10
251.8524100031559
 20
406.4617179430655
 30
0.0
  0
VERTEX
  5
563C
330
562E
100
AcDbEntity
  8
MODEL
100
AcDbVertex
100
AcDb2dVertex
 10
252.1910631127635
 20
406.4617179430655
 30
0.0
  0
VERTEX
  5
563D
330
562E
100
AcDbEntity
  8
MODEL
100
AcDbVertex
100
AcDb2dVertex
 10
252.4873415199482
 20
406.4617179430655
 30
0.0
  0
VERTEX
  5
563E
330
562E
100
AcDbEntity
  8
MODEL
100
AcDbVertex
100
AcDb2dVertex
 10
252.7414174795979
 20
406.4617179430655
 30
0.0
  0
VERTEX
  5
563F
330
562E
100
AcDbEntity
  8
MODEL
100
AcDbVertex
100
AcDb2dVertex
 10
252.9319313856132
 20
406.4617179430655
 30
0.0
  0
VERTEX
  5
5640
330
562E
100
AcDbEntity
  8
MODEL
100
AcDbVertex
100
AcDb2dVertex
 10
253.0376958867826
 20
406.4617179430655
 30
0.0
  0
VERTEX
  5
5641
330
562E
100
AcDbEntity
  8
MODEL
100
AcDbVertex
100
AcDb2dVertex
 10
253.0588832379941
 20
406.4617179430655
 30
0.0
  0
SEQEND
  5
5642
330
562E
100
AcDbEntity
  8
MODEL
  0
POLYLINE
  5
5643
330
A
100
AcDbEntity
  8
MODEL
100
AcDb2dPolyline
 66
     1
 10
0.0
 20
0.0
 30
0.0
  0
VERTEX
  5
5644
330
5643
100
AcDbEntity
  8
MODEL
100
AcDbVertex
100
AcDb2dVertex
 10
247.682635931807
 20
406.969697607477
 30
0.0
  0
VERTEX
  5
5645
330
5643
100
AcDbEntity
  8
MODEL
100
AcDbVertex
100
AcDb2dVertex
 10
247.682635931807
 20
407.4564899206769
 30
0.0
  0
SEQEND
  5
5646
330
5643
100
AcDbEntity
  8
MODEL
  0
POLYLINE
  5
5647
330
A
100
AcDbEntity
  8
MODEL
100
AcDb2dPolyline
 66
     1
 10
0.0
 20
0.0
 30
0.0
  0
VERTEX
  5
5648
330
5647
100
AcDbEntity
  8
MODEL
100
AcDbVertex
100
AcDb2dVertex
 10
253.5668629024055
 20
406.969697607477
 30
0.0
  0
VERTEX
  5
5649
330
5647
100
AcDbEntity
  8
MODEL
100
AcDbVertex
100
AcDb2dVertex
 10
253.5668629024055
 20
407.4564899206769
 30
0.0
  0
SEQEND
  5
564A
330
5647
100
AcDbEntity
  8
MODEL
  0
POLYLINE
  5
564B
330
A
100
AcDbEntity
  8
MODEL
100
AcDb2dPolyline
 66
     1
 10
0.0
 20
0.0
 30
0.0
  0
VERTEX
  5
564C
330
564B
100
AcDbEntity
  8
MODEL
100
AcDbVertex
100
AcDb2dVertex
 10
248.1906155962184
 20
406.4617179430655
 30
0.0
  0
VERTEX
  5
564D
330
564B
100
AcDbEntity
  8
MODEL
100
AcDbVertex
100
AcDb2dVertex
 10
247.682635931807
 20
406.969697607477
 30
0.0
  0
SEQEND
  5
564E
330
564B
100
AcDbEntity
  8
MODEL
  0
POLYLINE
  5
564F
330
A
100
AcDbEntity
  8
MODEL
100
AcDb2dPolyline
 66
     1
 10
0.0
 20
0.0
 30
0.0
  0
VERTEX
  5
5650
330
564F
100
AcDbEntity
  8
MODEL
100
AcDbVertex
100
AcDb2dVertex
 10
253.0588832379941
 20
406.4617179430655
 30
0.0
  0
VERTEX
  5
5651
330
564F
100
AcDbEntity
  8
MODEL
100
AcDbVertex
100
AcDb2dVertex
 10
253.5668629024055
 20
406.969697607477
 30
0.0
  0
SEQEND
  5
5652
330
564F
100
AcDbEntity
  8
MODEL
  0
LINE
  5
56CA
330
A
100
AcDbEntity
  8
MODEL
100
AcDbLine
 10
113.6415374980538
 20
363.4191673988862
 30
0.0
 11
112.1814752748014
 21
360.5303466196684
 31
0.0
  0
LINE
  5
56CB
330
A
100
AcDbEntity
  8
MODEL
100
AcDbLine
 10
113.6415374980538
 20
363.4191673988862
 30
0.0
 11
115.1015997213062
 21
360.5303466196684
 31
0.0
  0
LINE
  5
56CC
330
A
100
AcDbEntity
  8
MODEL
100
AcDbLine
 10
111.5430861084722
 20
360.6281231532134
 30
0.0
 11
115.7316355496774
 21
358.4522533136263
 31
0.0
  0
LINE
  5
56CD
330
A
100
AcDbEntity
  8
MODEL
100
AcDbLine
 10
111.5349760264468
 20
353.3224216921986
 30
0.0
 11
115.7480989696608
 21
351.1337863970225
 31
0.0
  0
LINE
  5
56CE
330
A
100
AcDbEntity
  8
MODEL
100
AcDbLine
 10
111.5349760264468
 20
333.188095814475
 30
0.0
 11
115.7480989696608
 21
330.9994605192991
 31
0.0
  0
LINE
  5
56CF
330
A
100
AcDbEntity
  8
MODEL
100
AcDbLine
 10
111.5349760264468
 20
344.2812116643038
 30
0.0
 11
115.7480989696608
 21
342.0925763691275
 31
0.0
  0
LINE
  5
56D0
330
A
100
AcDbEntity
  8
MODEL
100
AcDbLine
 10
111.5349760264468
 20
358.7086744747743
 30
0.0
 11
115.7480989696608
 21
356.520039179598
 31
0.0
  0
LINE
  5
56D1
330
A
100
AcDbEntity
  8
MODEL
100
AcDbLine
 10
111.5349760264468
 20
347.8720468526875
 30
0.0
 11
115.7480989696608
 21
345.6834115575116
 31
0.0
  0
LINE
  5
56D2
330
A
100
AcDbEntity
  8
MODEL
100
AcDbLine
 10
111.5349760264468
 20
336.7789310028588
 30
0.0
 11
115.7480989696608
 21
334.5902957076828
 31
0.0
  0
LINE
  5
56D3
330
A
100
AcDbEntity
  8
MODEL
100
AcDbLine
 10
111.5349760264468
 20
356.977378937518
 30
0.0
 11
115.7480989696608
 21
354.7887436423417
 31
0.0
  0
LINE
  5
56D4
330
A
100
AcDbEntity
  8
MODEL
100
AcDbLine
 10
111.5349760264468
 20
338.7025927109216
 30
0.0
 11
115.7480989696608
 21
336.5139574157456
 31
0.0
  0
LINE
  5
56D5
330
A
100
AcDbEntity
  8
MODEL
100
AcDbLine
 10
111.5349760264468
 20
342.3575499562407
 30
0.0
 11
115.7480989696608
 21
340.1689146610645
 31
0.0
  0
LINE
  5
56D6
330
A
100
AcDbEntity
  8
MODEL
100
AcDbLine
 10
111.5349760264468
 20
349.7957085607504
 30
0.0
 11
115.7480989696608
 21
347.6070732655743
 31
0.0
  0
LINE
  5
56D7
330
A
100
AcDbEntity
  8
MODEL
100
AcDbLine
 10
111.5349760264468
 20
355.2460834002617
 30
0.0
 11
115.7480989696608
 21
353.0574481050854
 31
0.0
  0
LINE
  5
56D8
330
A
100
AcDbEntity
  8
MODEL
100
AcDbLine
 10
111.5349760264468
 20
351.5911261549422
 30
0.0
 11
115.7480989696608
 21
349.4024908597662
 31
0.0
  0
LINE
  5
56D9
330
A
100
AcDbEntity
  8
MODEL
100
AcDbLine
 10
111.5349760264468
 20
340.6262544189843
 30
0.0
 11
115.7480989696608
 21
338.4376191238083
 31
0.0
  0
LINE
  5
56DA
330
A
100
AcDbEntity
  8
MODEL
100
AcDbLine
 10
111.5349760264468
 20
335.0476354656025
 30
0.0
 11
115.7480989696608
 21
332.8590001704265
 31
0.0
  0
LINE
  5
56DB
330
A
100
AcDbEntity
  8
MODEL
100
AcDbLine
 10
111.5349760264468
 20
346.1407513154312
 30
0.0
 11
115.7480989696608
 21
343.9521160202549
 31
0.0
  0
LINE
  5
56DC
330
A
100
AcDbEntity
  8
MODEL
100
AcDbLine
 10
111.5349760264468
 20
331.2644341064124
 30
0.0
 11
115.1015997213062
 21
329.6028828613483
 31
0.0
  0
LINE
  5
56DD
330
A
100
AcDbEntity
  8
MODEL
100
AcDbLine
 10
115.1015997213062
 20
329.419167398886
 30
0.0
 11
115.1015997213062
 21
360.5303466196684
 31
0.0
  0
LINE
  5
56DE
330
A
100
AcDbEntity
  8
MODEL
100
AcDbLine
 10
112.1814752748014
 20
329.4191673988862
 30
0.0
 11
112.1814752748014
 21
360.5303466196684
 31
0.0
  0
LINE
  5
56DF
330
A
100
AcDbEntity
  8
MODEL
100
AcDbLine
 10
112.1814752748014
 20
329.4191673988862
 30
0.0
 11
115.1015997213062
 21
329.419167398886
 31
0.0
  0
LINE
  5
56E2
330
A
100
AcDbEntity
  8
MODEL
100
AcDbLine
 10
200.6226148411499
 20
417.36252401392
 30
0.0
 11
203.5114356203677
 21
415.9024617906676
 31
0.0
  0
LINE
  5
56E3
102
{ACAD_REACTORS
330
572A
330
5739
102
}
330
A
100
AcDbEntity
  8
MODEL
100
AcDbLine
 10
200.6226148411499
 20
417.36252401392
 30
0.0
 11
203.5114356203677
 21
418.8225862371723
 31
0.0
  0
LINE
  5
56E4
330
A
100
AcDbEntity
  8
MODEL
100
AcDbLine
 10
203.4136590868227
 20
415.2640726243383
 30
0.0
 11
205.5895289264098
 21
419.4526220655436
 31
0.0
  0
LINE
  5
56E5
330
A
100
AcDbEntity
  8
MODEL
100
AcDbLine
 10
210.7193605478375
 20
415.2559625423129
 30
0.0
 11
212.9079958430136
 21
419.4690854855269
 31
0.0
  0
LINE
  5
56E6
330
A
100
AcDbEntity
  8
MODEL
100
AcDbLine
 10
230.8536864255611
 20
415.2559625423129
 30
0.0
 11
233.042321720737
 21
419.4690854855269
 31
0.0
  0
LINE
  5
56E7
330
A
100
AcDbEntity
  8
MODEL
100
AcDbLine
 10
219.7605705757323
 20
415.2559625423129
 30
0.0
 11
221.9492058709086
 21
419.4690854855269
 31
0.0
  0
LINE
  5
56E8
330
A
100
AcDbEntity
  8
MODEL
100
AcDbLine
 10
205.3331077652618
 20
415.2559625423129
 30
0.0
 11
207.5217430604381
 21
419.4690854855269
 31
0.0
  0
LINE
  5
56E9
330
A
100
AcDbEntity
  8
MODEL
100
AcDbLine
 10
216.1697353873486
 20
415.2559625423129
 30
0.0
 11
218.3583706825245
 21
419.4690854855269
 31
0.0
  0
LINE
  5
56EA
330
A
100
AcDbEntity
  8
MODEL
100
AcDbLine
 10
227.2628512371773
 20
415.2559625423129
 30
0.0
 11
229.4514865323533
 21
419.4690854855269
 31
0.0
  0
LINE
  5
56EB
330
A
100
AcDbEntity
  8
MODEL
100
AcDbLine
 10
207.0644033025181
 20
415.2559625423129
 30
0.0
 11
209.2530385976944
 21
419.4690854855269
 31
0.0
  0
LINE
  5
56EC
330
A
100
AcDbEntity
  8
MODEL
100
AcDbLine
 10
225.3391895291145
 20
415.2559625423129
 30
0.0
 11
227.5278248242905
 21
419.4690854855269
 31
0.0
  0
LINE
  5
56ED
330
A
100
AcDbEntity
  8
MODEL
100
AcDbLine
 10
221.6842322837954
 20
415.2559625423129
 30
0.0
 11
223.8728675789716
 21
419.4690854855269
 31
0.0
  0
LINE
  5
56EE
330
A
100
AcDbEntity
  8
MODEL
100
AcDbLine
 10
214.2460736792857
 20
415.2559625423129
 30
0.0
 11
216.4347089744618
 21
419.4690854855269
 31
0.0
  0
LINE
  5
56EF
330
A
100
AcDbEntity
  8
MODEL
100
AcDbLine
 10
208.7956988397744
 20
415.2559625423129
 30
0.0
 11
210.9843341349507
 21
419.4690854855269
 31
0.0
  0
LINE
  5
56F0
330
A
100
AcDbEntity
  8
MODEL
100
AcDbLine
 10
212.4506560850939
 20
415.2559625423129
 30
0.0
 11
214.6392913802699
 21
419.4690854855269
 31
0.0
  0
LINE
  5
56F1
330
A
100
AcDbEntity
  8
MODEL
100
AcDbLine
 10
223.4155278210518
 20
415.2559625423129
 30
0.0
 11
225.6041631162278
 21
419.4690854855269
 31
0.0
  0
LINE
  5
56F2
330
A
100
AcDbEntity
  8
MODEL
100
AcDbLine
 10
228.9941467744336
 20
415.2559625423129
 30
0.0
 11
231.1827820696096
 21
419.4690854855269
 31
0.0
  0
LINE
  5
56F3
330
A
100
AcDbEntity
  8
MODEL
100
AcDbLine
 10
217.9010309246049
 20
415.2559625423129
 30
0.0
 11
220.0896662197812
 21
419.4690854855269
 31
0.0
  0
LINE
  5
56F4
330
A
100
AcDbEntity
  8
MODEL
100
AcDbLine
 10
232.7773481336237
 20
415.2559625423129
 30
0.0
 11
234.4388993786878
 21
418.8225862371723
 31
0.0
  0
LINE
  5
56F5
330
A
100
AcDbEntity
  8
MODEL
100
AcDbLine
 10
234.6226148411501
 20
418.8225862371723
 30
0.0
 11
203.5114356203677
 21
418.8225862371723
 31
0.0
  0
LINE
  5
56F6
330
A
100
AcDbEntity
  8
MODEL
100
AcDbLine
 10
234.6226148411499
 20
415.9024617906676
 30
0.0
 11
203.5114356203677
 21
415.9024617906676
 31
0.0
  0
LINE
  5
56F7
330
A
100
AcDbEntity
  8
MODEL
100
AcDbLine
 10
234.6226148411499
 20
415.9024617906676
 30
0.0
 11
234.6226148411501
 21
418.8225862371723
 31
0.0
  0
DIMENSION
  5
56F8
102
{ACAD_REACTORS
330
56FA
102
}
102
{ACAD_XDICTIONARY
360
56F9
102
}
330
A
100
AcDbEntity
  8
DIM
100
AcDbDimension
  2
*D34
 10
129.64367207401
 20
452.183013344339
 30
0.0
 11
113.6522173011034
 21
457.6839511960334
 31
0.0
 70
    32
 71
     5
 42
31.98290954581313
 73
     0
 74
     0
 75
     0
  3
tfrom線あり
100
AcDbAlignedDimension
 13
97.66076252819684
 23
417.3732038169696
 33
0.0
 14
129.64367207401
 24
417.3732038169696
 34
0.0
100
AcDbRotatedDimension
1001
ACAD
1000
DSTYLE
1002
{
1070
     3
1000
%%c<>
1002
}
  0
DIMENSION
  5
5707
102
{ACAD_REACTORS
330
5709
102
}
102
{ACAD_XDICTIONARY
360
5708
102
}
330
A
100
AcDbEntity
  8
DIM
100
AcDbDimension
  2
*D35
 10
123.6323209961427
 20
278.7958615960334
 30
0.0
 11
150.5746208343244
 21
278.7958615960334
 31
0.0
 70
   160
 71
     5
 42
19.9813947412899
 73
     0
 74
     1
 75
     1
  3
tfrom線あり
100
AcDbAlignedDimension
 13
103.6509262548528
 23
277.9667695274716
 33
0.0
 14
123.6323209961427
 24
277.9667695274716
 34
0.0
100
AcDbRotatedDimension
1001
ACAD
1000
DSTYLE
1002
{
1070
     3
1000
%%c<>
1070
   172
1070
     1
1002
}
  0
DIMENSION
  5
5719
102
{ACAD_REACTORS
330
571B
102
}
102
{ACAD_XDICTIONARY
360
571A
102
}
330
A
100
AcDbEntity
  8
DIM
100
AcDbDimension
  2
*D36
 10
234.62261484115
 20
372.3642997381704
 30
0.0
 11
296.133112760677
 21
377.8652375898648
 31
0.0
 70
    32
 71
     5
 42
123.0209958390539
 73
     0
 74
     0
 75
     0
  3
tfrom線あり
100
AcDbAlignedDimension
 13
357.6436106802039
 23
402.0166805608554
 33
0.0
 14
234.62261484115
 24
407.371912770719
 34
0.0
100
AcDbRotatedDimension
  0
DIMENSION
  5
5737
102
{ACAD_REACTORS
330
5739
102
}
102
{ACAD_XDICTIONARY
360
5738
102
}
330
A
100
AcDbEntity
  8
DIM
100
AcDbDimension
  2
*D38
 10
181.0617871603853
 20
417.36252401392
 30
0.0
 11
175.5608493086909
 21
412.3672183923195
 31
0.0
 70
    32
 71
     5
 42
9.990611243200986
 73
     0
 74
     1
 75
     1
  3
tfrom線あり
100
AcDbAlignedDimension
 13
234.62261484115
 23
407.371912770719
 33
0.0
 14
200.6226148411499
 24
417.36252401392
 34
0.0
 50
90.0
100
AcDbRotatedDimension
1001
ACAD
1000
DSTYLE
1002
{
1070
   172
1070
     1
1002
}
  0
MTEXT
  5
57BD
330
A
100
AcDbEntity
  8
TEMPLATE
390
1D
100
AcDbMText
 10
26.45032789379395
 20
46.51483620845501
 30
0.0
 40
5.0
 41
0.0
 46
2.72850496273749
 71
     1
 72
     1
  1
{固定ビス付属}
  7
ＭＳ ゴシック
 73
     1
 44
0.7828267384257845
1001
ACAD
1000
ACAD_MTEXT_DEFINED_HEIGHT_BEGIN
1070
    46
1040
2.72850496273749
1000
ACAD_MTEXT_DEFINED_HEIGHT_END
  0
MTEXT
  5
57BE
330
A
100
AcDbEntity
  8
TEMPLATE
390
1D
100
AcDbMText
 10
26.36323837621362
 20
37.98006348558194
 30
0.0
 40
5.0
 41
0.0
 46
2.840135167875453
 71
     1
 72
     1
  1
{耐荷重：3kgf}
  7
ＭＳ ゴシック
 73
     1
 44
0.7828267384257845
1001
ACAD
1000
ACAD_MTEXT_DEFINED_HEIGHT_BEGIN
1070
    46
1040
2.840135167875453
1000
ACAD_MTEXT_DEFINED_HEIGHT_END
  0
MTEXT
  5
57F0
330
A
100
AcDbEntity
  8
TEMPLATE
390
1D
100
AcDbMText
 10
240.3663015061038
 20
106.3433761822845
 30
0.0
 40
5.0
 41
0.0
 46
34.22355418886429
 71
     1
 72
     1
  1
{APM74-0103-037 ブラッシュドステンレス\PAPM74-0103-081 PVDブラッシュドガンメタル\PAPM74-0103-082 PVDブラッシュドゴールド\PAPM74-0103-083 PVDブラッシュドコッパー\PAPM74-0103-086 PVDブラッシュドアブソルートブラック}
  7
ＭＳ ゴシック
 73
     1
 44
0.7828267384257843
1001
ACAD
1000
ACAD_MTEXT_DEFINED_HEIGHT_BEGIN
1070
    46
1040
34.22355418886429
1000
ACAD_MTEXT_DEFINED_HEIGHT_END
  0
MTEXT
  5
57F1
330
A
100
AcDbEntity
  8
MODEL
100
AcDbMText
 10
264.8716661219053
 20
63.55351893246164
 30
0.0
 40
5.0
 41
23.11519163436287
 46
5.0
 71
     1
 72
     1
  1
{APM74-0103}
  7
ＭＳ ゴシック
 73
     1
 44
1.0
1001
ACAD
1000
ACAD_MTEXT_DEFINED_HEIGHT_BEGIN
1070
    46
1040
5.0
1000
ACAD_MTEXT_DEFINED_HEIGHT_END
  0
MTEXT
  5
5823
330
A
100
AcDbEntity
  8
TEMPLATE
390
1D
100
AcDbMText
 10
255.7255946572323
 20
69.22626710410563
 30
0.0
 40
3.0
 41
0.0
 46
0.0
 71
     1
 72
     1
  1
品番
  7
ＭＳ ゴシック
 73
     1
 44
0.7828267384257843
  0
VIEWPORT
  5
349
330
B
100
AcDbEntity
 67
     1
  8
0
100
AcDbViewport
 10
202.5
 20
128.5
 30
0.0
 40
486.0
 41
308.4
 68
     1
 69
     1
 12
202.5
 22
128.5
 13
0.0
 23
0.0
 14
0.5
 24
0.5
 15
0.0
 25
0.0
 16
0.0
 26
0.0
 36
1.0
 17
0.0
 27
0.0
 37
0.0
 42
50.0
 43
0.0
 44
0.0
 45
308.4
 50
0.0
 51
0.0
 72
   100
 90
   557152
  1

281
     0
 71
     1
 74
     0
110
0.0
120
0.0
130
0.0
111
1.0
121
0.0
131
0.0
112
0.0
122
1.0
132
0.0
 79
     0
146
0.0
170
     0
 61
     5
348
26C
292
     1
282
     1
141
0.0
142
0.0
 63
   256
  0
VIEWPORT
  5
34A
330
B
100
AcDbEntity
 67
     1
  8
0
100
AcDbViewport
 10
202.5
 20
128.5
 30
0.0
 40
324.0
 41
205.6
 68
     2
 69
     2
 12
986.6781359294573
 22
1427.077061889956
 13
0.0
 23
0.0
 14
0.5
 24
0.5
 15
0.0
 25
0.0
 16
0.0
 26
0.0
 36
1.0
 17
0.0
 27
0.0
 37
0.0
 42
50.0
 43
0.0
 44
0.0
 45
2890.021615685494
 50
0.0
 51
0.0
 72
   100
 90
   557152
  1

281
     0
 71
     1
 74
     0
110
0.0
120
0.0
130
0.0
111
1.0
121
0.0
131
0.0
112
0.0
122
1.0
132
0.0
 79
     0
146
0.0
170
     0
 61
     5
348
26C
292
     1
282
     1
141
0.0
142
0.0
 63
   256
  0
ENDSEC
  0
SECTION
  2
OBJECTS
  0
DICTIONARY
  5
19
330
0
100
AcDbDictionary
281
     1
  3
ACAD_COLOR
350
674
  3
ACAD_DETAILVIEWSTYLE
350
BBF
  3
ACAD_FIELDLIST
350
3BE4
  3
ACAD_GROUP
350
1A
  3
ACAD_IMAGE_VARS
350
27B
  3
ACAD_LAYOUT
350
1E
  3
ACAD_MATERIAL
350
263
  3
ACAD_MLEADERSTYLE
350
336
  3
ACAD_MLINESTYLE
350
1B
  3
ACAD_PLOTSETTINGS
350
22
  3
ACAD_PLOTSTYLENAME
350
1F
  3
ACAD_SCALELIST
350
241
  3
ACAD_SECTIONVIEWSTYLE
350
BC0
  3
ACAD_TABLESTYLE
350
278
  3
ACAD_VISUALSTYLE
350
267
  3
ACDB_RECOMPOSE_DATA
350
582F
  3
AcDbVariableDictionary
350
330
  3
APPDATA
350
27A
  3
DimOffsetDictionary
350
E38
  0
SUN
  5
904
330
15
100
AcDbSun
 90
        1
290
     0
 63
     7
421
 16777215
 40
1.0
291
     1
 91
  2455826
 92
 54000000
292
     0
 70
     2
 71
   256
280
     1
  0
DICTIONARY
  5
2E1
330
2
100
AcDbDictionary
280
     1
281
     1
  3
ACAD_LAYERSTATES
360
2E2
  3
ACLYDICTIONARY
360
DDE
  0
DICTIONARY
  5
3D3D
330
A
100
AcDbDictionary
280
     1
281
     1
  3
ACAD_SORTENTS
360
3D3E
  0
DICTIONARY
  5
3D5D
330
3D5C
100
AcDbDictionary
280
     1
281
     1
  3
ACAD_SORTENTS
360
3D5E
  0
DICTIONARY
  5
3CB7
330
3CB5
100
AcDbDictionary
280
     1
281
     1
  0
DICTIONARY
  5
56F9
330
56F8
100
AcDbDictionary
280
     1
281
     1
  3
ACAD_DIMASSOC
360
56FA
  0
DICTIONARY
  5
5708
330
5707
100
AcDbDictionary
280
     1
281
     1
  3
ACAD_DIMASSOC
360
5709
  0
DICTIONARY
  5
571A
330
5719
100
AcDbDictionary
280
     1
281
     1
  3
ACAD_DIMASSOC
360
571B
  0
DICTIONARY
  5
5738
330
5737
100
AcDbDictionary
280
     1
281
     1
  3
ACAD_DIMASSOC
360
5739
  0
DICTIONARY
  5
674
102
{ACAD_REACTORS
330
19
102
}
330
19
100
AcDbDictionary
281
     1
  0
DICTIONARY
  5
BBF
102
{ACAD_REACTORS
330
19
102
}
330
19
100
AcDbDictionary
281
     1
  0
FIELDLIST
  5
3BE4
102
{ACAD_REACTORS
330
19
102
}
330
19
100
AcDbIdSet
 90
        0
100
AcDbFieldList
  0
DICTIONARY
  5
1A
102
{ACAD_REACTORS
330
19
102
}
330
19
100
AcDbDictionary
281
     1
  3
*A1
350
3C75
  0
RASTERVARIABLES
  5
27B
102
{ACAD_REACTORS
330
19
102
}
330
19
100
AcDbRasterVariables
 90
        0
 70
     1
 71
     1
 72
     1
  0
DICTIONARY
  5
1E
102
{ACAD_REACTORS
330
19
102
}
330
19
100
AcDbDictionary
281
     1
  3
Layout1
350
21
  3
Model
350
20
  0
DICTIONARY
  5
263
102
{ACAD_REACTORS
330
19
102
}
330
19
100
AcDbDictionary
281
     1
  3
ByBlock
350
265
  3
ByLayer
350
264
  3
Global
350
266
  0
DICTIONARY
  5
336
102
{ACAD_REACTORS
330
19
102
}
330
19
100
AcDbDictionary
281
     1
  3
Standard
350
D59
  0
DICTIONARY
  5
1B
102
{ACAD_REACTORS
330
19
102
}
330
19
100
AcDbDictionary
281
     1
  3
Standard
350
1C
  0
DICTIONARY
  5
22
102
{ACAD_REACTORS
330
19
102
}
330
19
100
AcDbDictionary
281
     1
  0
ACDBDICTIONARYWDFLT
  5
1F
102
{ACAD_REACTORS
330
19
102
}
330
19
100
AcDbDictionary
281
     1
  3
Normal
350
1D
100
AcDbDictionaryWithDefault
340
1D
  0
DICTIONARY
  5
241
102
{ACAD_REACTORS
330
19
102
}
330
19
100
AcDbDictionary
281
     1
  3
A0
350
242
  3
A1
350
243
  3
A2
350
244
  3
A3
350
245
  3
A4
350
246
  3
A5
350
247
  3
A6
350
248
  3
A7
350
249
  3
A8
350
24A
  3
A9
350
24B
  3
B0
350
24C
  3
B1
350
24D
  3
B2
350
24E
  3
B3
350
24F
  3
B4
350
250
  3
B5
350
251
  3
B6
350
252
  3
B7
350
253
  3
B8
350
254
  3
B9
350
255
  3
C0
350
256
  3
C1
350
257
  3
C2
350
258
  3
C3
350
259
  3
C4
350
25A
  3
C5
350
25B
  3
C6
350
25C
  3
C7
350
25D
  3
C8
350
25E
  3
C9
350
25F
  3
D0
350
260
  3
D1
350
261
  3
D2
350
262
  0
DICTIONARY
  5
BC0
102
{ACAD_REACTORS
330
19
102
}
330
19
100
AcDbDictionary
281
     1
  0
DICTIONARY
  5
278
102
{ACAD_REACTORS
330
19
102
}
330
19
100
AcDbDictionary
281
     1
  3
Standard
350
279
  0
DICTIONARY
  5
267
102
{ACAD_REACTORS
330
19
102
}
330
19
100
AcDbDictionary
281
     1
  3
2dWireframe
350
26C
  3
3D Hidden
350
26E
  3
3dWireframe
350
26D
  3
Basic
350
26F
  3
Brighten
350
273
  3
ColorChange
350
277
  3
Conceptual
350
271
  3
Dim
350
272
  3
EdgeColorOff
350
8FE
  3
Facepattern
350
276
  3
Flat
350
268
  3
FlatWithEdges
350
269
  3
Gouraud
350
26A
  3
GouraudWithEdges
350
26B
  3
Hidden
350
8FB
  3
JitterOff
350
8FC
  3
Linepattern
350
275
  3
OverhangOff
350
8FD
  3
Realistic
350
270
  3
Shaded
350
903
  3
Shaded with edges
350
902
  3
Shades of Gray
350
8FF
  3
Sketchy
350
900
  3
Thicken
350
274
  3
Wireframe
350
8FA
  3
X-Ray
350
901
  0
XRECORD
  5
582F
102
{ACAD_REACTORS
330
19
102
}
330
19
100
AcDbXrecord
280
     1
 90
        1
330
279
  0
DICTIONARY
  5
330
102
{ACAD_REACTORS
330
19
102
}
330
19
100
AcDbDictionary
281
     1
  3
CANNOSCALE
350
331
  3
CMLEADERSTYLE
350
D5E
  3
CTABLESTYLE
350
335
  3
HPTRANSPARENCY
350
D52
  3
XCLIPFRAME
350
896
  0
DICTIONARY
  5
27A
102
{ACAD_REACTORS
330
19
102
}
330
19
100
AcDbDictionary
281
     1
  0
DICTIONARY
  5
E38
102
{ACAD_REACTORS
330
19
102
}
330
19
100
AcDbDictionary
281
     1
  3
DIMRAILANGLE
350
246C
  3
DIMRAILFIRSTOFFSET
350
246A
  3
DIMRAILOFFSET
350
246B
  3
DIMRAILSENABLED
350
246D
  0
DICTIONARY
  5
2E2
102
{ACAD_REACTORS
330
2E1
102
}
330
2E1
100
AcDbDictionary
281
     1
  0
DICTIONARY
  5
DDE
102
{ACAD_REACTORS
330
2E1
102
}
330
2E1
100
AcDbDictionary
281
     1
1001
ACAD
1000
<All
  0
SORTENTSTABLE
  5
3D3E
102
{ACAD_REACTORS
330
3D3D
102
}
330
3D3D
100
AcDbSortentsTable
330
A
331
3C64
  5
3C1F
331
3C65
  5
3C63
331
3C70
  5
3C64
331
3C71
  5
3C65
331
3C72
  5
3C70
331
3C73
  5
3C71
331
3C74
  5
3C72
331
3CB5
  5
3C92
  0
SORTENTSTABLE
  5
3D5E
102
{ACAD_REACTORS
330
3D5D
102
}
330
3D5D
100
AcDbSortentsTable
330
3D5C
  0
DIMASSOC
  5
56FA
102
{ACAD_REACTORS
330
56F9
102
}
330
56F9
100
AcDbDimAssoc
330
56F8
 90
        2
 70
     0
 71
     1
  1
AcDbOsnapPointRef
 72
    13
331
54B7
 73
     0
 91
        0
 40
0.0
 10
0.0
 20
0.0
 30
0.0
 75
     0
  0
DIMASSOC
  5
5709
102
{ACAD_REACTORS
330
5708
102
}
330
5708
100
AcDbDimAssoc
330
5707
 90
        3
 70
     0
 71
     1
  1
AcDbOsnapPointRef
 72
    10
331
5518
 73
     2
 91
        1
 40
0.5712084377094963
 10
0.0
 20
0.0
 30
0.0
 75
     0
  1
AcDbOsnapPointRef
 72
     8
331
5518
 73
     2
 91
       36
 40
0.4287915622905061
 10
0.0
 20
0.0
 30
0.0
 75
     1
  1
AcDbOsnapPointRef
 72
    10
331
5518
 73
     2
 91
        1
 40
0.5712084377094963
 10
0.0
 20
0.0
 30
0.0
 75
     0
  0
DIMASSOC
  5
571B
102
{ACAD_REACTORS
330
571A
102
}
330
571A
100
AcDbDimAssoc
330
5719
 90
        3
 70
     0
 71
     1
  1
AcDbOsnapPointRef
 72
     1
331
5546
 73
     2
 91
       40
 40
1.0
 10
0.0
 20
0.0
 30
0.0
 75
     0
  1
AcDbOsnapPointRef
 72
     1
331
560F
 73
     2
 91
        1
 40
1.0
 10
0.0
 20
0.0
 30
0.0
 75
     0
  0
DIMASSOC
  5
5739
102
{ACAD_REACTORS
330
5738
102
}
330
5738
100
AcDbDimAssoc
330
5737
 90
        3
 70
     0
 71
     1
  1
AcDbOsnapPointRef
 72
     1
331
560F
 73
     2
 91
        1
 40
1.0
 10
0.0
 20
0.0
 30
0.0
 75
     0
  1
AcDbOsnapPointRef
 72
    13
331
56E3
 73
     0
 91
        0
 40
0.0
 10
0.0
 20
0.0
 30
0.0
 75
     0
  0
GROUP
  5
3C75
102
{ACAD_REACTORS
330
1A
102
}
330
1A
100
AcDbGroup
300

 70
     1
 71
     1
340
3C64
340
3C65
340
3C70
340
3C71
340
3C72
340
3C73
340
3C74
  0
LAYOUT
  5
21
102
{ACAD_REACTORS
330
1E
102
}
330
1E
100
AcDbPlotSettings
  1

  2
none_device
  4
ISO_A3_(420.00_x_297.00_MM)
  6

 40
7.5
 41
20.0
 42
7.5
 43
20.0
 44
420.0
 45
297.0
 46
0.0
 47
0.0
 48
0.0
 49
0.0
140
0.0
141
0.0
142
1.0
143
1.0
 70
     0
 72
     1
 73
     0
 74
     0
  7

 75
     0
 76
     0
 77
     2
 78
   300
147
1.0
148
0.0
149
0.0
100
AcDbLayout
  1
Layout1
 70
     0
 71
     0
 10
-7.5
 20
-20.0
 11
412.5
 21
277.0
 12
0.0
 22
0.0
 32
0.0
 14
0.0
 24
0.0
 34
0.0
 15
0.0
 25
0.0
 35
0.0
146
0.0
 13
0.0
 23
0.0
 33
0.0
 16
0.0
 26
0.0
 36
0.0
 17
0.0
 27
0.0
 37
0.0
 76
     0
330
B
331
349
  0
LAYOUT
  5
20
102
{ACAD_REACTORS
330
1E
102
}
330
1E
100
AcDbPlotSettings
  1

  2
Adobe PDF
  4
A4
  6

 40
0.0600000000000023
 41
0.0000000000000205
 42
0.0
 43
0.04
 44
210.0
 45
297.0
 46
0.0
 47
0.0
 48
0.0
 49
0.0
140
0.0
141
0.0
142
1.0
143
2.000571591883395
 70
  1712
 72
     1
 73
     0
 74
     1
  7
monochrome.ctb
 75
     0
 76
    45
 77
     4
 78
   300
147
0.4998571428571429
148
-91.02013567090094
149
73.59871453016603
100
AcDbLayout
  1
Model
 70
     0
 71
     1
 10
0.0
 20
0.0
 11
420.0
 21
594.0
 12
0.0
 22
0.0
 32
0.0
 14
0.0
 24
0.0
 34
-0.0000000000000071
 15
420.0
 25
594.0
 35
0.0000000000000071
146
0.0
 13
0.0
 23
0.0
 33
0.0
 16
0.0
 26
0.0
 36
0.0
 17
0.0
 27
0.0
 37
0.0
 76
     0
330
A
331
15
1001
PLOTTRANSPARENCY
1071
        0
  0
MATERIAL
  5
265
102
{ACAD_REACTORS
330
263
102
}
330
263
100
AcDbMaterial
  1
ByBlock
 72
     1
 94
      127
  0
MATERIAL
  5
264
102
{ACAD_REACTORS
330
263
102
}
330
263
100
AcDbMaterial
  1
ByLayer
 72
     1
 94
      127
  0
MATERIAL
  5
266
102
{ACAD_REACTORS
330
263
102
}
330
263
100
AcDbMaterial
  1
Global
 72
     1
 94
      127
  0
MLEADERSTYLE
  5
D59
102
{ACAD_REACTORS
330
336
102
}
330
336
100
AcDbMLeaderStyle
170
     2
171
     1
172
     0
 90
        2
 40
0.0
 41
0.0
173
     1
 91
-1056964608
340
11
 92
       -2
290
     1
 42
2.0
291
     1
 43
8.0
  3
Standard
341
0
 44
4.0
300

342
17
174
     1
178
     6
175
     1
176
     0
 93
-1056964608
 45
4.0
292
     0
297
     0
 46
4.0
343
0
 94
-1056964608
 47
1.0
 49
1.0
140
1.0
293
     1
141
0.0
294
     1
177
     0
142
1.0
295
     0
296
     0
143
3.75
1001
ACAD_MLEADERVER
1070
     2
  0
MLINESTYLE
  5
1C
102
{ACAD_REACTORS
330
1B
102
}
330
1B
100
AcDbMlineStyle
  2
Standard
 70
     0
  3

 62
     0
 51
90.0
 52
90.0
 71
     2
 49
0.5
 62
   256
  6
BYLAYER
 49
-0.5
 62
   256
  6
BYLAYER
  0
ACDBPLACEHOLDER
  5
1D
102
{ACAD_REACTORS
330
1F
102
}
330
1F
  0
SCALE
  5
242
102
{ACAD_REACTORS
330
241
102
}
330
241
100
AcDbScale
 70
     0
300
1:1
140
1.0
141
1.0
290
     1
  0
SCALE
  5
243
102
{ACAD_REACTORS
330
241
102
}
330
241
100
AcDbScale
 70
     0
300
1:2
140
1.0
141
2.0
290
     0
  0
SCALE
  5
244
102
{ACAD_REACTORS
330
241
102
}
330
241
100
AcDbScale
 70
     0
300
1:4
140
1.0
141
4.0
290
     0
  0
SCALE
  5
245
102
{ACAD_REACTORS
330
241
102
}
330
241
100
AcDbScale
 70
     0
300
1:5
140
1.0
141
5.0
290
     0
  0
SCALE
  5
246
102
{ACAD_REACTORS
330
241
102
}
330
241
100
AcDbScale
 70
     0
300
1:8
140
1.0
141
8.0
290
     0
  0
SCALE
  5
247
102
{ACAD_REACTORS
330
241
102
}
330
241
100
AcDbScale
 70
     0
300
1:10
140
1.0
141
10.0
290
     0
  0
SCALE
  5
248
102
{ACAD_REACTORS
330
241
102
}
330
241
100
AcDbScale
 70
     0
300
1:16
140
1.0
141
16.0
290
     0
  0
SCALE
  5
249
102
{ACAD_REACTORS
330
241
102
}
330
241
100
AcDbScale
 70
     0
300
1:20
140
1.0
141
20.0
290
     0
  0
SCALE
  5
24A
102
{ACAD_REACTORS
330
241
102
}
330
241
100
AcDbScale
 70
     0
300
1:30
140
1.0
141
30.0
290
     0
  0
SCALE
  5
24B
102
{ACAD_REACTORS
330
241
102
}
330
241
100
AcDbScale
 70
     0
300
1:40
140
1.0
141
40.0
290
     0
  0
SCALE
  5
24C
102
{ACAD_REACTORS
330
241
102
}
330
241
100
AcDbScale
 70
     0
300
1:50
140
1.0
141
50.0
290
     0
  0
SCALE
  5
24D
102
{ACAD_REACTORS
330
241
102
}
330
241
100
AcDbScale
 70
     0
300
1:100
140
1.0
141
100.0
290
     0
  0
SCALE
  5
24E
102
{ACAD_REACTORS
330
241
102
}
330
241
100
AcDbScale
 70
     0
300
2:1
140
2.0
141
1.0
290
     0
  0
SCALE
  5
24F
102
{ACAD_REACTORS
330
241
102
}
330
241
100
AcDbScale
 70
     0
300
4:1
140
4.0
141
1.0
290
     0
  0
SCALE
  5
250
102
{ACAD_REACTORS
330
241
102
}
330
241
100
AcDbScale
 70
     0
300
8:1
140
8.0
141
1.0
290
     0
  0
SCALE
  5
251
102
{ACAD_REACTORS
330
241
102
}
330
241
100
AcDbScale
 70
     0
300
10:1
140
10.0
141
1.0
290
     0
  0
SCALE
  5
252
102
{ACAD_REACTORS
330
241
102
}
330
241
100
AcDbScale
 70
     0
300
100:1
140
100.0
141
1.0
290
     0
  0
SCALE
  5
253
102
{ACAD_REACTORS
330
241
102
}
330
241
100
AcDbScale
 70
     0
300
1/128" = 1'-0"
140
0.0078125
141
12.0
290
     0
  0
SCALE
  5
254
102
{ACAD_REACTORS
330
241
102
}
330
241
100
AcDbScale
 70
     0
300
1/64" = 1'-0"
140
0.015625
141
12.0
290
     0
  0
SCALE
  5
255
102
{ACAD_REACTORS
330
241
102
}
330
241
100
AcDbScale
 70
     0
300
1/32" = 1'-0"
140
0.03125
141
12.0
290
     0
  0
SCALE
  5
256
102
{ACAD_REACTORS
330
241
102
}
330
241
100
AcDbScale
 70
     0
300
1/16" = 1'-0"
140
0.0625
141
12.0
290
     0
  0
SCALE
  5
257
102
{ACAD_REACTORS
330
241
102
}
330
241
100
AcDbScale
 70
     0
300
3/32" = 1'-0"
140
0.09375
141
12.0
290
     0
  0
SCALE
  5
258
102
{ACAD_REACTORS
330
241
102
}
330
241
100
AcDbScale
 70
     0
300
1/8" = 1'-0"
140
0.125
141
12.0
290
     0
  0
SCALE
  5
259
102
{ACAD_REACTORS
330
241
102
}
330
241
100
AcDbScale
 70
     0
300
3/16" = 1'-0"
140
0.1875
141
12.0
290
     0
  0
SCALE
  5
25A
102
{ACAD_REACTORS
330
241
102
}
330
241
100
AcDbScale
 70
     0
300
1/4" = 1'-0"
140
0.25
141
12.0
290
     0
  0
SCALE
  5
25B
102
{ACAD_REACTORS
330
241
102
}
330
241
100
AcDbScale
 70
     0
300
3/8" = 1'-0"
140
0.375
141
12.0
290
     0
  0
SCALE
  5
25C
102
{ACAD_REACTORS
330
241
102
}
330
241
100
AcDbScale
 70
     0
300
1/2" = 1'-0"
140
0.5
141
12.0
290
     0
  0
SCALE
  5
25D
102
{ACAD_REACTORS
330
241
102
}
330
241
100
AcDbScale
 70
     0
300
3/4" = 1'-0"
140
0.75
141
12.0
290
     0
  0
SCALE
  5
25E
102
{ACAD_REACTORS
330
241
102
}
330
241
100
AcDbScale
 70
     0
300
1" = 1'-0"
140
1.0
141
12.0
290
     0
  0
SCALE
  5
25F
102
{ACAD_REACTORS
330
241
102
}
330
241
100
AcDbScale
 70
     0
300
1-1/2" = 1'-0"
140
1.5
141
12.0
290
     0
  0
SCALE
  5
260
102
{ACAD_REACTORS
330
241
102
}
330
241
100
AcDbScale
 70
     0
300
3" = 1'-0"
140
3.0
141
12.0
290
     0
  0
SCALE
  5
261
102
{ACAD_REACTORS
330
241
102
}
330
241
100
AcDbScale
 70
     0
300
6" = 1'-0"
140
6.0
141
12.0
290
     0
  0
SCALE
  5
262
102
{ACAD_REACTORS
330
241
102
}
330
241
100
AcDbScale
 70
     0
300
1'-0" = 1'-0"
140
12.0
141
12.0
290
     0
  0
TABLESTYLE
  5
279
102
{ACAD_REACTORS
330
278
102
}
102
{ACAD_XDICTIONARY
360
582D
102
}
330
278
100
AcDbTableStyle
  3
Standard
 70
     0
 71
     0
 40
0.06
 41
0.06
280
     0
281
     0
  7
Standard
140
4.5
170
     2
 62
     0
 63
   257
283
     0
 90
        4
 91
        0
  1

274
    -2
284
     1
 64
     0
275
    -2
285
     1
 65
     0
276
    -2
286
     1
 66
     0
277
    -2
287
     1
 67
     0
278
    -2
288
     1
 68
     0
279
    -2
289
     1
 69
     0
  7
Standard
140
6.0
170
     5
 62
     0
 63
   257
283
     0
 90
        4
 91
        0
  1

274
    -2
284
     1
 64
     0
275
    -2
285
     1
 65
     0
276
    -2
286
     1
 66
     0
277
    -2
287
     1
 67
     0
278
    -2
288
     1
 68
     0
279
    -2
289
     1
 69
     0
  7
Standard
140
4.5
170
     5
 62
     0
 63
   257
283
     0
 90
        4
 91
        0
  1

274
    -2
284
     1
 64
     0
275
    -2
285
     1
 65
     0
276
    -2
286
     1
 66
     0
277
    -2
287
     1
 67
     0
278
    -2
288
     1
 68
     0
279
    -2
289
     1
 69
     0
  0
VISUALSTYLE
  5
26C
102
{ACAD_REACTORS
330
267
102
}
330
267
100
AcDbVisualStyle
  2
2dWireframe
 70
     4
 71
     0
 72
     2
 73
     0
 90
        0
 40
-0.6
 41
-30.0
 62
     5
 63
     7
421
 16777215
 74
     1
 91
        4
 64
     7
 65
   257
 75
     1
175
     1
 42
1.0
 92
        0
 66
   257
 43
1.0
 76
     1
 77
     6
 78
     2
 67
     7
 79
     5
170
     0
171
     0
290
     0
174
     0
 93
        1
 44
0.0
173
     0
291
     0
 45
0.0
  0
VISUALSTYLE
  5
26E
102
{ACAD_REACTORS
330
267
102
}
330
267
100
AcDbVisualStyle
  2
3D Hidden
 70
     6
 71
     1
 72
     2
 73
     2
 90
        0
 40
-0.6
 41
-30.0
 62
     5
 63
     7
421
 16777215
 74
     2
 91
        2
 64
     7
 65
   257
 75
     2
175
     1
 42
40.0
 92
        0
 66
   257
 43
1.0
 76
     1
 77
     6
 78
     2
 67
     7
 79
     3
170
     0
171
     0
290
     0
174
     0
 93
        1
 44
0.0
173
     0
291
     0
 45
0.0
  0
VISUALSTYLE
  5
26D
102
{ACAD_REACTORS
330
267
102
}
330
267
100
AcDbVisualStyle
  2
3dWireframe
 70
     5
 71
     0
 72
     2
 73
     0
 90
        0
 40
-0.6
 41
-30.0
 62
     5
 63
     7
421
 16777215
 74
     1
 91
        4
 64
     7
 65
   257
 75
     1
175
     1
 42
1.0
 92
        0
 66
   257
 43
1.0
 76
     1
 77
     6
 78
     2
 67
     7
 79
     5
170
     0
171
     0
290
     0
174
     0
 93
        1
 44
0.0
173
     0
291
     0
 45
0.0
  0
VISUALSTYLE
  5
26F
102
{ACAD_REACTORS
330
267
102
}
330
267
100
AcDbVisualStyle
  2
Basic
 70
     7
 71
     1
 72
     0
 73
     1
 90
        0
 40
-0.6
 41
-30.0
 62
     5
 63
     7
421
 16777215
 74
     0
 91
        4
 64
     7
 65
   257
 75
     1
175
     1
 42
1.0
 92
        8
 66
     7
 43
1.0
 76
     1
 77
     6
 78
     2
 67
     7
 79
     5
170
     0
171
     0
290
     0
174
     0
 93
        1
 44
0.0
173
     0
291
     1
 45
0.0
  0
VISUALSTYLE
  5
273
102
{ACAD_REACTORS
330
267
102
}
330
267
100
AcDbVisualStyle
  2
Brighten
 70
    12
 71
     2
 72
     2
 73
     0
 90
        0
 40
-0.6
 41
-30.0
 62
     5
 63
     7
421
 16777215
 74
     1
 91
        4
 64
     7
 65
   257
 75
     1
175
     1
 42
1.0
 92
        8
 66
     7
 43
1.0
 76
     1
 77
     6
 78
     2
 67
     7
 79
     5
170
     0
171
     0
290
     0
174
     0
 93
        1
 44
50.0
173
     0
291
     1
 45
0.0
  0
VISUALSTYLE
  5
277
102
{ACAD_REACTORS
330
267
102
}
330
267
100
AcDbVisualStyle
  2
ColorChange
 70
    16
 71
     2
 72
     2
 73
     3
 90
        0
 40
-0.6
 41
-30.0
 62
     5
 63
     8
421
  8421504
 74
     1
 91
        4
 64
     7
 65
   257
 75
     1
175
     1
 42
1.0
 92
        8
 66
     8
424
  8421504
 43
1.0
 76
     1
 77
     6
 78
     2
 67
     7
 79
     5
170
     0
171
     0
290
     0
174
     0
 93
        1
 44
0.0
173
     0
291
     1
 45
0.0
  0
VISUALSTYLE
  5
271
102
{ACAD_REACTORS
330
267
102
}
330
267
100
AcDbVisualStyle
  2
Conceptual
 70
     9
 71
     3
 72
     2
 73
     0
 90
        0
 40
-0.6
 41
-30.0
 62
     5
 63
     7
421
 16777215
 74
     2
 91
        2
 64
     7
 65
   257
 75
     1
175
     1
 42
40.0
 92
        8
 66
     7
 43
1.0
 76
     1
 77
     6
 78
     2
 67
     7
 79
     3
170
     0
171
     0
290
     0
174
     0
 93
        1
 44
0.0
173
     0
291
     0
 45
0.0
  0
VISUALSTYLE
  5
272
102
{ACAD_REACTORS
330
267
102
}
330
267
100
AcDbVisualStyle
  2
Dim
 70
    11
 71
     2
 72
     2
 73
     0
 90
        0
 40
-0.6
 41
-30.0
 62
     5
 63
     7
421
 16777215
 74
     1
 91
        4
 64
     7
 65
   257
 75
     1
175
     1
 42
1.0
 92
        8
 66
     7
 43
1.0
 76
     1
 77
     6
 78
     2
 67
     7
 79
     5
170
     0
171
     0
290
     0
174
     0
 93
        1
 44
-50.0
173
     0
291
     1
 45
0.0
  0
VISUALSTYLE
  5
8FE
102
{ACAD_REACTORS
330
267
102
}
330
267
100
AcDbVisualStyle
  2
EdgeColorOff
 70
    22
 71
     2
 72
     2
 73
     0
 90
        0
 40
0.6
 41
30.0
 62
     5
 63
     7
421
 16777215
 74
     1
 91
        4
 64
     7
 65
   257
 75
     1
175
     1
 42
1.0
 92
        8
 66
     7
 43
1.0
 76
     1
 77
     6
 78
     2
 67
     7
 79
     5
170
     0
171
     0
290
     0
174
     0
 93
        1
 44
0.0
173
     0
291
     1
 45
0.0
  0
VISUALSTYLE
  5
276
102
{ACAD_REACTORS
330
267
102
}
330
267
100
AcDbVisualStyle
  2
Facepattern
 70
    15
 71
     2
 72
     2
 73
     0
 90
        0
 40
-0.6
 41
-30.0
 62
     5
 63
     7
421
 16777215
 74
     1
 91
        4
 64
     7
 65
   257
 75
     1
175
     1
 42
1.0
 92
        8
 66
     7
 43
1.0
 76
     1
 77
     6
 78
     2
 67
     7
 79
     5
170
     0
171
     0
290
     0
174
     0
 93
        1
 44
0.0
173
     0
291
     1
 45
0.0
  0
VISUALSTYLE
  5
268
102
{ACAD_REACTORS
330
267
102
}
330
267
100
AcDbVisualStyle
  2
Flat
 70
     0
 71
     2
 72
     1
 73
     1
 90
        2
 40
-0.6
 41
30.0
 62
     5
 63
     7
421
 16777215
 74
     0
 91
        4
 64
     7
 65
   257
 75
     1
175
     1
 42
1.0
 92
        8
 66
     7
 43
1.0
 76
     1
 77
     6
 78
     2
 67
     7
 79
     5
170
     0
171
     0
290
     0
174
     0
 93
       13
 44
0.0
173
     0
291
     1
 45
0.0
  0
VISUALSTYLE
  5
269
102
{ACAD_REACTORS
330
267
102
}
330
267
100
AcDbVisualStyle
  2
FlatWithEdges
 70
     1
 71
     2
 72
     1
 73
     1
 90
        2
 40
-0.6
 41
30.0
 62
     5
 63
     7
421
 16777215
 74
     1
 91
        4
 64
     7
 65
   257
 75
     1
175
     1
 42
1.0
 92
        0
 66
   257
 43
1.0
 76
     1
 77
     6
 78
     2
 67
     7
 79
     5
170
     0
171
     0
290
     0
174
     0
 93
       13
 44
0.0
173
     0
291
     1
 45
0.0
  0
VISUALSTYLE
  5
26A
102
{ACAD_REACTORS
330
267
102
}
330
267
100
AcDbVisualStyle
  2
Gouraud
 70
     2
 71
     2
 72
     2
 73
     1
 90
        2
 40
-0.6
 41
30.0
 62
     5
 63
     7
421
 16777215
 74
     0
 91
        4
 64
     7
 65
   257
 75
     1
175
     1
 42
1.0
 92
        0
 66
     7
 43
1.0
 76
     1
 77
     6
 78
     2
 67
     7
 79
     5
170
     0
171
     0
290
     0
174
     0
 93
       13
 44
0.0
173
     0
291
     1
 45
0.0
  0
VISUALSTYLE
  5
26B
102
{ACAD_REACTORS
330
267
102
}
330
267
100
AcDbVisualStyle
  2
GouraudWithEdges
 70
     3
 71
     2
 72
     2
 73
     1
 90
        2
 40
-0.6
 41
30.0
 62
     5
 63
     7
421
 16777215
 74
     1
 91
        4
 64
     7
 65
   257
 75
     1
175
     1
 42
1.0
 92
        0
 66
   257
 43
1.0
 76
     1
 77
     6
 78
     2
 67
     7
 79
     5
170
     0
171
     0
290
     0
174
     0
 93
       13
 44
0.0
173
     0
291
     1
 45
0.0
  0
VISUALSTYLE
  5
8FB
102
{ACAD_REACTORS
330
267
102
}
330
267
100
AcDbVisualStyle
  2
Hidden
 70
     6
 71
     1
 72
     2
 73
     2
 90
        0
 40
0.6
 41
30.0
 62
     5
 63
     7
421
 16777215
 74
     2
 91
        2
 64
     7
 65
   257
 75
     2
175
     1
 42
40.0
 92
        0
 66
   257
 43
1.0
 76
     1
 77
     6
 78
     2
 67
     7
 79
     3
170
     0
171
     0
290
     0
174
     0
 93
        1
 44
0.0
173
     0
291
     0
 45
0.0
  0
VISUALSTYLE
  5
8FC
102
{ACAD_REACTORS
330
267
102
}
330
267
100
AcDbVisualStyle
  2
JitterOff
 70
    20
 71
     2
 72
     2
 73
     0
 90
        0
 40
0.6
 41
30.0
 62
     5
 63
     7
421
 16777215
 74
     1
 91
        4
 64
     7
 65
   257
 75
     1
175
     1
 42
1.0
 92
       10
 66
     7
 43
1.0
 76
     1
 77
     6
 78
     2
 67
     7
 79
     5
170
     0
171
     0
290
     0
174
     0
 93
        1
 44
0.0
173
     0
291
     1
 45
0.0
  0
VISUALSTYLE
  5
275
102
{ACAD_REACTORS
330
267
102
}
330
267
100
AcDbVisualStyle
  2
Linepattern
 70
    14
 71
     2
 72
     2
 73
     0
 90
        0
 40
-0.6
 41
-30.0
 62
     5
 63
     7
421
 16777215
 74
     1
 91
        4
 64
     7
 65
   257
 75
     7
175
     7
 42
1.0
 92
        8
 66
     7
 43
1.0
 76
     1
 77
     6
 78
     2
 67
     7
 79
     5
170
     0
171
     0
290
     0
174
     0
 93
        1
 44
0.0
173
     0
291
     1
 45
0.0
  0
VISUALSTYLE
  5
8FD
102
{ACAD_REACTORS
330
267
102
}
330
267
100
AcDbVisualStyle
  2
OverhangOff
 70
    21
 71
     2
 72
     2
 73
     0
 90
        0
 40
0.6
 41
30.0
 62
     5
 63
     7
421
 16777215
 74
     1
 91
        4
 64
     7
 65
   257
 75
     1
175
     1
 42
1.0
 92
        9
 66
     7
 43
1.0
 76
     1
 77
     6
 78
     2
 67
     7
 79
     5
170
     0
171
     0
290
     0
174
     0
 93
        1
 44
0.0
173
     0
291
     1
 45
0.0
  0
VISUALSTYLE
  5
270
102
{ACAD_REACTORS
330
267
102
}
330
267
100
AcDbVisualStyle
  2
Realistic
 70
     8
 71
     2
 72
     2
 73
     0
 90
        0
 40
-0.6
 41
-30.0
 62
     5
 63
     7
421
 16777215
 74
     1
 91
        0
 64
     7
 65
   257
 75
     1
175
     1
 42
1.0
 92
        8
 66
     8
424
  7895160
 43
1.0
 76
     1
 77
     6
 78
     2
 67
     7
 79
     5
170
     0
171
     0
290
     0
174
     0
 93
       13
 44
0.0
173
     0
291
     0
 45
0.0
  0
VISUALSTYLE
  5
903
102
{ACAD_REACTORS
330
267
102
}
330
267
100
AcDbVisualStyle
  2
Shaded
 70
    27
 71
     2
 72
     2
 73
     1
 90
        2
 40
0.6
 41
30.0
 62
     5
 63
     7
421
 16777215
 74
     0
 91
        4
 64
     7
 65
   257
 75
     1
175
     1
 42
1.0
 92
        8
 66
   257
 43
1.0
 76
     1
 77
     6
 78
     2
 67
     8
425
  7895160
 79
     3
170
     0
171
     0
290
     0
174
     0
 93
        5
 44
0.0
173
     0
291
     0
 45
0.0
  0
VISUALSTYLE
  5
902
102
{ACAD_REACTORS
330
267
102
}
330
267
100
AcDbVisualStyle
  2
Shaded with edges
 70
    26
 71
     2
 72
     2
 73
     1
 90
        2
 40
0.6
 41
30.0
 62
     5
 63
     7
421
 16777215
 74
     1
 91
       10
 64
     7
 65
   257
 75
     2
175
     1
 42
1.0
 92
        8
 66
   257
 43
1.0
 76
     1
 77
     6
 78
     2
 67
     7
 79
     3
170
     0
171
     0
290
     0
174
     0
 93
        5
 44
0.0
173
     0
291
     0
 45
0.0
  0
VISUALSTYLE
  5
8FF
102
{ACAD_REACTORS
330
267
102
}
330
267
100
AcDbVisualStyle
  2
Shades of Gray
 70
    23
 71
     2
 72
     2
 73
     3
 90
        0
 40
0.6
 41
30.0
 62
     5
 63
     7
421
 16777215
 74
     2
 91
        2
 64
     7
 65
     7
 75
     1
175
     1
 42
40.0
 92
        8
 66
     7
 43
1.0
 76
     1
 77
     6
 78
     2
 67
     7
 79
     3
170
     0
171
     0
290
     0
174
     0
 93
        1
 44
0.0
173
     0
291
     0
 45
0.0
  0
VISUALSTYLE
  5
900
102
{ACAD_REACTORS
330
267
102
}
330
267
100
AcDbVisualStyle
  2
Sketchy
 70
    24
 71
     1
 72
     2
 73
     2
 90
        0
 40
0.6
 41
30.0
 62
     5
 63
     7
421
 16777215
 74
     2
 91
        2
 64
     7
 65
     7
 75
     1
175
     1
 42
40.0
 92
       11
 66
     7
 43
1.0
 76
     1
 77
     6
 78
     2
 67
     7
 79
     6
170
     0
171
     0
290
     0
174
     0
 93
        1
 44
0.0
173
     0
291
     0
 45
0.0
  0
VISUALSTYLE
  5
274
102
{ACAD_REACTORS
330
267
102
}
330
267
100
AcDbVisualStyle
  2
Thicken
 70
    13
 71
     2
 72
     2
 73
     0
 90
        0
 40
-0.6
 41
-30.0
 62
     5
 63
     7
421
 16777215
 74
     1
 91
        4
 64
     7
 65
   257
 75
     1
175
     1
 42
1.0
 92
       12
 66
     7
 43
1.0
 76
     1
 77
     6
 78
     2
 67
     7
 79
     5
170
     0
171
     0
290
     0
174
     0
 93
        1
 44
0.0
173
     0
291
     1
 45
0.0
  0
VISUALSTYLE
  5
8FA
102
{ACAD_REACTORS
330
267
102
}
330
267
100
AcDbVisualStyle
  2
Wireframe
 70
     5
 71
     0
 72
     2
 73
     0
 90
        0
 40
0.6
 41
30.0
 62
     5
 63
     7
421
 16777215
 74
     1
 91
        4
 64
     7
 65
   257
 75
     1
175
     1
 42
1.0
 92
        0
 66
   257
 43
1.0
 76
     1
 77
     6
 78
     2
 67
     7
 79
     3
170
     0
171
     0
290
     0
174
     0
 93
        1
 44
0.0
173
     0
291
     0
 45
0.0
  0
VISUALSTYLE
  5
901
102
{ACAD_REACTORS
330
267
102
}
330
267
100
AcDbVisualStyle
  2
X-Ray
 70
    25
 71
     2
 72
     2
 73
     1
 90
        1
 40
0.5
 41
30.0
 62
     5
 63
     7
421
 16777215
 74
     1
 91
        0
 64
     7
 65
   257
 75
     1
175
     1
 42
1.0
 92
        8
 66
     7
 43
1.0
 76
     1
 77
     6
 78
     2
 67
     7
 79
     3
170
     0
171
     0
290
     0
174
     0
 93
       13
 44
0.0
173
     0
291
     0
 45
0.0
  0
DICTIONARYVAR
  5
331
102
{ACAD_REACTORS
330
330
102
}
330
330
100
DictionaryVariables
280
     0
  1
1:1
  0
DICTIONARYVAR
  5
D5E
102
{ACAD_REACTORS
330
330
102
}
330
330
100
DictionaryVariables
280
     0
  1
Standard
  0
DICTIONARYVAR
  5
335
102
{ACAD_REACTORS
330
330
102
}
330
330
100
DictionaryVariables
280
     0
  1
Standard
  0
DICTIONARYVAR
  5
D52
102
{ACAD_REACTORS
330
330
102
}
330
330
100
DictionaryVariables
280
     0
  1
ByLayer
  0
DICTIONARYVAR
  5
896
102
{ACAD_REACTORS
330
330
102
}
330
330
100
DictionaryVariables
280
     0
  1
0
  0
DICTIONARYVAR
  5
246C
102
{ACAD_REACTORS
330
E38
102
}
330
E38
100
DictionaryVariables
280
     0
  1
0.261799
  0
DICTIONARYVAR
  5
246A
102
{ACAD_REACTORS
330
E38
102
}
330
E38
100
DictionaryVariables
280
     0
  1
0.400000
  0
DICTIONARYVAR
  5
246B
102
{ACAD_REACTORS
330
E38
102
}
330
E38
100
DictionaryVariables
280
     0
  1
0.250000
  0
DICTIONARYVAR
  5
246D
102
{ACAD_REACTORS
330
E38
102
}
330
E38
100
DictionaryVariables
280
     0
  1
1
  0
DICTIONARY
  5
582D
330
279
100
AcDbDictionary
280
     1
281
     1
  3
ACAD_ROUNDTRIP_2008_TABLESTYLE_CELLSTYLEMAP
360
582E
  0
CELLSTYLEMAP
  5
582E
102
{ACAD_REACTORS
330
582D
102
}
330
582D
100
AcDbCellStyleMap
 90
        3
300
CELLSTYLE
  1
TABLEFORMAT_BEGIN
 90
        5
170
     1
 91
        0
 92
    32768
 62
   257
 93
        1
300
CONTENTFORMAT
  1
CONTENTFORMAT_BEGIN
 90
        0
 91
        0
 92
        4
 93
        0
300

 40
0.0
140
1.0
 94
        5
 62
     0
340
17
144
6.0
309
CONTENTFORMAT_END
171
     1
301
MARGIN
  1
CELLMARGIN_BEGIN
 40
0.06
 40
0.06
 40
0.06
 40
0.06
 40
0.18
 40
0.18
309
CELLMARGIN_END
 94
        6
 95
        1
302
GRIDFORMAT
  1
GRIDFORMAT_BEGIN
 90
        0
 91
        1
 62
     0
 92
       -2
340
0
 93
        0
 40
0.045
309
GRIDFORMAT_END
 95
        2
302
GRIDFORMAT
  1
GRIDFORMAT_BEGIN
 90
        0
 91
        1
 62
     0
 92
       -2
340
0
 93
        0
 40
0.045
309
GRIDFORMAT_END
 95
        4
302
GRIDFORMAT
  1
GRIDFORMAT_BEGIN
 90
        0
 91
        1
 62
     0
 92
       -2
340
0
 93
        0
 40
0.045
309
GRIDFORMAT_END
 95
        8
302
GRIDFORMAT
  1
GRIDFORMAT_BEGIN
 90
        0
 91
        1
 62
     0
 92
       -2
340
0
 93
        0
 40
0.045
309
GRIDFORMAT_END
 95
       16
302
GRIDFORMAT
  1
GRIDFORMAT_BEGIN
 90
        0
 91
        1
 62
     0
 92
       -2
340
0
 93
        0
 40
0.045
309
GRIDFORMAT_END
 95
       32
302
GRIDFORMAT
  1
GRIDFORMAT_BEGIN
 90
        0
 91
        1
 62
     0
 92
       -2
340
0
 93
        0
 40
0.045
309
GRIDFORMAT_END
309
TABLEFORMAT_END
  1
CELLSTYLE_BEGIN
 90
        1
 91
        1
300
_TITLE
309
CELLSTYLE_END
300
CELLSTYLE
  1
TABLEFORMAT_BEGIN
 90
        5
170
     1
 91
        0
 92
        0
 62
   257
 93
        1
300
CONTENTFORMAT
  1
CONTENTFORMAT_BEGIN
 90
        0
 91
        0
 92
        4
 93
        0
300

 40
0.0
140
1.0
 94
        5
 62
     0
340
17
144
4.5
309
CONTENTFORMAT_END
171
     1
301
MARGIN
  1
CELLMARGIN_BEGIN
 40
0.06
 40
0.06
 40
0.06
 40
0.06
 40
0.18
 40
0.18
309
CELLMARGIN_END
 94
        6
 95
        1
302
GRIDFORMAT
  1
GRIDFORMAT_BEGIN
 90
        0
 91
        1
 62
     0
 92
       -2
340
0
 93
        0
 40
0.045
309
GRIDFORMAT_END
 95
        2
302
GRIDFORMAT
  1
GRIDFORMAT_BEGIN
 90
        0
 91
        1
 62
     0
 92
       -2
340
0
 93
        0
 40
0.045
309
GRIDFORMAT_END
 95
        4
302
GRIDFORMAT
  1
GRIDFORMAT_BEGIN
 90
        0
 91
        1
 62
     0
 92
       -2
340
0
 93
        0
 40
0.045
309
GRIDFORMAT_END
 95
        8
302
GRIDFORMAT
  1
GRIDFORMAT_BEGIN
 90
        0
 91
        1
 62
     0
 92
       -2
340
0
 93
        0
 40
0.045
309
GRIDFORMAT_END
 95
       16
302
GRIDFORMAT
  1
GRIDFORMAT_BEGIN
 90
        0
 91
        1
 62
     0
 92
       -2
340
0
 93
        0
 40
0.045
309
GRIDFORMAT_END
 95
       32
302
GRIDFORMAT
  1
GRIDFORMAT_BEGIN
 90
        0
 91
        1
 62
     0
 92
       -2
340
0
 93
        0
 40
0.045
309
GRIDFORMAT_END
309
TABLEFORMAT_END
  1
CELLSTYLE_BEGIN
 90
        2
 91
        1
300
_HEADER
309
CELLSTYLE_END
300
CELLSTYLE
  1
TABLEFORMAT_BEGIN
 90
        5
170
     1
 91
        0
 92
        0
 62
   257
 93
        1
300
CONTENTFORMAT
  1
CONTENTFORMAT_BEGIN
 90
        0
 91
        0
 92
        4
 93
        0
300

 40
0.0
140
1.0
 94
        2
 62
     0
340
17
144
4.5
309
CONTENTFORMAT_END
171
     1
301
MARGIN
  1
CELLMARGIN_BEGIN
 40
0.06
 40
0.06
 40
0.06
 40
0.06
 40
0.18
 40
0.18
309
CELLMARGIN_END
 94
        6
 95
        1
302
GRIDFORMAT
  1
GRIDFORMAT_BEGIN
 90
        0
 91
        1
 62
     0
 92
       -2
340
0
 93
        0
 40
0.045
309
GRIDFORMAT_END
 95
        2
302
GRIDFORMAT
  1
GRIDFORMAT_BEGIN
 90
        0
 91
        1
 62
     0
 92
       -2
340
0
 93
        0
 40
0.045
309
GRIDFORMAT_END
 95
        4
302
GRIDFORMAT
  1
GRIDFORMAT_BEGIN
 90
        0
 91
        1
 62
     0
 92
       -2
340
0
 93
        0
 40
0.045
309
GRIDFORMAT_END
 95
        8
302
GRIDFORMAT
  1
GRIDFORMAT_BEGIN
 90
        0
 91
        1
 62
     0
 92
       -2
340
0
 93
        0
 40
0.045
309
GRIDFORMAT_END
 95
       16
302
GRIDFORMAT
  1
GRIDFORMAT_BEGIN
 90
        0
 91
        1
 62
     0
 92
       -2
340
0
 93
        0
 40
0.045
309
GRIDFORMAT_END
 95
       32
302
GRIDFORMAT
  1
GRIDFORMAT_BEGIN
 90
        0
 91
        1
 62
     0
 92
       -2
340
0
 93
        0
 40
0.045
309
GRIDFORMAT_END
309
TABLEFORMAT_END
  1
CELLSTYLE_BEGIN
 90
        3
 91
        2
300
_DATA
309
CELLSTYLE_END
  0
ENDSEC
  0
EOF
