  0
SECTION
  2
HEADER
  9
$ACADVER
  1
AC1021
  9
$ACADMAINTVER
 70
    25
  9
$DWGCODEPAGE
  3
ANSI_932
  9
$LASTSAVEDBY
  1
tform
  9
$INSBASE
 10
0.0
 20
0.0
 30
0.0
  9
$EXTMIN
 10
0.0
 20
0.0
 30
-0.0000000000000071
  9
$EXTMAX
 10
210.0
 20
297.0
 30
0.0000000000000071
  9
$LIMMIN
 10
0.0
 20
0.0
  9
$LIMMAX
 10
210.0
 20
297.0
  9
$ORTHOMODE
 70
     1
  9
$REGENMODE
 70
     1
  9
$FILLMODE
 70
     1
  9
$QTEXTMODE
 70
     0
  9
$MIRRTEXT
 70
     1
  9
$LTSCALE
 40
0.5
  9
$ATTMODE
 70
     1
  9
$TEXTSIZE
 40
2.5
  9
$TRACEWID
 40
1.0
  9
$TEXTSTYLE
  7
ＭＳ ゴシック
  9
$CLAYER
  8
DIM
  9
$CELTYPE
  6
ByLayer
  9
$CECOLOR
 62
   256
  9
$CELTSCALE
 40
1.0
  9
$DISPSILH
 70
     0
  9
$DIMSCALE
 40
1.0
  9
$DIMASZ
 40
1.0
  9
$DIMEXO
 40
2.0
  9
$DIMDLI
 40
0.9999999999999999
  9
$DIMRND
 40
0.0
  9
$DIMDLE
 40
0.0
  9
$DIMEXE
 40
0.0
  9
$DIMTP
 40
0.0
  9
$DIMTM
 40
0.0
  9
$DIMTXT
 40
3.0
  9
$DIMCEN
 40
0.0
  9
$DIMTSZ
 40
0.0
  9
$DIMTOL
 70
     0
  9
$DIMLIM
 70
     0
  9
$DIMTIH
 70
     0
  9
$DIMTOH
 70
     0
  9
$DIMSE1
 70
     0
  9
$DIMSE2
 70
     0
  9
$DIMTAD
 70
     1
  9
$DIMZIN
 70
    11
  9
$DIMBLK
  1
DOT
  9
$DIMASO
 70
     1
  9
$DIMSHO
 70
     1
  9
$DIMPOST
  1
<>
  9
$DIMAPOST
  1
[]
  9
$DIMALT
 70
     0
  9
$DIMALTD
 70
     1
  9
$DIMALTF
 40
1.0
  9
$DIMLFAC
 40
1.0
  9
$DIMTOFL
 70
     0
  9
$DIMTVP
 40
0.0
  9
$DIMTIX
 70
     1
  9
$DIMSOXD
 70
     0
  9
$DIMSAH
 70
     0
  9
$DIMBLK1
  1

  9
$DIMBLK2
  1

  9
$DIMSTYLE
  2
tfrom線あり
  9
$DIMCLRD
 70
     0
  9
$DIMCLRE
 70
     0
  9
$DIMCLRT
 70
     0
  9
$DIMTFAC
 40
1.0
  9
$DIMGAP
 40
1.0
  9
$DIMJUST
 70
     0
  9
$DIMSD1
 70
     0
  9
$DIMSD2
 70
     0
  9
$DIMTOLJ
 70
     1
  9
$DIMTZIN
 70
    11
  9
$DIMALTZ
 70
    11
  9
$DIMALTTZ
 70
    11
  9
$DIMUPT
 70
     0
  9
$DIMDEC
 70
     0
  9
$DIMTDEC
 70
     1
  9
$DIMALTU
 70
     2
  9
$DIMALTTD
 70
     2
  9
$DIMTXSTY
  7
ＭＳ ゴシック
  9
$DIMAUNIT
 70
     0
  9
$DIMADEC
 70
     2
  9
$DIMALTRND
 40
0.0
  9
$DIMAZIN
 70
     0
  9
$DIMDSEP
 70
    46
  9
$DIMATFIT
 70
     0
  9
$DIMFRAC
 70
     2
  9
$DIMLDRBLK
  1
DOT
  9
$DIMLUNIT
 70
     2
  9
$DIMLWD
 70
    -2
  9
$DIMLWE
 70
    -2
  9
$DIMTMOVE
 70
     0
  9
$DIMFXL
 40
1.0
  9
$DIMFXLON
 70
     0
  9
$DIMJOGANG
 40
0.7853981633974483
  9
$DIMTFILL
 70
     0
  9
$DIMTFILLCLR
 70
     0
  9
$DIMARCSYM
 70
     0
  9
$DIMLTYPE
  6

  9
$DIMLTEX1
  6

  9
$DIMLTEX2
  6

  9
$LUNITS
 70
     2
  9
$LUPREC
 70
     0
  9
$SKETCHINC
 40
0.1
  9
$FILLETRAD
 40
0.0
  9
$AUNITS
 70
     0
  9
$AUPREC
 70
     0
  9
$MENU
  1
acad
  9
$ELEVATION
 40
0.0
  9
$PELEVATION
 40
0.0
  9
$THICKNESS
 40
0.0
  9
$LIMCHECK
 70
     0
  9
$CHAMFERA
 40
0.0
  9
$CHAMFERB
 40
0.0
  9
$CHAMFERC
 40
0.0
  9
$CHAMFERD
 40
0.0
  9
$SKPOLY
 70
     0
  9
$TDCREATE
 40
2447893.375
  9
$TDUCREATE
 40
0.0
  9
$TDUPDATE
 40
2460803.676522465
  9
$TDUUPDATE
 40
2460803.301522465
  9
$TDINDWG
 40
0.0059775116
  9
$TDUSRTIMER
 40
0.0024412616
  9
$USRTIMER
 70
     1
  9
$ANGBASE
 50
0.0
  9
$ANGDIR
 70
     0
  9
$PDMODE
 70
     1
  9
$PDSIZE
 40
-2.0
  9
$PLINEWID
 40
0.0
  9
$SPLFRAME
 70
     0
  9
$SPLINETYPE
 70
     6
  9
$SPLINESEGS
 70
     8
  9
$HANDSEED
  5
4C46
  9
$SURFTAB1
 70
     6
  9
$SURFTAB2
 70
     6
  9
$SURFTYPE
 70
     6
  9
$SURFU
 70
     6
  9
$SURFV
 70
     6
  9
$UCSBASE
  2

  9
$UCSNAME
  2

  9
$UCSORG
 10
0.0
 20
0.0
 30
0.0
  9
$UCSXDIR
 10
1.0
 20
0.0
 30
0.0
  9
$UCSYDIR
 10
0.0
 20
1.0
 30
0.0
  9
$UCSORTHOREF
  2

  9
$UCSORTHOVIEW
 70
     0
  9
$UCSORGTOP
 10
0.0
 20
0.0
 30
0.0
  9
$UCSORGBOTTOM
 10
0.0
 20
0.0
 30
0.0
  9
$UCSORGLEFT
 10
0.0
 20
0.0
 30
0.0
  9
$UCSORGRIGHT
 10
0.0
 20
0.0
 30
0.0
  9
$UCSORGFRONT
 10
0.0
 20
0.0
 30
0.0
  9
$UCSORGBACK
 10
0.0
 20
0.0
 30
0.0
  9
$PUCSBASE
  2

  9
$PUCSNAME
  2

  9
$PUCSORG
 10
0.0
 20
0.0
 30
0.0
  9
$PUCSXDIR
 10
1.0
 20
0.0
 30
0.0
  9
$PUCSYDIR
 10
0.0
 20
1.0
 30
0.0
  9
$PUCSORTHOREF
  2

  9
$PUCSORTHOVIEW
 70
     0
  9
$PUCSORGTOP
 10
0.0
 20
0.0
 30
0.0
  9
$PUCSORGBOTTOM
 10
0.0
 20
0.0
 30
0.0
  9
$PUCSORGLEFT
 10
0.0
 20
0.0
 30
0.0
  9
$PUCSORGRIGHT
 10
0.0
 20
0.0
 30
0.0
  9
$PUCSORGFRONT
 10
0.0
 20
0.0
 30
0.0
  9
$PUCSORGBACK
 10
0.0
 20
0.0
 30
0.0
  9
$USERI1
 70
     0
  9
$USERI2
 70
     0
  9
$USERI3
 70
     0
  9
$USERI4
 70
     0
  9
$USERI5
 70
     0
  9
$USERR1
 40
0.0
  9
$USERR2
 40
0.0
  9
$USERR3
 40
0.0
  9
$USERR4
 40
0.0
  9
$USERR5
 40
0.0
  9
$WORLDVIEW
 70
     1
  9
$SHADEDGE
 70
     3
  9
$SHADEDIF
 70
    70
  9
$TILEMODE
 70
     1
  9
$MAXACTVP
 70
    64
  9
$PINSBASE
 10
0.0
 20
0.0
 30
0.0
  9
$PLIMCHECK
 70
     0
  9
$PEXTMIN
 10
0.0
 20
0.0
 30
0.0
  9
$PEXTMAX
 10
0.0
 20
0.0
 30
0.0
  9
$PLIMMIN
 10
-7.5
 20
-20.0
  9
$PLIMMAX
 10
412.5
 20
277.0
  9
$UNITMODE
 70
     0
  9
$VISRETAIN
 70
     0
  9
$PLINEGEN
 70
     1
  9
$PSLTSCALE
 70
     0
  9
$TREEDEPTH
 70
  3020
  9
$CMLSTYLE
  2
Standard
  9
$CMLJUST
 70
     0
  9
$CMLSCALE
 40
1.0
  9
$PROXYGRAPHICS
 70
     0
  9
$MEASUREMENT
 70
     1
  9
$CELWEIGHT
370
    -1
  9
$ENDCAPS
280
     0
  9
$JOINSTYLE
280
     0
  9
$LWDISPLAY
290
     1
  9
$INSUNITS
 70
     4
  9
$HYPERLINKBASE
  1

  9
$STYLESHEET
  1

  9
$XEDIT
290
     1
  9
$CEPSNTYPE
380
     0
  9
$PSTYLEMODE
290
     1
  9
$FINGERPRINTGUID
  2

  9
$VERSIONGUID
  2

  9
$EXTNAMES
290
     1
  9
$PSVPSCALE
 40
0.0
  9
$OLESTARTUP
290
     0
  9
$SORTENTS
280
   127
  9
$INDEXCTL
280
     0
  9
$HIDETEXT
280
     1
  9
$XCLIPFRAME
290
     0
  9
$HALOGAP
280
     0
  9
$OBSCOLOR
 70
   257
  9
$OBSLTYPE
280
     0
  9
$INTERSECTIONDISPLAY
280
     0
  9
$INTERSECTIONCOLOR
 70
   257
  9
$DIMASSOC
280
     2
  9
$PROJECTNAME
  1

  9
$CAMERADISPLAY
290
     0
  9
$LENSLENGTH
 40
50.0
  9
$CAMERAHEIGHT
 40
0.0
  9
$STEPSPERSEC
 40
2.0
  9
$STEPSIZE
 40
6.0
  9
$3DDWFPREC
 40
2.0
  9
$PSOLWIDTH
 40
0.25
  9
$PSOLHEIGHT
 40
4.0
  9
$LOFTANG1
 40
1.570796326794897
  9
$LOFTANG2
 40
1.570796326794897
  9
$LOFTMAG1
 40
0.0
  9
$LOFTMAG2
 40
0.0
  9
$LOFTPARAM
 70
     7
  9
$LOFTNORMALS
280
     1
  9
$LATITUDE
 40
37.795
  9
$LONGITUDE
 40
-122.394
  9
$NORTHDIRECTION
 40
0.0
  9
$TIMEZONE
 70
 -8000
  9
$LIGHTGLYPHDISPLAY
280
     1
  9
$TILEMODELIGHTSYNCH
280
     1
  9
$SOLIDHIST
280
     1
  9
$SHOWHIST
280
     1
  9
$DWFFRAME
280
     2
  9
$DGNFRAME
280
     2
  9
$REALWORLDSCALE
290
     1
  9
$INTERFERECOLOR
 62
   256
  9
$CSHADOW
280
     0
  9
$SHADOWPLANELOCATION
 40
0.0
  0
ENDSEC
  0
SECTION
  2
CLASSES
  0
CLASS
  1
LWPOLYLINE
  2
AcDbPolyline
  3
ObjectDBX Classes
 90
        0
 91
        1
280
     0
281
     1
  0
CLASS
  1
IMAGE
  2
AcDbRasterImage
  3
ISM
 90
      127
 91
        4
280
     0
281
     1
  0
CLASS
  1
OLE2FRAME
  2
AcDbOle2Frame
  3
ObjectDBX Classes
 90
        0
 91
        1
280
     0
281
     1
  0
CLASS
  1
HATCH
  2
AcDbHatch
  3
ObjectDBX Classes
 90
        0
 91
        1
280
     0
281
     1
  0
CLASS
  1
DICTIONARYVAR
  2
AcDbDictionaryVar
  3
ObjectDBX Classes
 90
        0
 91
        3
280
     0
281
     0
  0
CLASS
  1
RASTERVARIABLES
  2
AcDbRasterVariables
  3
ISM
 90
        0
 91
        3
280
     0
281
     0
  0
CLASS
  1
IMAGEDEF
  2
AcDbRasterImageDef
  3
ISM
 90
        0
 91
        3
280
     0
281
     0
  0
CLASS
  1
IMAGEDEF_REACTOR
  2
AcDbRasterImageDefReactor
  3
ISM
 90
        1
 91
        3
280
     0
281
     0
  0
CLASS
  1
IDBUFFER
  2
AcDbIdBuffer
  3
ObjectDBX Classes
 90
        0
 91
        3
280
     0
281
     0
  0
CLASS
  1
SPATIAL_FILTER
  2
AcDbSpatialFilter
  3
ObjectDBX Classes
 90
        0
 91
        3
280
     0
281
     0
  0
CLASS
  1
XRECORD
  2
AcDbXrecord
  3
ObjectDBX Classes
 90
        0
 91
        1
280
     0
281
     0
  0
CLASS
  1
SORTENTSTABLE
  2
AcDbSortentsTable
  3
ObjectDBX Classes
 90
        0
 91
        3
280
     0
281
     0
  0
CLASS
  1
LAYER_INDEX
  2
AcDbLayerIndex
  3
ObjectDBX Classes
 90
        0
 91
        3
280
     0
281
     0
  0
CLASS
  1
SPATIAL_INDEX
  2
AcDbSpatialIndex
  3
AutoCAD 2000
 90
        0
 91
        3
280
     0
281
     0
  0
CLASS
  1
OBJECT_PTR
  2
CAseDLPNTableRecord
  3
ASE-LPNTableRecord
 90
        1
 91
        3
280
     0
281
     0
  0
CLASS
  1
LAYOUT
  2
AcDbLayout
  3
ObjectDBX Classes
 90
        0
 91
        1
280
     0
281
     0
  0
CLASS
  1
PLOTSETTINGS
  2
AcDbPlotSettings
  3
ObjectDBX Classes
 90
        0
 91
        3
280
     0
281
     0
  0
CLASS
  1
ACDBDICTIONARYWDFLT
  2
AcDbDictionaryWithDefault
  3
ObjectDBX Classes
 90
        0
 91
        3
280
     0
281
     0
  0
CLASS
  1
ACDBPLACEHOLDER
  2
AcDbPlaceHolder
  3
ObjectDBX Classes
 90
        0
 91
        1
280
     0
281
     0
  0
CLASS
  1
SCALE
  2
AcDbScale
  3
ObjectDBX Classes
 90
     1153
 91
        3
280
     0
281
     0
  0
CLASS
  1
MATERIAL
  2
AcDbMaterial
  3
ObjectDBX Classes
 90
     1153
 91
        3
280
     0
281
     0
  0
CLASS
  1
VISUALSTYLE
  2
AcDbVisualStyle
  3
ObjectDBX Classes
 90
     4095
 91
        3
280
     0
281
     0
  0
CLASS
  1
TABLESTYLE
  2
AcDbTableStyle
  3
ObjectDBX Classes
 90
     4095
 91
        3
280
     0
281
     0
  0
CLASS
  1
DIMASSOC
  2
AcDbDimAssoc
  3
"AcDbDimAssoc|Product Desc:     AcDim ARX App For Dimension|Company:          Autodesk, Inc.|WEB Address:      www.autodesk.com"
 90
        0
 91
        3
280
     0
281
     0
  0
CLASS
  1
CELLSTYLEMAP
  2
AcDbCellStyleMap
  3
ObjectDBX Classes
 90
     1152
 91
        3
280
     0
281
     0
  0
CLASS
  1
SUN
  2
AcDbSun
  3
SCENEOE
 90
     1153
 91
        3
280
     0
281
     0
  0
CLASS
  1
MLEADERSTYLE
  2
AcDbMLeaderStyle
  3
ACDB_MLEADERSTYLE_CLASS
 90
     4095
 91
        3
280
     0
281
     0
  0
CLASS
  1
FIELD
  2
AcDbField
  3
ObjectDBX Classes
 90
     1152
 91
        3
280
     0
281
     0
  0
CLASS
  1
FIELDLIST
  2
AcDbFieldList
  3
ObjectDBX Classes
 90
     1152
 91
        3
280
     0
281
     0
  0
ENDSEC
  0
SECTION
  2
TABLES
  0
TABLE
  2
VPORT
  5
7
330
0
100
AcDbSymbolTable
 70
     1
  0
VPORT
  5
15
330
7
100
AcDbSymbolTableRecord
100
AcDbViewportTableRecord
  2
*ACTIVE
 70
     0
 10
0.0
 20
0.0
 11
1.0
 21
1.0
 12
196.0201356708988
 22
74.90128546983397
 13
0.0
 23
0.0
 14
1.0
 24
1.0
 15
0.0
 25
0.0
 16
0.0
 26
0.0
 36
1.0
 17
-91.02013567089884
 27
73.59871453016603
 37
-46.86809886248109
 40
302.94
 41
2.052208835341366
 42
50.0
 43
0.0
 44
0.0
 50
0.0
 51
0.0
 71
    16
 72
  2000
 73
     1
 74
     1
 75
     0
 76
     0
 77
     0
 78
     0
281
     0
 65
     1
110
0.0
120
0.0
130
0.0
111
1.0
121
0.0
131
0.0
112
0.0
122
1.0
132
0.0
 79
     0
146
0.0
348
26C
 60
     3
 61
     5
292
     1
282
     1
141
0.0
142
0.0
 63
   256
361
904
  0
ENDTAB
  0
TABLE
  2
LTYPE
  5
4
330
0
100
AcDbSymbolTable
 70
     3
  0
LTYPE
  5
11
330
4
100
AcDbSymbolTableRecord
100
AcDbLinetypeTableRecord
  2
ByBlock
 70
     0
  3

 72
    65
 73
     0
 40
0.0
  0
LTYPE
  5
12
330
4
100
AcDbSymbolTableRecord
100
AcDbLinetypeTableRecord
  2
ByLayer
 70
     0
  3

 72
    65
 73
     0
 40
0.0
  0
LTYPE
  5
13
330
4
100
AcDbSymbolTableRecord
100
AcDbLinetypeTableRecord
  2
Continuous
 70
     0
  3
Solid line
 72
    65
 73
     0
 40
0.0
  0
LTYPE
  5
D6C
330
4
100
AcDbSymbolTableRecord
100
AcDbLinetypeTableRecord
  2
BORDER
 70
     0
  3
Border __  __  . __  __  . __  __  . __  __  . 
 72
    65
 73
     6
 40
44.45
 49
12.7
 74
     0
 49
-6.35
 74
     0
 49
12.7
 74
     0
 49
-6.35
 74
     0
 49
0.0
 74
     0
 49
-6.35
 74
     0
  0
LTYPE
  5
D6D
330
4
100
AcDbSymbolTableRecord
100
AcDbLinetypeTableRecord
  2
HIDDEN
 70
     0
  3
Hidden _ _ _ _ _ _ _ _ _ _ _ _ _ _ _ _ _ _ _ _ 
 72
    65
 73
     2
 40
9.524999999999999
 49
6.35
 74
     0
 49
-3.175
 74
     0
  0
ENDTAB
  0
TABLE
  2
LAYER
  5
2
102
{ACAD_XDICTIONARY
360
2E1
102
}
330
0
100
AcDbSymbolTable
 70
     8
  0
LAYER
  5
14
330
2
100
AcDbSymbolTableRecord
100
AcDbLayerTableRecord
  2
0
 70
     0
 62
     7
  6
Continuous
370
    -3
390
1D
347
266
  0
LAYER
  5
4B
330
2
100
AcDbSymbolTableRecord
100
AcDbLayerTableRecord
  2
TEMPLATE
 70
     0
 62
     7
  6
Continuous
370
    20
390
1D
347
266
  0
LAYER
  5
4C
330
2
100
AcDbSymbolTableRecord
100
AcDbLayerTableRecord
  2
DIM
 70
     0
 62
     3
  6
Continuous
370
    13
390
1D
347
266
  0
LAYER
  5
4D
330
2
100
AcDbSymbolTableRecord
100
AcDbLayerTableRecord
  2
MODEL
 70
     0
 62
     7
  6
Continuous
370
    20
390
1D
347
266
  0
LAYER
  5
88C
330
2
100
AcDbSymbolTableRecord
100
AcDbLayerTableRecord
  2
HIDDEN
 70
     0
 62
     8
  6
HIDDEN
370
    20
390
1D
347
266
1001
AcAecLayerStandard
1000

1000

  0
LAYER
  5
D6B
330
2
100
AcDbSymbolTableRecord
100
AcDbLayerTableRecord
  2
BORDER
 70
     0
 62
     4
  6
BORDER
290
     0
370
    20
390
1D
347
266
1001
AcAecLayerStandard
1000

1000

  0
LAYER
  5
D8C
330
2
100
AcDbSymbolTableRecord
100
AcDbLayerTableRecord
  2
Defpoints
 70
     0
 62
     7
  6
Continuous
290
     0
370
    -3
390
1D
347
266
  0
LAYER
  5
2F9C
330
2
100
AcDbSymbolTableRecord
100
AcDbLayerTableRecord
  2
レイヤー 1
 70
     0
 62
     7
  6
Continuous
370
    -3
390
1D
347
266
  0
ENDTAB
  0
TABLE
  2
STYLE
  5
3
330
0
100
AcDbSymbolTable
 70
     5
  0
STYLE
  5
17
330
3
100
AcDbSymbolTableRecord
100
AcDbTextStyleTableRecord
  2
Standard
 70
     0
 40
0.0
 41
1.0
 50
0.0
 71
     0
 42
2.5
  3
txt
  4
BIGFONT.SHX
  0
STYLE
  5
39
330
3
100
AcDbSymbolTableRecord
100
AcDbTextStyleTableRecord
  2
ＭＳ ゴシック
 70
     0
 40
0.0
 41
1.0
 50
0.0
 71
     0
 42
2.5
  3
msgothic.ttc
  4
ＭＳ ゴシック
1001
ACAD
1000
ＭＳ ゴシック
1071
        0
  0
STYLE
  5
49F1
330
3
100
AcDbSymbolTableRecord
100
AcDbTextStyleTableRecord
  2
DIMFONT3
 70
     0
 40
0.0
 41
0.7151515151515151
 50
0.0
 71
     0
 42
2.5
  3
HGRSMP.TTF
  4

1001
ACAD
1000
HGMaruGothicMPRO
1071
    32818
  0
STYLE
  5
49F8
330
3
100
AcDbSymbolTableRecord
100
AcDbTextStyleTableRecord
  2
EXTFONT
 70
     0
 40
0.0
 41
0.75
 50
0.0
 71
     0
 42
2.5
  3
romans.shx
  4
extfont.shx
  0
STYLE
  5
4C2E
330
3
100
AcDbSymbolTableRecord
100
AcDbTextStyleTableRecord
  2
SLDTEXTSTYLE0
 70
     0
 40
0.0
 41
0.75
 50
0.0
 71
     0
 42
2.5
  3
TXT
  4

  0
ENDTAB
  0
TABLE
  2
VIEW
  5
5
330
0
100
AcDbSymbolTable
 70
     0
  0
ENDTAB
  0
TABLE
  2
UCS
  5
6
330
0
100
AcDbSymbolTable
 70
     0
  0
ENDTAB
  0
TABLE
  2
APPID
  5
8
330
0
100
AcDbSymbolTable
 70
     8
  0
APPID
  5
16
330
8
100
AcDbSymbolTableRecord
100
AcDbRegAppTableRecord
  2
ACAD
 70
     0
  0
APPID
  5
7AC
330
8
100
AcDbSymbolTableRecord
100
AcDbRegAppTableRecord
  2
AcAecLayerStandard
 70
     0
  0
APPID
  5
E29
330
8
100
AcDbSymbolTableRecord
100
AcDbRegAppTableRecord
  2
ACAD_MLEADERVER
 70
     0
  0
APPID
  5
2EE0
330
8
100
AcDbSymbolTableRecord
100
AcDbRegAppTableRecord
  2
PLOTTRANSPARENCY
 70
     0
  0
APPID
  5
49EB
330
8
100
AcDbSymbolTableRecord
100
AcDbRegAppTableRecord
  2
AcadAnnotative
 70
     0
  0
APPID
  5
49ED
330
8
100
AcDbSymbolTableRecord
100
AcDbRegAppTableRecord
  2
ACAD_DSTYLE_DIMBREAK
 70
     0
  0
APPID
  5
49EE
330
8
100
AcDbSymbolTableRecord
100
AcDbRegAppTableRecord
  2
ACAD_DSTYLE_DIMJAG
 70
     0
  0
APPID
  5
49EF
330
8
100
AcDbSymbolTableRecord
100
AcDbRegAppTableRecord
  2
ACAD_DSTYLE_DIMTALN
 70
     0
  0
ENDTAB
  0
TABLE
  2
DIMSTYLE
  5
9
330
0
100
AcDbSymbolTable
 70
    11
100
AcDbDimStyleTable
  0
DIMSTYLE
105
18
330
9
100
AcDbSymbolTableRecord
100
AcDbDimStyleTableRecord
  2
Standard
 70
     0
178
     0
340
17
  0
DIMSTYLE
105
57
102
{ACAD_REACTORS
330
4A13
330
4A22
330
4A31
330
4B21
330
4B24
330
4BC9
102
}
330
9
100
AcDbSymbolTableRecord
100
AcDbDimStyleTableRecord
  2
tfrom線あり
 70
     0
  3
<>
  4
[]
 41
1.0
 42
2.0
 43
0.9999999999999999
 44
0.0
 73
     0
 74
     0
 77
     1
 78
    11
140
3.0
141
0.0
143
1.0
147
1.0
171
     1
174
     1
178
     0
179
     2
271
     0
272
     1
276
     2
284
    11
285
    11
286
    11
289
     0
340
39
341
4E
342
4E
  0
DIMSTYLE
105
215D
330
9
100
AcDbSymbolTableRecord
100
AcDbDimStyleTableRecord
  2
ISO-25
 70
     0
 41
2.5
 42
0.625
 43
3.75
 44
1.25
 73
     0
 74
     0
 77
     1
 78
     8
140
2.5
141
2.5
143
0.03937007874016
147
0.625
171
     3
172
     1
178
     0
271
     2
272
     2
274
     3
278
    44
283
     0
284
     8
340
17
  0
DIMSTYLE
105
49E9
330
9
100
AcDbSymbolTableRecord
100
AcDbDimStyleTableRecord
  2
Annotative
 70
     0
178
     0
340
17
1001
AcadAnnotative
1000
AnnotativeData
1002
{
1070
     1
1070
     1
1002
}
  0
DIMSTYLE
105
49EC
330
9
100
AcDbSymbolTableRecord
100
AcDbDimStyleTableRecord
  2
Basin Dimension
 70
     0
  3
\X
  4
"
 41
9.0
 42
9.0
 44
9.0
 73
     0
 74
     0
140
18.0
143
0.03937007874
178
     0
271
     0
272
     0
340
17
1001
ACAD_DSTYLE_DIMBREAK
1070
   391
1040
0.125
1001
ACAD_DSTYLE_DIMJAG
1070
   388
1040
1.5
1001
ACAD_DSTYLE_DIMTALN
1070
   392
1070
     0
  0
DIMSTYLE
105
49F0
330
9
100
AcDbSymbolTableRecord
100
AcDbDimStyleTableRecord
  2
DIM004
 70
     0
 40
10.0
 41
0.5
 42
0.0
 44
1.0
 45
1.0
 73
     0
 74
     0
 77
     3
140
2.11864406779661
147
0.3
172
     1
176
     7
177
     1
271
     0
178
     1
271
     0
273
     6
277
     6
340
49F1
342
49F2
  0
DIMSTYLE
105
49F7
330
9
100
AcDbSymbolTableRecord
100
AcDbDimStyleTableRecord
  2
1
 70
     0
 40
2.0
 41
0.8
 42
3.5
 43
3.0
 44
0.0
 46
1.5
 69
     1
 70
     0
 73
     0
 74
     0
 77
     1
 78
     9
140
3.5
141
0.0
144
10.0
145
1.0
147
1.0
172
     1
176
   256
177
   256
271
     1
178
     4
271
     1
272
     1
279
     2
284
     9
285
    13
286
    13
340
49F8
341
49F9
342
49F2
1001
ACAD_DSTYLE_DIMJAG
1070
   388
1040
1.5
1001
ACAD_DSTYLE_DIMTALN
1070
   392
1070
     0
  0
DIMSTYLE
105
4A6C
330
9
100
AcDbSymbolTableRecord
100
AcDbDimStyleTableRecord
  2
6
 70
     0
 40
2.0
 41
1.5
 42
1.0
 43
4.0
 44
0.0
 46
1.5
 49
0.0
 69
     1
 70
     0
 73
     0
 74
     0
 77
     1
 78
     9
140
4.0
141
0.0
145
1.0
147
1.5
172
     1
176
   256
177
   256
271
     1
178
     4
271
     1
272
     1
279
     2
284
     9
285
    13
286
    13
340
49F8
341
49F9
342
49F2
1001
ACAD_DSTYLE_DIMJAG
1070
   388
1040
1.5
1001
ACAD_DSTYLE_DIMTALN
1070
   392
1070
     0
  0
DIMSTYLE
105
4A70
330
9
100
AcDbSymbolTableRecord
100
AcDbDimStyleTableRecord
  2
tform線あり
 70
     0
  3
<>
  4
[]
 41
9.999389648437498
 42
25.0
 43
0.9999999999999999
 44
0.0
 73
     0
 74
     0
 77
     1
 78
    11
140
24.4326171875
141
0.0
143
1.0
146
0.8
147
10.0
171
     1
172
     1
174
     1
178
     0
179
     2
271
     1
272
     1
276
     2
284
    11
285
    11
286
    11
289
     0
340
39
341
4E
342
4E
  0
DIMSTYLE
105
4C2D
330
9
100
AcDbSymbolTableRecord
100
AcDbDimStyleTableRecord
  2
SLDDIMSTYLE1
 70
     0
 41
2.5
 44
0.0
 45
0.000000001
 73
     0
 74
     0
 77
     1
 78
    12
 79
     3
140
2.5
144
3.0
147
0.625
172
     1
173
     1
178
     0
271
     3
272
     3
276
     2
284
    12
289
     0
340
4C2E
  0
DIMSTYLE
105
4C2F
330
9
100
AcDbSymbolTableRecord
100
AcDbDimStyleTableRecord
  2
SLDDIMSTYLE2
 70
     0
 41
2.5
 44
0.0
 45
0.000000001
 73
     0
 74
     0
 77
     1
 78
    12
 79
     3
140
2.5
144
2.0
147
0.625
173
     1
178
     0
271
     0
272
     0
276
     2
284
    12
340
4C2E
  0
ENDTAB
  0
TABLE
  2
BLOCK_RECORD
  5
1
330
0
100
AcDbSymbolTable
 70
    53
  0
BLOCK_RECORD
  5
A
102
{ACAD_XDICTIONARY
360
2109
102
}
330
1
100
AcDbSymbolTableRecord
100
AcDbBlockTableRecord
  2
*MODEL_SPACE
340
20
 70
     0
280
     1
281
     0
  0
BLOCK_RECORD
  5
B
330
1
100
AcDbSymbolTableRecord
100
AcDbBlockTableRecord
  2
*PAPER_SPACE
340
21
 70
     0
280
     1
281
     0
  0
BLOCK_RECORD
  5
4E
330
1
100
AcDbSymbolTableRecord
100
AcDbBlockTableRecord
  2
_DOT
340
0
102
{BLKREFS
331
13EE
331
13EF
331
13F9
331
13FA
331
1405
331
1406
331
1411
331
1412
331
141E
331
141F
331
142A
331
142B
331
1436
331
1437
331
1442
331
1443
331
144E
331
144F
331
145A
331
145B
331
1466
331
1467
331
1472
331
1473
331
147E
331
147F
331
148A
331
148B
331
1496
331
1497
331
14A2
331
14A3
331
20F2
331
20F3
331
2101
331
2102
331
2EF6
331
2EF7
331
48D6
331
48D7
331
48E5
331
48E6
331
48F5
331
48F6
331
4904
331
4905
331
491D
331
491E
331
492F
331
4930
331
4942
331
4943
331
4953
331
4954
331
4A1C
331
4A1D
331
4A2B
331
4A2C
331
4A3A
331
4A3B
331
4AC4
331
4AC5
331
4AD3
331
4AD4
331
4B2D
331
4B2E
331
4B3D
331
4B3E
331
4BD2
331
4BD3
102
}
 70
     0
280
     1
281
     0
  0
BLOCK_RECORD
  5
68D
330
1
100
AcDbSymbolTableRecord
100
AcDbBlockTableRecord
  2
block 2
340
0
102
{BLKREFS
331
68C
331
1343
102
}
 70
     0
280
     1
281
     0
  0
BLOCK_RECORD
  5
13E8
330
1
100
AcDbSymbolTableRecord
100
AcDbBlockTableRecord
  2
*D2
340
0
 70
     0
280
     1
281
     0
  0
BLOCK_RECORD
  5
13F3
330
1
100
AcDbSymbolTableRecord
100
AcDbBlockTableRecord
  2
*D3
340
0
 70
     0
280
     1
281
     0
  0
BLOCK_RECORD
  5
13FF
330
1
100
AcDbSymbolTableRecord
100
AcDbBlockTableRecord
  2
*D4
340
0
 70
     0
280
     1
281
     0
  0
BLOCK_RECORD
  5
140B
330
1
100
AcDbSymbolTableRecord
100
AcDbBlockTableRecord
  2
*D5
340
0
 70
     0
280
     1
281
     0
  0
BLOCK_RECORD
  5
1418
330
1
100
AcDbSymbolTableRecord
100
AcDbBlockTableRecord
  2
*D6
340
0
 70
     0
280
     1
281
     0
  0
BLOCK_RECORD
  5
1424
330
1
100
AcDbSymbolTableRecord
100
AcDbBlockTableRecord
  2
*D7
340
0
 70
     0
280
     1
281
     0
  0
BLOCK_RECORD
  5
1430
330
1
100
AcDbSymbolTableRecord
100
AcDbBlockTableRecord
  2
*D8
340
0
 70
     0
280
     1
281
     0
  0
BLOCK_RECORD
  5
143C
330
1
100
AcDbSymbolTableRecord
100
AcDbBlockTableRecord
  2
*D9
340
0
 70
     0
280
     1
281
     0
  0
BLOCK_RECORD
  5
1448
330
1
100
AcDbSymbolTableRecord
100
AcDbBlockTableRecord
  2
*D10
340
0
 70
     0
280
     1
281
     0
  0
BLOCK_RECORD
  5
1454
330
1
100
AcDbSymbolTableRecord
100
AcDbBlockTableRecord
  2
*D11
340
0
 70
     0
280
     1
281
     0
  0
BLOCK_RECORD
  5
1460
330
1
100
AcDbSymbolTableRecord
100
AcDbBlockTableRecord
  2
*D12
340
0
 70
     0
280
     1
281
     0
  0
BLOCK_RECORD
  5
146C
330
1
100
AcDbSymbolTableRecord
100
AcDbBlockTableRecord
  2
*D13
340
0
 70
     0
280
     1
281
     0
  0
BLOCK_RECORD
  5
1478
330
1
100
AcDbSymbolTableRecord
100
AcDbBlockTableRecord
  2
*D14
340
0
 70
     0
280
     1
281
     0
  0
BLOCK_RECORD
  5
1484
330
1
100
AcDbSymbolTableRecord
100
AcDbBlockTableRecord
  2
*D15
340
0
 70
     0
280
     1
281
     0
  0
BLOCK_RECORD
  5
1490
330
1
100
AcDbSymbolTableRecord
100
AcDbBlockTableRecord
  2
*D16
340
0
 70
     0
280
     1
281
     0
  0
BLOCK_RECORD
  5
149C
330
1
100
AcDbSymbolTableRecord
100
AcDbBlockTableRecord
  2
*D17
340
0
 70
     0
280
     1
281
     0
  0
BLOCK_RECORD
  5
20EC
330
1
100
AcDbSymbolTableRecord
100
AcDbBlockTableRecord
  2
*D18
340
0
 70
     0
280
     1
281
     0
  0
BLOCK_RECORD
  5
20FB
330
1
100
AcDbSymbolTableRecord
100
AcDbBlockTableRecord
  2
*D19
340
0
 70
     0
280
     1
281
     0
  0
BLOCK_RECORD
  5
27AC
330
1
100
AcDbSymbolTableRecord
100
AcDbBlockTableRecord
  2
*D20
340
0
 70
     0
280
     1
281
     0
  0
BLOCK_RECORD
  5
27BC
330
1
100
AcDbSymbolTableRecord
100
AcDbBlockTableRecord
  2
*D21
340
0
 70
     0
280
     1
281
     0
  0
BLOCK_RECORD
  5
27CD
330
1
100
AcDbSymbolTableRecord
100
AcDbBlockTableRecord
  2
*D22
340
0
 70
     0
280
     1
281
     0
  0
BLOCK_RECORD
  5
27DB
330
1
100
AcDbSymbolTableRecord
100
AcDbBlockTableRecord
  2
*D23
340
0
 70
     0
280
     1
281
     0
  0
BLOCK_RECORD
  5
27EB
330
1
100
AcDbSymbolTableRecord
100
AcDbBlockTableRecord
  2
*D24
340
0
 70
     0
280
     1
281
     0
  0
BLOCK_RECORD
  5
27FC
330
1
100
AcDbSymbolTableRecord
100
AcDbBlockTableRecord
  2
*D25
340
0
 70
     0
280
     1
281
     0
  0
BLOCK_RECORD
  5
280A
330
1
100
AcDbSymbolTableRecord
100
AcDbBlockTableRecord
  2
*D26
340
0
 70
     0
280
     1
281
     0
  0
BLOCK_RECORD
  5
2E6D
330
1
100
AcDbSymbolTableRecord
100
AcDbBlockTableRecord
  2
*D27
340
0
 70
     0
280
     1
281
     0
  0
BLOCK_RECORD
  5
2E7A
330
1
100
AcDbSymbolTableRecord
100
AcDbBlockTableRecord
  2
*D28
340
0
 70
     0
280
     1
281
     0
  0
BLOCK_RECORD
  5
2E88
330
1
100
AcDbSymbolTableRecord
100
AcDbBlockTableRecord
  2
*D29
340
0
 70
     0
280
     1
281
     0
  0
BLOCK_RECORD
  5
2E95
330
1
100
AcDbSymbolTableRecord
100
AcDbBlockTableRecord
  2
*D30
340
0
 70
     0
280
     1
281
     0
  0
BLOCK_RECORD
  5
2EA2
330
1
100
AcDbSymbolTableRecord
100
AcDbBlockTableRecord
  2
*D31
340
0
 70
     0
280
     1
281
     0
  0
BLOCK_RECORD
  5
2EB2
330
1
100
AcDbSymbolTableRecord
100
AcDbBlockTableRecord
  2
*D32
340
0
 70
     0
280
     1
281
     0
  0
BLOCK_RECORD
  5
2EBF
330
1
100
AcDbSymbolTableRecord
100
AcDbBlockTableRecord
  2
*D33
340
0
 70
     0
280
     1
281
     0
  0
BLOCK_RECORD
  5
2EF0
330
1
100
AcDbSymbolTableRecord
100
AcDbBlockTableRecord
  2
*D34
340
0
 70
     0
280
     1
281
     0
  0
BLOCK_RECORD
  5
48D0
330
1
100
AcDbSymbolTableRecord
100
AcDbBlockTableRecord
  2
*D35
340
0
 70
     0
280
     1
281
     0
  0
BLOCK_RECORD
  5
48DF
330
1
100
AcDbSymbolTableRecord
100
AcDbBlockTableRecord
  2
*D36
340
0
 70
     0
280
     1
281
     0
  0
BLOCK_RECORD
  5
48EF
330
1
100
AcDbSymbolTableRecord
100
AcDbBlockTableRecord
  2
*D37
340
0
 70
     0
280
     1
281
     0
  0
BLOCK_RECORD
  5
48FE
330
1
100
AcDbSymbolTableRecord
100
AcDbBlockTableRecord
  2
*D38
340
0
 70
     0
280
     1
281
     0
  0
BLOCK_RECORD
  5
4917
330
1
100
AcDbSymbolTableRecord
100
AcDbBlockTableRecord
  2
*D39
340
0
 70
     0
280
     1
281
     0
  0
BLOCK_RECORD
  5
4929
330
1
100
AcDbSymbolTableRecord
100
AcDbBlockTableRecord
  2
*D40
340
0
 70
     0
280
     1
281
     0
  0
BLOCK_RECORD
  5
493C
330
1
100
AcDbSymbolTableRecord
100
AcDbBlockTableRecord
  2
*D41
340
0
 70
     0
280
     1
281
     0
  0
BLOCK_RECORD
  5
494D
330
1
100
AcDbSymbolTableRecord
100
AcDbBlockTableRecord
  2
*D42
340
0
 70
     0
280
     1
281
     0
  0
BLOCK_RECORD
  5
49F2
330
1
100
AcDbSymbolTableRecord
100
AcDbBlockTableRecord
  2
_Origin
340
0
 70
     0
280
     1
281
     0
  0
BLOCK_RECORD
  5
49F9
102
{ACAD_XDICTIONARY
360
49FA
102
}
330
1
100
AcDbSymbolTableRecord
100
AcDbBlockTableRecord
  2
_Open30
340
0
310
2800000020000000200000000100080000000000000400000000000000000000000000000000000000000000000080000080000000808000800000008000800080800000C0C0C000C0DCC000F0CAA6000020400000206000002080000020A0000020C0000020E00000400000004020000040400000406000004080000040A0
310
000040C0000040E00000600000006020000060400000606000006080000060A0000060C0000060E00000800000008020000080400000806000008080000080A0000080C0000080E00000A0000000A0200000A0400000A0600000A0800000A0A00000A0C00000A0E00000C0000000C0200000C0400000C0600000C0800000C0
310
A00000C0C00000C0E00000E0000000E0200000E0400000E0600000E0800000E0A00000E0C00000E0E00040000000400020004000400040006000400080004000A0004000C0004000E00040200000402020004020400040206000402080004020A0004020C0004020E000404000004040200040404000404060004040800040
310
40A0004040C0004040E00040600000406020004060400040606000406080004060A0004060C0004060E00040800000408020004080400040806000408080004080A0004080C0004080E00040A0000040A0200040A0400040A0600040A0800040A0A00040A0C00040A0E00040C0000040C0200040C0400040C0600040C08000
310
40C0A00040C0C00040C0E00040E0000040E0200040E0400040E0600040E0800040E0A00040E0C00040E0E00080000000800020008000400080006000800080008000A0008000C0008000E00080200000802020008020400080206000802080008020A0008020C0008020E00080400000804020008040400080406000804080
310
008040A0008040C0008040E00080600000806020008060400080606000806080008060A0008060C0008060E00080800000808020008080400080806000808080008080A0008080C0008080E00080A0000080A0200080A0400080A0600080A0800080A0A00080A0C00080A0E00080C0000080C0200080C0400080C0600080C0
310
800080C0A00080C0C00080C0E00080E0000080E0200080E0400080E0600080E0800080E0A00080E0C00080E0E000C0000000C0002000C0004000C0006000C0008000C000A000C000C000C000E000C0200000C0202000C0204000C0206000C0208000C020A000C020C000C020E000C0400000C0402000C0404000C0406000C0
310
408000C040A000C040C000C040E000C0600000C0602000C0604000C0606000C0608000C060A000C060C000C060E000C0800000C0802000C0804000C0806000C0808000C080A000C080C000C080E000C0A00000C0A02000C0A04000C0A06000C0A08000C0A0A000C0A0C000C0A0E000C0C00000C0C02000C0C04000C0C06000
310
C0C08000C0C0A000F0FBFF00A4A0A000808080000000FF0000FF000000FFFF00FF000000FF00FF00FFFF0000FFFFFF0000000000000000000000000000000000000000000000000000000000000000000000000000000000000000000000000000000000000000000000000000000000000000000000000000000000000000
310
00000000000000000000000000000000000000000000000000000000000000000000000000000000000000000000000000000000000000000000000000000000000000000000000000000000000000000000000000000000000000000000000000000000000000000000000000000000000000000000000000000000000000
310
000000000000000000000000000000000000000000000000000000000000000000000000000000000000000000000000000000FFFF0000000000000000000000000000000000000000000000000000000000000000FFFFFFFF0000000000000000000000000000000000000000000000000000000000000000FFFFFFFF0000
310
000000000000000000000000000000000000000000000000000000000000FFFFFF0000000000000000000000000000000000000000000000000000000000000000FFFFFFFF0000000000000000000000000000000000000000000000000000000000000000FFFFFF0000000000000000000000000000000000000000000000
310
000000000000000000FFFFFFFF0000000000000000000000000000000000000000000000000000000000000000FFFFFFFF00000000FFFFFFFFFFFFFFFFFFFFFFFFFFFFFFFFFFFFFFFFFFFFFFFFFFFFFFFFFFFF00000000000000000000000000000000000000000000000000FFFFFFFF000000000000000000000000000000
310
000000000000000000FFFFFFFF000000000000000000000000000000000000000000000000FFFFFFFF000000000000000000000000000000000000000000000000FFFFFFFF000000000000000000000000000000000000000000000000FFFFFFFF000000000000000000000000000000000000000000000000FFFFFFFF0000
310
0000000000000000000000000000000000000000000000FFFFFF0000000000000000000000000000000000000000000000000000000000000000000000000000000000000000000000000000000000000000000000000000000000000000000000000000000000000000000000000000000000000000000000000000000000
310
00000000000000000000000000000000000000000000000000000000000000000000000000000000000000000000000000000000000000000000000000000000000000000000000000000000000000000000000000000000000000000000000000000000000000000000000000000000000000000000000000000000000000
310
0000000000000000000000000000000000000000000000000000000000000000000000000000000000000000000000000000000000000000
 70
     0
280
     1
281
     0
  0
BLOCK_RECORD
  5
4A16
330
1
100
AcDbSymbolTableRecord
100
AcDbBlockTableRecord
  2
*D45
340
0
 70
     0
280
     1
281
     0
  0
BLOCK_RECORD
  5
4A25
330
1
100
AcDbSymbolTableRecord
100
AcDbBlockTableRecord
  2
*D46
340
0
 70
     0
280
     1
281
     0
  0
BLOCK_RECORD
  5
4A34
330
1
100
AcDbSymbolTableRecord
100
AcDbBlockTableRecord
  2
*D47
340
0
 70
     0
280
     1
281
     0
  0
BLOCK_RECORD
  5
4ABD
330
1
100
AcDbSymbolTableRecord
100
AcDbBlockTableRecord
  2
*D48
340
0
 70
     0
280
     1
281
     0
  0
BLOCK_RECORD
  5
4ACC
330
1
100
AcDbSymbolTableRecord
100
AcDbBlockTableRecord
  2
*D49
340
0
 70
     0
280
     1
281
     0
  0
BLOCK_RECORD
  5
4B27
330
1
100
AcDbSymbolTableRecord
100
AcDbBlockTableRecord
  2
*D50
340
0
 70
     0
280
     1
281
     0
  0
BLOCK_RECORD
  5
4B35
330
1
100
AcDbSymbolTableRecord
100
AcDbBlockTableRecord
  2
*D51
340
0
 70
     0
280
     1
281
     0
  0
BLOCK_RECORD
  5
4BCC
330
1
100
AcDbSymbolTableRecord
100
AcDbBlockTableRecord
  2
*D52
340
0
 70
     0
280
     1
281
     0
  0
ENDTAB
  0
ENDSEC
  0
SECTION
  2
BLOCKS
  0
BLOCK
  5
D
330
A
100
AcDbEntity
  8
0
390
1D
100
AcDbBlockBegin
  2
*MODEL_SPACE
 70
     0
 10
0.0
 20
0.0
 30
0.0
  3
*MODEL_SPACE
  1
*MODEL_SPACE
  0
ENDBLK
  5
E
330
A
100
AcDbEntity
  8
0
390
1D
100
AcDbBlockEnd
  0
BLOCK
  5
F
330
B
100
AcDbEntity
 67
     1
  8
0
390
1D
100
AcDbBlockBegin
  2
*PAPER_SPACE
 70
     0
 10
0.0
 20
0.0
 30
0.0
  3
*PAPER_SPACE
  1
*PAPER_SPACE
  0
ENDBLK
  5
10
330
B
100
AcDbEntity
 67
     1
  8
0
390
1D
100
AcDbBlockEnd
  0
BLOCK
  5
1DF2
330
4E
100
AcDbEntity
  8
0
390
1D
100
AcDbBlockBegin
  2
_DOT
 70
     0
 10
0.0
 20
0.0
 30
0.0
  3
_DOT
  1
_DOT
  0
POLYLINE
  5
1DF4
330
4E
100
AcDbEntity
  8
0
  6
ByBlock
 62
     0
370
    -2
390
1D
100
AcDb2dPolyline
 66
     1
 10
0.0
 20
0.0
 30
0.0
 70
     1
 40
0.5
 41
0.5
  0
VERTEX
  5
1DF5
330
1DF4
100
AcDbEntity
  8
0
  6
ByBlock
 62
     0
370
    -2
390
1D
100
AcDbVertex
100
AcDb2dVertex
 10
-0.25
 20
0.0
 30
0.0
 42
1.0
  0
VERTEX
  5
1DF6
330
1DF4
100
AcDbEntity
  8
0
  6
ByBlock
 62
     0
370
    -2
390
1D
100
AcDbVertex
100
AcDb2dVertex
 10
0.25
 20
0.0
 30
0.0
 42
1.0
  0
SEQEND
  5
1DF7
330
1DF4
100
AcDbEntity
  8
0
390
1D
  0
LINE
  5
1DF8
330
4E
100
AcDbEntity
  8
0
  6
ByBlock
 62
     0
370
    -2
390
1D
100
AcDbLine
 10
-0.5
 20
0.0
 30
0.0
 11
-1.0
 21
0.0
 31
0.0
  0
ENDBLK
  5
1DF9
330
4E
100
AcDbEntity
  8
0
390
1D
100
AcDbBlockEnd
  0
BLOCK
  5
68E
330
68D
100
AcDbEntity
  8
0
100
AcDbBlockBegin
  2
block 2
 70
     0
 10
0.0
 20
0.0
 30
0.0
  3
block 2
  1
block 2
  0
ENDBLK
  5
6B0
330
68D
100
AcDbEntity
  8
0
100
AcDbBlockEnd
  0
BLOCK
  5
13E9
330
13E8
100
AcDbEntity
  8
0
100
AcDbBlockBegin
  2
*D2
 70
     1
 10
0.0
 20
0.0
 30
0.0
  3
*D2
  1
*D26
  0
LINE
  5
13EB
330
13E8
100
AcDbEntity
  8
DIM
  6
Continuous
 62
     0
370
    -2
100
AcDbLine
 10
160.8504527155619
 20
94.68499299115805
 30
0.0
 11
160.8504527155619
 21
116.3903860182371
 31
0.0
  0
LINE
  5
13EC
330
13E8
100
AcDbEntity
  8
DIM
  6
Continuous
 62
     0
370
    -2
100
AcDbLine
 10
160.8504527155619
 20
93.68499299115805
 30
0.0
 11
160.8504527155619
 21
80.56462231345041
 31
0.0
  0
LINE
  5
13ED
330
13E8
100
AcDbEntity
  8
DIM
  6
Continuous
 62
     0
370
    -2
100
AcDbLine
 10
160.8504527155619
 20
93.68499299115805
 30
0.0
 11
160.8504527155619
 21
92.68499299115805
 31
0.0
  0
INSERT
  5
13EE
330
13E8
100
AcDbEntity
  8
DIM
 62
     0
370
    -2
100
AcDbBlockReference
  2
_DOT
 10
160.8504527155619
 20
94.68499299115805
 30
0.0
 50
90.0
  0
INSERT
  5
13EF
330
13E8
100
AcDbEntity
  8
DIM
 62
     0
370
    -2
100
AcDbBlockReference
  2
_DOT
 10
160.8504527155619
 20
79.56462231345041
 30
0.0
 50
270.0
  0
MTEXT
  5
13F0
330
13E8
100
AcDbEntity
  8
DIM
 62
     0
100
AcDbMText
 10
158.0849527155619
 20
108.169386018237
 30
0.0
 40
3.0
 41
0.0
 46
0.0
 71
     5
 72
     1
  1
\A1;75(深さ)
  7
ＭＳ ゴシック
 11
0.0
 21
1.0
 31
0.0
 73
     1
 44
1.0
  0
POINT
  5
13F1
330
13E8
100
AcDbEntity
  8
Defpoints
 62
     0
100
AcDbPoint
 10
165.4727047119166
 20
94.68499299115805
 30
0.0
  0
POINT
  5
13F2
330
13E8
100
AcDbEntity
  8
Defpoints
 62
     0
100
AcDbPoint
 10
160.8504527155619
 20
79.56462231345041
 30
0.0
  0
POINT
  5
20DD
330
13E8
100
AcDbEntity
  8
Defpoints
 62
     0
100
AcDbPoint
 10
160.8504527155619
 20
79.56462231345041
 30
0.0
  0
ENDBLK
  5
13EA
330
13E8
100
AcDbEntity
  8
0
100
AcDbBlockEnd
  0
BLOCK
  5
13F4
330
13F3
100
AcDbEntity
  8
0
100
AcDbBlockBegin
  2
*D3
 70
     1
 10
0.0
 20
0.0
 30
0.0
  3
*D3
  1
*D27
  0
LINE
  5
13F6
330
13F3
100
AcDbEntity
  8
DIM
  6
Continuous
 62
     0
370
    -2
100
AcDbLine
 10
164.5873884140496
 20
201.8694324265103
 30
0.0
 11
189.4367442684029
 21
201.8694324265103
 31
0.0
  0
LINE
  5
13F7
330
13F3
100
AcDbEntity
  8
DIM
  6
Continuous
 62
     0
370
    -2
100
AcDbLine
 10
164.5873884140496
 20
234.8694324265103
 30
0.0
 11
189.4367442684029
 21
234.8694324265103
 31
0.0
  0
LINE
  5
13F8
330
13F3
100
AcDbEntity
  8
DIM
  6
Continuous
 62
     0
370
    -2
100
AcDbLine
 10
189.4367442684029
 20
202.8694324265103
 30
0.0
 11
189.4367442684029
 21
233.8694324265103
 31
0.0
  0
INSERT
  5
13F9
330
13F3
100
AcDbEntity
  8
DIM
 62
     0
370
    -2
100
AcDbBlockReference
  2
_DOT
 10
189.4367442684029
 20
201.8694324265103
 30
0.0
 50
270.0
  0
INSERT
  5
13FA
330
13F3
100
AcDbEntity
  8
DIM
 62
     0
370
    -2
100
AcDbBlockReference
  2
_DOT
 10
189.4367442684029
 20
234.8694324265103
 30
0.0
 50
90.0
  0
MTEXT
  5
13FB
330
13F3
100
AcDbEntity
  8
DIM
 62
     0
100
AcDbMText
 10
186.9367442684029
 20
218.3694324265103
 30
0.0
 40
3.0
 41
0.0
 46
0.0
 71
     5
 72
     1
  1
\A1;33
  7
ＭＳ ゴシック
 11
0.0
 21
1.0
 31
0.0
 73
     1
 44
1.0
  0
POINT
  5
13FC
330
13F3
100
AcDbEntity
  8
Defpoints
 62
     0
100
AcDbPoint
 10
162.5873884140496
 20
201.8694324265103
 30
0.0
  0
POINT
  5
13FD
330
13F3
100
AcDbEntity
  8
Defpoints
 62
     0
100
AcDbPoint
 10
162.5873884140496
 20
234.8694324265103
 30
0.0
  0
POINT
  5
13FE
330
13F3
100
AcDbEntity
  8
Defpoints
 62
     0
100
AcDbPoint
 10
189.4367442684029
 20
234.8694324265103
 30
0.0
  0
ENDBLK
  5
13F5
330
13F3
100
AcDbEntity
  8
0
100
AcDbBlockEnd
  0
BLOCK
  5
1400
330
13FF
100
AcDbEntity
  8
0
100
AcDbBlockBegin
  2
*D4
 70
     1
 10
0.0
 20
0.0
 30
0.0
  3
*D4
  1
*D28
  0
LINE
  5
1402
330
13FF
100
AcDbEntity
  8
DIM
  6
Continuous
 62
     0
370
    -2
100
AcDbLine
 10
142.5873884140496
 20
199.8694324265103
 30
0.0
 11
142.5873884140496
 21
173.9698845440222
 31
0.0
  0
LINE
  5
1403
330
13FF
100
AcDbEntity
  8
DIM
  6
Continuous
 62
     0
370
    -2
100
AcDbLine
 10
162.5873884140496
 20
199.8694324265103
 30
0.0
 11
162.5873884140496
 21
173.9698845440222
 31
0.0
  0
LINE
  5
1404
330
13FF
100
AcDbEntity
  8
DIM
  6
Continuous
 62
     0
370
    -2
100
AcDbLine
 10
143.5873884140496
 20
173.9698845440222
 30
0.0
 11
161.5873884140496
 21
173.9698845440222
 31
0.0
  0
INSERT
  5
1405
330
13FF
100
AcDbEntity
  8
DIM
 62
     0
370
    -2
100
AcDbBlockReference
  2
_DOT
 10
142.5873884140496
 20
173.9698845440222
 30
0.0
 50
180.0
  0
INSERT
  5
1406
330
13FF
100
AcDbEntity
  8
DIM
 62
     0
370
    -2
100
AcDbBlockReference
  2
_DOT
 10
162.5873884140496
 20
173.9698845440222
 30
0.0
  0
MTEXT
  5
1407
330
13FF
100
AcDbEntity
  8
DIM
 62
     0
100
AcDbMText
 10
152.5873884140496
 20
176.4698845440222
 30
0.0
 40
3.0
 41
0.0
 46
0.0
 71
     5
 72
     1
  1
\A1;20
  7
ＭＳ ゴシック
 73
     1
 44
1.0
  0
POINT
  5
1408
330
13FF
100
AcDbEntity
  8
Defpoints
 62
     0
100
AcDbPoint
 10
142.5873884140496
 20
201.8694324265103
 30
0.0
  0
POINT
  5
1409
330
13FF
100
AcDbEntity
  8
Defpoints
 62
     0
100
AcDbPoint
 10
162.5873884140496
 20
201.8694324265103
 30
0.0
  0
POINT
  5
140A
330
13FF
100
AcDbEntity
  8
Defpoints
 62
     0
100
AcDbPoint
 10
162.5873884140496
 20
173.9698845440222
 30
0.0
  0
ENDBLK
  5
1401
330
13FF
100
AcDbEntity
  8
0
100
AcDbBlockEnd
  0
BLOCK
  5
140C
330
140B
100
AcDbEntity
  8
0
100
AcDbBlockBegin
  2
*D5
 70
     1
 10
0.0
 20
0.0
 30
0.0
  3
*D5
  1
*D29
  0
LINE
  5
140E
330
140B
100
AcDbEntity
  8
DIM
  6
Continuous
 62
     0
370
    -2
100
AcDbLine
 10
164.5873884140496
 20
234.8694324265103
 30
0.0
 11
189.4367442684029
 21
234.8694324265103
 31
0.0
  0
LINE
  5
140F
330
140B
100
AcDbEntity
  8
DIM
  6
Continuous
 62
     0
370
    -2
100
AcDbLine
 10
164.5873884140496
 20
237.8694324265103
 30
0.0
 11
189.4367442684029
 21
237.8694324265103
 31
0.0
  0
LINE
  5
1410
330
140B
100
AcDbEntity
  8
DIM
  6
Continuous
 62
     0
370
    -2
100
AcDbLine
 10
189.4367442684029
 20
235.8694324265103
 30
0.0
 11
189.4367442684029
 21
236.8694324265103
 31
0.0
  0
INSERT
  5
1411
330
140B
100
AcDbEntity
  8
DIM
 62
     0
370
    -2
100
AcDbBlockReference
  2
_DOT
 10
189.4367442684029
 20
234.8694324265103
 30
0.0
 50
270.0
  0
INSERT
  5
1412
330
140B
100
AcDbEntity
  8
DIM
 62
     0
370
    -2
100
AcDbBlockReference
  2
_DOT
 10
189.4367442684029
 20
237.8694324265103
 30
0.0
 50
90.0
  0
MTEXT
  5
1413
330
140B
100
AcDbEntity
  8
DIM
 62
     0
100
AcDbMText
 10
186.9367442684029
 20
236.3694324265103
 30
0.0
 40
3.0
 41
0.0
 46
0.0
 71
     5
 72
     1
  1
\A1;3
  7
ＭＳ ゴシック
 11
0.0
 21
1.0
 31
0.0
 73
     1
 44
1.0
  0
POINT
  5
1414
330
140B
100
AcDbEntity
  8
Defpoints
 62
     0
100
AcDbPoint
 10
162.5873884140496
 20
234.8694324265103
 30
0.0
  0
POINT
  5
1415
330
140B
100
AcDbEntity
  8
Defpoints
 62
     0
100
AcDbPoint
 10
162.5873884140496
 20
237.8694324265103
 30
0.0
  0
POINT
  5
1416
330
140B
100
AcDbEntity
  8
Defpoints
 62
     0
100
AcDbPoint
 10
189.4367442684029
 20
237.8694324265103
 30
0.0
  0
ENDBLK
  5
140D
330
140B
100
AcDbEntity
  8
0
100
AcDbBlockEnd
  0
BLOCK
  5
1419
330
1418
100
AcDbEntity
  8
0
100
AcDbBlockBegin
  2
*D6
 70
     1
 10
0.0
 20
0.0
 30
0.0
  3
*D6
  1
*D30
  0
LINE
  5
141B
330
1418
100
AcDbEntity
  8
DIM
  6
Continuous
 62
     0
370
    -2
100
AcDbLine
 10
30.63133342099295
 20
239.8694324265103
 30
0.0
 11
30.63133342099295
 21
251.1730368051067
 31
0.0
  0
LINE
  5
141C
330
1418
100
AcDbEntity
  8
DIM
  6
Continuous
 62
     0
370
    -2
100
AcDbLine
 10
86.63133342099295
 20
239.8694324265103
 30
0.0
 11
86.63133342099295
 21
251.1730368051067
 31
0.0
  0
LINE
  5
141D
330
1418
100
AcDbEntity
  8
DIM
  6
Continuous
 62
     0
370
    -2
100
AcDbLine
 10
31.63133342099295
 20
251.1730368051067
 30
0.0
 11
85.63133342099295
 21
251.1730368051067
 31
0.0
  0
INSERT
  5
141E
330
1418
100
AcDbEntity
  8
DIM
 62
     0
370
    -2
100
AcDbBlockReference
  2
_DOT
 10
30.63133342099295
 20
251.1730368051067
 30
0.0
 50
180.0
  0
INSERT
  5
141F
330
1418
100
AcDbEntity
  8
DIM
 62
     0
370
    -2
100
AcDbBlockReference
  2
_DOT
 10
86.63133342099295
 20
251.1730368051067
 30
0.0
  0
MTEXT
  5
1420
330
1418
100
AcDbEntity
  8
DIM
 62
     0
100
AcDbMText
 10
58.63133342099295
 20
253.6730368051067
 30
0.0
 40
3.0
 41
0.0
 46
0.0
 71
     5
 72
     1
  1
\A1;56
  7
ＭＳ ゴシック
 73
     1
 44
1.0
  0
POINT
  5
1421
330
1418
100
AcDbEntity
  8
Defpoints
 62
     0
100
AcDbPoint
 10
30.63133342099295
 20
237.8694324265103
 30
0.0
  0
POINT
  5
1422
330
1418
100
AcDbEntity
  8
Defpoints
 62
     0
100
AcDbPoint
 10
86.63133342099295
 20
237.8694324265103
 30
0.0
  0
POINT
  5
1423
330
1418
100
AcDbEntity
  8
Defpoints
 62
     0
100
AcDbPoint
 10
86.63133342099295
 20
251.1730368051067
 30
0.0
  0
ENDBLK
  5
141A
330
1418
100
AcDbEntity
  8
0
100
AcDbBlockEnd
  0
BLOCK
  5
1425
330
1424
100
AcDbEntity
  8
0
100
AcDbBlockBegin
  2
*D7
 70
     1
 10
0.0
 20
0.0
 30
0.0
  3
*D7
  1
*D31
  0
LINE
  5
1427
330
1424
100
AcDbEntity
  8
DIM
  6
Continuous
 62
     0
370
    -2
100
AcDbLine
 10
88.63133342099295
 20
237.8694324265103
 30
0.0
 11
99.01296324483735
 21
237.8694324265103
 31
0.0
  0
LINE
  5
1428
330
1424
100
AcDbEntity
  8
DIM
  6
Continuous
 62
     0
370
    -2
100
AcDbLine
 10
88.63133342099295
 20
183.8694324265103
 30
0.0
 11
99.01296324483735
 21
183.8694324265103
 31
0.0
  0
LINE
  5
1429
330
1424
100
AcDbEntity
  8
DIM
  6
Continuous
 62
     0
370
    -2
100
AcDbLine
 10
99.01296324483735
 20
236.8694324265103
 30
0.0
 11
99.01296324483735
 21
184.8694324265103
 31
0.0
  0
INSERT
  5
142A
330
1424
100
AcDbEntity
  8
DIM
 62
     0
370
    -2
100
AcDbBlockReference
  2
_DOT
 10
99.01296324483735
 20
237.8694324265103
 30
0.0
 50
90.0
  0
INSERT
  5
142B
330
1424
100
AcDbEntity
  8
DIM
 62
     0
370
    -2
100
AcDbBlockReference
  2
_DOT
 10
99.01296324483735
 20
183.8694324265103
 30
0.0
 50
270.0
  0
MTEXT
  5
142C
330
1424
100
AcDbEntity
  8
DIM
 62
     0
100
AcDbMText
 10
96.51296324483735
 20
210.8694324265103
 30
0.0
 40
3.0
 41
0.0
 46
0.0
 71
     5
 72
     1
  1
\A1;54
  7
ＭＳ ゴシック
 11
0.0
 21
1.0
 31
0.0
 73
     1
 44
1.0
  0
POINT
  5
142D
330
1424
100
AcDbEntity
  8
Defpoints
 62
     0
100
AcDbPoint
 10
86.63133342099295
 20
237.8694324265103
 30
0.0
  0
POINT
  5
142E
330
1424
100
AcDbEntity
  8
Defpoints
 62
     0
100
AcDbPoint
 10
86.63133342099295
 20
183.8694324265103
 30
0.0
  0
POINT
  5
142F
330
1424
100
AcDbEntity
  8
Defpoints
 62
     0
100
AcDbPoint
 10
99.01296324483735
 20
183.8694324265103
 30
0.0
  0
ENDBLK
  5
1426
330
1424
100
AcDbEntity
  8
0
100
AcDbBlockEnd
  0
BLOCK
  5
1431
330
1430
100
AcDbEntity
  8
0
100
AcDbBlockBegin
  2
*D8
 70
     1
 10
0.0
 20
0.0
 30
0.0
  3
*D8
  1
*D32
  0
LINE
  5
1433
330
1430
100
AcDbEntity
  8
DIM
  6
Continuous
 62
     0
370
    -2
100
AcDbLine
 10
34.63133342099295
 20
182.7131847378114
 30
0.0
 11
34.63133342099295
 21
173.0437748838474
 31
0.0
  0
LINE
  5
1434
330
1430
100
AcDbEntity
  8
DIM
  6
Continuous
 62
     0
370
    -2
100
AcDbLine
 10
82.63133342099295
 20
182.7131847606861
 30
0.0
 11
82.63133342099295
 21
173.0437748838474
 31
0.0
  0
LINE
  5
1435
330
1430
100
AcDbEntity
  8
DIM
  6
Continuous
 62
     0
370
    -2
100
AcDbLine
 10
35.63133342099295
 20
173.0437748838474
 30
0.0
 11
81.63133342099295
 21
173.0437748838474
 31
0.0
  0
INSERT
  5
1436
330
1430
100
AcDbEntity
  8
DIM
 62
     0
370
    -2
100
AcDbBlockReference
  2
_DOT
 10
34.63133342099295
 20
173.0437748838474
 30
0.0
 50
180.0
  0
INSERT
  5
1437
330
1430
100
AcDbEntity
  8
DIM
 62
     0
370
    -2
100
AcDbBlockReference
  2
_DOT
 10
82.63133342099295
 20
173.0437748838474
 30
0.0
  0
MTEXT
  5
1438
330
1430
100
AcDbEntity
  8
DIM
 62
     0
100
AcDbMText
 10
58.63133342099295
 20
175.5437748838474
 30
0.0
 40
3.0
 41
0.0
 46
0.0
 71
     5
 72
     1
  1
\A1;48
  7
ＭＳ ゴシック
 73
     1
 44
1.0
  0
POINT
  5
1439
330
1430
100
AcDbEntity
  8
Defpoints
 62
     0
100
AcDbPoint
 10
34.63133342099295
 20
184.7131847378114
 30
0.0
  0
POINT
  5
143A
330
1430
100
AcDbEntity
  8
Defpoints
 62
     0
100
AcDbPoint
 10
82.63133342099295
 20
184.7131847606861
 30
0.0
  0
POINT
  5
143B
330
1430
100
AcDbEntity
  8
Defpoints
 62
     0
100
AcDbPoint
 10
82.63133342099295
 20
173.0437748838474
 30
0.0
  0
ENDBLK
  5
1432
330
1430
100
AcDbEntity
  8
0
100
AcDbBlockEnd
  0
BLOCK
  5
143D
330
143C
100
AcDbEntity
  8
0
100
AcDbBlockBegin
  2
*D9
 70
     1
 10
0.0
 20
0.0
 30
0.0
  3
*D9
  1
*D33
  0
LINE
  5
143F
330
143C
100
AcDbEntity
  8
DIM
  6
Continuous
 62
     0
370
    -2
100
AcDbLine
 10
27.33919413060795
 20
221.8694324265103
 30
0.0
 11
18.67327436304345
 21
221.8694324265103
 31
0.0
  0
LINE
  5
1440
330
143C
100
AcDbEntity
  8
DIM
  6
Continuous
 62
     0
370
    -2
100
AcDbLine
 10
27.33919413060795
 20
187.8694324265103
 30
0.0
 11
18.67327436304345
 21
187.8694324265103
 31
0.0
  0
LINE
  5
1441
330
143C
100
AcDbEntity
  8
DIM
  6
Continuous
 62
     0
370
    -2
100
AcDbLine
 10
18.67327436304345
 20
220.8694324265103
 30
0.0
 11
18.67327436304345
 21
188.8694324265103
 31
0.0
  0
INSERT
  5
1442
330
143C
100
AcDbEntity
  8
DIM
 62
     0
370
    -2
100
AcDbBlockReference
  2
_DOT
 10
18.67327436304345
 20
221.8694324265103
 30
0.0
 50
90.0
  0
INSERT
  5
1443
330
143C
100
AcDbEntity
  8
DIM
 62
     0
370
    -2
100
AcDbBlockReference
  2
_DOT
 10
18.67327436304345
 20
187.8694324265103
 30
0.0
 50
270.0
  0
MTEXT
  5
1444
330
143C
100
AcDbEntity
  8
DIM
 62
     0
100
AcDbMText
 10
16.17327436304345
 20
204.8694324265103
 30
0.0
 40
3.0
 41
0.0
 46
0.0
 71
     5
 72
     1
  1
\A1;34
  7
ＭＳ ゴシック
 11
1.044915787882500E-16
 21
1.0
 31
0.0
 73
     1
 44
1.0
  0
POINT
  5
1445
330
143C
100
AcDbEntity
  8
Defpoints
 62
     0
100
AcDbPoint
 10
29.33919413060795
 20
221.8694324265103
 30
0.0
  0
POINT
  5
1446
330
143C
100
AcDbEntity
  8
Defpoints
 62
     0
100
AcDbPoint
 10
29.33919413060795
 20
187.8694324265103
 30
0.0
  0
POINT
  5
1447
330
143C
100
AcDbEntity
  8
Defpoints
 62
     0
100
AcDbPoint
 10
18.67327436304345
 20
187.8694324265103
 30
0.0
  0
ENDBLK
  5
143E
330
143C
100
AcDbEntity
  8
0
100
AcDbBlockEnd
  0
BLOCK
  5
1449
330
1448
100
AcDbEntity
  8
0
100
AcDbBlockBegin
  2
*D10
 70
     1
 10
0.0
 20
0.0
 30
0.0
  3
*D10
  1
*D34
  0
LINE
  5
144B
330
1448
100
AcDbEntity
  8
DIM
  6
Continuous
 62
     0
370
    -2
100
AcDbLine
 10
184.8513502852471
 20
74.68499299115798
 30
0.0
 11
184.8513502852471
 21
64.19061452582989
 31
0.0
  0
LINE
  5
144C
330
1448
100
AcDbEntity
  8
DIM
  6
Continuous
 62
     0
370
    -2
100
AcDbLine
 10
160.8513502852472
 20
70.88499299115804
 30
0.0
 11
160.8513502852472
 21
64.19061452582989
 31
0.0
  0
LINE
  5
144D
330
1448
100
AcDbEntity
  8
DIM
  6
Continuous
 62
     0
370
    -2
100
AcDbLine
 10
183.8513502852471
 20
64.19061452582989
 30
0.0
 11
161.8513502852472
 21
64.19061452582989
 31
0.0
  0
INSERT
  5
144E
330
1448
100
AcDbEntity
  8
DIM
 62
     0
370
    -2
100
AcDbBlockReference
  2
_DOT
 10
184.8513502852471
 20
64.19061452582989
 30
0.0
  0
INSERT
  5
144F
330
1448
100
AcDbEntity
  8
DIM
 62
     0
370
    -2
100
AcDbBlockReference
  2
_DOT
 10
160.8513502852472
 20
64.19061452582989
 30
0.0
 50
180.0
  0
MTEXT
  5
1450
330
1448
100
AcDbEntity
  8
DIM
 62
     0
100
AcDbMText
 10
172.8513502852471
 20
66.69061452582989
 30
0.0
 40
3.0
 41
0.0
 46
0.0
 71
     5
 72
     1
  1
\A1;24
  7
ＭＳ ゴシック
 73
     1
 44
1.0
  0
POINT
  5
1451
330
1448
100
AcDbEntity
  8
Defpoints
 62
     0
100
AcDbPoint
 10
184.8513502852471
 20
76.68499299115798
 30
0.0
  0
POINT
  5
1452
330
1448
100
AcDbEntity
  8
Defpoints
 62
     0
100
AcDbPoint
 10
160.8513502852472
 20
72.88499299115804
 30
0.0
  0
POINT
  5
1453
330
1448
100
AcDbEntity
  8
Defpoints
 62
     0
100
AcDbPoint
 10
160.8513502852472
 20
64.19061452582989
 30
0.0
  0
ENDBLK
  5
144A
330
1448
100
AcDbEntity
  8
0
100
AcDbBlockEnd
  0
BLOCK
  5
1455
330
1454
100
AcDbEntity
  8
0
100
AcDbBlockBegin
  2
*D11
 70
     1
 10
0.0
 20
0.0
 30
0.0
  3
*D11
  1
*D35
  0
LINE
  5
1457
330
1454
100
AcDbEntity
  8
DIM
  6
Continuous
 62
     0
370
    -2
100
AcDbLine
 10
184.8513502852471
 20
96.68499299115805
 30
0.0
 11
184.8513502852471
 21
104.8887929514859
 31
0.0
  0
LINE
  5
1458
330
1454
100
AcDbEntity
  8
DIM
  6
Continuous
 62
     0
370
    -2
100
AcDbLine
 10
175.8513502852471
 20
96.68499299115805
 30
0.0
 11
175.8513502852471
 21
104.8887929514859
 31
0.0
  0
LINE
  5
1459
330
1454
100
AcDbEntity
  8
DIM
  6
Continuous
 62
     0
370
    -2
100
AcDbLine
 10
183.8513502852471
 20
104.8887929514859
 30
0.0
 11
176.8513502852471
 21
104.8887929514859
 31
0.0
  0
INSERT
  5
145A
330
1454
100
AcDbEntity
  8
DIM
 62
     0
370
    -2
100
AcDbBlockReference
  2
_DOT
 10
184.8513502852471
 20
104.8887929514859
 30
0.0
  0
INSERT
  5
145B
330
1454
100
AcDbEntity
  8
DIM
 62
     0
370
    -2
100
AcDbBlockReference
  2
_DOT
 10
175.8513502852471
 20
104.8887929514859
 30
0.0
 50
180.0
  0
MTEXT
  5
145C
330
1454
100
AcDbEntity
  8
DIM
 62
     0
100
AcDbMText
 10
180.3513502852471
 20
107.3887929514859
 30
0.0
 40
3.0
 41
0.0
 46
0.0
 71
     5
 72
     1
  1
\A1;9
  7
ＭＳ ゴシック
 73
     1
 44
1.0
  0
POINT
  5
145D
330
1454
100
AcDbEntity
  8
Defpoints
 62
     0
100
AcDbPoint
 10
184.8513502852471
 20
94.68499299115805
 30
0.0
  0
POINT
  5
145E
330
1454
100
AcDbEntity
  8
Defpoints
 62
     0
100
AcDbPoint
 10
175.8513502852471
 20
94.68499299115805
 30
0.0
  0
POINT
  5
145F
330
1454
100
AcDbEntity
  8
Defpoints
 62
     0
100
AcDbPoint
 10
175.8513502852471
 20
104.8887929514859
 30
0.0
  0
ENDBLK
  5
1456
330
1454
100
AcDbEntity
  8
0
100
AcDbBlockEnd
  0
BLOCK
  5
1461
330
1460
100
AcDbEntity
  8
0
100
AcDbBlockBegin
  2
*D12
 70
     1
 10
0.0
 20
0.0
 30
0.0
  3
*D12
  1
*D36
  0
LINE
  5
1463
330
1460
100
AcDbEntity
  8
DIM
  6
Continuous
 62
     0
370
    -2
100
AcDbLine
 10
28.38710147995585
 20
237.8694324265103
 30
0.0
 11
18.67327436304345
 21
237.8694324265103
 31
0.0
  0
LINE
  5
1464
330
1460
100
AcDbEntity
  8
DIM
  6
Continuous
 62
     0
370
    -2
100
AcDbLine
 10
28.38710147995585
 20
221.8694324265103
 30
0.0
 11
18.67327436304345
 21
221.8694324265103
 31
0.0
  0
LINE
  5
1465
330
1460
100
AcDbEntity
  8
DIM
  6
Continuous
 62
     0
370
    -2
100
AcDbLine
 10
18.67327436304345
 20
236.8694324265103
 30
0.0
 11
18.67327436304345
 21
222.8694324265103
 31
0.0
  0
INSERT
  5
1466
330
1460
100
AcDbEntity
  8
DIM
 62
     0
370
    -2
100
AcDbBlockReference
  2
_DOT
 10
18.67327436304345
 20
237.8694324265103
 30
0.0
 50
90.0
  0
INSERT
  5
1467
330
1460
100
AcDbEntity
  8
DIM
 62
     0
370
    -2
100
AcDbBlockReference
  2
_DOT
 10
18.67327436304345
 20
221.8694324265103
 30
0.0
 50
270.0
  0
MTEXT
  5
1468
330
1460
100
AcDbEntity
  8
DIM
 62
     0
100
AcDbMText
 10
16.17327436304345
 20
229.8694324265103
 30
0.0
 40
3.0
 41
0.0
 46
0.0
 71
     5
 72
     1
  1
\A1;16
  7
ＭＳ ゴシック
 11
0.0
 21
1.0
 31
0.0
 73
     1
 44
1.0
  0
POINT
  5
1469
330
1460
100
AcDbEntity
  8
Defpoints
 62
     0
100
AcDbPoint
 10
30.38710147995585
 20
237.8694324265103
 30
0.0
  0
POINT
  5
146A
330
1460
100
AcDbEntity
  8
Defpoints
 62
     0
100
AcDbPoint
 10
30.38710147995585
 20
221.8694324265103
 30
0.0
  0
POINT
  5
146B
330
1460
100
AcDbEntity
  8
Defpoints
 62
     0
100
AcDbPoint
 10
18.67327436304345
 20
221.8694324265103
 30
0.0
  0
ENDBLK
  5
1462
330
1460
100
AcDbEntity
  8
0
100
AcDbBlockEnd
  0
BLOCK
  5
146D
330
146C
100
AcDbEntity
  8
0
100
AcDbBlockBegin
  2
*D13
 70
     1
 10
0.0
 20
0.0
 30
0.0
  3
*D13
  1
*D37
  0
LINE
  5
146F
330
146C
100
AcDbEntity
  8
DIM
  6
Continuous
 62
     0
370
    -2
100
AcDbLine
 10
128.8513502852471
 20
94.68499299115805
 30
0.0
 11
121.4454353117761
 21
94.68499299115805
 31
0.0
  0
LINE
  5
1470
330
146C
100
AcDbEntity
  8
DIM
  6
Continuous
 62
     0
370
    -2
100
AcDbLine
 10
128.8513502852471
 20
76.68499299115798
 30
0.0
 11
121.4454353117761
 21
76.68499299115798
 31
0.0
  0
LINE
  5
1471
330
146C
100
AcDbEntity
  8
DIM
  6
Continuous
 62
     0
370
    -2
100
AcDbLine
 10
121.4454353117761
 20
93.68499299115805
 30
0.0
 11
121.4454353117761
 21
77.68499299115798
 31
0.0
  0
INSERT
  5
1472
330
146C
100
AcDbEntity
  8
DIM
 62
     0
370
    -2
100
AcDbBlockReference
  2
_DOT
 10
121.4454353117761
 20
94.68499299115805
 30
0.0
 50
90.0
  0
INSERT
  5
1473
330
146C
100
AcDbEntity
  8
DIM
 62
     0
370
    -2
100
AcDbBlockReference
  2
_DOT
 10
121.4454353117761
 20
76.68499299115798
 30
0.0
 50
270.0
  0
MTEXT
  5
1474
330
146C
100
AcDbEntity
  8
DIM
 62
     0
100
AcDbMText
 10
118.9454353117761
 20
85.68499299115798
 30
0.0
 40
3.0
 41
0.0
 46
0.0
 71
     5
 72
     1
  1
\A1;18
  7
ＭＳ ゴシック
 11
0.0
 21
1.0
 31
0.0
 73
     1
 44
1.0
  0
POINT
  5
1475
330
146C
100
AcDbEntity
  8
Defpoints
 62
     0
100
AcDbPoint
 10
130.8513502852471
 20
94.68499299115805
 30
0.0
  0
POINT
  5
1476
330
146C
100
AcDbEntity
  8
Defpoints
 62
     0
100
AcDbPoint
 10
130.8513502852471
 20
76.68499299115798
 30
0.0
  0
POINT
  5
1477
330
146C
100
AcDbEntity
  8
Defpoints
 62
     0
100
AcDbPoint
 10
121.4454353117761
 20
76.68499299115798
 30
0.0
  0
ENDBLK
  5
146E
330
146C
100
AcDbEntity
  8
0
100
AcDbBlockEnd
  0
BLOCK
  5
1479
330
1478
100
AcDbEntity
  8
0
100
AcDbBlockBegin
  2
*D14
 70
     1
 10
0.0
 20
0.0
 30
0.0
  3
*D14
  1
*D38
  0
LINE
  5
147B
330
1478
100
AcDbEntity
  8
DIM
  6
Continuous
 62
     0
370
    -2
100
AcDbLine
 10
30.63133342099295
 20
96.68499299115805
 30
0.0
 11
30.63133342099295
 21
103.0438088628561
 31
0.0
  0
LINE
  5
147C
330
1478
100
AcDbEntity
  8
DIM
  6
Continuous
 62
     0
370
    -2
100
AcDbLine
 10
38.66622128037173
 20
96.68499299115805
 30
0.0
 11
38.66622128037173
 21
103.0438088628561
 31
0.0
  0
LINE
  5
147D
330
1478
100
AcDbEntity
  8
DIM
  6
Continuous
 62
     0
370
    -2
100
AcDbLine
 10
31.63133342099295
 20
103.0438088628561
 30
0.0
 11
37.66622128037173
 21
103.0438088628561
 31
0.0
  0
INSERT
  5
147E
330
1478
100
AcDbEntity
  8
DIM
 62
     0
370
    -2
100
AcDbBlockReference
  2
_DOT
 10
30.63133342099295
 20
103.0438088628561
 30
0.0
 50
180.0
  0
INSERT
  5
147F
330
1478
100
AcDbEntity
  8
DIM
 62
     0
370
    -2
100
AcDbBlockReference
  2
_DOT
 10
38.66622128037173
 20
103.0438088628561
 30
0.0
  0
MTEXT
  5
1480
330
1478
100
AcDbEntity
  8
DIM
 62
     0
100
AcDbMText
 10
34.64877735068234
 20
105.5438088628561
 30
0.0
 40
3.0
 41
0.0
 46
0.0
 71
     5
 72
     1
  1
\A1;8
  7
ＭＳ ゴシック
 73
     1
 44
1.0
  0
POINT
  5
1481
330
1478
100
AcDbEntity
  8
Defpoints
 62
     0
100
AcDbPoint
 10
30.63133342099295
 20
94.68499299115805
 30
0.0
  0
POINT
  5
1482
330
1478
100
AcDbEntity
  8
Defpoints
 62
     0
100
AcDbPoint
 10
38.66622128037173
 20
94.68499299115805
 30
0.0
  0
POINT
  5
1483
330
1478
100
AcDbEntity
  8
Defpoints
 62
     0
100
AcDbPoint
 10
38.66622128037173
 20
103.0438088628561
 30
0.0
  0
ENDBLK
  5
147A
330
1478
100
AcDbEntity
  8
0
100
AcDbBlockEnd
  0
BLOCK
  5
1485
330
1484
100
AcDbEntity
  8
0
100
AcDbBlockBegin
  2
*D15
 70
     1
 10
0.0
 20
0.0
 30
0.0
  3
*D15
  1
*D39
  0
LINE
  5
1487
330
1484
100
AcDbEntity
  8
DIM
  6
Continuous
 62
     0
370
    -2
100
AcDbLine
 10
28.16622128037173
 20
88.68499299115805
 30
0.0
 11
22.31306313335034
 21
88.68499299115805
 31
0.0
  0
LINE
  5
1488
330
1484
100
AcDbEntity
  8
DIM
  6
Continuous
 62
     0
370
    -2
100
AcDbLine
 10
28.63133342099295
 20
94.68499299115805
 30
0.0
 11
22.31306313335034
 21
94.68499299115805
 31
0.0
  0
LINE
  5
1489
330
1484
100
AcDbEntity
  8
DIM
  6
Continuous
 62
     0
370
    -2
100
AcDbLine
 10
22.31306313335034
 20
89.68499299115805
 30
0.0
 11
22.31306313335034
 21
93.68499299115805
 31
0.0
  0
INSERT
  5
148A
330
1484
100
AcDbEntity
  8
DIM
 62
     0
370
    -2
100
AcDbBlockReference
  2
_DOT
 10
22.31306313335034
 20
88.68499299115805
 30
0.0
 50
270.0
  0
INSERT
  5
148B
330
1484
100
AcDbEntity
  8
DIM
 62
     0
370
    -2
100
AcDbBlockReference
  2
_DOT
 10
22.31306313335034
 20
94.68499299115805
 30
0.0
 50
90.0
  0
MTEXT
  5
148C
330
1484
100
AcDbEntity
  8
DIM
 62
     0
100
AcDbMText
 10
19.81306313335034
 20
91.68499299115805
 30
0.0
 40
3.0
 41
0.0
 46
0.0
 71
     5
 72
     1
  1
\A1;6
  7
ＭＳ ゴシック
 11
0.0
 21
1.0
 31
0.0
 73
     1
 44
1.0
  0
POINT
  5
148D
330
1484
100
AcDbEntity
  8
Defpoints
 62
     0
100
AcDbPoint
 10
30.16622128037173
 20
88.68499299115805
 30
0.0
  0
POINT
  5
148E
330
1484
100
AcDbEntity
  8
Defpoints
 62
     0
100
AcDbPoint
 10
30.63133342099295
 20
94.68499299115805
 30
0.0
  0
POINT
  5
148F
330
1484
100
AcDbEntity
  8
Defpoints
 62
     0
100
AcDbPoint
 10
22.31306313335034
 20
94.68499299115805
 30
0.0
  0
ENDBLK
  5
1486
330
1484
100
AcDbEntity
  8
0
100
AcDbBlockEnd
  0
BLOCK
  5
1491
330
1490
100
AcDbEntity
  8
0
100
AcDbBlockBegin
  2
*D16
 70
     1
 10
0.0
 20
0.0
 30
0.0
  3
*D16
  1
*D40
  0
LINE
  5
1493
330
1490
100
AcDbEntity
  8
DIM
  6
Continuous
 62
     0
370
    -2
100
AcDbLine
 10
86.63133342099295
 20
96.68499299115805
 30
0.0
 11
86.63133342099295
 21
103.2753362778999
 31
0.0
  0
LINE
  5
1494
330
1490
100
AcDbEntity
  8
DIM
  6
Continuous
 62
     0
370
    -2
100
AcDbLine
 10
78.59644556161405
 20
96.68499299115805
 30
0.0
 11
78.59644556161405
 21
103.2753362778999
 31
0.0
  0
LINE
  5
1495
330
1490
100
AcDbEntity
  8
DIM
  6
Continuous
 62
     0
370
    -2
100
AcDbLine
 10
85.63133342099295
 20
103.2753362778999
 30
0.0
 11
79.59644556161405
 21
103.2753362778999
 31
0.0
  0
INSERT
  5
1496
330
1490
100
AcDbEntity
  8
DIM
 62
     0
370
    -2
100
AcDbBlockReference
  2
_DOT
 10
86.63133342099295
 20
103.2753362778999
 30
0.0
  0
INSERT
  5
1497
330
1490
100
AcDbEntity
  8
DIM
 62
     0
370
    -2
100
AcDbBlockReference
  2
_DOT
 10
78.59644556161405
 20
103.2753362778999
 30
0.0
 50
180.0
  0
MTEXT
  5
1498
330
1490
100
AcDbEntity
  8
DIM
 62
     0
100
AcDbMText
 10
82.61388949130344
 20
105.7753362778999
 30
0.0
 40
3.0
 41
0.0
 46
0.0
 71
     5
 72
     1
  1
\A1;8
  7
ＭＳ ゴシック
 73
     1
 44
1.0
  0
POINT
  5
1499
330
1490
100
AcDbEntity
  8
Defpoints
 62
     0
100
AcDbPoint
 10
86.63133342099295
 20
94.68499299115805
 30
0.0
  0
POINT
  5
149A
330
1490
100
AcDbEntity
  8
Defpoints
 62
     0
100
AcDbPoint
 10
78.59644556161405
 20
94.68499299115805
 30
0.0
  0
POINT
  5
149B
330
1490
100
AcDbEntity
  8
Defpoints
 62
     0
100
AcDbPoint
 10
78.59644556161405
 20
103.2753362778999
 30
0.0
  0
ENDBLK
  5
1492
330
1490
100
AcDbEntity
  8
0
100
AcDbBlockEnd
  0
BLOCK
  5
149D
330
149C
100
AcDbEntity
  8
0
100
AcDbBlockBegin
  2
*D17
 70
     1
 10
0.0
 20
0.0
 30
0.0
  3
*D17
  1
*D41
  0
LINE
  5
149F
330
149C
100
AcDbEntity
  8
DIM
  6
Continuous
 62
     0
370
    -2
100
AcDbLine
 10
88.63133342099295
 20
94.68499299115805
 30
0.0
 11
95.59148999469153
 21
94.68499299115805
 31
0.0
  0
LINE
  5
14A0
330
149C
100
AcDbEntity
  8
DIM
  6
Continuous
 62
     0
370
    -2
100
AcDbLine
 10
88.63133342099295
 20
87.28499299115805
 30
0.0
 11
95.59148999469153
 21
87.28499299115805
 31
0.0
  0
LINE
  5
14A1
330
149C
100
AcDbEntity
  8
DIM
  6
Continuous
 62
     0
370
    -2
100
AcDbLine
 10
95.59148999469153
 20
93.68499299115805
 30
0.0
 11
95.59148999469153
 21
88.28499299115805
 31
0.0
  0
INSERT
  5
14A2
330
149C
100
AcDbEntity
  8
DIM
 62
     0
370
    -2
100
AcDbBlockReference
  2
_DOT
 10
95.59148999469153
 20
94.68499299115805
 30
0.0
 50
90.0
  0
INSERT
  5
14A3
330
149C
100
AcDbEntity
  8
DIM
 62
     0
370
    -2
100
AcDbBlockReference
  2
_DOT
 10
95.59148999469153
 20
87.28499299115805
 30
0.0
 50
270.0
  0
MTEXT
  5
14A4
330
149C
100
AcDbEntity
  8
DIM
 62
     0
100
AcDbMText
 10
93.09148999469153
 20
90.98499299115805
 30
0.0
 40
3.0
 41
0.0
 46
0.0
 71
     5
 72
     1
  1
\A1;7
  7
ＭＳ ゴシック
 11
0.0
 21
1.0
 31
0.0
 73
     1
 44
1.0
  0
POINT
  5
14A5
330
149C
100
AcDbEntity
  8
Defpoints
 62
     0
100
AcDbPoint
 10
86.63133342099295
 20
94.68499299115805
 30
0.0
  0
POINT
  5
14A6
330
149C
100
AcDbEntity
  8
Defpoints
 62
     0
100
AcDbPoint
 10
86.63133342099295
 20
87.28499299115805
 30
0.0
  0
POINT
  5
14A7
330
149C
100
AcDbEntity
  8
Defpoints
 62
     0
100
AcDbPoint
 10
95.59148999469153
 20
87.28499299115805
 30
0.0
  0
ENDBLK
  5
149E
330
149C
100
AcDbEntity
  8
0
100
AcDbBlockEnd
  0
BLOCK
  5
20ED
330
20EC
100
AcDbEntity
  8
0
100
AcDbBlockBegin
  2
*D18
 70
     1
 10
0.0
 20
0.0
 30
0.0
  3
*D18
  1

  0
LINE
  5
20EF
330
20EC
100
AcDbEntity
  8
DIM
 62
     0
370
    -2
100
AcDbLine
 10
82.38308890577508
 20
160.5423689209726
 30
0.0
 11
82.38308890577508
 21
193.6154914303951
 31
0.0
  0
LINE
  5
20F0
330
20EC
100
AcDbEntity
  8
DIM
 62
     0
370
    -2
100
AcDbLine
 10
139.4720858662612
 20
160.5423689209726
 30
0.0
 11
139.4720858662612
 21
193.6154914303951
 31
0.0
  0
LINE
  5
20F1
330
20EC
100
AcDbEntity
  8
DIM
 62
     0
370
    -2
100
AcDbLine
 10
83.38308890577508
 20
193.6154914303951
 30
0.0
 11
138.4720858662612
 21
193.6154914303951
 31
0.0
  0
INSERT
  5
20F2
330
20EC
100
AcDbEntity
  8
DIM
 62
     0
370
    -2
100
AcDbBlockReference
  2
_DOT
 10
82.38308890577508
 20
193.6154914303951
 30
0.0
 50
180.0
  0
INSERT
  5
20F3
330
20EC
100
AcDbEntity
  8
DIM
 62
     0
370
    -2
100
AcDbBlockReference
  2
_DOT
 10
139.4720858662612
 20
193.6154914303951
 30
0.0
  0
MTEXT
  5
20F4
330
20EC
100
AcDbEntity
  8
DIM
 62
     0
100
AcDbMText
 10
110.9275873860181
 20
196.1154914303951
 30
0.0
 40
3.0
 41
0.0
 46
0.0
 71
     5
 72
     1
  1
\A1;57
  7
ＭＳ ゴシック
 73
     1
 44
1.0
  0
POINT
  5
20F5
330
20EC
100
AcDbEntity
  8
Defpoints
 62
     0
100
AcDbPoint
 10
82.38308890577508
 20
158.5423689209726
 30
0.0
  0
POINT
  5
20F6
330
20EC
100
AcDbEntity
  8
Defpoints
 62
     0
100
AcDbPoint
 10
139.4720858662612
 20
158.5423689209726
 30
0.0
  0
POINT
  5
20F7
330
20EC
100
AcDbEntity
  8
Defpoints
 62
     0
100
AcDbPoint
 10
139.4720858662612
 20
193.6154914303951
 30
0.0
  0
ENDBLK
  5
20EE
330
20EC
100
AcDbEntity
  8
0
100
AcDbBlockEnd
  0
BLOCK
  5
20FC
330
20FB
100
AcDbEntity
  8
0
100
AcDbBlockBegin
  2
*D19
 70
     1
 10
0.0
 20
0.0
 30
0.0
  3
*D19
  1

  0
LINE
  5
20FE
330
20FB
100
AcDbEntity
  8
DIM
 62
     0
370
    -2
100
AcDbLine
 10
91.98413169352595
 20
156.5423689209726
 30
0.0
 11
91.98413169352595
 21
115.193036106383
 31
0.0
  0
LINE
  5
20FF
330
20FB
100
AcDbEntity
  8
DIM
 62
     0
370
    -2
100
AcDbLine
 10
129.8710430785104
 20
156.5423689209726
 30
0.0
 11
129.8710430785104
 21
115.193036106383
 31
0.0
  0
LINE
  5
2100
330
20FB
100
AcDbEntity
  8
DIM
 62
     0
370
    -2
100
AcDbLine
 10
92.98413169352595
 20
115.193036106383
 30
0.0
 11
128.8710430785104
 21
115.193036106383
 31
0.0
  0
INSERT
  5
2101
330
20FB
100
AcDbEntity
  8
DIM
 62
     0
370
    -2
100
AcDbBlockReference
  2
_DOT
 10
91.98413169352595
 20
115.193036106383
 30
0.0
 50
180.0
  0
INSERT
  5
2102
330
20FB
100
AcDbEntity
  8
DIM
 62
     0
370
    -2
100
AcDbBlockReference
  2
_DOT
 10
129.8710430785104
 20
115.193036106383
 30
0.0
  0
MTEXT
  5
2103
330
20FB
100
AcDbEntity
  8
DIM
 62
     0
100
AcDbMText
 10
110.9275873860182
 20
117.693036106383
 30
0.0
 40
3.0
 41
0.0
 46
0.0
 71
     5
 72
     1
  1
\A1;38
  7
ＭＳ ゴシック
 73
     1
 44
1.0
  0
POINT
  5
2104
330
20FB
100
AcDbEntity
  8
Defpoints
 62
     0
100
AcDbPoint
 10
91.98413169352595
 20
158.5423689209726
 30
0.0
  0
POINT
  5
2105
330
20FB
100
AcDbEntity
  8
Defpoints
 62
     0
100
AcDbPoint
 10
129.8710430785104
 20
158.5423689209726
 30
0.0
  0
POINT
  5
2106
330
20FB
100
AcDbEntity
  8
Defpoints
 62
     0
100
AcDbPoint
 10
129.8710430785104
 20
115.193036106383
 30
0.0
  0
ENDBLK
  5
20FD
330
20FB
100
AcDbEntity
  8
0
100
AcDbBlockEnd
  0
BLOCK
  5
27AD
330
27AC
100
AcDbEntity
  8
0
100
AcDbBlockBegin
  2
*D20
 70
     1
 10
0.0
 20
0.0
 30
0.0
  3
*D20
  1

  0
LINE
  5
27AE
330
27AC
100
AcDbEntity
  8
0
 62
     0
370
    -2
100
AcDbLine
 10
23.31706959177045
 20
178.7806819727751
 30
0.0
 11
23.31706959177045
 21
188.8735259863675
 31
0.0
  0
LINE
  5
27AF
330
27AC
100
AcDbEntity
  8
0
 62
     0
370
    -2
100
AcDbLine
 10
76.31706959177043
 20
178.7806819727751
 30
0.0
 11
76.31706959177043
 21
188.8735259863675
 31
0.0
  0
LINE
  5
27B0
330
27AC
100
AcDbEntity
  8
0
 62
     0
370
    -2
100
AcDbLine
 10
26.61906959177045
 20
187.8735259863675
 30
0.0
 11
73.01506959177044
 21
187.8735259863675
 31
0.0
  0
LINE
  5
27B1
330
27AC
100
AcDbEntity
  8
0
 62
     0
370
    -2
100
AcDbLine
 10
73.01506959177044
 20
187.8735259863675
 30
0.0
 11
26.61906959177045
 21
187.8735259863675
 31
0.0
  0
SOLID
  5
27B2
330
27AC
100
AcDbEntity
  8
0
 62
     0
100
AcDbTrace
 10
26.61906959177045
 20
188.4238593197008
 30
0.0
 11
26.61906959177045
 21
187.3231926530341
 31
0.0
 12
23.31706959177045
 22
187.8735259863675
 32
0.0
 13
23.31706959177045
 23
187.8735259863675
 33
0.0
  0
SOLID
  5
27B3
330
27AC
100
AcDbEntity
  8
0
 62
     0
100
AcDbTrace
 10
73.01506959177044
 20
187.3231926530341
 30
0.0
 11
73.01506959177044
 21
188.4238593197008
 31
0.0
 12
76.31706959177043
 22
187.8735259863675
 32
0.0
 13
76.31706959177043
 23
187.8735259863675
 33
0.0
  0
MTEXT
  5
27B4
330
27AC
100
AcDbEntity
  8
0
 62
     0
100
AcDbMText
 10
49.81706959177044
 20
191.4391926530341
 30
0.0
 40
3.5
 41
0.0
 46
0.0
 71
     5
 72
     1
  1
53,00
 73
     1
 44
1.0
  0
POINT
  5
27B5
330
27AC
100
AcDbEntity
  8
Defpoints
 62
     0
100
AcDbPoint
 10
23.31706959177045
 20
177.7806819727751
 30
0.0
  0
POINT
  5
27B6
330
27AC
100
AcDbEntity
  8
Defpoints
 62
     0
100
AcDbPoint
 10
76.31706959177043
 20
177.7806819727751
 30
0.0
  0
POINT
  5
27B7
330
27AC
100
AcDbEntity
  8
Defpoints
 62
     0
100
AcDbPoint
 10
76.31706959177043
 20
187.8735259863675
 30
0.0
  0
ENDBLK
  5
27B8
330
27AC
100
AcDbEntity
  8
0
100
AcDbBlockEnd
  0
BLOCK
  5
27BD
330
27BC
100
AcDbEntity
  8
0
100
AcDbBlockBegin
  2
*D21
 70
     1
 10
0.0
 20
0.0
 30
0.0
  3
*D21
  1

  0
LINE
  5
27BE
330
27BC
100
AcDbEntity
  8
0
 62
     0
370
    -2
100
AcDbLine
 10
138.6291085356477
 20
172.7806819727751
 30
0.0
 11
138.6291085356477
 21
184.5330075602245
 31
0.0
  0
LINE
  5
27BF
330
27BC
100
AcDbEntity
  8
0
 62
     0
370
    -2
100
AcDbLine
 10
152.6291085356478
 20
172.7806819727751
 30
0.0
 11
152.6291085356478
 21
184.5330075602245
 31
0.0
  0
LINE
  5
27C0
330
27BC
100
AcDbEntity
  8
0
 62
     0
370
    -2
100
AcDbLine
 10
152.6291085356478
 20
183.5330075602245
 30
0.0
 11
171.2291085356478
 21
183.5330075602245
 31
0.0
  0
LINE
  5
27C1
330
27BC
100
AcDbEntity
  8
0
 62
     0
370
    -2
100
AcDbLine
 10
141.9311085356477
 20
183.5330075602245
 30
0.0
 11
149.3271085356478
 21
183.5330075602245
 31
0.0
  0
LINE
  5
27C2
330
27BC
100
AcDbEntity
  8
0
 62
     0
370
    -2
100
AcDbLine
 10
149.3271085356478
 20
183.5330075602245
 30
0.0
 11
141.9311085356477
 21
183.5330075602245
 31
0.0
  0
SOLID
  5
27C3
330
27BC
100
AcDbEntity
  8
0
 62
     0
100
AcDbTrace
 10
141.9311085356477
 20
184.0833408935579
 30
0.0
 11
141.9311085356477
 21
182.9826742268912
 31
0.0
 12
138.6291085356477
 22
183.5330075602245
 32
0.0
 13
138.6291085356477
 23
183.5330075602245
 33
0.0
  0
SOLID
  5
27C4
330
27BC
100
AcDbEntity
  8
0
 62
     0
100
AcDbTrace
 10
149.3271085356478
 20
182.9826742268912
 30
0.0
 11
149.3271085356478
 21
184.0833408935579
 31
0.0
 12
152.6291085356478
 22
183.5330075602245
 32
0.0
 13
152.6291085356478
 23
183.5330075602245
 33
0.0
  0
MTEXT
  5
27C5
330
27BC
100
AcDbEntity
  8
0
 62
     0
100
AcDbMText
 10
163.5801085356478
 20
187.0986742268912
 30
0.0
 40
3.5
 41
0.0
 46
0.0
 71
     5
 72
     1
  1
14,00
 73
     1
 44
1.0
  0
POINT
  5
27C6
330
27BC
100
AcDbEntity
  8
Defpoints
 62
     0
100
AcDbPoint
 10
138.6291085356477
 20
171.7806819727751
 30
0.0
  0
POINT
  5
27C7
330
27BC
100
AcDbEntity
  8
Defpoints
 62
     0
100
AcDbPoint
 10
152.6291085356478
 20
171.7806819727751
 30
0.0
  0
POINT
  5
27C8
330
27BC
100
AcDbEntity
  8
Defpoints
 62
     0
100
AcDbPoint
 10
152.6291085356478
 20
183.5330075602245
 30
0.0
  0
ENDBLK
  5
27C9
330
27BC
100
AcDbEntity
  8
0
100
AcDbBlockEnd
  0
BLOCK
  5
27CE
330
27CD
100
AcDbEntity
  8
0
100
AcDbBlockBegin
  2
*D22
 70
     1
 10
0.0
 20
0.0
 30
0.0
  3
*D22
  1

  0
LINE
  5
27CF
330
27CD
100
AcDbEntity
  8
0
 62
     0
370
    -2
100
AcDbLine
 10
28.86206959177046
 20
138.7806819727751
 30
0.0
 11
5.416666666666663
 21
138.7806819727751
 31
0.0
  0
LINE
  5
27D0
330
27CD
100
AcDbEntity
  8
0
 62
     0
370
    -2
100
AcDbLine
 10
17.22362257088916
 20
158.2806819727751
 30
0.0
 11
5.416666666666664
 21
158.2806819727751
 31
0.0
  0
LINE
  5
27D1
330
27CD
100
AcDbEntity
  8
0
 62
     0
370
    -2
100
AcDbLine
 10
6.416666666666663
 20
142.0826819727751
 30
0.0
 11
6.416666666666663
 21
144.9650153061084
 31
0.0
  0
LINE
  5
27D2
330
27CD
100
AcDbEntity
  8
0
 62
     0
370
    -2
100
AcDbLine
 10
6.416666666666664
 20
154.9786819727751
 30
0.0
 11
6.416666666666664
 21
152.0963486394417
 31
0.0
  0
SOLID
  5
27D3
330
27CD
100
AcDbEntity
  8
0
 62
     0
100
AcDbTrace
 10
5.86633333333333
 20
142.0826819727751
 30
0.0
 11
6.966999999999997
 21
142.0826819727751
 31
0.0
 12
6.416666666666663
 22
138.7806819727751
 32
0.0
 13
6.416666666666663
 23
138.7806819727751
 33
0.0
  0
SOLID
  5
27D4
330
27CD
100
AcDbEntity
  8
0
 62
     0
100
AcDbTrace
 10
6.966999999999998
 20
154.9786819727751
 30
0.0
 11
5.866333333333331
 21
154.9786819727751
 31
0.0
 12
6.416666666666664
 22
158.2806819727751
 32
0.0
 13
6.416666666666664
 23
158.2806819727751
 33
0.0
  0
MTEXT
  5
27D5
330
27CD
100
AcDbEntity
  8
0
 62
     0
100
AcDbMText
 10
6.416666666666664
 20
148.5306819727751
 30
0.0
 40
3.5
 41
0.0
 46
0.0
 71
     5
 72
     1
  1
19,50
 73
     1
 44
1.0
  0
POINT
  5
27D6
330
27CD
100
AcDbEntity
  8
Defpoints
 62
     0
100
AcDbPoint
 10
29.86206959177046
 20
138.7806819727751
 30
0.0
  0
POINT
  5
27D7
330
27CD
100
AcDbEntity
  8
Defpoints
 62
     0
100
AcDbPoint
 10
18.22362257088916
 20
158.2806819727751
 30
0.0
  0
POINT
  5
27D8
330
27CD
100
AcDbEntity
  8
Defpoints
 62
     0
100
AcDbPoint
 10
6.416666666666664
 20
158.2806819727751
 30
0.0
  0
ENDBLK
  5
27D9
330
27CD
100
AcDbEntity
  8
0
100
AcDbBlockEnd
  0
BLOCK
  5
27DC
330
27DB
100
AcDbEntity
  8
0
100
AcDbBlockBegin
  2
*D23
 70
     1
 10
0.0
 20
0.0
 30
0.0
  3
*D23
  1

  0
LINE
  5
27DD
330
27DB
100
AcDbEntity
  8
0
 62
     0
370
    -2
100
AcDbLine
 10
58.56706959177045
 20
171.7806819727751
 30
0.0
 11
96.67548038860718
 21
171.7806819727751
 31
0.0
  0
LINE
  5
27DE
330
27DB
100
AcDbEntity
  8
0
 62
     0
370
    -2
100
AcDbLine
 10
58.56706959177046
 20
91.78068197277508
 30
0.0
 11
96.67548038860718
 21
91.78068197277508
 31
0.0
  0
LINE
  5
27DF
330
27DB
100
AcDbEntity
  8
0
 62
     0
370
    -2
100
AcDbLine
 10
95.67548038860718
 20
168.4786819727751
 30
0.0
 11
95.67548038860718
 21
135.3463486394417
 31
0.0
  0
LINE
  5
27E0
330
27DB
100
AcDbEntity
  8
0
 62
     0
370
    -2
100
AcDbLine
 10
95.67548038860718
 20
95.08268197277508
 30
0.0
 11
95.67548038860718
 21
128.2150153061084
 31
0.0
  0
SOLID
  5
27E1
330
27DB
100
AcDbEntity
  8
0
 62
     0
100
AcDbTrace
 10
96.22581372194051
 20
168.4786819727751
 30
0.0
 11
95.12514705527386
 21
168.4786819727751
 31
0.0
 12
95.67548038860718
 22
171.7806819727751
 32
0.0
 13
95.67548038860718
 23
171.7806819727751
 33
0.0
  0
SOLID
  5
27E2
330
27DB
100
AcDbEntity
  8
0
 62
     0
100
AcDbTrace
 10
95.12514705527386
 20
95.08268197277508
 30
0.0
 11
96.22581372194051
 21
95.08268197277508
 31
0.0
 12
95.67548038860718
 22
91.78068197277508
 32
0.0
 13
95.67548038860718
 23
91.78068197277508
 33
0.0
  0
MTEXT
  5
27E3
330
27DB
100
AcDbEntity
  8
0
 62
     0
100
AcDbMText
 10
95.67548038860718
 20
131.7806819727751
 30
0.0
 40
3.5
 41
0.0
 46
0.0
 71
     5
 72
     1
  1
80,00
 73
     1
 44
1.0
  0
POINT
  5
27E4
330
27DB
100
AcDbEntity
  8
Defpoints
 62
     0
100
AcDbPoint
 10
57.56706959177045
 20
171.7806819727751
 30
0.0
  0
POINT
  5
27E5
330
27DB
100
AcDbEntity
  8
Defpoints
 62
     0
100
AcDbPoint
 10
57.56706959177046
 20
91.78068197277508
 30
0.0
  0
POINT
  5
27E6
330
27DB
100
AcDbEntity
  8
Defpoints
 62
     0
100
AcDbPoint
 10
95.67548038860718
 20
91.78068197277508
 30
0.0
  0
ENDBLK
  5
27E7
330
27DB
100
AcDbEntity
  8
0
100
AcDbBlockEnd
  0
BLOCK
  5
27EC
330
27EB
100
AcDbEntity
  8
0
100
AcDbBlockBegin
  2
*D24
 70
     1
 10
0.0
 20
0.0
 30
0.0
  3
*D24
  1

  0
LINE
  5
27ED
330
27EB
100
AcDbEntity
  8
0
 62
     0
370
    -2
100
AcDbLine
 10
137.6291085356477
 20
171.7806819727751
 30
0.0
 11
116.7839881465803
 21
171.7806819727751
 31
0.0
  0
LINE
  5
27EE
330
27EB
100
AcDbEntity
  8
0
 62
     0
370
    -2
100
AcDbLine
 10
135.8791085356477
 20
177.7806819727751
 30
0.0
 11
116.7839881465803
 21
177.7806819727751
 31
0.0
  0
LINE
  5
27EF
330
27EB
100
AcDbEntity
  8
0
 62
     0
370
    -2
100
AcDbLine
 10
117.7839881465803
 20
184.3846819727751
 30
0.0
 11
129.224654813247
 21
184.3846819727751
 31
0.0
  0
LINE
  5
27F0
330
27EB
100
AcDbEntity
  8
0
 62
     0
370
    -2
100
AcDbLine
 10
117.7839881465803
 20
171.7806819727751
 30
0.0
 11
117.7839881465803
 21
177.7806819727751
 31
0.0
  0
LINE
  5
27F1
330
27EB
100
AcDbEntity
  8
0
 62
     0
370
    -2
100
AcDbLine
 10
117.7839881465803
 20
177.7806819727751
 30
0.0
 11
117.7839881465803
 21
171.7806819727751
 31
0.0
  0
LINE
  5
27F2
330
27EB
100
AcDbEntity
  8
0
 62
     0
370
    -2
100
AcDbLine
 10
117.7839881465803
 20
168.4786819727751
 30
0.0
 11
117.7839881465803
 21
165.1766819727751
 31
0.0
  0
LINE
  5
27F3
330
27EB
100
AcDbEntity
  8
0
 62
     0
370
    -2
100
AcDbLine
 10
117.7839881465803
 20
181.0826819727751
 30
0.0
 11
117.7839881465803
 21
184.3846819727751
 31
0.0
  0
SOLID
  5
27F4
330
27EB
100
AcDbEntity
  8
0
 62
     0
100
AcDbTrace
 10
118.3343214799136
 20
168.4786819727751
 30
0.0
 11
117.233654813247
 21
168.4786819727751
 31
0.0
 12
117.7839881465803
 22
171.7806819727751
 32
0.0
 13
117.7839881465803
 23
171.7806819727751
 33
0.0
  0
SOLID
  5
27F5
330
27EB
100
AcDbEntity
  8
0
 62
     0
100
AcDbTrace
 10
117.233654813247
 20
181.0826819727751
 30
0.0
 11
118.3343214799136
 21
181.0826819727751
 31
0.0
 12
117.7839881465803
 22
177.7806819727751
 32
0.0
 13
117.7839881465803
 23
177.7806819727751
 33
0.0
  0
MTEXT
  5
27F6
330
27EB
100
AcDbEntity
  8
0
 62
     0
100
AcDbMText
 10
124.2663214799136
 20
187.9503486394418
 30
0.0
 40
3.5
 41
0.0
 46
0.0
 71
     5
 72
     1
  1
6,00
 73
     1
 44
1.0
  0
POINT
  5
27F7
330
27EB
100
AcDbEntity
  8
Defpoints
 62
     0
100
AcDbPoint
 10
138.6291085356477
 20
171.7806819727751
 30
0.0
  0
POINT
  5
27F8
330
27EB
100
AcDbEntity
  8
Defpoints
 62
     0
100
AcDbPoint
 10
136.8791085356477
 20
177.7806819727751
 30
0.0
  0
POINT
  5
27F9
330
27EB
100
AcDbEntity
  8
Defpoints
 62
     0
100
AcDbPoint
 10
117.7839881465803
 20
177.7806819727751
 30
0.0
  0
ENDBLK
  5
27FA
330
27EB
100
AcDbEntity
  8
0
100
AcDbBlockEnd
  0
BLOCK
  5
27FD
330
27FC
100
AcDbEntity
  8
0
100
AcDbBlockBegin
  2
*D25
 70
     1
 10
0.0
 20
0.0
 30
0.0
  3
*D25
  1

  0
LINE
  5
27FE
330
27FC
100
AcDbEntity
  8
0
 62
     0
370
    -2
100
AcDbLine
 10
17.31706959177043
 20
33.50000000000002
 30
0.0
 11
17.31706959177043
 21
72.23928720010962
 31
0.0
  0
LINE
  5
27FF
330
27FC
100
AcDbEntity
  8
0
 62
     0
370
    -2
100
AcDbLine
 10
82.31706959177043
 20
33.50000000000002
 30
0.0
 11
82.31706959177043
 21
72.23928720010962
 31
0.0
  0
LINE
  5
2800
330
27FC
100
AcDbEntity
  8
0
 62
     0
370
    -2
100
AcDbLine
 10
20.61906959177043
 20
71.23928720010962
 30
0.0
 11
79.01506959177044
 21
71.23928720010962
 31
0.0
  0
LINE
  5
2801
330
27FC
100
AcDbEntity
  8
0
 62
     0
370
    -2
100
AcDbLine
 10
79.01506959177044
 20
71.23928720010962
 30
0.0
 11
20.61906959177043
 21
71.23928720010962
 31
0.0
  0
SOLID
  5
2802
330
27FC
100
AcDbEntity
  8
0
 62
     0
100
AcDbTrace
 10
20.61906959177043
 20
71.78962053344294
 30
0.0
 11
20.61906959177043
 21
70.68895386677629
 31
0.0
 12
17.31706959177043
 22
71.23928720010962
 32
0.0
 13
17.31706959177043
 23
71.23928720010962
 33
0.0
  0
SOLID
  5
2803
330
27FC
100
AcDbEntity
  8
0
 62
     0
100
AcDbTrace
 10
79.01506959177044
 20
70.68895386677629
 30
0.0
 11
79.01506959177044
 21
71.78962053344294
 31
0.0
 12
82.31706959177043
 22
71.23928720010962
 32
0.0
 13
82.31706959177043
 23
71.23928720010962
 33
0.0
  0
MTEXT
  5
2804
330
27FC
100
AcDbEntity
  8
0
 62
     0
100
AcDbMText
 10
49.81706959177043
 20
74.80495386677629
 30
0.0
 40
3.5
 41
0.0
 46
0.0
 71
     5
 72
     1
  1
65,00
 73
     1
 44
1.0
  0
POINT
  5
2805
330
27FC
100
AcDbEntity
  8
Defpoints
 62
     0
100
AcDbPoint
 10
17.31706959177043
 20
32.50000000000002
 30
0.0
  0
POINT
  5
2806
330
27FC
100
AcDbEntity
  8
Defpoints
 62
     0
100
AcDbPoint
 10
82.31706959177043
 20
32.50000000000002
 30
0.0
  0
POINT
  5
2807
330
27FC
100
AcDbEntity
  8
Defpoints
 62
     0
100
AcDbPoint
 10
82.31706959177043
 20
71.23928720010962
 30
0.0
  0
ENDBLK
  5
2808
330
27FC
100
AcDbEntity
  8
0
100
AcDbBlockEnd
  0
BLOCK
  5
280B
330
280A
100
AcDbEntity
  8
0
100
AcDbBlockBegin
  2
*D26
 70
     1
 10
0.0
 20
0.0
 30
0.0
  3
*D26
  1

  0
LINE
  5
280C
330
280A
100
AcDbEntity
  8
0
 62
     0
370
    -2
100
AcDbLine
 10
68.87532576529523
 20
41.24456849315528
 30
0.0
 11
95.81436169240759
 21
41.24456849315528
 31
0.0
  0
LINE
  5
280D
330
280A
100
AcDbEntity
  8
0
 62
     0
370
    -2
100
AcDbLine
 10
68.87532576529524
 20
23.74456849315528
 30
0.0
 11
95.81436169240759
 21
23.74456849315528
 31
0.0
  0
LINE
  5
280E
330
280A
100
AcDbEntity
  8
0
 62
     0
370
    -2
100
AcDbLine
 10
94.81436169240759
 20
37.94256849315529
 30
0.0
 11
94.81436169240759
 21
36.06023515982195
 31
0.0
  0
LINE
  5
280F
330
280A
100
AcDbEntity
  8
0
 62
     0
370
    -2
100
AcDbLine
 10
94.81436169240759
 20
27.04656849315528
 30
0.0
 11
94.81436169240759
 21
28.92890182648862
 31
0.0
  0
SOLID
  5
2810
330
280A
100
AcDbEntity
  8
0
 62
     0
100
AcDbTrace
 10
95.36469502574091
 20
37.94256849315529
 30
0.0
 11
94.26402835907426
 21
37.94256849315529
 31
0.0
 12
94.81436169240759
 22
41.24456849315528
 32
0.0
 13
94.81436169240759
 23
41.24456849315528
 33
0.0
  0
SOLID
  5
2811
330
280A
100
AcDbEntity
  8
0
 62
     0
100
AcDbTrace
 10
94.26402835907426
 20
27.04656849315528
 30
0.0
 11
95.36469502574091
 21
27.04656849315528
 31
0.0
 12
94.81436169240759
 22
23.74456849315528
 32
0.0
 13
94.81436169240759
 23
23.74456849315528
 33
0.0
  0
MTEXT
  5
2812
330
280A
100
AcDbEntity
  8
0
 62
     0
100
AcDbMText
 10
94.81436169240759
 20
32.49456849315528
 30
0.0
 40
3.5
 41
0.0
 46
0.0
 71
     5
 72
     1
  1
17,50
 73
     1
 44
1.0
  0
POINT
  5
2813
330
280A
100
AcDbEntity
  8
Defpoints
 62
     0
100
AcDbPoint
 10
67.87532576529523
 20
41.24456849315528
 30
0.0
  0
POINT
  5
2814
330
280A
100
AcDbEntity
  8
Defpoints
 62
     0
100
AcDbPoint
 10
67.87532576529524
 20
23.74456849315528
 30
0.0
  0
POINT
  5
2815
330
280A
100
AcDbEntity
  8
Defpoints
 62
     0
100
AcDbPoint
 10
94.81436169240759
 20
23.74456849315528
 30
0.0
  0
ENDBLK
  5
2816
330
280A
100
AcDbEntity
  8
0
100
AcDbBlockEnd
  0
BLOCK
  5
2E6E
330
2E6D
100
AcDbEntity
  8
0
100
AcDbBlockBegin
  2
*D27
 70
     1
 10
0.0
 20
0.0
 30
0.0
  3
*D27
  1

  0
LINE
  5
2E70
330
2E6D
100
AcDbEntity
  8
DIM
 62
     0
370
    -2
100
AcDbLine
 10
264.7117250754644
 20
233.8250846969107
 30
0.0
 11
264.7117250754644
 21
243.917928710503
 31
0.0
  0
LINE
  5
2E71
330
2E6D
100
AcDbEntity
  8
DIM
 62
     0
370
    -2
100
AcDbLine
 10
317.7117250754644
 20
233.8250846969107
 30
0.0
 11
317.7117250754644
 21
243.917928710503
 31
0.0
  0
LINE
  5
2E72
330
2E6D
100
AcDbEntity
  8
DIM
 62
     0
370
    -2
100
AcDbLine
 10
268.0137250754644
 20
242.917928710503
 30
0.0
 11
314.4097250754643
 21
242.917928710503
 31
0.0
  0
LINE
  5
2E73
330
2E6D
100
AcDbEntity
  8
DIM
 62
     0
370
    -2
100
AcDbLine
 10
314.4097250754643
 20
242.917928710503
 30
0.0
 11
268.0137250754644
 21
242.917928710503
 31
0.0
  0
SOLID
  5
2E74
330
2E6D
100
AcDbEntity
  8
DIM
 62
     0
100
AcDbTrace
 10
268.0137250754644
 20
243.4682620438363
 30
0.0
 11
268.0137250754644
 21
242.3675953771697
 31
0.0
 12
264.7117250754644
 22
242.917928710503
 32
0.0
 13
264.7117250754644
 23
242.917928710503
 33
0.0
  0
SOLID
  5
2E75
330
2E6D
100
AcDbEntity
  8
DIM
 62
     0
100
AcDbTrace
 10
314.4097250754643
 20
242.3675953771697
 30
0.0
 11
314.4097250754643
 21
243.4682620438363
 31
0.0
 12
317.7117250754644
 22
242.917928710503
 32
0.0
 13
317.7117250754644
 23
242.917928710503
 33
0.0
  0
MTEXT
  5
2E76
330
2E6D
100
AcDbEntity
  8
DIM
 62
     0
100
AcDbMText
 10
291.2117250754644
 20
246.4835953771697
 30
0.0
 40
3.5
 41
0.0
 46
0.0
 71
     5
 72
     1
  1
53,00
 73
     1
 44
1.0
  0
POINT
  5
2E77
330
2E6D
100
AcDbEntity
  8
Defpoints
 62
     0
100
AcDbPoint
 10
264.7117250754644
 20
232.8250846969107
 30
0.0
  0
POINT
  5
2E78
330
2E6D
100
AcDbEntity
  8
Defpoints
 62
     0
100
AcDbPoint
 10
317.7117250754644
 20
232.8250846969107
 30
0.0
  0
POINT
  5
2E79
330
2E6D
100
AcDbEntity
  8
Defpoints
 62
     0
100
AcDbPoint
 10
317.7117250754644
 20
242.917928710503
 30
0.0
  0
ENDBLK
  5
2E6F
330
2E6D
100
AcDbEntity
  8
0
100
AcDbBlockEnd
  0
BLOCK
  5
2E7B
330
2E7A
100
AcDbEntity
  8
0
100
AcDbBlockBegin
  2
*D28
 70
     1
 10
0.0
 20
0.0
 30
0.0
  3
*D28
  1

  0
LINE
  5
2E7D
330
2E7A
100
AcDbEntity
  8
DIM
 62
     0
370
    -2
100
AcDbLine
 10
380.0237640193417
 20
227.8250846969106
 30
0.0
 11
380.0237640193417
 21
239.5774102843601
 31
0.0
  0
LINE
  5
2E7E
330
2E7A
100
AcDbEntity
  8
DIM
 62
     0
370
    -2
100
AcDbLine
 10
394.0237640193417
 20
227.8250846969106
 30
0.0
 11
394.0237640193417
 21
239.5774102843601
 31
0.0
  0
LINE
  5
2E7F
330
2E7A
100
AcDbEntity
  8
DIM
 62
     0
370
    -2
100
AcDbLine
 10
394.0237640193417
 20
238.5774102843601
 30
0.0
 11
412.6237640193417
 21
238.5774102843601
 31
0.0
  0
LINE
  5
2E80
330
2E7A
100
AcDbEntity
  8
DIM
 62
     0
370
    -2
100
AcDbLine
 10
383.3257640193417
 20
238.5774102843601
 30
0.0
 11
390.7217640193417
 21
238.5774102843601
 31
0.0
  0
LINE
  5
2E81
330
2E7A
100
AcDbEntity
  8
DIM
 62
     0
370
    -2
100
AcDbLine
 10
390.7217640193417
 20
238.5774102843601
 30
0.0
 11
383.3257640193417
 21
238.5774102843601
 31
0.0
  0
SOLID
  5
2E82
330
2E7A
100
AcDbEntity
  8
DIM
 62
     0
100
AcDbTrace
 10
383.3257640193417
 20
239.1277436176934
 30
0.0
 11
383.3257640193417
 21
238.0270769510268
 31
0.0
 12
380.0237640193417
 22
238.5774102843601
 32
0.0
 13
380.0237640193417
 23
238.5774102843601
 33
0.0
  0
SOLID
  5
2E83
330
2E7A
100
AcDbEntity
  8
DIM
 62
     0
100
AcDbTrace
 10
390.7217640193417
 20
238.0270769510268
 30
0.0
 11
390.7217640193417
 21
239.1277436176934
 31
0.0
 12
394.0237640193417
 22
238.5774102843601
 32
0.0
 13
394.0237640193417
 23
238.5774102843601
 33
0.0
  0
MTEXT
  5
2E84
330
2E7A
100
AcDbEntity
  8
DIM
 62
     0
100
AcDbMText
 10
404.9747640193417
 20
242.1430769510268
 30
0.0
 40
3.5
 41
0.0
 46
0.0
 71
     5
 72
     1
  1
14,00
 73
     1
 44
1.0
  0
POINT
  5
2E85
330
2E7A
100
AcDbEntity
  8
Defpoints
 62
     0
100
AcDbPoint
 10
380.0237640193417
 20
226.8250846969106
 30
0.0
  0
POINT
  5
2E86
330
2E7A
100
AcDbEntity
  8
Defpoints
 62
     0
100
AcDbPoint
 10
394.0237640193417
 20
226.8250846969106
 30
0.0
  0
POINT
  5
2E87
330
2E7A
100
AcDbEntity
  8
Defpoints
 62
     0
100
AcDbPoint
 10
394.0237640193417
 20
238.5774102843601
 30
0.0
  0
ENDBLK
  5
2E7C
330
2E7A
100
AcDbEntity
  8
0
100
AcDbBlockEnd
  0
BLOCK
  5
2E89
330
2E88
100
AcDbEntity
  8
0
100
AcDbBlockBegin
  2
*D29
 70
     1
 10
0.0
 20
0.0
 30
0.0
  3
*D29
  1

  0
LINE
  5
2E8B
330
2E88
100
AcDbEntity
  8
DIM
 62
     0
370
    -2
100
AcDbLine
 10
270.2567250754644
 20
193.8250846969106
 30
0.0
 11
246.8113221503606
 21
193.8250846969106
 31
0.0
  0
LINE
  5
2E8C
330
2E88
100
AcDbEntity
  8
DIM
 62
     0
370
    -2
100
AcDbLine
 10
258.6182780545831
 20
213.3250846969106
 30
0.0
 11
246.8113221503606
 21
213.3250846969106
 31
0.0
  0
LINE
  5
2E8D
330
2E88
100
AcDbEntity
  8
DIM
 62
     0
370
    -2
100
AcDbLine
 10
247.8113221503606
 20
197.1270846969106
 30
0.0
 11
247.8113221503606
 21
200.009418030244
 31
0.0
  0
LINE
  5
2E8E
330
2E88
100
AcDbEntity
  8
DIM
 62
     0
370
    -2
100
AcDbLine
 10
247.8113221503606
 20
210.0230846969106
 30
0.0
 11
247.8113221503606
 21
207.1407513635773
 31
0.0
  0
SOLID
  5
2E8F
330
2E88
100
AcDbEntity
  8
DIM
 62
     0
100
AcDbTrace
 10
247.2609888170273
 20
197.1270846969106
 30
0.0
 11
248.3616554836939
 21
197.1270846969106
 31
0.0
 12
247.8113221503606
 22
193.8250846969106
 32
0.0
 13
247.8113221503606
 23
193.8250846969106
 33
0.0
  0
SOLID
  5
2E90
330
2E88
100
AcDbEntity
  8
DIM
 62
     0
100
AcDbTrace
 10
248.3616554836939
 20
210.0230846969106
 30
0.0
 11
247.2609888170273
 21
210.0230846969106
 31
0.0
 12
247.8113221503606
 22
213.3250846969106
 32
0.0
 13
247.8113221503606
 23
213.3250846969106
 33
0.0
  0
MTEXT
  5
2E91
330
2E88
100
AcDbEntity
  8
DIM
 62
     0
100
AcDbMText
 10
247.8113221503606
 20
203.5750846969106
 30
0.0
 40
3.5
 41
0.0
 46
0.0
 71
     5
 72
     1
  1
19,50
 73
     1
 44
1.0
  0
POINT
  5
2E92
330
2E88
100
AcDbEntity
  8
Defpoints
 62
     0
100
AcDbPoint
 10
271.2567250754644
 20
193.8250846969106
 30
0.0
  0
POINT
  5
2E93
330
2E88
100
AcDbEntity
  8
Defpoints
 62
     0
100
AcDbPoint
 10
259.6182780545831
 20
213.3250846969106
 30
0.0
  0
POINT
  5
2E94
330
2E88
100
AcDbEntity
  8
Defpoints
 62
     0
100
AcDbPoint
 10
247.8113221503606
 20
213.3250846969106
 30
0.0
  0
ENDBLK
  5
2E8A
330
2E88
100
AcDbEntity
  8
0
100
AcDbBlockEnd
  0
BLOCK
  5
2E96
330
2E95
100
AcDbEntity
  8
0
100
AcDbBlockBegin
  2
*D30
 70
     1
 10
0.0
 20
0.0
 30
0.0
  3
*D30
  1

  0
LINE
  5
2E98
330
2E95
100
AcDbEntity
  8
DIM
 62
     0
370
    -2
100
AcDbLine
 10
299.9617250754644
 20
226.8250846969106
 30
0.0
 11
338.0701358723011
 21
226.8250846969106
 31
0.0
  0
LINE
  5
2E99
330
2E95
100
AcDbEntity
  8
DIM
 62
     0
370
    -2
100
AcDbLine
 10
299.9617250754644
 20
146.8250846969106
 30
0.0
 11
338.0701358723011
 21
146.8250846969106
 31
0.0
  0
LINE
  5
2E9A
330
2E95
100
AcDbEntity
  8
DIM
 62
     0
370
    -2
100
AcDbLine
 10
337.0701358723011
 20
223.5230846969106
 30
0.0
 11
337.0701358723011
 21
190.3907513635773
 31
0.0
  0
LINE
  5
2E9B
330
2E95
100
AcDbEntity
  8
DIM
 62
     0
370
    -2
100
AcDbLine
 10
337.0701358723011
 20
150.1270846969106
 30
0.0
 11
337.0701358723011
 21
183.259418030244
 31
0.0
  0
SOLID
  5
2E9C
330
2E95
100
AcDbEntity
  8
DIM
 62
     0
100
AcDbTrace
 10
337.6204692056344
 20
223.5230846969106
 30
0.0
 11
336.5198025389677
 21
223.5230846969106
 31
0.0
 12
337.0701358723011
 22
226.8250846969106
 32
0.0
 13
337.0701358723011
 23
226.8250846969106
 33
0.0
  0
SOLID
  5
2E9D
330
2E95
100
AcDbEntity
  8
DIM
 62
     0
100
AcDbTrace
 10
336.5198025389677
 20
150.1270846969106
 30
0.0
 11
337.6204692056344
 21
150.1270846969106
 31
0.0
 12
337.0701358723011
 22
146.8250846969106
 32
0.0
 13
337.0701358723011
 23
146.8250846969106
 33
0.0
  0
MTEXT
  5
2E9E
330
2E95
100
AcDbEntity
  8
DIM
 62
     0
100
AcDbMText
 10
337.0701358723011
 20
186.8250846969106
 30
0.0
 40
3.5
 41
0.0
 46
0.0
 71
     5
 72
     1
  1
80,00
 73
     1
 44
1.0
  0
POINT
  5
2E9F
330
2E95
100
AcDbEntity
  8
Defpoints
 62
     0
100
AcDbPoint
 10
298.9617250754644
 20
226.8250846969106
 30
0.0
  0
POINT
  5
2EA0
330
2E95
100
AcDbEntity
  8
Defpoints
 62
     0
100
AcDbPoint
 10
298.9617250754644
 20
146.8250846969106
 30
0.0
  0
POINT
  5
2EA1
330
2E95
100
AcDbEntity
  8
Defpoints
 62
     0
100
AcDbPoint
 10
337.0701358723011
 20
146.8250846969106
 30
0.0
  0
ENDBLK
  5
2E97
330
2E95
100
AcDbEntity
  8
0
100
AcDbBlockEnd
  0
BLOCK
  5
2EA3
330
2EA2
100
AcDbEntity
  8
0
100
AcDbBlockBegin
  2
*D31
 70
     1
 10
0.0
 20
0.0
 30
0.0
  3
*D31
  1

  0
LINE
  5
2EA5
330
2EA2
100
AcDbEntity
  8
DIM
 62
     0
370
    -2
100
AcDbLine
 10
379.0237640193417
 20
226.8250846969106
 30
0.0
 11
358.1786436302742
 21
226.8250846969106
 31
0.0
  0
LINE
  5
2EA6
330
2EA2
100
AcDbEntity
  8
DIM
 62
     0
370
    -2
100
AcDbLine
 10
377.2737640193417
 20
232.8250846969107
 30
0.0
 11
358.1786436302742
 21
232.8250846969107
 31
0.0
  0
LINE
  5
2EA7
330
2EA2
100
AcDbEntity
  8
DIM
 62
     0
370
    -2
100
AcDbLine
 10
359.1786436302742
 20
239.4290846969106
 30
0.0
 11
370.6193102969409
 21
239.4290846969106
 31
0.0
  0
LINE
  5
2EA8
330
2EA2
100
AcDbEntity
  8
DIM
 62
     0
370
    -2
100
AcDbLine
 10
359.1786436302742
 20
226.8250846969106
 30
0.0
 11
359.1786436302742
 21
232.8250846969107
 31
0.0
  0
LINE
  5
2EA9
330
2EA2
100
AcDbEntity
  8
DIM
 62
     0
370
    -2
100
AcDbLine
 10
359.1786436302742
 20
232.8250846969107
 30
0.0
 11
359.1786436302742
 21
226.8250846969106
 31
0.0
  0
LINE
  5
2EAA
330
2EA2
100
AcDbEntity
  8
DIM
 62
     0
370
    -2
100
AcDbLine
 10
359.1786436302742
 20
223.5230846969106
 30
0.0
 11
359.1786436302742
 21
220.2210846969107
 31
0.0
  0
LINE
  5
2EAB
330
2EA2
100
AcDbEntity
  8
DIM
 62
     0
370
    -2
100
AcDbLine
 10
359.1786436302742
 20
236.1270846969107
 30
0.0
 11
359.1786436302742
 21
239.4290846969106
 31
0.0
  0
SOLID
  5
2EAC
330
2EA2
100
AcDbEntity
  8
DIM
 62
     0
100
AcDbTrace
 10
359.7289769636076
 20
223.5230846969106
 30
0.0
 11
358.6283102969409
 21
223.5230846969106
 31
0.0
 12
359.1786436302742
 22
226.8250846969106
 32
0.0
 13
359.1786436302742
 23
226.8250846969106
 33
0.0
  0
SOLID
  5
2EAD
330
2EA2
100
AcDbEntity
  8
DIM
 62
     0
100
AcDbTrace
 10
358.6283102969409
 20
236.1270846969107
 30
0.0
 11
359.7289769636076
 21
236.1270846969107
 31
0.0
 12
359.1786436302742
 22
232.8250846969107
 32
0.0
 13
359.1786436302742
 23
232.8250846969107
 33
0.0
  0
MTEXT
  5
2EAE
330
2EA2
100
AcDbEntity
  8
DIM
 62
     0
100
AcDbMText
 10
365.6609769636075
 20
242.9947513635773
 30
0.0
 40
3.5
 41
0.0
 46
0.0
 71
     5
 72
     1
  1
6,00
 73
     1
 44
1.0
  0
POINT
  5
2EAF
330
2EA2
100
AcDbEntity
  8
Defpoints
 62
     0
100
AcDbPoint
 10
380.0237640193417
 20
226.8250846969106
 30
0.0
  0
POINT
  5
2EB0
330
2EA2
100
AcDbEntity
  8
Defpoints
 62
     0
100
AcDbPoint
 10
378.2737640193417
 20
232.8250846969107
 30
0.0
  0
POINT
  5
2EB1
330
2EA2
100
AcDbEntity
  8
Defpoints
 62
     0
100
AcDbPoint
 10
359.1786436302742
 20
232.8250846969107
 30
0.0
  0
ENDBLK
  5
2EA4
330
2EA2
100
AcDbEntity
  8
0
100
AcDbBlockEnd
  0
BLOCK
  5
2EB3
330
2EB2
100
AcDbEntity
  8
0
100
AcDbBlockBegin
  2
*D32
 70
     1
 10
0.0
 20
0.0
 30
0.0
  3
*D32
  1

  0
LINE
  5
2EB5
330
2EB2
100
AcDbEntity
  8
DIM
 62
     0
370
    -2
100
AcDbLine
 10
258.7117250754644
 20
88.54440272413558
 30
0.0
 11
258.7117250754644
 21
127.2836899242452
 31
0.0
  0
LINE
  5
2EB6
330
2EB2
100
AcDbEntity
  8
DIM
 62
     0
370
    -2
100
AcDbLine
 10
323.7117250754644
 20
88.54440272413558
 30
0.0
 11
323.7117250754644
 21
127.2836899242452
 31
0.0
  0
LINE
  5
2EB7
330
2EB2
100
AcDbEntity
  8
DIM
 62
     0
370
    -2
100
AcDbLine
 10
262.0137250754644
 20
126.2836899242452
 30
0.0
 11
320.4097250754643
 21
126.2836899242452
 31
0.0
  0
LINE
  5
2EB8
330
2EB2
100
AcDbEntity
  8
DIM
 62
     0
370
    -2
100
AcDbLine
 10
320.4097250754643
 20
126.2836899242452
 30
0.0
 11
262.0137250754644
 21
126.2836899242452
 31
0.0
  0
SOLID
  5
2EB9
330
2EB2
100
AcDbEntity
  8
DIM
 62
     0
100
AcDbTrace
 10
262.0137250754644
 20
126.8340232575785
 30
0.0
 11
262.0137250754644
 21
125.7333565909118
 31
0.0
 12
258.7117250754644
 22
126.2836899242452
 32
0.0
 13
258.7117250754644
 23
126.2836899242452
 33
0.0
  0
SOLID
  5
2EBA
330
2EB2
100
AcDbEntity
  8
DIM
 62
     0
100
AcDbTrace
 10
320.4097250754643
 20
125.7333565909118
 30
0.0
 11
320.4097250754643
 21
126.8340232575785
 31
0.0
 12
323.7117250754644
 22
126.2836899242452
 32
0.0
 13
323.7117250754644
 23
126.2836899242452
 33
0.0
  0
MTEXT
  5
2EBB
330
2EB2
100
AcDbEntity
  8
DIM
 62
     0
100
AcDbMText
 10
291.2117250754644
 20
129.8493565909118
 30
0.0
 40
3.5
 41
0.0
 46
0.0
 71
     5
 72
     1
  1
65,00
 73
     1
 44
1.0
  0
POINT
  5
2EBC
330
2EB2
100
AcDbEntity
  8
Defpoints
 62
     0
100
AcDbPoint
 10
258.7117250754644
 20
87.54440272413558
 30
0.0
  0
POINT
  5
2EBD
330
2EB2
100
AcDbEntity
  8
Defpoints
 62
     0
100
AcDbPoint
 10
323.7117250754644
 20
87.54440272413558
 30
0.0
  0
POINT
  5
2EBE
330
2EB2
100
AcDbEntity
  8
Defpoints
 62
     0
100
AcDbPoint
 10
323.7117250754644
 20
126.2836899242452
 30
0.0
  0
ENDBLK
  5
2EB4
330
2EB2
100
AcDbEntity
  8
0
100
AcDbBlockEnd
  0
BLOCK
  5
2EC0
330
2EBF
100
AcDbEntity
  8
0
100
AcDbBlockBegin
  2
*D33
 70
     1
 10
0.0
 20
0.0
 30
0.0
  3
*D33
  1

  0
LINE
  5
2EC2
330
2EBF
100
AcDbEntity
  8
DIM
 62
     0
370
    -2
100
AcDbLine
 10
310.2699812489892
 20
96.28897121729084
 30
0.0
 11
337.2090171761015
 21
96.28897121729084
 31
0.0
  0
LINE
  5
2EC3
330
2EBF
100
AcDbEntity
  8
DIM
 62
     0
370
    -2
100
AcDbLine
 10
310.2699812489892
 20
78.78897121729084
 30
0.0
 11
337.2090171761015
 21
78.78897121729084
 31
0.0
  0
LINE
  5
2EC4
330
2EBF
100
AcDbEntity
  8
DIM
 62
     0
370
    -2
100
AcDbLine
 10
336.2090171761015
 20
92.98697121729083
 30
0.0
 11
336.2090171761015
 21
91.10463788395751
 31
0.0
  0
LINE
  5
2EC5
330
2EBF
100
AcDbEntity
  8
DIM
 62
     0
370
    -2
100
AcDbLine
 10
336.2090171761015
 20
82.09097121729084
 30
0.0
 11
336.2090171761015
 21
83.97330455062416
 31
0.0
  0
SOLID
  5
2EC6
330
2EBF
100
AcDbEntity
  8
DIM
 62
     0
100
AcDbTrace
 10
336.7593505094349
 20
92.98697121729083
 30
0.0
 11
335.6586838427681
 21
92.98697121729083
 31
0.0
 12
336.2090171761015
 22
96.28897121729084
 32
0.0
 13
336.2090171761015
 23
96.28897121729084
 33
0.0
  0
SOLID
  5
2EC7
330
2EBF
100
AcDbEntity
  8
DIM
 62
     0
100
AcDbTrace
 10
335.6586838427681
 20
82.09097121729084
 30
0.0
 11
336.7593505094349
 21
82.09097121729084
 31
0.0
 12
336.2090171761015
 22
78.78897121729084
 32
0.0
 13
336.2090171761015
 23
78.78897121729084
 33
0.0
  0
MTEXT
  5
2EC8
330
2EBF
100
AcDbEntity
  8
DIM
 62
     0
100
AcDbMText
 10
336.2090171761015
 20
87.53897121729084
 30
0.0
 40
3.5
 41
0.0
 46
0.0
 71
     5
 72
     1
  1
17,50
 73
     1
 44
1.0
  0
POINT
  5
2EC9
330
2EBF
100
AcDbEntity
  8
Defpoints
 62
     0
100
AcDbPoint
 10
309.2699812489892
 20
96.28897121729084
 30
0.0
  0
POINT
  5
2ECA
330
2EBF
100
AcDbEntity
  8
Defpoints
 62
     0
100
AcDbPoint
 10
309.2699812489892
 20
78.78897121729084
 30
0.0
  0
POINT
  5
2ECB
330
2EBF
100
AcDbEntity
  8
Defpoints
 62
     0
100
AcDbPoint
 10
336.2090171761015
 20
78.78897121729084
 30
0.0
  0
ENDBLK
  5
2EC1
330
2EBF
100
AcDbEntity
  8
0
100
AcDbBlockEnd
  0
BLOCK
  5
2EF1
330
2EF0
100
AcDbEntity
  8
0
100
AcDbBlockBegin
  2
*D34
 70
     1
 10
0.0
 20
0.0
 30
0.0
  3
*D34
  1

  0
LINE
  5
2EF3
330
2EF0
100
AcDbEntity
  8
DIM
 62
     0
370
    -2
100
AcDbLine
 10
114.8145527138447
 20
174.7655799548672
 30
0.0
 11
153.8946491215103
 21
174.7655799548672
 31
0.0
  0
LINE
  5
2EF4
330
2EF0
100
AcDbEntity
  8
DIM
 62
     0
370
    -2
100
AcDbLine
 10
114.8145527138447
 20
194.7114996867699
 30
0.0
 11
153.8946491215103
 21
194.7114996867699
 31
0.0
  0
LINE
  5
2EF5
330
2EF0
100
AcDbEntity
  8
DIM
 62
     0
370
    -2
100
AcDbLine
 10
153.8946491215103
 20
175.7655799548672
 30
0.0
 11
153.8946491215103
 21
193.7114996867699
 31
0.0
  0
INSERT
  5
2EF6
330
2EF0
100
AcDbEntity
  8
DIM
 62
     0
370
    -2
100
AcDbBlockReference
  2
_DOT
 10
153.8946491215103
 20
174.7655799548672
 30
0.0
 50
270.0
  0
INSERT
  5
2EF7
330
2EF0
100
AcDbEntity
  8
DIM
 62
     0
370
    -2
100
AcDbBlockReference
  2
_DOT
 10
153.8946491215103
 20
194.7114996867699
 30
0.0
 50
90.0
  0
MTEXT
  5
2EF8
330
2EF0
100
AcDbEntity
  8
DIM
 62
     0
100
AcDbMText
 10
151.3940864104937
 20
184.7385398208185
 30
0.0
 40
3.0
 41
0.0
 46
0.0
 71
     5
 72
     1
  1
\A1;19.94592
  7
ＭＳ ゴシック
 11
0.0
 21
1.0
 31
0.0
 73
     1
 44
1.0
  0
POINT
  5
2EF9
330
2EF0
100
AcDbEntity
  8
Defpoints
 62
     0
100
AcDbPoint
 10
112.8145527138447
 20
174.7655799548672
 30
0.0
  0
POINT
  5
2EFA
330
2EF0
100
AcDbEntity
  8
Defpoints
 62
     0
100
AcDbPoint
 10
112.8145527138447
 20
194.7114996867699
 30
0.0
  0
POINT
  5
2EFB
330
2EF0
100
AcDbEntity
  8
Defpoints
 62
     0
100
AcDbPoint
 10
153.8946491215103
 20
194.7114996867699
 30
0.0
  0
ENDBLK
  5
2EF2
330
2EF0
100
AcDbEntity
  8
0
100
AcDbBlockEnd
  0
BLOCK
  5
48D1
330
48D0
100
AcDbEntity
  8
0
100
AcDbBlockBegin
  2
*D35
 70
     1
 10
0.0
 20
0.0
 30
0.0
  3
*D35
  1

  0
LINE
  5
48D3
330
48D0
100
AcDbEntity
  8
DIM
 62
     0
370
    -2
100
AcDbLine
 10
29.38527540730264
 20
51.9935749161196
 30
0.0
 11
17.04678945039496
 21
51.9935749161196
 31
0.0
  0
LINE
  5
48D4
330
48D0
100
AcDbEntity
  8
DIM
 62
     0
370
    -2
100
AcDbLine
 10
24.8825461018955
 20
47.4935749161196
 30
0.0
 11
17.04678945039496
 21
47.4935749161196
 31
0.0
  0
LINE
  5
48D5
330
48D0
100
AcDbEntity
  8
DIM
 62
     0
370
    -2
100
AcDbLine
 10
17.04678945039496
 20
50.9935749161196
 30
0.0
 11
17.04678945039496
 21
48.4935749161196
 31
0.0
  0
INSERT
  5
48D6
330
48D0
100
AcDbEntity
  8
DIM
 62
     0
370
    -2
100
AcDbBlockReference
  2
_DOT
 10
17.04678945039496
 20
51.9935749161196
 30
0.0
 50
90.0
  0
INSERT
  5
48D7
330
48D0
100
AcDbEntity
  8
DIM
 62
     0
370
    -2
100
AcDbBlockReference
  2
_DOT
 10
17.04678945039496
 20
47.4935749161196
 30
0.0
 50
270.0
  0
MTEXT
  5
48D8
330
48D0
100
AcDbEntity
  8
DIM
 62
     0
100
AcDbMText
 10
14.54622673937833
 20
49.7435749161196
 30
0.0
 40
3.0
 41
0.0
 46
0.0
 71
     5
 72
     1
  1
\A1;4.5
  7
ＭＳ ゴシック
 11
0.0
 21
1.0
 31
0.0
 73
     1
 44
1.0
  0
POINT
  5
48D9
330
48D0
100
AcDbEntity
  8
Defpoints
 62
     0
100
AcDbPoint
 10
31.38527540730264
 20
51.9935749161196
 30
0.0
  0
POINT
  5
48DA
330
48D0
100
AcDbEntity
  8
Defpoints
 62
     0
100
AcDbPoint
 10
26.8825461018955
 20
47.4935749161196
 30
0.0
  0
POINT
  5
48DB
330
48D0
100
AcDbEntity
  8
Defpoints
 62
     0
100
AcDbPoint
 10
17.04678945039496
 20
47.4935749161196
 30
0.0
  0
ENDBLK
  5
48D2
330
48D0
100
AcDbEntity
  8
0
100
AcDbBlockEnd
  0
BLOCK
  5
48E0
330
48DF
100
AcDbEntity
  8
0
100
AcDbBlockBegin
  2
*D36
 70
     1
 10
0.0
 20
0.0
 30
0.0
  3
*D36
  1

  0
LINE
  5
48E2
330
48DF
100
AcDbEntity
  8
DIM
 62
     0
370
    -2
100
AcDbLine
 10
124.3047471477183
 20
51.9884072694827
 30
0.0
 11
112.6853678775834
 21
51.9884072694827
 31
0.0
  0
LINE
  5
48E3
330
48DF
100
AcDbEntity
  8
DIM
 62
     0
370
    -2
100
AcDbLine
 10
118.9315861951522
 20
47.49357491611963
 30
0.0
 11
112.6853678775834
 21
47.49357491611963
 31
0.0
  0
LINE
  5
48E4
330
48DF
100
AcDbEntity
  8
DIM
 62
     0
370
    -2
100
AcDbLine
 10
112.6853678775834
 20
50.9884072694827
 30
0.0
 11
112.6853678775834
 21
48.49357491611963
 31
0.0
  0
INSERT
  5
48E5
330
48DF
100
AcDbEntity
  8
DIM
 62
     0
370
    -2
100
AcDbBlockReference
  2
_DOT
 10
112.6853678775834
 20
51.9884072694827
 30
0.0
 50
90.0
  0
INSERT
  5
48E6
330
48DF
100
AcDbEntity
  8
DIM
 62
     0
370
    -2
100
AcDbBlockReference
  2
_DOT
 10
112.6853678775834
 20
47.49357491611963
 30
0.0
 50
270.0
  0
MTEXT
  5
48E7
330
48DF
100
AcDbEntity
  8
DIM
 62
     0
100
AcDbMText
 10
110.1848051665668
 20
49.74099109280117
 30
0.0
 40
3.0
 41
0.0
 46
0.0
 71
     5
 72
     1
  1
\A1;4.5
  7
ＭＳ ゴシック
 11
0.0
 21
1.0
 31
0.0
 73
     1
 44
1.0
  0
POINT
  5
48E8
330
48DF
100
AcDbEntity
  8
Defpoints
 62
     0
100
AcDbPoint
 10
126.3047471477183
 20
51.9884072694827
 30
0.0
  0
POINT
  5
48E9
330
48DF
100
AcDbEntity
  8
Defpoints
 62
     0
100
AcDbPoint
 10
120.9315861951522
 20
47.49357491611963
 30
0.0
  0
POINT
  5
48EA
330
48DF
100
AcDbEntity
  8
Defpoints
 62
     0
100
AcDbPoint
 10
112.6853678775834
 20
47.49357491611963
 30
0.0
  0
ENDBLK
  5
48E1
330
48DF
100
AcDbEntity
  8
0
100
AcDbBlockEnd
  0
BLOCK
  5
48F0
330
48EF
100
AcDbEntity
  8
0
100
AcDbBlockBegin
  2
*D37
 70
     1
 10
0.0
 20
0.0
 30
0.0
  3
*D37
  1

  0
LINE
  5
48F2
330
48EF
100
AcDbEntity
  8
DIM
 62
     0
370
    -2
100
AcDbLine
 10
26.38249016232735
 20
45.9938031105757
 30
0.0
 11
26.38249016232735
 21
40.43901277518681
 31
0.0
  0
LINE
  5
48F3
330
48EF
100
AcDbEntity
  8
DIM
 62
     0
370
    -2
100
AcDbLine
 10
31.38527540730264
 20
49.9935749161196
 30
0.0
 11
31.38527540730264
 21
40.43901277518681
 31
0.0
  0
LINE
  5
48F4
330
48EF
100
AcDbEntity
  8
DIM
 62
     0
370
    -2
100
AcDbLine
 10
27.38249016232735
 20
40.43901277518681
 30
0.0
 11
30.38527540730264
 21
40.43901277518681
 31
0.0
  0
INSERT
  5
48F5
330
48EF
100
AcDbEntity
  8
DIM
 62
     0
370
    -2
100
AcDbBlockReference
  2
_DOT
 10
26.38249016232735
 20
40.43901277518681
 30
0.0
 50
180.0
  0
INSERT
  5
48F6
330
48EF
100
AcDbEntity
  8
DIM
 62
     0
370
    -2
100
AcDbBlockReference
  2
_DOT
 10
31.38527540730264
 20
40.43901277518681
 30
0.0
  0
MTEXT
  5
48F7
330
48EF
100
AcDbEntity
  8
DIM
 62
     0
100
AcDbMText
 10
28.88388278481499
 20
42.93957548620345
 30
0.0
 40
3.0
 41
0.0
 46
0.0
 71
     5
 72
     1
  1
\A1;5
  7
ＭＳ ゴシック
 73
     1
 44
1.0
  0
POINT
  5
48F8
330
48EF
100
AcDbEntity
  8
Defpoints
 62
     0
100
AcDbPoint
 10
26.38249016232735
 20
47.9938031105757
 30
0.0
  0
POINT
  5
48F9
330
48EF
100
AcDbEntity
  8
Defpoints
 62
     0
100
AcDbPoint
 10
31.38527540730264
 20
51.9935749161196
 30
0.0
  0
POINT
  5
48FA
330
48EF
100
AcDbEntity
  8
Defpoints
 62
     0
100
AcDbPoint
 10
31.38527540730264
 20
40.43901277518681
 30
0.0
  0
ENDBLK
  5
48F1
330
48EF
100
AcDbEntity
  8
0
100
AcDbBlockEnd
  0
BLOCK
  5
48FF
330
48FE
100
AcDbEntity
  8
0
100
AcDbBlockBegin
  2
*D38
 70
     1
 10
0.0
 20
0.0
 30
0.0
  3
*D38
  1

  0
LINE
  5
4901
330
48FE
100
AcDbEntity
  8
DIM
 62
     0
370
    -2
100
AcDbLine
 10
120.431530255584
 20
45.99380311057573
 30
0.0
 11
120.431530255584
 21
40.87439391905957
 31
0.0
  0
LINE
  5
4902
330
48FE
100
AcDbEntity
  8
DIM
 62
     0
370
    -2
100
AcDbLine
 10
125.0572772495604
 20
50.27835801409109
 30
0.0
 11
125.0572772495604
 21
40.87439391905957
 31
0.0
  0
LINE
  5
4903
330
48FE
100
AcDbEntity
  8
DIM
 62
     0
370
    -2
100
AcDbLine
 10
121.431530255584
 20
40.87439391905957
 30
0.0
 11
124.0572772495604
 21
40.87439391905957
 31
0.0
  0
INSERT
  5
4904
330
48FE
100
AcDbEntity
  8
DIM
 62
     0
370
    -2
100
AcDbBlockReference
  2
_DOT
 10
120.431530255584
 20
40.87439391905957
 30
0.0
 50
180.0
  0
INSERT
  5
4905
330
48FE
100
AcDbEntity
  8
DIM
 62
     0
370
    -2
100
AcDbBlockReference
  2
_DOT
 10
125.0572772495604
 20
40.87439391905957
 30
0.0
  0
MTEXT
  5
4906
330
48FE
100
AcDbEntity
  8
DIM
 62
     0
100
AcDbMText
 10
122.7444037525722
 20
43.37495663007621
 30
0.0
 40
3.0
 41
0.0
 46
0.0
 71
     5
 72
     1
  1
\A1;5
  7
ＭＳ ゴシック
 73
     1
 44
1.0
  0
POINT
  5
4907
330
48FE
100
AcDbEntity
  8
Defpoints
 62
     0
100
AcDbPoint
 10
120.431530255584
 20
47.99380311057573
 30
0.0
  0
POINT
  5
4908
330
48FE
100
AcDbEntity
  8
Defpoints
 62
     0
100
AcDbPoint
 10
125.0572772495604
 20
52.27835801409109
 30
0.0
  0
POINT
  5
4909
330
48FE
100
AcDbEntity
  8
Defpoints
 62
     0
100
AcDbPoint
 10
125.0572772495604
 20
40.87439391905957
 30
0.0
  0
ENDBLK
  5
4900
330
48FE
100
AcDbEntity
  8
0
100
AcDbBlockEnd
  0
BLOCK
  5
4918
330
4917
100
AcDbEntity
  8
0
100
AcDbBlockBegin
  2
*D39
 70
     1
 10
0.0
 20
0.0
 30
0.0
  3
*D39
  1

  0
LINE
  5
491A
330
4917
100
AcDbEntity
  8
DIM
 62
     0
370
    -2
100
AcDbLine
 10
49.69505188380761
 20
266.6690431833753
 30
0.0
 11
42.10823778856408
 21
266.6690431833753
 31
0.0
  0
LINE
  5
491B
330
4917
100
AcDbEntity
  8
DIM
 62
     0
370
    -2
100
AcDbLine
 10
55.01513246634494
 20
262.6692724566892
 30
0.0
 11
42.10823778856408
 21
262.6692724566892
 31
0.0
  0
LINE
  5
491C
330
4917
100
AcDbEntity
  8
DIM
 62
     0
370
    -2
100
AcDbLine
 10
42.10823778856408
 20
265.6690431833753
 30
0.0
 11
42.10823778856408
 21
263.6692724566892
 31
0.0
  0
INSERT
  5
491D
330
4917
100
AcDbEntity
  8
DIM
 62
     0
370
    -2
100
AcDbBlockReference
  2
_DOT
 10
42.10823778856408
 20
266.6690431833753
 30
0.0
 50
90.0
  0
INSERT
  5
491E
330
4917
100
AcDbEntity
  8
DIM
 62
     0
370
    -2
100
AcDbBlockReference
  2
_DOT
 10
42.10823778856408
 20
262.6692724566892
 30
0.0
 50
270.0
  0
MTEXT
  5
491F
330
4917
100
AcDbEntity
  8
DIM
 62
     0
100
AcDbMText
 10
39.60823778856408
 20
264.6691578200322
 30
0.0
 40
3.0
 41
0.0
 46
0.0
 71
     5
 72
     1
  1
\A1;4
  7
ＭＳ ゴシック
 11
0.0
 21
1.0
 31
0.0
 73
     1
 44
1.0
  0
POINT
  5
4920
330
4917
100
AcDbEntity
  8
Defpoints
 62
     0
100
AcDbPoint
 10
51.69505188380761
 20
266.6690431833753
 30
0.0
  0
POINT
  5
4921
330
4917
100
AcDbEntity
  8
Defpoints
 62
     0
100
AcDbPoint
 10
57.01513246634494
 20
262.6692724566892
 30
0.0
  0
POINT
  5
4922
330
4917
100
AcDbEntity
  8
Defpoints
 62
     0
100
AcDbPoint
 10
42.10823778856408
 20
262.6692724566892
 30
0.0
  0
ENDBLK
  5
4919
330
4917
100
AcDbEntity
  8
0
100
AcDbBlockEnd
  0
BLOCK
  5
492A
330
4929
100
AcDbEntity
  8
0
100
AcDbBlockBegin
  2
*D40
 70
     1
 10
0.0
 20
0.0
 30
0.0
  3
*D40
  1

  0
LINE
  5
492C
330
4929
100
AcDbEntity
  8
DIM
 62
     0
370
    -2
100
AcDbLine
 10
56.7900814553061
 20
264.6692724566892
 30
0.0
 11
56.7900814553061
 21
271.6499668468759
 31
0.0
  0
LINE
  5
492D
330
4929
100
AcDbEntity
  8
DIM
 62
     0
370
    -2
100
AcDbLine
 10
50.75873493975887
 20
268.1689872438072
 30
0.0
 11
50.75873493975887
 21
271.6499668468759
 31
0.0
  0
LINE
  5
492E
330
4929
100
AcDbEntity
  8
DIM
 62
     0
370
    -2
100
AcDbLine
 10
55.7900814553061
 20
271.6499668468759
 30
0.0
 11
51.75873493975887
 21
271.6499668468759
 31
0.0
  0
INSERT
  5
492F
330
4929
100
AcDbEntity
  8
DIM
 62
     0
370
    -2
100
AcDbBlockReference
  2
_DOT
 10
56.7900814553061
 20
271.6499668468759
 30
0.0
  0
INSERT
  5
4930
330
4929
100
AcDbEntity
  8
DIM
 62
     0
370
    -2
100
AcDbBlockReference
  2
_DOT
 10
50.75873493975887
 20
271.6499668468759
 30
0.0
 50
180.0
  0
MTEXT
  5
4931
330
4929
100
AcDbEntity
  8
DIM
 62
     0
100
AcDbMText
 10
53.77440819753248
 20
274.1499668468759
 30
0.0
 40
3.0
 41
0.0
 46
0.0
 71
     5
 72
     1
  1
\A1;6
  7
ＭＳ ゴシック
 73
     1
 44
1.0
  0
POINT
  5
4932
330
4929
100
AcDbEntity
  8
Defpoints
 62
     0
100
AcDbPoint
 10
56.7900814553061
 20
262.6692724566892
 30
0.0
  0
POINT
  5
4933
330
4929
100
AcDbEntity
  8
Defpoints
 62
     0
100
AcDbPoint
 10
50.75873493975887
 20
266.1689872438072
 30
0.0
  0
POINT
  5
4934
330
4929
100
AcDbEntity
  8
Defpoints
 62
     0
100
AcDbPoint
 10
50.75873493975887
 20
271.6499668468759
 30
0.0
  0
ENDBLK
  5
492B
330
4929
100
AcDbEntity
  8
0
100
AcDbBlockEnd
  0
BLOCK
  5
493D
330
493C
100
AcDbEntity
  8
0
100
AcDbBlockBegin
  2
*D41
 70
     1
 10
0.0
 20
0.0
 30
0.0
  3
*D41
  1

  0
LINE
  5
493F
330
493C
100
AcDbEntity
  8
DIM
 62
     0
370
    -2
100
AcDbLine
 10
55.49204530630436
 20
189.4976966738003
 30
0.0
 11
42.99065240514282
 21
189.4976966738003
 31
0.0
  0
LINE
  5
4940
330
493C
100
AcDbEntity
  8
DIM
 62
     0
370
    -2
100
AcDbLine
 10
49.25879087932708
 20
193.4887556390111
 30
0.0
 11
42.99065240514282
 21
193.4887556390111
 31
0.0
  0
LINE
  5
4941
330
493C
100
AcDbEntity
  8
DIM
 62
     0
370
    -2
100
AcDbLine
 10
42.99065240514282
 20
190.4976966738003
 30
0.0
 11
42.99065240514282
 21
192.4887556390111
 31
0.0
  0
INSERT
  5
4942
330
493C
100
AcDbEntity
  8
DIM
 62
     0
370
    -2
100
AcDbBlockReference
  2
_DOT
 10
42.99065240514282
 20
189.4976966738003
 30
0.0
 50
270.0
  0
INSERT
  5
4943
330
493C
100
AcDbEntity
  8
DIM
 62
     0
370
    -2
100
AcDbBlockReference
  2
_DOT
 10
42.99065240514282
 20
193.4887556390111
 30
0.0
 50
90.0
  0
MTEXT
  5
4944
330
493C
100
AcDbEntity
  8
DIM
 62
     0
100
AcDbMText
 10
40.49065240514282
 20
191.4932261564057
 30
0.0
 40
3.0
 41
0.0
 46
0.0
 71
     5
 72
     1
  1
\A1;4
  7
ＭＳ ゴシック
 11
0.0
 21
1.0
 31
0.0
 73
     1
 44
1.0
  0
POINT
  5
4945
330
493C
100
AcDbEntity
  8
Defpoints
 62
     0
100
AcDbPoint
 10
57.49204530630436
 20
189.4976966738003
 30
0.0
  0
POINT
  5
4946
330
493C
100
AcDbEntity
  8
Defpoints
 62
     0
100
AcDbPoint
 10
51.25879087932708
 20
193.4887556390111
 30
0.0
  0
POINT
  5
4947
330
493C
100
AcDbEntity
  8
Defpoints
 62
     0
100
AcDbPoint
 10
42.99065240514282
 20
193.4887556390111
 30
0.0
  0
ENDBLK
  5
493E
330
493C
100
AcDbEntity
  8
0
100
AcDbBlockEnd
  0
BLOCK
  5
494E
330
494D
100
AcDbEntity
  8
0
100
AcDbBlockBegin
  2
*D42
 70
     1
 10
0.0
 20
0.0
 30
0.0
  3
*D42
  1

  0
LINE
  5
4950
330
494D
100
AcDbEntity
  8
DIM
 62
     0
370
    -2
100
AcDbLine
 10
56.79559361171886
 20
191.1565443235336
 30
0.0
 11
56.79559361171886
 21
201.2945729943685
 31
0.0
  0
LINE
  5
4951
330
494D
100
AcDbEntity
  8
DIM
 62
     0
370
    -2
100
AcDbLine
 10
50.76062974352583
 20
195.0327969507449
 30
0.0
 11
50.76062974352583
 21
201.2945729943685
 31
0.0
  0
LINE
  5
4952
330
494D
100
AcDbEntity
  8
DIM
 62
     0
370
    -2
100
AcDbLine
 10
55.79559361171886
 20
201.2945729943685
 30
0.0
 11
51.76062974352583
 21
201.2945729943685
 31
0.0
  0
INSERT
  5
4953
330
494D
100
AcDbEntity
  8
DIM
 62
     0
370
    -2
100
AcDbBlockReference
  2
_DOT
 10
56.79559361171886
 20
201.2945729943685
 30
0.0
  0
INSERT
  5
4954
330
494D
100
AcDbEntity
  8
DIM
 62
     0
370
    -2
100
AcDbBlockReference
  2
_DOT
 10
50.76062974352583
 20
201.2945729943685
 30
0.0
 50
180.0
  0
MTEXT
  5
4955
330
494D
100
AcDbEntity
  8
DIM
 62
     0
100
AcDbMText
 10
53.77811167762234
 20
203.7945729943685
 30
0.0
 40
3.0
 41
0.0
 46
0.0
 71
     5
 72
     1
  1
\A1;6
  7
ＭＳ ゴシック
 73
     1
 44
1.0
  0
POINT
  5
4956
330
494D
100
AcDbEntity
  8
Defpoints
 62
     0
100
AcDbPoint
 10
56.79559361171886
 20
189.1565443235336
 30
0.0
  0
POINT
  5
4957
330
494D
100
AcDbEntity
  8
Defpoints
 62
     0
100
AcDbPoint
 10
50.76062974352583
 20
193.0327969507449
 30
0.0
  0
POINT
  5
4958
330
494D
100
AcDbEntity
  8
Defpoints
 62
     0
100
AcDbPoint
 10
50.76062974352583
 20
201.2945729943685
 30
0.0
  0
ENDBLK
  5
494F
330
494D
100
AcDbEntity
  8
0
100
AcDbBlockEnd
  0
BLOCK
  5
49F3
330
49F2
100
AcDbEntity
  8
0
100
AcDbBlockBegin
  2
_Origin
 70
     0
 10
0.0
 20
0.0
 30
0.0
  3
_Origin
  1

  0
CIRCLE
  5
49F4
330
49F2
100
AcDbEntity
  8
0
  6
ByBlock
 62
     0
370
    -2
100
AcDbCircle
 10
0.0
 20
0.0
 30
0.0
 40
0.5
  0
LINE
  5
49F5
330
49F2
100
AcDbEntity
  8
0
  6
ByBlock
 62
     0
370
    -2
100
AcDbLine
 10
0.0
 20
0.0
 30
0.0
 11
-1.0
 21
0.0
 31
0.0
  0
ENDBLK
  5
49F6
330
49F2
100
AcDbEntity
  8
0
100
AcDbBlockEnd
  0
BLOCK
  5
49FC
330
49F9
100
AcDbEntity
  8
0
100
AcDbBlockBegin
  2
_Open30
 70
     0
 10
0.0
 20
0.0
 30
0.0
  3
_Open30
  1

  0
LINE
  5
49FD
330
49F9
100
AcDbEntity
  8
0
 62
     0
370
    -2
100
AcDbLine
 10
-1.0
 20
0.2679491899998538
 30
0.0
 11
0.0
 21
0.0
 31
0.0
  0
LINE
  5
49FE
330
49F9
100
AcDbEntity
  8
0
 62
     0
370
    -2
100
AcDbLine
 10
0.0
 20
0.0
 30
0.0
 11
-1.0
 21
-0.2679491899998538
 31
0.0
  0
LINE
  5
49FF
330
49F9
100
AcDbEntity
  8
0
 62
     0
370
    -2
100
AcDbLine
 10
0.0
 20
0.0
 30
0.0
 11
-1.0
 21
0.0
 31
0.0
  0
ENDBLK
  5
4A00
330
49F9
100
AcDbEntity
  8
0
100
AcDbBlockEnd
  0
BLOCK
  5
4A17
330
4A16
100
AcDbEntity
  8
0
100
AcDbBlockBegin
  2
*D45
 70
     1
 10
0.0
 20
0.0
 30
0.0
  3
*D45
  1

  0
LINE
  5
4A19
330
4A16
100
AcDbEntity
  8
DIM
 62
     0
370
    -2
100
AcDbLine
 10
130.274600904166
 20
131.3273837816608
 30
0.0
 11
130.274600904166
 21
145.6983295127451
 31
0.0
  0
LINE
  5
4A1A
330
4A16
100
AcDbEntity
  8
DIM
 62
     0
370
    -2
100
AcDbLine
 10
180.2915636835811
 20
131.3273837816608
 30
0.0
 11
180.2915636835811
 21
145.6983295127451
 31
0.0
  0
LINE
  5
4A1B
330
4A16
100
AcDbEntity
  8
DIM
 62
     0
370
    -2
100
AcDbLine
 10
131.274600904166
 20
145.6983295127451
 30
0.0
 11
179.2915636835811
 21
145.6983295127451
 31
0.0
  0
INSERT
  5
4A1C
330
4A16
100
AcDbEntity
  8
DIM
 62
     0
370
    -2
100
AcDbBlockReference
  2
_DOT
 10
130.274600904166
 20
145.6983295127451
 30
0.0
 50
180.0
  0
INSERT
  5
4A1D
330
4A16
100
AcDbEntity
  8
DIM
 62
     0
370
    -2
100
AcDbBlockReference
  2
_DOT
 10
180.2915636835811
 20
145.6983295127451
 30
0.0
  0
MTEXT
  5
4A1E
330
4A16
100
AcDbEntity
  8
DIM
 62
     0
100
AcDbMText
 10
155.2830822938736
 20
148.1988922237617
 30
0.0
 40
3.0
 41
0.0
 46
0.0
 71
     5
 72
     1
  1
\A1;50
  7
ＭＳ ゴシック
 73
     1
 44
1.0
  0
POINT
  5
4A1F
330
4A16
100
AcDbEntity
  8
Defpoints
 62
     0
100
AcDbPoint
 10
130.274600904166
 20
129.3273837816608
 30
0.0
  0
POINT
  5
4A20
330
4A16
100
AcDbEntity
  8
Defpoints
 62
     0
100
AcDbPoint
 10
180.2915636835811
 20
129.3273837816608
 30
0.0
  0
POINT
  5
4A21
330
4A16
100
AcDbEntity
  8
Defpoints
 62
     0
100
AcDbPoint
 10
180.2915636835811
 20
145.6983295127451
 30
0.0
  0
ENDBLK
  5
4A18
330
4A16
100
AcDbEntity
  8
0
100
AcDbBlockEnd
  0
BLOCK
  5
4A26
330
4A25
100
AcDbEntity
  8
0
100
AcDbBlockBegin
  2
*D46
 70
     1
 10
0.0
 20
0.0
 30
0.0
  3
*D46
  1

  0
LINE
  5
4A28
330
4A25
100
AcDbEntity
  8
DIM
 62
     0
370
    -2
100
AcDbLine
 10
47.72984077874787
 20
131.3273837816608
 30
0.0
 11
47.72984077874787
 21
145.6983295127451
 31
0.0
  0
LINE
  5
4A29
330
4A25
100
AcDbEntity
  8
DIM
 62
     0
370
    -2
100
AcDbLine
 10
59.75254293448256
 20
131.3273837816608
 30
0.0
 11
59.75254293448256
 21
145.6983295127451
 31
0.0
  0
LINE
  5
4A2A
330
4A25
100
AcDbEntity
  8
DIM
 62
     0
370
    -2
100
AcDbLine
 10
48.72984077874787
 20
145.6983295127451
 30
0.0
 11
58.75254293448256
 21
145.6983295127451
 31
0.0
  0
INSERT
  5
4A2B
330
4A25
100
AcDbEntity
  8
DIM
 62
     0
370
    -2
100
AcDbBlockReference
  2
_DOT
 10
47.72984077874787
 20
145.6983295127451
 30
0.0
 50
180.0
  0
INSERT
  5
4A2C
330
4A25
100
AcDbEntity
  8
DIM
 62
     0
370
    -2
100
AcDbBlockReference
  2
_DOT
 10
59.75254293448256
 20
145.6983295127451
 30
0.0
  0
MTEXT
  5
4A2D
330
4A25
100
AcDbEntity
  8
DIM
 62
     0
100
AcDbMText
 10
53.74119185661522
 20
148.1988922237617
 30
0.0
 40
3.0
 41
0.0
 46
0.0
 71
     5
 72
     1
  1
\A1;12
  7
ＭＳ ゴシック
 73
     1
 44
1.0
  0
POINT
  5
4A2E
330
4A25
100
AcDbEntity
  8
Defpoints
 62
     0
100
AcDbPoint
 10
47.72984077874787
 20
129.3273837816608
 30
0.0
  0
POINT
  5
4A2F
330
4A25
100
AcDbEntity
  8
Defpoints
 62
     0
100
AcDbPoint
 10
59.75254293448256
 20
129.3273837816608
 30
0.0
  0
POINT
  5
4A30
330
4A25
100
AcDbEntity
  8
Defpoints
 62
     0
100
AcDbPoint
 10
59.75254293448256
 20
145.6983295127451
 30
0.0
  0
ENDBLK
  5
4A27
330
4A25
100
AcDbEntity
  8
0
100
AcDbBlockEnd
  0
BLOCK
  5
4A35
330
4A34
100
AcDbEntity
  8
0
100
AcDbBlockBegin
  2
*D47
 70
     1
 10
0.0
 20
0.0
 30
0.0
  3
*D47
  1

  0
LINE
  5
4A37
330
4A34
100
AcDbEntity
  8
DIM
 62
     0
370
    -2
100
AcDbLine
 10
45.72984077874787
 20
129.3273837816608
 30
0.0
 11
33.49586868429
 21
129.3273837816608
 31
0.0
  0
LINE
  5
4A38
330
4A34
100
AcDbEntity
  8
DIM
 62
     0
370
    -2
100
AcDbLine
 10
45.72984077874787
 20
99.31300309474707
 30
0.0
 11
33.49586868429
 21
99.31300309474707
 31
0.0
  0
LINE
  5
4A39
330
4A34
100
AcDbEntity
  8
DIM
 62
     0
370
    -2
100
AcDbLine
 10
33.49586868429
 20
128.3273837816608
 30
0.0
 11
33.49586868429
 21
100.3130030947471
 31
0.0
  0
INSERT
  5
4A3A
330
4A34
100
AcDbEntity
  8
DIM
 62
     0
370
    -2
100
AcDbBlockReference
  2
_DOT
 10
33.49586868429
 20
129.3273837816608
 30
0.0
 50
90.0
  0
INSERT
  5
4A3B
330
4A34
100
AcDbEntity
  8
DIM
 62
     0
370
    -2
100
AcDbBlockReference
  2
_DOT
 10
33.49586868429
 20
99.31300309474707
 30
0.0
 50
270.0
  0
MTEXT
  5
4A3C
330
4A34
100
AcDbEntity
  8
DIM
 62
     0
100
AcDbMText
 10
30.99530597327337
 20
114.3201934382039
 30
0.0
 40
3.0
 41
0.0
 46
0.0
 71
     5
 72
     1
  1
\A1;30
  7
ＭＳ ゴシック
 11
0.0
 21
1.0
 31
0.0
 73
     1
 44
1.0
  0
POINT
  5
4A3D
330
4A34
100
AcDbEntity
  8
Defpoints
 62
     0
100
AcDbPoint
 10
47.72984077874787
 20
129.3273837816608
 30
0.0
  0
POINT
  5
4A3E
330
4A34
100
AcDbEntity
  8
Defpoints
 62
     0
100
AcDbPoint
 10
47.72984077874787
 20
99.31300309474707
 30
0.0
  0
POINT
  5
4A3F
330
4A34
100
AcDbEntity
  8
Defpoints
 62
     0
100
AcDbPoint
 10
33.49586868429
 20
99.31300309474707
 30
0.0
  0
ENDBLK
  5
4A36
330
4A34
100
AcDbEntity
  8
0
100
AcDbBlockEnd
  0
BLOCK
  5
4ABE
330
4ABD
100
AcDbEntity
  8
0
100
AcDbBlockBegin
  2
*D48
 70
     1
 10
0.0
 20
0.0
 30
0.0
  3
*D48
  1

  0
LINE
  5
4ABF
330
4ABD
100
AcDbEntity
  8
DIM
 62
     0
370
    -2
100
AcDbLine
 10
42.66668543069125
 20
20.04686323082558
 30
0.0
 11
14.00562711016642
 21
20.04686323082559
 31
0.0
  0
LINE
  5
4AC0
330
4ABD
100
AcDbEntity
  8
DIM
 62
     0
370
    -2
100
AcDbLine
 10
42.66668543069147
 20
2.032482543911556
 30
0.0
 11
14.00562711016642
 21
2.032482543911557
 31
0.0
  0
LINE
  5
4AC1
330
4ABD
100
AcDbEntity
  8
DIM
 62
     0
370
    -2
100
AcDbLine
 10
14.00562711016642
 20
20.04686323082559
 30
0.0
 11
14.00562711016642
 21
2.032482543911557
 31
0.0
  0
LINE
  5
4AC2
330
4ABD
100
AcDbEntity
  8
DIM
 62
     0
370
    -2
100
AcDbLine
 10
14.00562711016642
 20
21.04686323082559
 30
0.0
 11
14.00562711016642
 21
22.04686323082559
 31
0.0
  0
LINE
  5
4AC3
330
4ABD
100
AcDbEntity
  8
DIM
 62
     0
370
    -2
100
AcDbLine
 10
14.00562711016642
 20
1.032482543911557
 30
0.0
 11
14.00562711016642
 21
0.0324825439115575
 31
0.0
  0
INSERT
  5
4AC4
330
4ABD
100
AcDbEntity
  8
DIM
 62
     0
370
    -2
100
AcDbBlockReference
  2
_DOT
 10
14.00562711016642
 20
20.04686323082559
 30
0.0
 50
270.0
  0
INSERT
  5
4AC5
330
4ABD
100
AcDbEntity
  8
DIM
 62
     0
370
    -2
100
AcDbBlockReference
  2
_DOT
 10
14.00562711016642
 20
2.032482543911557
 30
0.0
 50
90.0
  0
MTEXT
  5
4AC6
330
4ABD
100
AcDbEntity
  8
DIM
 62
     0
100
AcDbMText
 10
11.50506439914978
 20
11.03967288736857
 30
0.0
 40
3.0
 41
0.0
 46
0.0
 71
     5
 72
     1
  1
\A1;18
  7
ＭＳ ゴシック
 11
9.860771071028980E-17
 21
1.0
 31
0.0
 73
     1
 44
1.0
  0
POINT
  5
4AC7
330
4ABD
100
AcDbEntity
  8
Defpoints
 62
     0
100
AcDbPoint
 10
44.66668543069125
 20
20.04686323082558
 30
0.0
  0
POINT
  5
4ADC
330
4ABD
100
AcDbEntity
  8
Defpoints
 62
     0
100
AcDbPoint
 10
44.66668543069147
 20
2.032482543911556
 30
0.0
  0
POINT
  5
4ADD
330
4ABD
100
AcDbEntity
  8
Defpoints
 62
     0
100
AcDbPoint
 10
14.00562711016642
 20
2.032482543911557
 30
0.0
  0
ENDBLK
  5
4AC8
330
4ABD
100
AcDbEntity
  8
0
100
AcDbBlockEnd
  0
BLOCK
  5
4ACD
330
4ACC
100
AcDbEntity
  8
0
100
AcDbBlockBegin
  2
*D49
 70
     1
 10
0.0
 20
0.0
 30
0.0
  3
*D49
  1

  0
LINE
  5
4ACE
330
4ACC
100
AcDbEntity
  8
DIM
 62
     0
370
    -2
100
AcDbLine
 10
87.66668543069136
 20
26.04686323082547
 30
0.0
 11
14.00562711016642
 21
26.04686323082547
 31
0.0
  0
LINE
  5
4ACF
330
4ACC
100
AcDbEntity
  8
DIM
 62
     0
370
    -2
100
AcDbLine
 10
42.66668543069125
 20
20.04686323082558
 30
0.0
 11
14.00562711016642
 21
20.04686323082558
 31
0.0
  0
LINE
  5
4AD0
330
4ACC
100
AcDbEntity
  8
DIM
 62
     0
370
    -2
100
AcDbLine
 10
14.00562711016642
 20
26.04686323082547
 30
0.0
 11
14.00562711016642
 21
42.34634272313503
 31
0.0
  0
LINE
  5
4AD1
330
4ACC
100
AcDbEntity
  8
DIM
 62
     0
370
    -2
100
AcDbLine
 10
14.00562711016642
 20
25.04686323082547
 30
0.0
 11
14.00562711016642
 21
24.04686323082547
 31
0.0
  0
LINE
  5
4AD2
330
4ACC
100
AcDbEntity
  8
DIM
 62
     0
370
    -2
100
AcDbLine
 10
14.00562711016642
 20
20.04686323082558
 30
0.0
 11
14.00562711016642
 21
19.04686323082558
 31
0.0
  0
INSERT
  5
4AD3
330
4ACC
100
AcDbEntity
  8
DIM
 62
     0
370
    -2
100
AcDbBlockReference
  2
_DOT
 10
14.00562711016642
 20
26.04686323082547
 30
0.0
 50
90.0
  0
INSERT
  5
4AD4
330
4ACC
100
AcDbEntity
  8
DIM
 62
     0
370
    -2
100
AcDbBlockReference
  2
_DOT
 10
14.00562711016642
 20
20.04686323082558
 30
0.0
 50
270.0
  0
MTEXT
  5
4AD5
330
4ACC
100
AcDbEntity
  8
DIM
 62
     0
100
AcDbMText
 10
11.50562711016642
 20
40.58492437875589
 30
0.0
 40
3.0
 41
0.0
 46
0.0
 71
     5
 72
     1
  1
\A1;6
  7
ＭＳ ゴシック
 11
0.0
 21
1.0
 31
0.0
 73
     1
 44
1.0
  0
POINT
  5
4AD6
330
4ACC
100
AcDbEntity
  8
Defpoints
 62
     0
100
AcDbPoint
 10
89.66668543069136
 20
26.04686323082547
 30
0.0
  0
POINT
  5
4AD7
330
4ACC
100
AcDbEntity
  8
Defpoints
 62
     0
100
AcDbPoint
 10
44.66668543069125
 20
20.04686323082558
 30
0.0
  0
POINT
  5
4AD8
330
4ACC
100
AcDbEntity
  8
Defpoints
 62
     0
100
AcDbPoint
 10
14.00562711016642
 20
20.04686323082558
 30
0.0
  0
ENDBLK
  5
4AD9
330
4ACC
100
AcDbEntity
  8
0
100
AcDbBlockEnd
  0
BLOCK
  5
4B28
330
4B27
100
AcDbEntity
  8
0
100
AcDbBlockBegin
  2
*D50
 70
     1
 10
0.0
 20
0.0
 30
0.0
  3
*D50
  1

  0
LINE
  5
4B2A
330
4B27
100
AcDbEntity
  8
DIM
 62
     0
370
    -2
100
AcDbLine
 10
83.27460090416595
 20
123.3273837816609
 30
0.0
 11
71.1519314279069
 21
123.3273837816609
 31
0.0
  0
LINE
  5
4B2B
330
4B27
100
AcDbEntity
  8
DIM
 62
     0
370
    -2
100
AcDbLine
 10
83.27460090416618
 20
105.3130030947469
 30
0.0
 11
71.1519314279069
 21
105.3130030947469
 31
0.0
  0
LINE
  5
4B2C
330
4B27
100
AcDbEntity
  8
DIM
 62
     0
370
    -2
100
AcDbLine
 10
71.1519314279069
 20
122.3273837816609
 30
0.0
 11
71.1519314279069
 21
106.3130030947469
 31
0.0
  0
INSERT
  5
4B2D
330
4B27
100
AcDbEntity
  8
DIM
 62
     0
370
    -2
100
AcDbBlockReference
  2
_DOT
 10
71.1519314279069
 20
123.3273837816609
 30
0.0
 50
90.0
  0
INSERT
  5
4B2E
330
4B27
100
AcDbEntity
  8
DIM
 62
     0
370
    -2
100
AcDbBlockReference
  2
_DOT
 10
71.1519314279069
 20
105.3130030947469
 30
0.0
 50
270.0
  0
MTEXT
  5
4B2F
330
4B27
100
AcDbEntity
  8
DIM
 62
     0
100
AcDbMText
 10
68.65136871689027
 20
114.3201934382039
 30
0.0
 40
3.0
 41
0.0
 46
0.0
 71
     5
 72
     1
  1
\A1;18
  7
ＭＳ ゴシック
 11
0.0
 21
1.0
 31
0.0
 73
     1
 44
1.0
  0
POINT
  5
4B30
330
4B27
100
AcDbEntity
  8
Defpoints
 62
     0
100
AcDbPoint
 10
85.27460090416595
 20
123.3273837816609
 30
0.0
  0
POINT
  5
4B31
330
4B27
100
AcDbEntity
  8
Defpoints
 62
     0
100
AcDbPoint
 10
85.27460090416618
 20
105.3130030947469
 30
0.0
  0
POINT
  5
4B32
330
4B27
100
AcDbEntity
  8
Defpoints
 62
     0
100
AcDbPoint
 10
71.1519314279069
 20
105.3130030947469
 30
0.0
  0
ENDBLK
  5
4B29
330
4B27
100
AcDbEntity
  8
0
100
AcDbBlockEnd
  0
BLOCK
  5
4B36
330
4B35
100
AcDbEntity
  8
0
100
AcDbBlockBegin
  2
*D51
 70
     1
 10
0.0
 20
0.0
 30
0.0
  3
*D51
  1

  0
LINE
  5
4B38
330
4B35
100
AcDbEntity
  8
DIM
 62
     0
370
    -2
100
AcDbLine
 10
128.274600904166
 20
129.3273837816608
 30
0.0
 11
71.1519314279069
 21
129.3273837816608
 31
0.0
  0
LINE
  5
4B39
330
4B35
100
AcDbEntity
  8
DIM
 62
     0
370
    -2
100
AcDbLine
 10
83.27460090416595
 20
123.3273837816609
 30
0.0
 11
71.1519314279069
 21
123.3273837816609
 31
0.0
  0
LINE
  5
4B3A
330
4B35
100
AcDbEntity
  8
DIM
 62
     0
370
    -2
100
AcDbLine
 10
71.1519314279069
 20
129.3273837816608
 30
0.0
 11
71.1519314279069
 21
141.6460497574617
 31
0.0
  0
LINE
  5
4B3B
330
4B35
100
AcDbEntity
  8
DIM
 62
     0
370
    -2
100
AcDbLine
 10
71.1519314279069
 20
128.3273837816608
 30
0.0
 11
71.1519314279069
 21
124.3273837816609
 31
0.0
  0
LINE
  5
4B3C
330
4B35
100
AcDbEntity
  8
DIM
 62
     0
370
    -2
100
AcDbLine
 10
71.1519314279069
 20
128.3273837816608
 30
0.0
 11
71.1519314279069
 21
127.3273837816608
 31
0.0
  0
INSERT
  5
4B3D
330
4B35
100
AcDbEntity
  8
DIM
 62
     0
370
    -2
100
AcDbBlockReference
  2
_DOT
 10
71.1519314279069
 20
129.3273837816608
 30
0.0
 50
90.0
  0
INSERT
  5
4B3E
330
4B35
100
AcDbEntity
  8
DIM
 62
     0
370
    -2
100
AcDbBlockReference
  2
_DOT
 10
71.1519314279069
 20
123.3273837816609
 30
0.0
 50
270.0
  0
MTEXT
  5
4B3F
330
4B35
100
AcDbEntity
  8
DIM
 62
     0
100
AcDbMText
 10
68.6519314279069
 20
139.8846314130826
 30
0.0
 40
3.0
 41
0.0
 46
0.0
 71
     5
 72
     1
  1
\A1;6
  7
ＭＳ ゴシック
 11
0.0
 21
1.0
 31
0.0
 73
     1
 44
1.0
  0
POINT
  5
4B40
330
4B35
100
AcDbEntity
  8
Defpoints
 62
     0
100
AcDbPoint
 10
130.274600904166
 20
129.3273837816608
 30
0.0
  0
POINT
  5
4B41
330
4B35
100
AcDbEntity
  8
Defpoints
 62
     0
100
AcDbPoint
 10
85.27460090416595
 20
123.3273837816609
 30
0.0
  0
POINT
  5
4B42
330
4B35
100
AcDbEntity
  8
Defpoints
 62
     0
100
AcDbPoint
 10
71.1519314279069
 20
123.3273837816609
 30
0.0
  0
ENDBLK
  5
4B37
330
4B35
100
AcDbEntity
  8
0
100
AcDbBlockEnd
  0
BLOCK
  5
4BCD
330
4BCC
100
AcDbEntity
  8
0
100
AcDbBlockBegin
  2
*D52
 70
     1
 10
0.0
 20
0.0
 30
0.0
  3
*D52
  1

  0
LINE
  5
4BCF
330
4BCC
100
AcDbEntity
  8
DIM
 62
     0
370
    -2
100
AcDbLine
 10
53.74119185661532
 20
257.197709424964
 30
0.0
 11
53.74119185661532
 21
268.9039817019759
 31
0.0
  0
LINE
  5
4BD0
330
4BCC
100
AcDbEntity
  8
DIM
 62
     0
370
    -2
100
AcDbLine
 10
47.72984077874789
 20
212.1977094249641
 30
0.0
 11
47.72984077874789
 21
268.9039817019759
 31
0.0
  0
LINE
  5
4BD1
330
4BCC
100
AcDbEntity
  8
DIM
 62
     0
370
    -2
100
AcDbLine
 10
52.74119185661532
 20
268.9039817019759
 30
0.0
 11
48.72984077874789
 21
268.9039817019759
 31
0.0
  0
INSERT
  5
4BD2
330
4BCC
100
AcDbEntity
  8
DIM
 62
     0
370
    -2
100
AcDbBlockReference
  2
_DOT
 10
53.74119185661532
 20
268.9039817019759
 30
0.0
  0
INSERT
  5
4BD3
330
4BCC
100
AcDbEntity
  8
DIM
 62
     0
370
    -2
100
AcDbBlockReference
  2
_DOT
 10
47.72984077874789
 20
268.9039817019759
 30
0.0
 50
180.0
  0
MTEXT
  5
4BD4
330
4BCC
100
AcDbEntity
  8
DIM
 62
     0
100
AcDbMText
 10
50.7355163176816
 20
271.4039817019759
 30
0.0
 40
3.0
 41
0.0
 46
0.0
 71
     5
 72
     1
  1
\A1;6
  7
ＭＳ ゴシック
 73
     1
 44
1.0
  0
POINT
  5
4BD5
330
4BCC
100
AcDbEntity
  8
Defpoints
 62
     0
100
AcDbPoint
 10
53.74119185661532
 20
255.197709424964
 30
0.0
  0
POINT
  5
4BD6
330
4BCC
100
AcDbEntity
  8
Defpoints
 62
     0
100
AcDbPoint
 10
47.72984077874789
 20
210.1977094249641
 30
0.0
  0
POINT
  5
4BD7
330
4BCC
100
AcDbEntity
  8
Defpoints
 62
     0
100
AcDbPoint
 10
47.72984077874789
 20
268.9039817019759
 30
0.0
  0
ENDBLK
  5
4BCE
330
4BCC
100
AcDbEntity
  8
0
100
AcDbBlockEnd
  0
ENDSEC
  0
SECTION
  2
ENTITIES
  0
MTEXT
  5
177
330
A
100
AcDbEntity
  8
TEMPLATE
390
1D
100
AcDbMText
 10
7.920214454773076
 20
34.37317516314283
 30
0.0
 40
1.628841145833333
 41
0.0
 46
0.0
 71
     1
 72
     1
  1
品名
  7
ＭＳ ゴシック
 73
     1
 44
0.7828267384257843
  0
MTEXT
  5
178
330
A
100
AcDbEntity
  8
TEMPLATE
390
1D
100
AcDbMText
 10
7.920214454773076
 20
25.8731751631428
 30
0.0
 40
1.628841145833333
 41
0.0
 46
0.0
 71
     1
 72
     1
  1
仕様
  7
ＭＳ ゴシック
 73
     1
 44
0.7828267384257843
  0
LINE
  5
179
330
A
100
AcDbEntity
  8
TEMPLATE
390
1D
100
AcDbLine
 10
202.2202144547248
 20
26.71466735064284
 30
0.0
 11
7.220214454724874
 21
26.71466735064284
 31
0.0
  0
LWPOLYLINE
  5
17A
330
A
100
AcDbEntity
  8
TEMPLATE
390
1D
100
AcDbPolyline
 90
        5
 70
   128
 43
0.0
 10
202.2202144547248
 20
289.7146673506426
 10
7.220214454724874
 20
289.7146673506426
 10
7.220214454724874
 20
9.714667350642827
 10
202.2202144547248
 20
9.714667350642827
 10
202.2202144547248
 20
289.7146673506426
  0
LINE
  5
17B
330
A
100
AcDbEntity
  8
TEMPLATE
390
1D
100
AcDbLine
 10
202.2202144547248
 20
35.21466735064282
 30
0.0
 11
7.220214454724874
 21
35.21466735064282
 31
0.0
  0
LINE
  5
17C
330
A
100
AcDbEntity
  8
TEMPLATE
390
1D
100
AcDbLine
 10
202.2202144547732
 20
18.21466735064282
 30
0.0
 11
126.920214454773
 21
18.21466735064282
 31
0.0
  0
MTEXT
  5
17E
330
A
100
AcDbEntity
  8
TEMPLATE
390
1D
100
AcDbMText
 10
129.9073550799991
 20
15.22362790331201
 30
0.0
 40
2.44326171875
 41
0.0
 46
0.0
 71
     1
 72
     1
  1
大洋金物株式会社 ティーフォルム事業部
  7
ＭＳ ゴシック
 73
     1
 44
0.7828267384257843
  0
MTEXT
  5
180
330
A
100
AcDbEntity
  8
TEMPLATE
390
1D
100
AcDbMText
 10
183.120214454799
 20
23.01492906939282
 30
0.0
 40
2.44326171875
 41
0.0
 46
2.44326171875
 71
     1
 72
     1
  1
{1:1}
  7
ＭＳ ゴシック
 73
     1
 44
0.7828267384257843
1001
ACAD
1000
ACAD_MTEXT_DEFINED_HEIGHT_BEGIN
1070
    46
1040
2.44326171875
1000
ACAD_MTEXT_DEFINED_HEIGHT_END
  0
MTEXT
  5
181
330
A
100
AcDbEntity
  8
TEMPLATE
390
1D
100
AcDbMText
 10
177.820214454799
 20
25.8731751631428
 30
0.0
 40
1.628841145833333
 41
0.0
 46
0.0
 71
     1
 72
     1
  1
縮尺
  7
ＭＳ ゴシック
 73
     1
 44
0.7828267384257843
  0
LINE
  5
182
330
A
100
AcDbEntity
  8
TEMPLATE
390
1D
100
AcDbLine
 10
177.120214454799
 20
18.21466735064282
 30
0.0
 11
177.120214454799
 21
26.71466735064284
 31
0.0
  0
MTEXT
  5
183
330
A
100
AcDbEntity
  8
TEMPLATE
390
1D
100
AcDbMText
 10
152.720214454799
 20
25.8731751631428
 30
0.0
 40
1.628841145833333
 41
0.0
 46
0.0
 71
     1
 72
     1
  1
容量
  7
ＭＳ ゴシック
 73
     1
 44
0.7828267384257843
  0
LINE
  5
184
330
A
100
AcDbEntity
  8
TEMPLATE
390
1D
100
AcDbLine
 10
152.020214454799
 20
18.21466735064282
 30
0.0
 11
152.020214454799
 21
26.71466735064284
 31
0.0
  0
MTEXT
  5
185
330
A
100
AcDbEntity
  8
TEMPLATE
390
1D
100
AcDbMText
 10
127.620214454799
 20
34.37317516314283
 30
0.0
 40
1.628841145833333
 41
0.0
 46
0.0
 71
     1
 72
     1
  1
品番
  7
ＭＳ ゴシック
 73
     1
 44
0.7828267384257843
  0
MTEXT
  5
186
330
A
100
AcDbEntity
  8
TEMPLATE
390
1D
100
AcDbMText
 10
127.620214454799
 20
25.8731751631428
 30
0.0
 40
1.628841145833333
 41
0.0
 46
0.0
 71
     1
 72
     1
  1
重量
  7
ＭＳ ゴシック
 73
     1
 44
0.7828267384257843
  0
LINE
  5
188
330
A
100
AcDbEntity
  8
TEMPLATE
390
1D
100
AcDbLine
 10
126.920214454799
 20
9.714667350642827
 30
0.0
 11
126.920214454799
 21
35.21466735064282
 31
0.0
  0
INSERT
  5
68C
330
A
100
AcDbEntity
  8
TEMPLATE
100
AcDbBlockReference
  2
block 2
 10
183.8548603540515
 20
1.674615302867274
 30
0.0
 41
0.0762
 42
0.0762
 43
0.0762
  0
LWPOLYLINE
  5
D69
330
A
100
AcDbEntity
  8
BORDER
100
AcDbPolyline
 90
        4
 70
     1
 43
0.0
 10
0.0
 20
0.0
 10
0.0
 20
297.0
 10
210.0
 20
297.0
 10
210.0
 20
0.0
  0
INSERT
  5
1343
330
A
100
AcDbEntity
  8
TEMPLATE
100
AcDbBlockReference
  2
block 2
 10
419.3486941732937
 20
4.887064282459138
 30
0.0
 41
0.0762
 42
0.0762
 43
0.0762
  0
MTEXT
  5
1EAB
102
{ACAD_XDICTIONARY
360
1EAC
102
}
330
A
100
AcDbEntity
  8
TEMPLATE
100
AcDbMText
 10
7.472865654857031
 20
8.386172105142833
 30
0.0
 40
2.2
 41
0.0
 46
2.2
 71
     1
 72
     1
  1
{20240909M}
  7
ＭＳ ゴシック
 73
     1
 44
1.0
1001
ACAD
1000
ACAD_MTEXT_DEFINED_HEIGHT_BEGIN
1070
    46
1040
2.2
1000
ACAD_MTEXT_DEFINED_HEIGHT_END
  0
MTEXT
  5
1EB1
330
A
100
AcDbEntity
  8
TEMPLATE
390
1D
100
AcDbMText
 10
13.22021445477307
 20
31.51492906939281
 30
0.0
 40
2.44326171875
 41
0.0
 46
2.753672361022102
 71
     1
 72
     1
  1
{フック -PERFORMA DESIGN,Elle-}
  7
ＭＳ ゴシック
 73
     1
 44
0.7828267384257843
1001
ACAD
1000
ACAD_MTEXT_DEFINED_HEIGHT_BEGIN
1070
    46
1040
2.753672361022102
1000
ACAD_MTEXT_DEFINED_HEIGHT_END
  0
HATCH
  5
2071
102
{ACAD_REACTORS
330
20A3
102
}
330
A
100
AcDbEntity
  8
TEMPLATE
100
AcDbHatch
 10
0.0
 20
0.0
 30
0.0
210
0.0
220
0.0
230
1.0
  2
SOLID
 70
     1
 71
     1
 91
        6
 92
        1
 93
        8
 72
     1
 10
193.3992346462619
 20
15.33324928988617
 11
193.3992346462619
 21
14.74230852682012
 72
     1
 10
193.3992346462619
 20
14.74230852682012
 11
192.4631754912307
 21
14.74230852682012
 72
     1
 10
192.4631754912307
 20
14.74230852682012
 11
192.4631754912307
 21
12.33324929003077
 72
     1
 10
192.4631754912307
 20
12.33324929003077
 11
191.6399141759031
 21
12.33324929003077
 72
     1
 10
191.6399141759031
 20
12.33324929003077
 11
191.6399141759031
 21
14.74230852682012
 72
     1
 10
191.6399141759031
 20
14.74230852682012
 11
190.7204440324488
 21
14.74230852682012
 72
     1
 10
190.7204440324488
 20
14.74230852682012
 11
190.7204440324488
 21
15.33324928988617
 72
     1
 10
190.7204440324488
 20
15.33324928988617
 11
193.3992346462619
 21
15.33324928988617
 97
        1
330
2072
 92
        1
 93
        1
 72
     4
 94
        3
 73
     0
 74
     1
 95
       56
 96
       52
 40
0.0
 40
0.0
 40
0.0
 40
0.0
 40
1.0
 40
1.0
 40
1.0
 40
2.0
 40
2.0
 40
2.0
 40
3.0
 40
3.0
 40
3.0
 40
4.0
 40
4.0
 40
4.0
 40
5.0
 40
5.0
 40
5.0
 40
6.0
 40
6.0
 40
6.0
 40
7.0
 40
7.0
 40
7.0
 40
8.0
 40
8.0
 40
8.0
 40
9.0
 40
9.0
 40
9.0
 40
10.0
 40
10.0
 40
10.0
 40
11.0
 40
11.0
 40
11.0
 40
12.0
 40
12.0
 40
12.0
 40
13.0
 40
13.0
 40
13.0
 40
14.0
 40
14.0
 40
14.0
 40
15.0
 40
15.0
 40
15.0
 40
16.0
 40
16.0
 40
16.0
 40
17.0
 40
17.0
 40
17.0
 40
17.0
 10
194.6534531896912
 20
15.26181239384494
 10
194.768839807883
 20
15.29429114924596
 10
194.9177987172164
 20
15.26712385315697
 10
194.9177987172164
 20
15.26712385315697
 10
194.9177987172164
 20
15.26712385315697
 10
194.8462353578582
 20
15.05236682391462
 10
194.8462353578582
 20
15.05236682391462
 10
194.8462353578582
 20
15.05236682391462
 10
194.6999991293486
 20
15.08620691972755
 10
194.5872087286637
 20
14.99726601281628
 10
194.4995622109965
 20
14.92771118849205
 10
194.4427801816846
 20
14.74289620929302
 10
194.420998735094
 20
14.67262723917894
 10
194.420998735094
 20
14.67262723917894
 10
194.3238897857113
 20
14.37456064013906
 10
194.3238897857113
 20
14.37456064013906
 10
194.3238897857113
 20
14.37456064013906
 10
194.6423021007434
 20
14.37456064013906
 10
194.6423021007434
 20
14.37456064013906
 10
194.6423021007434
 20
14.37456064013906
 10
194.5927805536282
 20
14.18696346796705
 10
194.5927805536282
 20
14.18696346796705
 10
194.5927805536282
 20
14.18696346796705
 10
194.2717720210894
 20
14.18696346796705
 10
194.2717720210894
 20
14.18696346796705
 10
194.2717720210894
 20
14.18696346796705
 10
193.6974277086187
 20
12.33324929003077
 10
193.6974277086187
 20
12.33324929003077
 10
193.6974277086187
 20
12.33324929003077
 10
193.51760431093
 20
12.33324929003077
 10
193.51760431093
 20
12.33324929003077
 10
193.51760431093
 20
12.33324929003077
 10
194.0924693547057
 20
14.18696346796705
 10
194.0924693547057
 20
14.18696346796705
 10
194.0924693547057
 20
14.18696346796705
 10
193.8555961230339
 20
14.18696346796705
 10
193.8555961230339
 20
14.18696346796705
 10
193.8555961230339
 20
14.18696346796705
 10
193.9052515724846
 20
14.37456064013906
 10
193.9052515724846
 20
14.37456064013906
 10
193.9052515724846
 20
14.37456064013906
 10
194.1445871193277
 20
14.37456064013906
 10
194.1445871193277
 20
14.37456064013906
 10
194.1445871193277
 20
14.37456064013906
 10
194.2292431514999
 20
14.63450970764554
 10
194.2292431514999
 20
14.63450970764554
 10
194.2976970010647
 20
14.85245063686765
 10
194.3557808586394
 20
14.96945896112388
 10
194.4055702104258
 20
15.05767828322665
 10
194.4548313918883
 20
15.14597199551587
 10
194.5523271702405
 20
15.23270351388978
 10
194.6534531896912
 20
15.26181239384494
 97
        1
330
207D
 92
        1
 93
        1
 72
     4
 94
        3
 73
     0
 74
     1
 95
       32
 96
       28
 40
0.0
 40
0.0
 40
0.0
 40
0.0
 40
1.0
 40
1.0
 40
1.0
 40
2.0
 40
2.0
 40
2.0
 40
3.0
 40
3.0
 40
3.0
 40
4.0
 40
4.0
 40
4.0
 40
5.0
 40
5.0
 40
5.0
 40
6.0
 40
6.0
 40
6.0
 40
7.0
 40
7.0
 40
7.0
 40
8.0
 40
8.0
 40
8.0
 40
9.0
 40
9.0
 40
9.0
 40
9.0
 10
195.0910088273304
 20
14.2611899959999
 10
194.9827562280185
 20
14.12116534805821
 10
194.8993945850904
 20
13.99514837222373
 10
194.7644359088455
 20
13.59907270254517
 10
194.6403605168772
 20
13.23677761653038
 10
194.5614027729866
 20
12.97319830792548
 10
194.5494780260998
 20
12.65218977538657
 10
194.5404024233537
 20
12.41330800868075
 10
194.6858649939244
 20
12.33324929003077
 10
194.8991416584565
 20
12.33324929003077
 10
194.9910581728255
 20
12.33324929003077
 10
195.2230067741548
 20
12.33909635868519
 10
195.388182744133
 20
12.54328254243399
 10
195.5038148499399
 20
12.68673657797071
 10
195.6103862310383
 20
12.8354425606703
 10
195.7532600231207
 20
13.32324876925175
 10
195.8721504190939
 20
13.73105577133237
 10
195.9544705994118
 20
13.99462764091863
 10
195.9483854821607
 20
14.14469496403013
 10
195.9483854821607
 20
14.14469496403013
 10
195.9483854821607
 20
14.14469496403013
 10
195.9483854821607
 20
14.14469496403013
 10
195.9096133169866
 20
14.39504769748547
 10
195.7278483354318
 20
14.4479465590651
 10
195.6239996351573
 20
14.4479465590651
 10
195.5217131287981
 20
14.4479465590651
 10
195.2476299258675
 20
14.46564398441989
 10
195.0910088273304
 20
14.2611899959999
 97
        1
330
2080
 92
        1
 93
        1
 72
     4
 94
        3
 73
     0
 74
     1
 95
       38
 96
       34
 40
0.0
 40
0.0
 40
0.0
 40
0.0
 40
1.0
 40
1.0
 40
1.0
 40
2.0
 40
2.0
 40
2.0
 40
3.0
 40
3.0
 40
3.0
 40
4.0
 40
4.0
 40
4.0
 40
5.0
 40
5.0
 40
5.0
 40
6.0
 40
6.0
 40
6.0
 40
7.0
 40
7.0
 40
7.0
 40
8.0
 40
8.0
 40
8.0
 40
9.0
 40
9.0
 40
9.0
 40
10.0
 40
10.0
 40
10.0
 40
11.0
 40
11.0
 40
11.0
 40
11.0
 10
196.6058310719068
 20
14.36736710911002
 10
196.6058310719068
 20
14.36736710911002
 10
196.790705563255
 20
14.36736710911002
 10
196.790705563255
 20
14.36736710911002
 10
196.790705563255
 20
14.36736710911002
 10
196.708117578266
 20
14.10294719139831
 10
196.708117578266
 20
14.10294719139831
 10
196.7708731395493
 20
14.17717371943115
 10
196.8699162337796
 20
14.27603083819528
 10
196.9549739729585
 20
14.32587970213075
 10
197.0820324114032
 20
14.40010623016359
 10
197.1546372333715
 20
14.40989597869949
 10
197.2344876594995
 20
14.40794695581469
 10
197.2344876594995
 20
14.40794695581469
 10
197.1564523539208
 20
14.1579215391797
 10
197.1564523539208
 20
14.1579215391797
 10
197.1056289785429
 20
14.17944262011767
 10
196.9490078800058
 20
14.1384759444435
 10
196.8591594128199
 20
14.0738457504618
 10
196.7781336217462
 20
14.01556847840234
 10
196.7221178113546
 20
13.96597998011942
 10
196.6557468870101
 20
13.84131690567822
 10
196.5898818159334
 20
13.71646785577089
 10
196.5378979536471
 20
13.51739227783074
 10
196.4484363154307
 20
13.22859469602165
 10
196.4484363154307
 20
13.22859469602165
 10
196.169041653188
 20
12.33324929003077
 10
196.169041653188
 20
12.33324929003077
 10
196.169041653188
 20
12.33324929003077
 10
195.9896125234874
 20
12.33324929003077
 10
195.9896125234874
 20
12.33324929003077
 10
195.9896125234874
 20
12.33324929003077
 10
196.6058310719068
 20
14.36736710911002
 10
196.6058310719068
 20
14.36736710911002
 97
        1
330
207E
 92
        1
 93
        1
 72
     4
 94
        3
 73
     0
 74
     1
 95
      104
 96
      100
 40
0.0
 40
0.0
 40
0.0
 40
0.0
 40
1.0
 40
1.0
 40
1.0
 40
2.0
 40
2.0
 40
2.0
 40
3.0
 40
3.0
 40
3.0
 40
4.0
 40
4.0
 40
4.0
 40
5.0
 40
5.0
 40
5.0
 40
6.0
 40
6.0
 40
6.0
 40
7.0
 40
7.0
 40
7.0
 40
8.0
 40
8.0
 40
8.0
 40
9.0
 40
9.0
 40
9.0
 40
10.0
 40
10.0
 40
10.0
 40
11.0
 40
11.0
 40
11.0
 40
12.0
 40
12.0
 40
12.0
 40
13.0
 40
13.0
 40
13.0
 40
14.0
 40
14.0
 40
14.0
 40
15.0
 40
15.0
 40
15.0
 40
16.0
 40
16.0
 40
16.0
 40
17.0
 40
17.0
 40
17.0
 40
18.0
 40
18.0
 40
18.0
 40
19.0
 40
19.0
 40
19.0
 40
20.0
 40
20.0
 40
20.0
 40
21.0
 40
21.0
 40
21.0
 40
22.0
 40
22.0
 40
22.0
 40
23.0
 40
23.0
 40
23.0
 40
24.0
 40
24.0
 40
24.0
 40
25.0
 40
25.0
 40
25.0
 40
26.0
 40
26.0
 40
26.0
 40
27.0
 40
27.0
 40
27.0
 40
28.0
 40
28.0
 40
28.0
 40
29.0
 40
29.0
 40
29.0
 40
30.0
 40
30.0
 40
30.0
 40
31.0
 40
31.0
 40
31.0
 40
32.0
 40
32.0
 40
32.0
 40
33.0
 40
33.0
 40
33.0
 40
33.0
 10
197.6234441883354
 20
14.36846808386937
 10
197.6234441883354
 20
14.36846808386937
 10
197.7848560148795
 20
14.36846808386937
 10
197.7848560148795
 20
14.36846808386937
 10
197.7848560148795
 20
14.36846808386937
 10
197.7033094925007
 20
14.10379523952376
 10
197.7033094925007
 20
14.10379523952376
 10
197.7740843158826
 20
14.21477051965945
 10
197.8376135351049
 20
14.26423255462542
 10
197.9220166406432
 20
14.32814860281726
 10
198.0066726728153
 20
14.3911570907345
 10
198.1071589366625
 20
14.40399683691456
 10
198.1769071754715
 20
14.40399683691456
 10
198.2632593038946
 20
14.40399683691456
 10
198.3466209468226
 20
14.38694660618182
 10
198.3904367666375
 20
14.29229997197037
 10
198.4240164967979
 20
14.21808088295617
 10
198.4255786907132
 20
14.20932515801183
 10
198.4159823566621
 20
14.06282112483094
 10
198.5037478986276
 20
14.21302235027805
 10
198.568571507094
 20
14.27771949542754
 10
198.6787731292907
 20
14.33987993521932
 10
198.794420113135
 20
14.40399683691456
 10
198.8618325000897
 20
14.40879500394014
 10
198.9401504883769
 20
14.39724964700418
 10
199.05552966755
 20
14.38020685529008
 10
199.1291759521286
 20
14.33903932611252
 10
199.1676803126315
 20
14.21392991055265
 10
199.20631857547
 20
14.08920732396228
 10
199.1854446891541
 20
14.02230822929408
 10
199.1377308235695
 20
13.82375338265902
 10
199.115949376979
 20
13.73332467201888
 10
199.0844376940018
 20
13.62382975659341
 10
199.043210652675
 20
13.4935427840571
 10
199.043210652675
 20
13.4935427840571
 10
198.6787731292907
 20
12.33324929003077
 10
198.6787731292907
 20
12.33324929003077
 10
198.6787731292907
 20
12.33324929003077
 10
198.4892269342339
 20
12.33324929003077
 10
198.4892269342339
 20
12.33324929003077
 10
198.4892269342339
 20
12.33324929003077
 10
198.8083013219253
 20
13.34761899433048
 10
198.8083013219253
 20
13.34761899433048
 10
198.8749400509409
 20
13.55985419625241
 10
198.92005026
 20
13.71484614970644
 10
198.9433939005058
 20
13.81202205025695
 10
198.972688755927
 20
13.93324085906585
 10
198.9843531371613
 20
13.97324046231626
 10
198.9704868064084
 20
14.06146722343768
 10
198.9577809625639
 20
14.14359398927077
 10
198.916286116566
 20
14.19707309430466
 10
198.8452434885129
 20
14.19707309430466
 10
198.7695291567512
 20
14.19707309430466
 10
198.7082018870476
 20
14.18864468618067
 10
198.6223853679669
 20
14.10243389911185
 10
198.536553970849
 20
14.01556847840234
 10
198.4656303670941
 20
13.9136018498449
 10
198.4100162637093
 20
13.79633315993612
 10
198.3545211846229
 20
13.6783503242375
 10
198.2982524475973
 20
13.52880373243109
 10
198.2412100526329
 20
13.34761899433048
 10
198.2412100526329
 20
13.34761899433048
 10
197.9220166406432
 20
12.33324929003077
 10
197.9220166406432
 20
12.33324929003077
 10
197.9220166406432
 20
12.33324929003077
 10
197.7437479978511
 20
12.33324929003077
 10
197.7437479978511
 20
12.33324929003077
 10
197.7437479978511
 20
12.33324929003077
 10
198.1087062525406
 20
13.493022052752
 10
198.1087062525406
 20
13.493022052752
 10
198.1472106130435
 20
13.61645025009826
 10
198.1761335175325
 20
13.7170555382438
 10
198.1951922832992
 20
13.79568596531406
 10
198.2275966485138
 20
13.93103890954714
 10
198.2366722512598
 20
14.02256859494663
 10
198.2121681238455
 20
14.10379523952376
 10
198.1880508254007
 20
14.18476151844834
 10
198.1456632971655
 20
14.2054419902795
 10
198.0748735957463
 20
14.2054419902795
 10
198.0154953489275
 20
14.2054419902795
 10
197.9575453936883
 20
14.17996335142277
 10
197.8914273959778
 20
14.12926643936185
 10
197.8081847773481
 20
14.06548429350561
 10
197.7748728518588
 20
14.01310616323108
 10
197.7340326395017
 20
13.95087133325285
 10
197.6789243893847
 20
13.86854371391636
 10
197.6531258727262
 20
13.81312302501631
 10
197.6065873720875
 20
13.69150994821926
 10
197.5600339934114
 20
13.56918272563237
 10
197.5159652469626
 20
13.426829664855
 10
197.4852272219243
 20
13.32836681407902
 10
197.4852272219243
 20
13.32836681407902
 10
197.172133805223
 20
12.33324929003077
 10
197.172133805223
 20
12.33324929003077
 10
197.172133805223
 20
12.33324929003077
 10
196.9854441933256
 20
12.33324929003077
 10
196.9854441933256
 20
12.33324929003077
 10
196.9854441933256
 20
12.33324929003077
 10
197.6234441883354
 20
14.36846808386937
 10
197.6234441883354
 20
14.36846808386937
 97
        1
330
207F
 92
       16
 93
        1
 72
     4
 94
        3
 73
     0
 74
     1
 95
       29
 96
       25
 40
0.0
 40
0.0
 40
0.0
 40
0.0
 40
1.0
 40
1.0
 40
1.0
 40
2.0
 40
2.0
 40
2.0
 40
3.0
 40
3.0
 40
3.0
 40
4.0
 40
4.0
 40
4.0
 40
5.0
 40
5.0
 40
5.0
 40
6.0
 40
6.0
 40
6.0
 40
7.0
 40
7.0
 40
7.0
 40
8.0
 40
8.0
 40
8.0
 40
8.0
 10
194.7431751935601
 20
12.71220777780879
 10
194.7423866575838
 20
12.85392108298274
 10
194.7871249157106
 20
13.10570210801778
 10
194.9017304369448
 20
13.44258550634363
 10
195.0578308041768
 20
13.89875356863087
 10
195.1514434147967
 20
14.06548429350561
 10
195.2333618881077
 20
14.14664398691494
 10
195.3530408200572
 20
14.26482023709832
 10
195.5139319152962
 20
14.2707119398646
 10
195.5613928542469
 20
14.26482023709832
 10
195.6289391435371
 20
14.25671170677603
 10
195.7243519966689
 20
14.21250161897294
 10
195.7300502849505
 20
14.06366917295639
 10
195.7346029643608
 20
13.93629085671002
 10
195.6978988463698
 20
13.69773640682454
 10
195.5694269943827
 20
13.32324876925175
 10
195.4213607672865
 20
12.88808105659738
 10
195.3324198603752
 20
12.71701338385301
 10
195.2611243056883
 20
12.64245953899982
 10
195.1268053850467
 20
12.50269525671068
 10
194.9827562280185
 20
12.516115246345
 10
194.9614955127331
 20
12.516115246345
 10
194.9338818755254
 20
12.516115246345
 10
194.7435620225296
 20
12.54607961344425
 10
194.7431751935601
 20
12.71220777780879
 97
        1
330
2081
 75
     0
 76
     1
 98
        1
 10
185.8850447185594
 20
7.249468582626761
1001
ACAD
1010
0.0
1020
0.0
1030
0.0
  0
POLYLINE
  5
2072
102
{ACAD_REACTORS
330
2071
330
20A3
102
}
330
A
100
AcDbEntity
  8
TEMPLATE
100
AcDb2dPolyline
 66
     1
 10
0.0
 20
0.0
 30
0.0
  0
VERTEX
  5
2073
330
2072
100
AcDbEntity
  8
TEMPLATE
100
AcDbVertex
100
AcDb2dVertex
 10
193.3992346462619
 20
15.33324928988617
 30
0.0
  0
VERTEX
  5
2074
330
2072
100
AcDbEntity
  8
TEMPLATE
100
AcDbVertex
100
AcDb2dVertex
 10
193.3992346462619
 20
14.74230852682012
 30
0.0
  0
VERTEX
  5
2075
330
2072
100
AcDbEntity
  8
TEMPLATE
100
AcDbVertex
100
AcDb2dVertex
 10
192.4631754912307
 20
14.74230852682012
 30
0.0
  0
VERTEX
  5
2076
330
2072
100
AcDbEntity
  8
TEMPLATE
100
AcDbVertex
100
AcDb2dVertex
 10
192.4631754912307
 20
12.33324929003077
 30
0.0
  0
VERTEX
  5
2077
330
2072
100
AcDbEntity
  8
TEMPLATE
100
AcDbVertex
100
AcDb2dVertex
 10
191.6399141759031
 20
12.33324929003077
 30
0.0
  0
VERTEX
  5
2078
330
2072
100
AcDbEntity
  8
TEMPLATE
100
AcDbVertex
100
AcDb2dVertex
 10
191.6399141759031
 20
14.74230852682012
 30
0.0
  0
VERTEX
  5
2079
330
2072
100
AcDbEntity
  8
TEMPLATE
100
AcDbVertex
100
AcDb2dVertex
 10
190.7204440324488
 20
14.74230852682012
 30
0.0
  0
VERTEX
  5
207A
330
2072
100
AcDbEntity
  8
TEMPLATE
100
AcDbVertex
100
AcDb2dVertex
 10
190.7204440324488
 20
15.33324928988617
 30
0.0
  0
VERTEX
  5
207B
330
2072
100
AcDbEntity
  8
TEMPLATE
100
AcDbVertex
100
AcDb2dVertex
 10
193.3992346462619
 20
15.33324928988617
 30
0.0
  0
SEQEND
  5
207C
330
2072
100
AcDbEntity
  8
TEMPLATE
  0
SPLINE
  5
207D
102
{ACAD_REACTORS
330
2071
330
20A3
102
}
330
A
100
AcDbEntity
  8
TEMPLATE
100
AcDbSpline
210
0.0
220
0.0
230
1.0
 70
    11
 71
     3
 72
    56
 73
    52
 74
     0
 42
0.000000001
 43
0.0000000001
 40
0.0
 40
0.0
 40
0.0
 40
0.0
 40
1.0
 40
1.0
 40
1.0
 40
2.0
 40
2.0
 40
2.0
 40
3.0
 40
3.0
 40
3.0
 40
4.0
 40
4.0
 40
4.0
 40
5.0
 40
5.0
 40
5.0
 40
6.0
 40
6.0
 40
6.0
 40
7.0
 40
7.0
 40
7.0
 40
8.0
 40
8.0
 40
8.0
 40
9.0
 40
9.0
 40
9.0
 40
10.0
 40
10.0
 40
10.0
 40
11.0
 40
11.0
 40
11.0
 40
12.0
 40
12.0
 40
12.0
 40
13.0
 40
13.0
 40
13.0
 40
14.0
 40
14.0
 40
14.0
 40
15.0
 40
15.0
 40
15.0
 40
16.0
 40
16.0
 40
16.0
 40
17.0
 40
17.0
 40
17.0
 40
17.0
 10
194.6534531896912
 20
15.26181239384494
 30
0.0
 10
194.768839807883
 20
15.29429114924596
 30
0.0
 10
194.9177987172164
 20
15.26712385315697
 30
0.0
 10
194.9177987172164
 20
15.26712385315697
 30
0.0
 10
194.9177987172164
 20
15.26712385315697
 30
0.0
 10
194.8462353578582
 20
15.05236682391462
 30
0.0
 10
194.8462353578582
 20
15.05236682391462
 30
0.0
 10
194.8462353578582
 20
15.05236682391462
 30
0.0
 10
194.6999991293486
 20
15.08620691972755
 30
0.0
 10
194.5872087286637
 20
14.99726601281628
 30
0.0
 10
194.4995622109965
 20
14.92771118849205
 30
0.0
 10
194.4427801816846
 20
14.74289620929302
 30
0.0
 10
194.420998735094
 20
14.67262723917894
 30
0.0
 10
194.420998735094
 20
14.67262723917894
 30
0.0
 10
194.3238897857113
 20
14.37456064013906
 30
0.0
 10
194.3238897857113
 20
14.37456064013906
 30
0.0
 10
194.3238897857113
 20
14.37456064013906
 30
0.0
 10
194.6423021007434
 20
14.37456064013906
 30
0.0
 10
194.6423021007434
 20
14.37456064013906
 30
0.0
 10
194.6423021007434
 20
14.37456064013906
 30
0.0
 10
194.5927805536282
 20
14.18696346796705
 30
0.0
 10
194.5927805536282
 20
14.18696346796705
 30
0.0
 10
194.5927805536282
 20
14.18696346796705
 30
0.0
 10
194.2717720210894
 20
14.18696346796705
 30
0.0
 10
194.2717720210894
 20
14.18696346796705
 30
0.0
 10
194.2717720210894
 20
14.18696346796705
 30
0.0
 10
193.6974277086187
 20
12.33324929003077
 30
0.0
 10
193.6974277086187
 20
12.33324929003077
 30
0.0
 10
193.6974277086187
 20
12.33324929003077
 30
0.0
 10
193.51760431093
 20
12.33324929003077
 30
0.0
 10
193.51760431093
 20
12.33324929003077
 30
0.0
 10
193.51760431093
 20
12.33324929003077
 30
0.0
 10
194.0924693547057
 20
14.18696346796705
 30
0.0
 10
194.0924693547057
 20
14.18696346796705
 30
0.0
 10
194.0924693547057
 20
14.18696346796705
 30
0.0
 10
193.8555961230339
 20
14.18696346796705
 30
0.0
 10
193.8555961230339
 20
14.18696346796705
 30
0.0
 10
193.8555961230339
 20
14.18696346796705
 30
0.0
 10
193.9052515724846
 20
14.37456064013906
 30
0.0
 10
193.9052515724846
 20
14.37456064013906
 30
0.0
 10
193.9052515724846
 20
14.37456064013906
 30
0.0
 10
194.1445871193277
 20
14.37456064013906
 30
0.0
 10
194.1445871193277
 20
14.37456064013906
 30
0.0
 10
194.1445871193277
 20
14.37456064013906
 30
0.0
 10
194.2292431514999
 20
14.63450970764554
 30
0.0
 10
194.2292431514999
 20
14.63450970764554
 30
0.0
 10
194.2976970010647
 20
14.85245063686765
 30
0.0
 10
194.3557808586394
 20
14.96945896112388
 30
0.0
 10
194.4055702104258
 20
15.05767828322665
 30
0.0
 10
194.4548313918883
 20
15.14597199551587
 30
0.0
 10
194.5523271702405
 20
15.23270351388978
 30
0.0
 10
194.6534531896912
 20
15.26181239384494
 30
0.0
  0
SPLINE
  5
207E
102
{ACAD_REACTORS
330
2071
330
20A3
102
}
330
A
100
AcDbEntity
  8
TEMPLATE
100
AcDbSpline
210
0.0
220
0.0
230
1.0
 70
    11
 71
     3
 72
    38
 73
    34
 74
     0
 42
0.000000001
 43
0.0000000001
 40
0.0
 40
0.0
 40
0.0
 40
0.0
 40
1.0
 40
1.0
 40
1.0
 40
2.0
 40
2.0
 40
2.0
 40
3.0
 40
3.0
 40
3.0
 40
4.0
 40
4.0
 40
4.0
 40
5.0
 40
5.0
 40
5.0
 40
6.0
 40
6.0
 40
6.0
 40
7.0
 40
7.0
 40
7.0
 40
8.0
 40
8.0
 40
8.0
 40
9.0
 40
9.0
 40
9.0
 40
10.0
 40
10.0
 40
10.0
 40
11.0
 40
11.0
 40
11.0
 40
11.0
 10
196.6058310719068
 20
14.36736710911002
 30
0.0
 10
196.6058310719068
 20
14.36736710911002
 30
0.0
 10
196.790705563255
 20
14.36736710911002
 30
0.0
 10
196.790705563255
 20
14.36736710911002
 30
0.0
 10
196.790705563255
 20
14.36736710911002
 30
0.0
 10
196.708117578266
 20
14.10294719139831
 30
0.0
 10
196.708117578266
 20
14.10294719139831
 30
0.0
 10
196.7708731395493
 20
14.17717371943115
 30
0.0
 10
196.8699162337796
 20
14.27603083819528
 30
0.0
 10
196.9549739729585
 20
14.32587970213075
 30
0.0
 10
197.0820324114032
 20
14.40010623016359
 30
0.0
 10
197.1546372333715
 20
14.40989597869949
 30
0.0
 10
197.2344876594995
 20
14.40794695581469
 30
0.0
 10
197.2344876594995
 20
14.40794695581469
 30
0.0
 10
197.1564523539208
 20
14.1579215391797
 30
0.0
 10
197.1564523539208
 20
14.1579215391797
 30
0.0
 10
197.1056289785429
 20
14.17944262011767
 30
0.0
 10
196.9490078800058
 20
14.1384759444435
 30
0.0
 10
196.8591594128199
 20
14.0738457504618
 30
0.0
 10
196.7781336217462
 20
14.01556847840234
 30
0.0
 10
196.7221178113546
 20
13.96597998011942
 30
0.0
 10
196.6557468870101
 20
13.84131690567822
 30
0.0
 10
196.5898818159334
 20
13.71646785577089
 30
0.0
 10
196.5378979536471
 20
13.51739227783074
 30
0.0
 10
196.4484363154307
 20
13.22859469602165
 30
0.0
 10
196.4484363154307
 20
13.22859469602165
 30
0.0
 10
196.169041653188
 20
12.33324929003077
 30
0.0
 10
196.169041653188
 20
12.33324929003077
 30
0.0
 10
196.169041653188
 20
12.33324929003077
 30
0.0
 10
195.9896125234874
 20
12.33324929003077
 30
0.0
 10
195.9896125234874
 20
12.33324929003077
 30
0.0
 10
195.9896125234874
 20
12.33324929003077
 30
0.0
 10
196.6058310719068
 20
14.36736710911002
 30
0.0
 10
196.6058310719068
 20
14.36736710911002
 30
0.0
  0
SPLINE
  5
207F
102
{ACAD_REACTORS
330
2071
330
20A3
102
}
330
A
100
AcDbEntity
  8
TEMPLATE
100
AcDbSpline
210
0.0
220
0.0
230
1.0
 70
    11
 71
     3
 72
   104
 73
   100
 74
     0
 42
0.000000001
 43
0.0000000001
 40
0.0
 40
0.0
 40
0.0
 40
0.0
 40
1.0
 40
1.0
 40
1.0
 40
2.0
 40
2.0
 40
2.0
 40
3.0
 40
3.0
 40
3.0
 40
4.0
 40
4.0
 40
4.0
 40
5.0
 40
5.0
 40
5.0
 40
6.0
 40
6.0
 40
6.0
 40
7.0
 40
7.0
 40
7.0
 40
8.0
 40
8.0
 40
8.0
 40
9.0
 40
9.0
 40
9.0
 40
10.0
 40
10.0
 40
10.0
 40
11.0
 40
11.0
 40
11.0
 40
12.0
 40
12.0
 40
12.0
 40
13.0
 40
13.0
 40
13.0
 40
14.0
 40
14.0
 40
14.0
 40
15.0
 40
15.0
 40
15.0
 40
16.0
 40
16.0
 40
16.0
 40
17.0
 40
17.0
 40
17.0
 40
18.0
 40
18.0
 40
18.0
 40
19.0
 40
19.0
 40
19.0
 40
20.0
 40
20.0
 40
20.0
 40
21.0
 40
21.0
 40
21.0
 40
22.0
 40
22.0
 40
22.0
 40
23.0
 40
23.0
 40
23.0
 40
24.0
 40
24.0
 40
24.0
 40
25.0
 40
25.0
 40
25.0
 40
26.0
 40
26.0
 40
26.0
 40
27.0
 40
27.0
 40
27.0
 40
28.0
 40
28.0
 40
28.0
 40
29.0
 40
29.0
 40
29.0
 40
30.0
 40
30.0
 40
30.0
 40
31.0
 40
31.0
 40
31.0
 40
32.0
 40
32.0
 40
32.0
 40
33.0
 40
33.0
 40
33.0
 40
33.0
 10
197.6234441883354
 20
14.36846808386937
 30
0.0
 10
197.6234441883354
 20
14.36846808386937
 30
0.0
 10
197.7848560148795
 20
14.36846808386937
 30
0.0
 10
197.7848560148795
 20
14.36846808386937
 30
0.0
 10
197.7848560148795
 20
14.36846808386937
 30
0.0
 10
197.7033094925007
 20
14.10379523952376
 30
0.0
 10
197.7033094925007
 20
14.10379523952376
 30
0.0
 10
197.7740843158826
 20
14.21477051965945
 30
0.0
 10
197.8376135351049
 20
14.26423255462542
 30
0.0
 10
197.9220166406432
 20
14.32814860281726
 30
0.0
 10
198.0066726728153
 20
14.3911570907345
 30
0.0
 10
198.1071589366625
 20
14.40399683691456
 30
0.0
 10
198.1769071754715
 20
14.40399683691456
 30
0.0
 10
198.2632593038946
 20
14.40399683691456
 30
0.0
 10
198.3466209468226
 20
14.38694660618182
 30
0.0
 10
198.3904367666375
 20
14.29229997197037
 30
0.0
 10
198.4240164967979
 20
14.21808088295617
 30
0.0
 10
198.4255786907132
 20
14.20932515801183
 30
0.0
 10
198.4159823566621
 20
14.06282112483094
 30
0.0
 10
198.5037478986276
 20
14.21302235027805
 30
0.0
 10
198.568571507094
 20
14.27771949542754
 30
0.0
 10
198.6787731292907
 20
14.33987993521932
 30
0.0
 10
198.794420113135
 20
14.40399683691456
 30
0.0
 10
198.8618325000897
 20
14.40879500394014
 30
0.0
 10
198.9401504883769
 20
14.39724964700418
 30
0.0
 10
199.05552966755
 20
14.38020685529008
 30
0.0
 10
199.1291759521286
 20
14.33903932611252
 30
0.0
 10
199.1676803126315
 20
14.21392991055265
 30
0.0
 10
199.20631857547
 20
14.08920732396228
 30
0.0
 10
199.1854446891541
 20
14.02230822929408
 30
0.0
 10
199.1377308235695
 20
13.82375338265902
 30
0.0
 10
199.115949376979
 20
13.73332467201888
 30
0.0
 10
199.0844376940018
 20
13.62382975659341
 30
0.0
 10
199.043210652675
 20
13.4935427840571
 30
0.0
 10
199.043210652675
 20
13.4935427840571
 30
0.0
 10
198.6787731292907
 20
12.33324929003077
 30
0.0
 10
198.6787731292907
 20
12.33324929003077
 30
0.0
 10
198.6787731292907
 20
12.33324929003077
 30
0.0
 10
198.4892269342339
 20
12.33324929003077
 30
0.0
 10
198.4892269342339
 20
12.33324929003077
 30
0.0
 10
198.4892269342339
 20
12.33324929003077
 30
0.0
 10
198.8083013219253
 20
13.34761899433048
 30
0.0
 10
198.8083013219253
 20
13.34761899433048
 30
0.0
 10
198.8749400509409
 20
13.55985419625241
 30
0.0
 10
198.92005026
 20
13.71484614970644
 30
0.0
 10
198.9433939005058
 20
13.81202205025695
 30
0.0
 10
198.972688755927
 20
13.93324085906585
 30
0.0
 10
198.9843531371613
 20
13.97324046231626
 30
0.0
 10
198.9704868064084
 20
14.06146722343768
 30
0.0
 10
198.9577809625639
 20
14.14359398927077
 30
0.0
 10
198.916286116566
 20
14.19707309430466
 30
0.0
 10
198.8452434885129
 20
14.19707309430466
 30
0.0
 10
198.7695291567512
 20
14.19707309430466
 30
0.0
 10
198.7082018870476
 20
14.18864468618067
 30
0.0
 10
198.6223853679669
 20
14.10243389911185
 30
0.0
 10
198.536553970849
 20
14.01556847840234
 30
0.0
 10
198.4656303670941
 20
13.9136018498449
 30
0.0
 10
198.4100162637093
 20
13.79633315993612
 30
0.0
 10
198.3545211846229
 20
13.6783503242375
 30
0.0
 10
198.2982524475973
 20
13.52880373243109
 30
0.0
 10
198.2412100526329
 20
13.34761899433048
 30
0.0
 10
198.2412100526329
 20
13.34761899433048
 30
0.0
 10
197.9220166406432
 20
12.33324929003077
 30
0.0
 10
197.9220166406432
 20
12.33324929003077
 30
0.0
 10
197.9220166406432
 20
12.33324929003077
 30
0.0
 10
197.7437479978511
 20
12.33324929003077
 30
0.0
 10
197.7437479978511
 20
12.33324929003077
 30
0.0
 10
197.7437479978511
 20
12.33324929003077
 30
0.0
 10
198.1087062525406
 20
13.493022052752
 30
0.0
 10
198.1087062525406
 20
13.493022052752
 30
0.0
 10
198.1472106130435
 20
13.61645025009826
 30
0.0
 10
198.1761335175325
 20
13.7170555382438
 30
0.0
 10
198.1951922832992
 20
13.79568596531406
 30
0.0
 10
198.2275966485138
 20
13.93103890954714
 30
0.0
 10
198.2366722512598
 20
14.02256859494663
 30
0.0
 10
198.2121681238455
 20
14.10379523952376
 30
0.0
 10
198.1880508254007
 20
14.18476151844834
 30
0.0
 10
198.1456632971655
 20
14.2054419902795
 30
0.0
 10
198.0748735957463
 20
14.2054419902795
 30
0.0
 10
198.0154953489275
 20
14.2054419902795
 30
0.0
 10
197.9575453936883
 20
14.17996335142277
 30
0.0
 10
197.8914273959778
 20
14.12926643936185
 30
0.0
 10
197.8081847773481
 20
14.06548429350561
 30
0.0
 10
197.7748728518588
 20
14.01310616323108
 30
0.0
 10
197.7340326395017
 20
13.95087133325285
 30
0.0
 10
197.6789243893847
 20
13.86854371391636
 30
0.0
 10
197.6531258727262
 20
13.81312302501631
 30
0.0
 10
197.6065873720875
 20
13.69150994821926
 30
0.0
 10
197.5600339934114
 20
13.56918272563237
 30
0.0
 10
197.5159652469626
 20
13.426829664855
 30
0.0
 10
197.4852272219243
 20
13.32836681407902
 30
0.0
 10
197.4852272219243
 20
13.32836681407902
 30
0.0
 10
197.172133805223
 20
12.33324929003077
 30
0.0
 10
197.172133805223
 20
12.33324929003077
 30
0.0
 10
197.172133805223
 20
12.33324929003077
 30
0.0
 10
196.9854441933256
 20
12.33324929003077
 30
0.0
 10
196.9854441933256
 20
12.33324929003077
 30
0.0
 10
196.9854441933256
 20
12.33324929003077
 30
0.0
 10
197.6234441883354
 20
14.36846808386937
 30
0.0
 10
197.6234441883354
 20
14.36846808386937
 30
0.0
  0
SPLINE
  5
2080
102
{ACAD_REACTORS
330
2071
330
20A3
102
}
330
A
100
AcDbEntity
  8
TEMPLATE
100
AcDbSpline
210
0.0
220
0.0
230
1.0
 70
    11
 71
     3
 72
    32
 73
    28
 74
     0
 42
0.000000001
 43
0.0000000001
 40
0.0
 40
0.0
 40
0.0
 40
0.0
 40
1.0
 40
1.0
 40
1.0
 40
2.0
 40
2.0
 40
2.0
 40
3.0
 40
3.0
 40
3.0
 40
4.0
 40
4.0
 40
4.0
 40
5.0
 40
5.0
 40
5.0
 40
6.0
 40
6.0
 40
6.0
 40
7.0
 40
7.0
 40
7.0
 40
8.0
 40
8.0
 40
8.0
 40
9.0
 40
9.0
 40
9.0
 40
9.0
 10
195.0910088273304
 20
14.2611899959999
 30
0.0
 10
194.9827562280185
 20
14.12116534805821
 30
0.0
 10
194.8993945850904
 20
13.99514837222373
 30
0.0
 10
194.7644359088455
 20
13.59907270254517
 30
0.0
 10
194.6403605168772
 20
13.23677761653038
 30
0.0
 10
194.5614027729866
 20
12.97319830792548
 30
0.0
 10
194.5494780260998
 20
12.65218977538657
 30
0.0
 10
194.5404024233537
 20
12.41330800868075
 30
0.0
 10
194.6858649939244
 20
12.33324929003077
 30
0.0
 10
194.8991416584565
 20
12.33324929003077
 30
0.0
 10
194.9910581728255
 20
12.33324929003077
 30
0.0
 10
195.2230067741548
 20
12.33909635868519
 30
0.0
 10
195.388182744133
 20
12.54328254243399
 30
0.0
 10
195.5038148499399
 20
12.68673657797071
 30
0.0
 10
195.6103862310383
 20
12.8354425606703
 30
0.0
 10
195.7532600231207
 20
13.32324876925175
 30
0.0
 10
195.8721504190939
 20
13.73105577133237
 30
0.0
 10
195.9544705994118
 20
13.99462764091863
 30
0.0
 10
195.9483854821607
 20
14.14469496403013
 30
0.0
 10
195.9483854821607
 20
14.14469496403013
 30
0.0
 10
195.9483854821607
 20
14.14469496403013
 30
0.0
 10
195.9483854821607
 20
14.14469496403013
 30
0.0
 10
195.9096133169866
 20
14.39504769748547
 30
0.0
 10
195.7278483354318
 20
14.4479465590651
 30
0.0
 10
195.6239996351573
 20
14.4479465590651
 30
0.0
 10
195.5217131287981
 20
14.4479465590651
 30
0.0
 10
195.2476299258675
 20
14.46564398441989
 30
0.0
 10
195.0910088273304
 20
14.2611899959999
 30
0.0
  0
SPLINE
  5
2081
102
{ACAD_REACTORS
330
2071
330
20A3
102
}
330
A
100
AcDbEntity
  8
TEMPLATE
100
AcDbSpline
210
0.0
220
0.0
230
1.0
 70
    11
 71
     3
 72
    29
 73
    25
 74
     0
 42
0.000000001
 43
0.0000000001
 40
0.0
 40
0.0
 40
0.0
 40
0.0
 40
1.0
 40
1.0
 40
1.0
 40
2.0
 40
2.0
 40
2.0
 40
3.0
 40
3.0
 40
3.0
 40
4.0
 40
4.0
 40
4.0
 40
5.0
 40
5.0
 40
5.0
 40
6.0
 40
6.0
 40
6.0
 40
7.0
 40
7.0
 40
7.0
 40
8.0
 40
8.0
 40
8.0
 40
8.0
 10
194.7431751935601
 20
12.71220777780879
 30
0.0
 10
194.7423866575838
 20
12.85392108298274
 30
0.0
 10
194.7871249157106
 20
13.10570210801778
 30
0.0
 10
194.9017304369448
 20
13.44258550634363
 30
0.0
 10
195.0578308041768
 20
13.89875356863087
 30
0.0
 10
195.1514434147967
 20
14.06548429350561
 30
0.0
 10
195.2333618881077
 20
14.14664398691494
 30
0.0
 10
195.3530408200572
 20
14.26482023709832
 30
0.0
 10
195.5139319152962
 20
14.2707119398646
 30
0.0
 10
195.5613928542469
 20
14.26482023709832
 30
0.0
 10
195.6289391435371
 20
14.25671170677603
 30
0.0
 10
195.7243519966689
 20
14.21250161897294
 30
0.0
 10
195.7300502849505
 20
14.06366917295639
 30
0.0
 10
195.7346029643608
 20
13.93629085671002
 30
0.0
 10
195.6978988463698
 20
13.69773640682454
 30
0.0
 10
195.5694269943827
 20
13.32324876925175
 30
0.0
 10
195.4213607672865
 20
12.88808105659738
 30
0.0
 10
195.3324198603752
 20
12.71701338385301
 30
0.0
 10
195.2611243056883
 20
12.64245953899982
 30
0.0
 10
195.1268053850467
 20
12.50269525671068
 30
0.0
 10
194.9827562280185
 20
12.516115246345
 30
0.0
 10
194.9614955127331
 20
12.516115246345
 30
0.0
 10
194.9338818755254
 20
12.516115246345
 30
0.0
 10
194.7435620225296
 20
12.54607961344425
 30
0.0
 10
194.7431751935601
 20
12.71220777780879
 30
0.0
  0
POLYLINE
  5
49B3
102
{ACAD_REACTORS
330
4A24
330
4A33
102
}
330
A
100
AcDbEntity
  8
MODEL
100
AcDb2dPolyline
 66
     1
 10
0.0
 20
0.0
 30
0.0
  0
VERTEX
  5
49B4
330
49B3
100
AcDbEntity
  8
MODEL
100
AcDbVertex
100
AcDb2dVertex
 10
59.75254293448256
 20
129.3273837816608
 30
0.0
  0
VERTEX
  5
49B5
330
49B3
100
AcDbEntity
  8
MODEL
100
AcDbVertex
100
AcDb2dVertex
 10
47.72984077874787
 20
129.3273837816608
 30
0.0
  0
VERTEX
  5
49B6
330
49B3
100
AcDbEntity
  8
MODEL
100
AcDbVertex
100
AcDb2dVertex
 10
47.72984077874787
 20
99.31300309474707
 30
0.0
  0
VERTEX
  5
49B7
330
49B3
100
AcDbEntity
  8
MODEL
100
AcDbVertex
100
AcDb2dVertex
 10
59.75254293448256
 20
99.31300309474707
 30
0.0
  0
VERTEX
  5
49B8
330
49B3
100
AcDbEntity
  8
MODEL
100
AcDbVertex
100
AcDb2dVertex
 10
59.75254293448256
 20
129.3273837816608
 30
0.0
  0
SEQEND
  5
49B9
330
49B3
100
AcDbEntity
  8
MODEL
  0
POLYLINE
  5
49BA
102
{ACAD_REACTORS
330
4A15
102
}
330
A
100
AcDbEntity
  8
MODEL
100
AcDb2dPolyline
 66
     1
 10
0.0
 20
0.0
 30
0.0
  0
VERTEX
  5
49BB
330
49BA
100
AcDbEntity
  8
MODEL
100
AcDbVertex
100
AcDb2dVertex
 10
175.2961719345366
 20
129.3273837816608
 30
0.0
  0
VERTEX
  5
49BC
330
49BA
100
AcDbEntity
  8
MODEL
100
AcDbVertex
100
AcDb2dVertex
 10
175.2961719345366
 20
124.3321642875043
 30
0.0
  0
VERTEX
  5
49BD
330
49BA
100
AcDbEntity
  8
MODEL
100
AcDbVertex
100
AcDb2dVertex
 10
165.093687179221
 20
124.3321642875043
 30
0.0
  0
VERTEX
  5
49BE
330
49BA
100
AcDbEntity
  8
MODEL
100
AcDbVertex
100
AcDb2dVertex
 10
165.093687179221
 20
129.3273837816608
 30
0.0
  0
VERTEX
  5
49BF
330
49BA
100
AcDbEntity
  8
MODEL
100
AcDbVertex
100
AcDb2dVertex
 10
130.274600904166
 20
129.3273837816608
 30
0.0
  0
VERTEX
  5
49C0
330
49BA
100
AcDbEntity
  8
MODEL
100
AcDbVertex
100
AcDb2dVertex
 10
130.274600904166
 20
99.31300309474707
 30
0.0
  0
VERTEX
  5
49C1
330
49BA
100
AcDbEntity
  8
MODEL
100
AcDbVertex
100
AcDb2dVertex
 10
180.2915636835811
 20
99.31300309474707
 30
0.0
  0
VERTEX
  5
49C2
330
49BA
100
AcDbEntity
  8
MODEL
100
AcDbVertex
100
AcDb2dVertex
 10
180.2915636835811
 20
129.3273837816608
 30
0.0
  0
VERTEX
  5
49C3
330
49BA
100
AcDbEntity
  8
MODEL
100
AcDbVertex
100
AcDb2dVertex
 10
175.2961719345366
 20
129.3273837816608
 30
0.0
  0
SEQEND
  5
49C4
330
49BA
100
AcDbEntity
  8
MODEL
  0
MTEXT
  5
4A11
330
A
100
AcDbEntity
  8
TEMPLATE
390
1D
100
AcDbMText
 10
13.22021445477308
 20
23.10753174217033
 30
0.0
 40
2.44326171875
 41
0.0
 46
5.519030949472263
 71
     1
 72
     1
  1
{\pxsm1;固定ビス付属\P耐荷重:3kgf}
  7
ＭＳ ゴシック
 73
     1
 44
0.7828267384257843
1001
ACAD
1000
ACAD_MTEXT_DEFINED_HEIGHT_BEGIN
1070
    46
1040
5.519030949472263
1000
ACAD_MTEXT_DEFINED_HEIGHT_END
  0
MTEXT
  5
4A12
330
A
100
AcDbEntity
  8
TEMPLATE
390
1D
100
AcDbMText
 10
132.5223563603716
 20
31.74121937262871
 30
0.0
 40
2.44326171875
 41
0.0
 46
2.44326171875
 71
     1
 72
     1
  1
{\pxsm1;APM74-0203}
  7
ＭＳ ゴシック
 73
     1
 44
0.7828267384257843
1001
ACAD
1000
ACAD_MTEXT_DEFINED_HEIGHT_BEGIN
1070
    46
1040
2.44326171875
1000
ACAD_MTEXT_DEFINED_HEIGHT_END
  0
DIMENSION
  5
4A13
102
{ACAD_REACTORS
330
4A15
102
}
102
{ACAD_XDICTIONARY
360
4A14
102
}
330
A
100
AcDbEntity
  8
DIM
100
AcDbDimension
  2
*D45
 10
180.2915636835811
 20
145.6983295127451
 30
0.0
 11
155.2830822938736
 21
148.1988922237617
 31
0.0
 70
    32
 71
     5
 42
50.01696277941511
 73
     0
 74
     0
 75
     0
  3
tfrom線あり
100
AcDbAlignedDimension
 13
130.274600904166
 23
129.3273837816608
 33
0.0
 14
180.2915636835811
 24
129.3273837816608
 34
0.0
100
AcDbRotatedDimension
  0
DIMENSION
  5
4A22
102
{ACAD_REACTORS
330
4A24
102
}
102
{ACAD_XDICTIONARY
360
4A23
102
}
330
A
100
AcDbEntity
  8
DIM
100
AcDbDimension
  2
*D46
 10
59.75254293448256
 20
145.6983295127451
 30
0.0
 11
53.74119185661522
 21
148.1988922237617
 31
0.0
 70
    32
 71
     5
 42
12.02270215573468
 73
     0
 74
     0
 75
     0
  3
tfrom線あり
100
AcDbAlignedDimension
 13
47.72984077874787
 23
129.3273837816608
 33
0.0
 14
59.75254293448256
 24
129.3273837816608
 34
0.0
100
AcDbRotatedDimension
  0
DIMENSION
  5
4A31
102
{ACAD_REACTORS
330
4A33
102
}
102
{ACAD_XDICTIONARY
360
4A32
102
}
330
A
100
AcDbEntity
  8
DIM
100
AcDbDimension
  2
*D47
 10
33.49586868429
 20
99.31300309474707
 30
0.0
 11
30.99530597327337
 21
114.3201934382039
 31
0.0
 70
    32
 71
     5
 42
30.01438068691371
 73
     0
 74
     0
 75
     0
  3
tfrom線あり
100
AcDbAlignedDimension
 13
47.72984077874787
 23
129.3273837816608
 33
0.0
 14
47.72984077874787
 24
99.31300309474707
 34
0.0
 50
90.0
100
AcDbRotatedDimension
  0
LINE
  5
4ADF
330
A
100
AcDbEntity
  8
HIDDEN
 48
0.025
100
AcDbLine
 10
85.27460090416595
 20
123.3273837816609
 30
0.0
 11
88.76991410927612
 21
121.8273837816608
 31
0.0
  0
LINE
  5
4AE0
102
{ACAD_REACTORS
330
4B23
330
4B26
102
}
330
A
100
AcDbEntity
  8
HIDDEN
 48
0.025
100
AcDbLine
 10
85.27460090416595
 20
123.3273837816609
 30
0.0
 11
88.76991410927612
 21
124.8273837816608
 31
0.0
  0
LINE
  5
4AE1
330
A
100
AcDbEntity
  8
HIDDEN
 48
0.025
100
AcDbLine
 10
130.2746009041659
 20
121.8273837816608
 30
0.0
 11
88.76991410927612
 21
121.8273837816608
 31
0.0
  0
LINE
  5
4AE2
330
A
100
AcDbEntity
  8
HIDDEN
 48
0.025
100
AcDbLine
 10
88.76991410927612
 20
124.8273837816608
 30
0.0
 11
130.2746009041659
 21
124.8273837816608
 31
0.0
  0
LINE
  5
4AE3
330
A
100
AcDbEntity
  8
HIDDEN
 48
0.025
100
AcDbLine
 10
88.66340238152931
 20
125.2976195473886
 30
0.0
 11
90.7860560305801
 21
121.2949012377496
 31
0.0
  0
LINE
  5
4AE4
330
A
100
AcDbEntity
  8
HIDDEN
 48
0.025
100
AcDbLine
 10
90.17958355942245
 20
125.2976195473886
 30
0.0
 11
92.30223720847324
 21
121.2949012377496
 31
0.0
  0
LINE
  5
4AE5
330
A
100
AcDbEntity
  8
HIDDEN
 48
0.025
100
AcDbLine
 10
91.69576473731594
 20
125.2976195473882
 30
0.0
 11
93.81841838636684
 21
121.2949012377496
 31
0.0
  0
LINE
  5
4AE6
330
A
100
AcDbEntity
  8
HIDDEN
 48
0.025
100
AcDbLine
 10
93.21194591520943
 20
125.2976195473882
 30
0.0
 11
95.3345995642601
 21
121.2949012377496
 31
0.0
  0
LINE
  5
4AE7
330
A
100
AcDbEntity
  8
HIDDEN
 48
0.025
100
AcDbLine
 10
94.66747984598705
 20
125.2976195473882
 30
0.0
 11
96.79013349503784
 21
121.2949012377496
 31
0.0
  0
LINE
  5
4AE8
330
A
100
AcDbEntity
  8
HIDDEN
 48
0.025
100
AcDbLine
 10
96.18366102388053
 20
125.2976195473882
 30
0.0
 11
98.30631467293121
 21
121.2949012377496
 31
0.0
  0
LINE
  5
4AE9
330
A
100
AcDbEntity
  8
HIDDEN
 48
0.025
100
AcDbLine
 10
97.69984220177379
 20
125.2976195473879
 30
0.0
 11
99.8224958508247
 21
121.2949012377494
 31
0.0
  0
LINE
  5
4AEA
330
A
100
AcDbEntity
  8
HIDDEN
 48
0.025
100
AcDbLine
 10
99.21602337966728
 20
125.2976195473879
 30
0.0
 11
101.338677028718
 21
121.2949012377494
 31
0.0
  0
LINE
  5
4AEB
330
A
100
AcDbEntity
  8
HIDDEN
 48
0.025
100
AcDbLine
 10
100.8534990517922
 20
125.2976195473886
 30
0.0
 11
102.9761527008428
 21
121.2949012377496
 31
0.0
  0
LINE
  5
4AEC
330
A
100
AcDbEntity
  8
HIDDEN
 48
0.025
100
AcDbLine
 10
102.3696802296854
 20
125.2976195473886
 30
0.0
 11
104.4923338787363
 21
121.2949012377496
 31
0.0
  0
LINE
  5
4AED
330
A
100
AcDbEntity
  8
HIDDEN
 48
0.025
100
AcDbLine
 10
103.8858614075792
 20
125.2976195473882
 30
0.0
 11
106.0085150566299
 21
121.2949012377496
 31
0.0
  0
LINE
  5
4AEE
330
A
100
AcDbEntity
  8
HIDDEN
 48
0.025
100
AcDbLine
 10
105.4020425854721
 20
125.2976195473882
 30
0.0
 11
107.5246962345229
 21
121.2949012377496
 31
0.0
  0
LINE
  5
4AEF
330
A
100
AcDbEntity
  8
HIDDEN
 48
0.025
100
AcDbLine
 10
106.8575765162503
 20
125.2976195473882
 30
0.0
 11
108.980230165301
 21
121.2949012377496
 31
0.0
  0
LINE
  5
4AF0
330
A
100
AcDbEntity
  8
HIDDEN
 48
0.025
100
AcDbLine
 10
108.3737576941432
 20
125.2976195473882
 30
0.0
 11
110.496411343194
 21
121.2949012377496
 31
0.0
  0
LINE
  5
4AF1
330
A
100
AcDbEntity
  8
HIDDEN
 48
0.025
100
AcDbLine
 10
109.889938872037
 20
125.2976195473879
 30
0.0
 11
112.0125925210877
 21
121.2949012377494
 31
0.0
  0
LINE
  5
4AF2
330
A
100
AcDbEntity
  8
HIDDEN
 48
0.025
100
AcDbLine
 10
111.4061200499303
 20
125.2976195473879
 30
0.0
 11
113.5287736989811
 21
121.2949012377494
 31
0.0
  0
LINE
  5
4AF3
330
A
100
AcDbEntity
  8
HIDDEN
 48
0.025
100
AcDbLine
 10
112.8010067335923
 20
125.2976195473886
 30
0.0
 11
114.9236603826432
 21
121.2949012377496
 31
0.0
  0
LINE
  5
4AF4
330
A
100
AcDbEntity
  8
HIDDEN
 48
0.025
100
AcDbLine
 10
114.3171879114857
 20
125.2976195473886
 30
0.0
 11
116.4398415605365
 21
121.2949012377496
 31
0.0
  0
LINE
  5
4AF5
330
A
100
AcDbEntity
  8
HIDDEN
 48
0.025
100
AcDbLine
 10
115.8333690893794
 20
125.2976195473886
 30
0.0
 11
117.9560227384303
 21
121.2949012377496
 31
0.0
  0
LINE
  5
4AF6
330
A
100
AcDbEntity
  8
HIDDEN
 48
0.025
100
AcDbLine
 10
117.3495502672723
 20
125.2976195473886
 30
0.0
 11
119.4722039163233
 21
121.2949012377496
 31
0.0
  0
LINE
  5
4AF7
330
A
100
AcDbEntity
  8
HIDDEN
 48
0.025
100
AcDbLine
 10
118.8050841980505
 20
125.2976195473886
 30
0.0
 11
120.9277378471014
 21
121.2949012377496
 31
0.0
  0
LINE
  5
4AF8
330
A
100
AcDbEntity
  8
HIDDEN
 48
0.025
100
AcDbLine
 10
120.3212653759436
 20
125.2976195473886
 30
0.0
 11
122.4439190249944
 21
121.2949012377496
 31
0.0
  0
LINE
  5
4AF9
330
A
100
AcDbEntity
  8
HIDDEN
 48
0.025
100
AcDbLine
 10
121.8374465538374
 20
125.2976195473882
 30
0.0
 11
123.960100202888
 21
121.2949012377496
 31
0.0
  0
LINE
  5
4AFA
330
A
100
AcDbEntity
  8
HIDDEN
 48
0.025
100
AcDbLine
 10
123.3536277317304
 20
125.2976195473882
 30
0.0
 11
125.4762813807813
 21
121.2949012377496
 31
0.0
  0
LINE
  5
4AFB
330
A
100
AcDbEntity
  8
HIDDEN
 48
0.025
100
AcDbLine
 10
124.9911034038557
 20
125.2976195473886
 30
0.0
 11
127.1137570529065
 21
121.2949012377496
 31
0.0
  0
LINE
  5
4AFC
330
A
100
AcDbEntity
  8
HIDDEN
 48
0.025
100
AcDbLine
 10
126.5072845817487
 20
125.2976195473886
 30
0.0
 11
128.6299382307998
 21
121.2949012377496
 31
0.0
  0
LINE
  5
4AFD
330
A
100
AcDbEntity
  8
HIDDEN
 48
0.025
100
AcDbLine
 10
128.0234657596425
 20
125.2976195473886
 30
0.0
 11
130.1461194086934
 21
121.2949012377496
 31
0.0
  0
LINE
  5
4AFE
330
A
100
AcDbEntity
  8
HIDDEN
 48
0.025
100
AcDbLine
 10
129.5396469375358
 20
125.2976195473886
 30
0.0
 11
130.2746009041659
 21
123.9117063531716
 31
0.0
  0
LINE
  5
4AFF
330
A
100
AcDbEntity
  8
0
100
AcDbLine
 10
130.2746009041659
 20
121.8273837816608
 30
0.0
 11
130.2746009041659
 21
124.8273837816608
 31
0.0
  0
LINE
  5
4B00
330
A
100
AcDbEntity
  8
HIDDEN
 48
0.025
100
AcDbLine
 10
85.27460090416618
 20
105.3130030947469
 30
0.0
 11
88.76991410927634
 21
103.8130030947468
 31
0.0
  0
LINE
  5
4B01
102
{ACAD_REACTORS
330
4B23
102
}
330
A
100
AcDbEntity
  8
HIDDEN
 48
0.025
100
AcDbLine
 10
85.27460090416618
 20
105.3130030947469
 30
0.0
 11
88.76991410927634
 21
106.8130030947468
 31
0.0
  0
LINE
  5
4B02
330
A
100
AcDbEntity
  8
HIDDEN
 48
0.025
100
AcDbLine
 10
130.2746009041662
 20
103.8130030947468
 30
0.0
 11
88.76991410927634
 21
103.8130030947468
 31
0.0
  0
LINE
  5
4B03
330
A
100
AcDbEntity
  8
HIDDEN
 48
0.025
100
AcDbLine
 10
88.76991410927634
 20
106.8130030947468
 30
0.0
 11
130.2746009041662
 21
106.8130030947468
 31
0.0
  0
LINE
  5
4B04
330
A
100
AcDbEntity
  8
HIDDEN
 48
0.025
100
AcDbLine
 10
88.66340238152954
 20
107.2832388604746
 30
0.0
 11
90.78605603058033
 21
103.2805205508356
 31
0.0
  0
LINE
  5
4B05
330
A
100
AcDbEntity
  8
HIDDEN
 48
0.025
100
AcDbLine
 10
90.17958355942268
 20
107.2832388604746
 30
0.0
 11
92.30223720847347
 21
103.2805205508356
 31
0.0
  0
LINE
  5
4B06
330
A
100
AcDbEntity
  8
HIDDEN
 48
0.025
100
AcDbLine
 10
91.69576473731617
 20
107.2832388604741
 30
0.0
 11
93.81841838636707
 21
103.2805205508356
 31
0.0
  0
LINE
  5
4B07
330
A
100
AcDbEntity
  8
HIDDEN
 48
0.025
100
AcDbLine
 10
93.21194591520965
 20
107.2832388604741
 30
0.0
 11
95.33459956426033
 21
103.2805205508356
 31
0.0
  0
LINE
  5
4B08
330
A
100
AcDbEntity
  8
HIDDEN
 48
0.025
100
AcDbLine
 10
94.66747984598727
 20
107.2832388604741
 30
0.0
 11
96.79013349503806
 21
103.2805205508356
 31
0.0
  0
LINE
  5
4B09
330
A
100
AcDbEntity
  8
HIDDEN
 48
0.025
100
AcDbLine
 10
96.18366102388076
 20
107.2832388604741
 30
0.0
 11
98.30631467293144
 21
103.2805205508356
 31
0.0
  0
LINE
  5
4B0A
330
A
100
AcDbEntity
  8
HIDDEN
 48
0.025
100
AcDbLine
 10
97.69984220177402
 20
107.2832388604739
 30
0.0
 11
99.82249585082492
 21
103.2805205508353
 31
0.0
  0
LINE
  5
4B0B
330
A
100
AcDbEntity
  8
HIDDEN
 48
0.025
100
AcDbLine
 10
99.2160233796675
 20
107.2832388604739
 30
0.0
 11
101.3386770287183
 21
103.2805205508353
 31
0.0
  0
LINE
  5
4B0C
330
A
100
AcDbEntity
  8
HIDDEN
 48
0.025
100
AcDbLine
 10
100.8534990517925
 20
107.2832388604746
 30
0.0
 11
102.976152700843
 21
103.2805205508356
 31
0.0
  0
LINE
  5
4B0D
330
A
100
AcDbEntity
  8
HIDDEN
 48
0.025
100
AcDbLine
 10
102.3696802296856
 20
107.2832388604746
 30
0.0
 11
104.4923338787365
 21
103.2805205508356
 31
0.0
  0
LINE
  5
4B0E
330
A
100
AcDbEntity
  8
HIDDEN
 48
0.025
100
AcDbLine
 10
103.8858614075794
 20
107.2832388604741
 30
0.0
 11
106.0085150566301
 21
103.2805205508356
 31
0.0
  0
LINE
  5
4B0F
330
A
100
AcDbEntity
  8
HIDDEN
 48
0.025
100
AcDbLine
 10
105.4020425854724
 20
107.2832388604741
 30
0.0
 11
107.5246962345231
 21
103.2805205508356
 31
0.0
  0
LINE
  5
4B10
330
A
100
AcDbEntity
  8
HIDDEN
 48
0.025
100
AcDbLine
 10
106.8575765162505
 20
107.2832388604741
 30
0.0
 11
108.9802301653012
 21
103.2805205508356
 31
0.0
  0
LINE
  5
4B11
330
A
100
AcDbEntity
  8
HIDDEN
 48
0.025
100
AcDbLine
 10
108.3737576941435
 20
107.2832388604741
 30
0.0
 11
110.4964113431943
 21
103.2805205508356
 31
0.0
  0
LINE
  5
4B12
330
A
100
AcDbEntity
  8
HIDDEN
 48
0.025
100
AcDbLine
 10
109.8899388720372
 20
107.2832388604739
 30
0.0
 11
112.012592521088
 21
103.2805205508353
 31
0.0
  0
LINE
  5
4B13
330
A
100
AcDbEntity
  8
HIDDEN
 48
0.025
100
AcDbLine
 10
111.4061200499305
 20
107.2832388604739
 30
0.0
 11
113.5287736989813
 21
103.2805205508353
 31
0.0
  0
LINE
  5
4B14
330
A
100
AcDbEntity
  8
HIDDEN
 48
0.025
100
AcDbLine
 10
112.8010067335925
 20
107.2832388604746
 30
0.0
 11
114.9236603826434
 21
103.2805205508356
 31
0.0
  0
LINE
  5
4B15
330
A
100
AcDbEntity
  8
HIDDEN
 48
0.025
100
AcDbLine
 10
114.3171879114859
 20
107.2832388604746
 30
0.0
 11
116.4398415605367
 21
103.2805205508356
 31
0.0
  0
LINE
  5
4B16
330
A
100
AcDbEntity
  8
HIDDEN
 48
0.025
100
AcDbLine
 10
115.8333690893796
 20
107.2832388604746
 30
0.0
 11
117.9560227384305
 21
103.2805205508356
 31
0.0
  0
LINE
  5
4B17
330
A
100
AcDbEntity
  8
HIDDEN
 48
0.025
100
AcDbLine
 10
117.3495502672725
 20
107.2832388604746
 30
0.0
 11
119.4722039163236
 21
103.2805205508356
 31
0.0
  0
LINE
  5
4B18
330
A
100
AcDbEntity
  8
HIDDEN
 48
0.025
100
AcDbLine
 10
118.8050841980507
 20
107.2832388604746
 30
0.0
 11
120.9277378471016
 21
103.2805205508356
 31
0.0
  0
LINE
  5
4B19
330
A
100
AcDbEntity
  8
HIDDEN
 48
0.025
100
AcDbLine
 10
120.3212653759439
 20
107.2832388604746
 30
0.0
 11
122.4439190249947
 21
103.2805205508356
 31
0.0
  0
LINE
  5
4B1A
330
A
100
AcDbEntity
  8
HIDDEN
 48
0.025
100
AcDbLine
 10
121.8374465538376
 20
107.2832388604741
 30
0.0
 11
123.9601002028883
 21
103.2805205508356
 31
0.0
  0
LINE
  5
4B1B
330
A
100
AcDbEntity
  8
HIDDEN
 48
0.025
100
AcDbLine
 10
123.3536277317306
 20
107.2832388604741
 30
0.0
 11
125.4762813807815
 21
103.2805205508356
 31
0.0
  0
LINE
  5
4B1C
330
A
100
AcDbEntity
  8
HIDDEN
 48
0.025
100
AcDbLine
 10
124.9911034038559
 20
107.2832388604746
 30
0.0
 11
127.1137570529067
 21
103.2805205508356
 31
0.0
  0
LINE
  5
4B1D
330
A
100
AcDbEntity
  8
HIDDEN
 48
0.025
100
AcDbLine
 10
126.507284581749
 20
107.2832388604746
 30
0.0
 11
128.6299382308
 21
103.2805205508356
 31
0.0
  0
LINE
  5
4B1E
330
A
100
AcDbEntity
  8
HIDDEN
 48
0.025
100
AcDbLine
 10
128.0234657596427
 20
107.2832388604746
 30
0.0
 11
130.1461194086936
 21
103.2805205508356
 31
0.0
  0
LINE
  5
4B1F
330
A
100
AcDbEntity
  8
HIDDEN
 48
0.025
100
AcDbLine
 10
129.5396469375361
 20
107.2832388604746
 30
0.0
 11
130.2746009041662
 21
105.8973256662576
 31
0.0
  0
LINE
  5
4B20
330
A
100
AcDbEntity
  8
0
100
AcDbLine
 10
130.2746009041662
 20
103.8130030947468
 30
0.0
 11
130.2746009041662
 21
106.8130030947468
 31
0.0
  0
DIMENSION
  5
4B21
102
{ACAD_REACTORS
330
4B23
102
}
102
{ACAD_XDICTIONARY
360
4B22
102
}
330
A
100
AcDbEntity
  8
DIM
100
AcDbDimension
  2
*D50
 10
71.1519314279069
 20
105.3130030947469
 30
0.0
 11
71.1519314279069
 21
114.3201934382039
 31
0.0
 70
   160
 71
     5
 42
18.014380686914
 73
     0
 74
     0
 75
     0
  3
tfrom線あり
100
AcDbAlignedDimension
 13
85.27460090416595
 23
123.3273837816609
 33
0.0
 14
85.27460090416618
 24
105.3130030947469
 34
0.0
 50
90.0
100
AcDbRotatedDimension
1001
ACAD
1000
DSTYLE
1002
{
1070
   172
1070
     1
1002
}
  0
DIMENSION
  5
4B24
102
{ACAD_REACTORS
330
4B26
102
}
102
{ACAD_XDICTIONARY
360
4B25
102
}
330
A
100
AcDbEntity
  8
DIM
100
AcDbDimension
  2
*D51
 10
71.1519314279069
 20
123.3273837816609
 30
0.0
 11
71.1519314279069
 21
139.8846314130826
 31
0.0
 70
   160
 71
     5
 42
5.999999999999917
 73
     0
 74
     1
 75
     1
  3
tfrom線あり
100
AcDbAlignedDimension
 13
130.274600904166
 23
129.3273837816608
 33
0.0
 14
85.27460090416595
 24
123.3273837816609
 34
0.0
 50
90.0
100
AcDbRotatedDimension
1001
ACAD
1000
DSTYLE
1002
{
1070
   172
1070
     1
1002
}
  0
POLYLINE
  5
4B49
102
{ACAD_REACTORS
330
4A24
330
4A33
330
4BCB
102
}
330
A
100
AcDbEntity
  8
MODEL
100
AcDb2dPolyline
 66
     1
 10
0.0
 20
0.0
 30
0.0
  0
VERTEX
  5
4B4A
330
4B49
100
AcDbEntity
  8
MODEL
100
AcDbVertex
100
AcDb2dVertex
 10
59.75254293448257
 20
210.1977094249641
 30
0.0
  0
VERTEX
  5
4B4B
330
4B49
100
AcDbEntity
  8
MODEL
100
AcDbVertex
100
AcDb2dVertex
 10
47.72984077874789
 20
210.1977094249641
 30
0.0
  0
VERTEX
  5
4B4C
330
4B49
100
AcDbEntity
  8
MODEL
100
AcDbVertex
100
AcDb2dVertex
 10
47.72984077874786
 20
160.1977094249641
 30
0.0
  0
VERTEX
  5
4B4D
330
4B49
100
AcDbEntity
  8
MODEL
100
AcDbVertex
100
AcDb2dVertex
 10
59.75254293448254
 20
160.1977094249641
 30
0.0
  0
VERTEX
  5
4B4E
330
4B49
100
AcDbEntity
  8
MODEL
100
AcDbVertex
100
AcDb2dVertex
 10
59.75254293448257
 20
210.1977094249641
 30
0.0
  0
SEQEND
  5
4B4F
330
4B49
100
AcDbEntity
  8
MODEL
  0
LINE
  5
4B53
330
A
100
AcDbEntity
  8
MODEL
100
AcDbLine
 10
47.72984077874786
 20
165.1977094249641
 30
0.0
 11
59.75254293448254
 21
165.1977094249641
 31
0.0
  0
LINE
  5
4B55
330
A
100
AcDbEntity
  8
MODEL
100
AcDbLine
 10
59.75254293448256
 20
175.1977094249641
 30
0.0
 11
47.72984077874786
 21
175.1977094249641
 31
0.0
  0
LINE
  5
4BA8
330
A
100
AcDbEntity
  8
HIDDEN
 48
0.025
100
AcDbLine
 10
53.74119185661532
 20
255.197709424964
 30
0.0
 11
52.24119185661523
 21
251.7023962198539
 31
0.0
  0
LINE
  5
4BA9
102
{ACAD_REACTORS
330
4BCB
102
}
330
A
100
AcDbEntity
  8
HIDDEN
 48
0.025
100
AcDbLine
 10
53.74119185661532
 20
255.197709424964
 30
0.0
 11
55.24119185661523
 21
251.7023962198539
 31
0.0
  0
LINE
  5
4BAA
330
A
100
AcDbEntity
  8
HIDDEN
 48
0.025
100
AcDbLine
 10
52.24119185661523
 20
210.1977094249641
 30
0.0
 11
52.24119185661523
 21
251.7023962198539
 31
0.0
  0
LINE
  5
4BAB
330
A
100
AcDbEntity
  8
HIDDEN
 48
0.025
100
AcDbLine
 10
55.24119185661523
 20
251.7023962198539
 30
0.0
 11
55.24119185661523
 21
210.1977094249641
 31
0.0
  0
LINE
  5
4BAC
330
A
100
AcDbEntity
  8
HIDDEN
 48
0.025
100
AcDbLine
 10
55.71142762234304
 20
251.8089079476007
 30
0.0
 11
51.70870931270402
 21
249.6862542985499
 31
0.0
  0
LINE
  5
4BAD
330
A
100
AcDbEntity
  8
HIDDEN
 48
0.025
100
AcDbLine
 10
55.71142762234304
 20
250.2927267697075
 30
0.0
 11
51.70870931270402
 21
248.1700731206568
 31
0.0
  0
LINE
  5
4BAE
330
A
100
AcDbEntity
  8
HIDDEN
 48
0.025
100
AcDbLine
 10
55.71142762234264
 20
248.7765455918141
 30
0.0
 11
51.70870931270402
 21
246.6538919427632
 31
0.0
  0
LINE
  5
4BAF
330
A
100
AcDbEntity
  8
HIDDEN
 48
0.025
100
AcDbLine
 10
55.71142762234264
 20
247.2603644139206
 30
0.0
 11
51.70870931270402
 21
245.1377107648699
 31
0.0
  0
LINE
  5
4BB0
330
A
100
AcDbEntity
  8
HIDDEN
 48
0.025
100
AcDbLine
 10
55.71142762234264
 20
245.804830483143
 30
0.0
 11
51.70870931270402
 21
243.6821768340922
 31
0.0
  0
LINE
  5
4BB1
330
A
100
AcDbEntity
  8
HIDDEN
 48
0.025
100
AcDbLine
 10
55.71142762234264
 20
244.2886493052495
 30
0.0
 11
51.70870931270402
 21
242.1659956561988
 31
0.0
  0
LINE
  5
4BB2
330
A
100
AcDbEntity
  8
HIDDEN
 48
0.025
100
AcDbLine
 10
55.71142762234233
 20
242.7724681273562
 30
0.0
 11
51.70870931270382
 21
240.6498144783053
 31
0.0
  0
LINE
  5
4BB3
330
A
100
AcDbEntity
  8
HIDDEN
 48
0.025
100
AcDbLine
 10
55.71142762234233
 20
241.2562869494627
 30
0.0
 11
51.70870931270382
 21
239.133633300412
 31
0.0
  0
LINE
  5
4BB4
330
A
100
AcDbEntity
  8
HIDDEN
 48
0.025
100
AcDbLine
 10
55.71142762234304
 20
239.6188112773378
 30
0.0
 11
51.70870931270402
 21
237.4961576282872
 31
0.0
  0
LINE
  5
4BB5
330
A
100
AcDbEntity
  8
HIDDEN
 48
0.025
100
AcDbLine
 10
55.71142762234304
 20
238.1026300994446
 30
0.0
 11
51.70870931270402
 21
235.9799764503937
 31
0.0
  0
LINE
  5
4BB6
330
A
100
AcDbEntity
  8
HIDDEN
 48
0.025
100
AcDbLine
 10
55.71142762234264
 20
236.5864489215508
 30
0.0
 11
51.70870931270402
 21
234.4637952725001
 31
0.0
  0
LINE
  5
4BB7
330
A
100
AcDbEntity
  8
HIDDEN
 48
0.025
100
AcDbLine
 10
55.71142762234264
 20
235.0702677436578
 30
0.0
 11
51.70870931270402
 21
232.947614094607
 31
0.0
  0
LINE
  5
4BB8
330
A
100
AcDbEntity
  8
HIDDEN
 48
0.025
100
AcDbLine
 10
55.71142762234264
 20
233.6147338128796
 30
0.0
 11
51.70870931270402
 21
231.492080163829
 31
0.0
  0
LINE
  5
4BB9
330
A
100
AcDbEntity
  8
HIDDEN
 48
0.025
100
AcDbLine
 10
55.71142762234264
 20
232.0985526349867
 30
0.0
 11
51.70870931270402
 21
229.9758989859359
 31
0.0
  0
LINE
  5
4BBA
330
A
100
AcDbEntity
  8
HIDDEN
 48
0.025
100
AcDbLine
 10
55.71142762234233
 20
230.582371457093
 30
0.0
 11
51.70870931270382
 21
228.4597178080422
 31
0.0
  0
LINE
  5
4BBB
330
A
100
AcDbEntity
  8
HIDDEN
 48
0.025
100
AcDbLine
 10
55.71142762234233
 20
229.0661902791996
 30
0.0
 11
51.70870931270382
 21
226.9435366301489
 31
0.0
  0
LINE
  5
4BBC
330
A
100
AcDbEntity
  8
HIDDEN
 48
0.025
100
AcDbLine
 10
55.71142762234304
 20
227.6713035955377
 30
0.0
 11
51.70870931270402
 21
225.5486499464868
 31
0.0
  0
LINE
  5
4BBD
330
A
100
AcDbEntity
  8
HIDDEN
 48
0.025
100
AcDbLine
 10
55.71142762234304
 20
226.1551224176443
 30
0.0
 11
51.70870931270402
 21
224.0324687685935
 31
0.0
  0
LINE
  5
4BBE
330
A
100
AcDbEntity
  8
HIDDEN
 48
0.025
100
AcDbLine
 10
55.71142762234304
 20
224.6389412397506
 30
0.0
 11
51.70870931270402
 21
222.5162875906997
 31
0.0
  0
LINE
  5
4BBF
330
A
100
AcDbEntity
  8
HIDDEN
 48
0.025
100
AcDbLine
 10
55.71142762234304
 20
223.1227600618577
 30
0.0
 11
51.70870931270402
 21
221.0001064128066
 31
0.0
  0
LINE
  5
4BC0
330
A
100
AcDbEntity
  8
HIDDEN
 48
0.025
100
AcDbLine
 10
55.71142762234304
 20
221.6672261310795
 30
0.0
 11
51.70870931270402
 21
219.5445724820286
 31
0.0
  0
LINE
  5
4BC1
330
A
100
AcDbEntity
  8
HIDDEN
 48
0.025
100
AcDbLine
 10
55.71142762234304
 20
220.1510449531863
 30
0.0
 11
51.70870931270402
 21
218.0283913041355
 31
0.0
  0
LINE
  5
4BC2
330
A
100
AcDbEntity
  8
HIDDEN
 48
0.025
100
AcDbLine
 10
55.71142762234264
 20
218.6348637752926
 30
0.0
 11
51.70870931270402
 21
216.5122101262419
 31
0.0
  0
LINE
  5
4BC3
330
A
100
AcDbEntity
  8
HIDDEN
 48
0.025
100
AcDbLine
 10
55.71142762234264
 20
217.1186825973996
 30
0.0
 11
51.70870931270402
 21
214.9960289483487
 31
0.0
  0
LINE
  5
4BC4
330
A
100
AcDbEntity
  8
HIDDEN
 48
0.025
100
AcDbLine
 10
55.71142762234304
 20
215.4812069252743
 30
0.0
 11
51.70870931270402
 21
213.3585532762235
 31
0.0
  0
LINE
  5
4BC5
330
A
100
AcDbEntity
  8
HIDDEN
 48
0.025
100
AcDbLine
 10
55.71142762234304
 20
213.9650257473812
 30
0.0
 11
51.70870931270402
 21
211.8423720983302
 31
0.0
  0
LINE
  5
4BC6
330
A
100
AcDbEntity
  8
HIDDEN
 48
0.025
100
AcDbLine
 10
55.71142762234304
 20
212.4488445694875
 30
0.0
 11
51.70870931270402
 21
210.3261909204366
 31
0.0
  0
LINE
  5
4BC7
330
A
100
AcDbEntity
  8
HIDDEN
 48
0.025
100
AcDbLine
 10
55.71142762234304
 20
210.9326633915942
 30
0.0
 11
54.32551442812603
 21
210.1977094249641
 31
0.0
  0
LINE
  5
4BC8
330
A
100
AcDbEntity
  8
0
100
AcDbLine
 10
52.24119185661523
 20
210.1977094249641
 30
0.0
 11
55.24119185661523
 21
210.1977094249641
 31
0.0
  0
DIMENSION
  5
4BC9
102
{ACAD_REACTORS
330
4BCB
102
}
102
{ACAD_XDICTIONARY
360
4BCA
102
}
330
A
100
AcDbEntity
  8
DIM
100
AcDbDimension
  2
*D52
 10
47.72984077874789
 20
268.9039817019759
 30
0.0
 11
50.7355163176816
 21
271.4039817019759
 31
0.0
 70
    32
 71
     5
 42
6.011351077867431
 73
     0
 74
     0
 75
     0
  3
tfrom線あり
100
AcDbAlignedDimension
 13
53.74119185661532
 23
255.197709424964
 33
0.0
 14
47.72984077874789
 24
210.1977094249641
 34
0.0
100
AcDbRotatedDimension
  0
MTEXT
  5
4C3C
330
A
100
AcDbEntity
  8
TEMPLATE
390
1D
100
AcDbMText
 10
131.8086732722892
 20
56.20258645590365
 30
0.0
 40
2.5
 41
0.0
 46
19.98279016903524
 71
     1
 72
     1
  1
{APM74-0203-001 クローム\PAPM74-0203-004 フォスファーニッケル\PAPM74-0203-013 エイジドアイアン\PAPM74-0203-017 ブラッシュドゴールド\PAPM74-0203-025 マットブラック\PAPM74-0203-028 PVDコッパー}
  7
ＭＳ ゴシック
 73
     1
 44
0.7828267384257843
1001
ACAD
1000
ACAD_MTEXT_DEFINED_HEIGHT_BEGIN
1070
    46
1040
19.98279016903524
1000
ACAD_MTEXT_DEFINED_HEIGHT_END
  0
VIEWPORT
  5
349
330
B
100
AcDbEntity
 67
     1
  8
0
100
AcDbViewport
 10
202.5
 20
128.5
 30
0.0
 40
486.0
 41
308.4
 68
     1
 69
     1
 12
202.5
 22
128.5
 13
0.0
 23
0.0
 14
0.5
 24
0.5
 15
0.0
 25
0.0
 16
0.0
 26
0.0
 36
1.0
 17
0.0
 27
0.0
 37
0.0
 42
50.0
 43
0.0
 44
0.0
 45
308.4
 50
0.0
 51
0.0
 72
   100
 90
   557152
  1

281
     0
 71
     1
 74
     0
110
0.0
120
0.0
130
0.0
111
1.0
121
0.0
131
0.0
112
0.0
122
1.0
132
0.0
 79
     0
146
0.0
170
     0
 61
     5
348
26C
292
     1
282
     1
141
0.0
142
0.0
 63
   256
  0
VIEWPORT
  5
34A
330
B
100
AcDbEntity
 67
     1
  8
0
100
AcDbViewport
 10
202.5
 20
128.5
 30
0.0
 40
324.0
 41
205.6
 68
     2
 69
     2
 12
986.6781359294573
 22
1427.077061889956
 13
0.0
 23
0.0
 14
0.5
 24
0.5
 15
0.0
 25
0.0
 16
0.0
 26
0.0
 36
1.0
 17
0.0
 27
0.0
 37
0.0
 42
50.0
 43
0.0
 44
0.0
 45
2890.021615685494
 50
0.0
 51
0.0
 72
   100
 90
   557152
  1

281
     0
 71
     1
 74
     0
110
0.0
120
0.0
130
0.0
111
1.0
121
0.0
131
0.0
112
0.0
122
1.0
132
0.0
 79
     0
146
0.0
170
     0
 61
     5
348
26C
292
     1
282
     1
141
0.0
142
0.0
 63
   256
  0
ENDSEC
  0
SECTION
  2
OBJECTS
  0
DICTIONARY
  5
19
330
0
100
AcDbDictionary
281
     1
  3
ACAD_COLOR
350
674
  3
ACAD_DETAILVIEWSTYLE
350
BBF
  3
ACAD_FIELDLIST
350
1E8E
  3
ACAD_GROUP
350
1A
  3
ACAD_IMAGE_VARS
350
27B
  3
ACAD_LAYOUT
350
1E
  3
ACAD_MATERIAL
350
263
  3
ACAD_MLEADERSTYLE
350
336
  3
ACAD_MLINESTYLE
350
1B
  3
ACAD_PLOTSETTINGS
350
22
  3
ACAD_PLOTSTYLENAME
350
1F
  3
ACAD_SCALELIST
350
241
  3
ACAD_SECTIONVIEWSTYLE
350
BC0
  3
ACAD_TABLESTYLE
350
278
  3
ACAD_VISUALSTYLE
350
267
  3
ACDB_RECOMPOSE_DATA
350
4C45
  3
AcDbVariableDictionary
350
330
  3
APPDATA
350
27A
  3
DimOffsetDictionary
350
E38
  0
SUN
  5
904
330
15
100
AcDbSun
 90
        1
290
     0
 63
     7
421
 16777215
 40
1.0
291
     1
 91
  2455826
 92
 54000000
292
     0
 70
     2
 71
   256
280
     1
  0
DICTIONARY
  5
2E1
330
2
100
AcDbDictionary
280
     1
281
     1
  3
ACAD_LAYERSTATES
360
2E2
  3
ACLYDICTIONARY
360
DDE
  0
DICTIONARY
  5
2109
330
A
100
AcDbDictionary
280
     1
281
     1
  3
ACAD_SORTENTS
360
210A
  0
DICTIONARY
  5
49FA
330
49F9
100
AcDbDictionary
280
     1
281
     1
  3
ACAD_SORTENTS
360
49FB
  0
DICTIONARY
  5
1EAC
330
1EAB
100
AcDbDictionary
280
     1
281
     1
  3
ACAD_FIELD
360
4A40
  0
DICTIONARY
  5
4A14
330
4A13
100
AcDbDictionary
280
     1
281
     1
  3
ACAD_DIMASSOC
360
4A15
  0
DICTIONARY
  5
4A23
330
4A22
100
AcDbDictionary
280
     1
281
     1
  3
ACAD_DIMASSOC
360
4A24
  0
DICTIONARY
  5
4A32
330
4A31
100
AcDbDictionary
280
     1
281
     1
  3
ACAD_DIMASSOC
360
4A33
  0
DICTIONARY
  5
4B22
330
4B21
100
AcDbDictionary
280
     1
281
     1
  3
ACAD_DIMASSOC
360
4B23
  0
DICTIONARY
  5
4B25
330
4B24
100
AcDbDictionary
280
     1
281
     1
  3
ACAD_DIMASSOC
360
4B26
  0
DICTIONARY
  5
4BCA
330
4BC9
100
AcDbDictionary
280
     1
281
     1
  3
ACAD_DIMASSOC
360
4BCB
  0
DICTIONARY
  5
674
102
{ACAD_REACTORS
330
19
102
}
330
19
100
AcDbDictionary
281
     1
  0
DICTIONARY
  5
BBF
102
{ACAD_REACTORS
330
19
102
}
330
19
100
AcDbDictionary
281
     1
  0
FIELDLIST
  5
1E8E
102
{ACAD_REACTORS
330
19
102
}
330
19
100
AcDbIdSet
 90
        2
330
1EAF
330
1EAE
100
AcDbFieldList
  0
DICTIONARY
  5
1A
102
{ACAD_REACTORS
330
19
102
}
330
19
100
AcDbDictionary
281
     1
  3
*A1
350
20A3
  0
RASTERVARIABLES
  5
27B
102
{ACAD_REACTORS
330
19
102
}
330
19
100
AcDbRasterVariables
 90
        0
 70
     1
 71
     1
 72
     1
  0
DICTIONARY
  5
1E
102
{ACAD_REACTORS
330
19
102
}
330
19
100
AcDbDictionary
281
     1
  3
Layout1
350
21
  3
Model
350
20
  0
DICTIONARY
  5
263
102
{ACAD_REACTORS
330
19
102
}
330
19
100
AcDbDictionary
281
     1
  3
ByBlock
350
265
  3
ByLayer
350
264
  3
Global
350
266
  0
DICTIONARY
  5
336
102
{ACAD_REACTORS
330
19
102
}
330
19
100
AcDbDictionary
281
     1
  3
Standard
350
D59
  0
DICTIONARY
  5
1B
102
{ACAD_REACTORS
330
19
102
}
330
19
100
AcDbDictionary
281
     1
  3
Standard
350
1C
  0
DICTIONARY
  5
22
102
{ACAD_REACTORS
330
19
102
}
330
19
100
AcDbDictionary
281
     1
  0
ACDBDICTIONARYWDFLT
  5
1F
102
{ACAD_REACTORS
330
19
102
}
330
19
100
AcDbDictionary
281
     1
  3
Normal
350
1D
100
AcDbDictionaryWithDefault
340
1D
  0
DICTIONARY
  5
241
102
{ACAD_REACTORS
330
19
102
}
330
19
100
AcDbDictionary
281
     1
  3
A0
350
242
  3
A1
350
243
  3
A2
350
244
  3
A3
350
245
  3
A4
350
246
  3
A5
350
247
  3
A6
350
248
  3
A7
350
249
  3
A8
350
24A
  3
A9
350
24B
  3
B0
350
24C
  3
B1
350
24D
  3
B2
350
24E
  3
B3
350
24F
  3
B4
350
250
  3
B5
350
251
  3
B6
350
252
  3
B7
350
253
  3
B8
350
254
  3
B9
350
255
  3
C0
350
256
  3
C1
350
257
  3
C2
350
258
  3
C3
350
259
  3
C4
350
25A
  3
C5
350
25B
  3
C6
350
25C
  3
C7
350
25D
  3
C8
350
25E
  3
C9
350
25F
  3
D0
350
260
  3
D1
350
261
  3
D2
350
262
  0
DICTIONARY
  5
BC0
102
{ACAD_REACTORS
330
19
102
}
330
19
100
AcDbDictionary
281
     1
  0
DICTIONARY
  5
278
102
{ACAD_REACTORS
330
19
102
}
330
19
100
AcDbDictionary
281
     1
  3
Standard
350
279
  0
DICTIONARY
  5
267
102
{ACAD_REACTORS
330
19
102
}
330
19
100
AcDbDictionary
281
     1
  3
2dWireframe
350
26C
  3
3D Hidden
350
26E
  3
3dWireframe
350
26D
  3
Basic
350
26F
  3
Brighten
350
273
  3
ColorChange
350
277
  3
Conceptual
350
271
  3
Dim
350
272
  3
EdgeColorOff
350
8FE
  3
Facepattern
350
276
  3
Flat
350
268
  3
FlatWithEdges
350
269
  3
Gouraud
350
26A
  3
GouraudWithEdges
350
26B
  3
Hidden
350
8FB
  3
JitterOff
350
8FC
  3
Linepattern
350
275
  3
OverhangOff
350
8FD
  3
Realistic
350
270
  3
Shaded
350
903
  3
Shaded with edges
350
902
  3
Shades of Gray
350
8FF
  3
Sketchy
350
900
  3
Thicken
350
274
  3
Wireframe
350
8FA
  3
X-Ray
350
901
  0
XRECORD
  5
4C45
102
{ACAD_REACTORS
330
19
102
}
330
19
100
AcDbXrecord
280
     1
 90
        1
330
279
  0
DICTIONARY
  5
330
102
{ACAD_REACTORS
330
19
102
}
330
19
100
AcDbDictionary
281
     1
  3
CANNOSCALE
350
331
  3
CMLEADERSTYLE
350
D5E
  3
CTABLESTYLE
350
335
  3
HPTRANSPARENCY
350
D52
  3
XCLIPFRAME
350
896
  0
DICTIONARY
  5
27A
102
{ACAD_REACTORS
330
19
102
}
330
19
100
AcDbDictionary
281
     1
  0
DICTIONARY
  5
E38
102
{ACAD_REACTORS
330
19
102
}
330
19
100
AcDbDictionary
281
     1
  3
DIMRAILANGLE
350
1DFC
  3
DIMRAILFIRSTOFFSET
350
1DFA
  3
DIMRAILOFFSET
350
1DFB
  3
DIMRAILSENABLED
350
1DFD
  0
DICTIONARY
  5
2E2
102
{ACAD_REACTORS
330
2E1
102
}
330
2E1
100
AcDbDictionary
281
     1
  0
DICTIONARY
  5
DDE
102
{ACAD_REACTORS
330
2E1
102
}
330
2E1
100
AcDbDictionary
281
     1
1001
ACAD
1000
<All
  0
SORTENTSTABLE
  5
210A
102
{ACAD_REACTORS
330
2109
102
}
330
2109
100
AcDbSortentsTable
330
A
331
1EAB
  5
1D9C
331
1EB1
  5
1EAB
331
2071
  5
1EB4
331
2072
  5
2070
331
207D
  5
2071
331
207E
  5
2072
331
207F
  5
207D
331
2080
  5
207E
331
2081
  5
207F
  0
SORTENTSTABLE
  5
49FB
102
{ACAD_REACTORS
330
49FA
102
}
330
49FA
100
AcDbSortentsTable
330
49F9
  0
DICTIONARY
  5
4A40
102
{ACAD_REACTORS
330
1EAC
102
}
330
1EAC
100
AcDbDictionary
280
     1
281
     1
  3
TEXT
360
1EAE
  0
DIMASSOC
  5
4A15
102
{ACAD_REACTORS
330
4A14
102
}
330
4A14
100
AcDbDimAssoc
330
4A13
 90
        3
 70
     0
 71
     1
  1
AcDbOsnapPointRef
 72
     1
331
49BA
 73
     2
 91
        4
 40
1.0
 10
0.0
 20
0.0
 30
0.0
 75
     0
  1
AcDbOsnapPointRef
 72
     1
331
49BA
 73
     2
 91
        7
 40
1.0
 10
0.0
 20
0.0
 30
0.0
 75
     0
  0
DIMASSOC
  5
4A24
102
{ACAD_REACTORS
330
4A23
102
}
330
4A23
100
AcDbDimAssoc
330
4A22
 90
        3
 70
     0
 71
     1
  1
AcDbOsnapPointRef
 72
     1
331
49B3
 73
     2
 91
        1
 40
1.0
 10
0.0
 20
0.0
 30
0.0
 75
     0
  1
AcDbOsnapPointRef
 72
    13
331
49B3
 73
     2
 91
        1
 40
0.0
 10
0.0
 20
0.0
 30
0.0
 75
     0
  0
DIMASSOC
  5
4A33
102
{ACAD_REACTORS
330
4A32
102
}
330
4A32
100
AcDbDimAssoc
330
4A31
 90
        3
 70
     0
 71
     1
  1
AcDbOsnapPointRef
 72
     1
331
49B3
 73
     2
 91
        1
 40
1.0
 10
0.0
 20
0.0
 30
0.0
 75
     0
  1
AcDbOsnapPointRef
 72
     1
331
49B3
 73
     2
 91
        2
 40
1.0
 10
0.0
 20
0.0
 30
0.0
 75
     0
  0
DIMASSOC
  5
4B23
102
{ACAD_REACTORS
330
4B22
102
}
330
4B22
100
AcDbDimAssoc
330
4B21
 90
        3
 70
     0
 71
     1
  1
AcDbOsnapPointRef
 72
    13
331
4AE0
 73
     0
 91
        0
 40
0.0
 10
0.0
 20
0.0
 30
0.0
 75
     0
  1
AcDbOsnapPointRef
 72
    13
331
4B01
 73
     0
 91
        0
 40
0.0
 10
0.0
 20
0.0
 30
0.0
 75
     0
  0
DIMASSOC
  5
4B26
102
{ACAD_REACTORS
330
4B25
102
}
330
4B25
100
AcDbDimAssoc
330
4B24
 90
        2
 70
     0
 71
     1
  1
AcDbOsnapPointRef
 72
    13
331
4AE0
 73
     0
 91
        0
 40
0.0
 10
0.0
 20
0.0
 30
0.0
 75
     0
  0
DIMASSOC
  5
4BCB
102
{ACAD_REACTORS
330
4BCA
102
}
330
4BCA
100
AcDbDimAssoc
330
4BC9
 90
        3
 70
     0
 71
     1
  1
AcDbOsnapPointRef
 72
    13
331
4BA9
 73
     0
 91
        0
 40
0.0
 10
0.0
 20
0.0
 30
0.0
 75
     0
  1
AcDbOsnapPointRef
 72
     1
331
4B49
 73
     2
 91
        1
 40
1.0
 10
0.0
 20
0.0
 30
0.0
 75
     0
  0
GROUP
  5
20A3
102
{ACAD_REACTORS
330
1A
102
}
330
1A
100
AcDbGroup
300

 70
     1
 71
     1
340
2071
340
2072
340
207D
340
207E
340
207F
340
2080
340
2081
  0
LAYOUT
  5
21
102
{ACAD_REACTORS
330
1E
102
}
330
1E
100
AcDbPlotSettings
  1

  2
none_device
  4
ISO_A3_(420.00_x_297.00_MM)
  6

 40
7.5
 41
20.0
 42
7.5
 43
20.0
 44
420.0
 45
297.0
 46
0.0
 47
0.0
 48
0.0
 49
0.0
140
0.0
141
0.0
142
1.0
143
1.0
 70
     0
 72
     1
 73
     0
 74
     0
  7

 75
     0
 76
     0
 77
     2
 78
   300
147
1.0
148
0.0
149
0.0
100
AcDbLayout
  1
Layout1
 70
     0
 71
     0
 10
-7.5
 20
-20.0
 11
412.5
 21
277.0
 12
0.0
 22
0.0
 32
0.0
 14
0.0
 24
0.0
 34
0.0
 15
0.0
 25
0.0
 35
0.0
146
0.0
 13
0.0
 23
0.0
 33
0.0
 16
0.0
 26
0.0
 36
0.0
 17
0.0
 27
0.0
 37
0.0
 76
     0
330
B
331
349
  0
LAYOUT
  5
20
102
{ACAD_REACTORS
330
1E
102
}
330
1E
100
AcDbPlotSettings
  1

  2
Adobe PDF
  4
A4
  6

 40
0.0
 41
0.0400000000000205
 42
0.0600000000000023
 43
0.0
 44
210.0
 45
297.0
 46
0.0
 47
0.0
 48
0.0
 49
0.0
140
0.0
141
0.0
142
1.0
143
1.000285795941698
 70
  1712
 72
     1
 73
     0
 74
     1
  7
monochrome.ctb
 75
     0
 76
    45
 77
     4
 78
   300
147
0.9997142857142858
148
-91.02013567089887
149
73.59871453016603
100
AcDbLayout
  1
Model
 70
     0
 71
     1
 10
0.0
 20
0.0
 11
210.0
 21
297.0
 12
0.0
 22
0.0
 32
0.0
 14
0.0
 24
0.0
 34
-0.0000000000000071
 15
210.0
 25
297.0
 35
0.0000000000000071
146
0.0
 13
0.0
 23
0.0
 33
0.0
 16
0.0
 26
0.0
 36
0.0
 17
0.0
 27
0.0
 37
0.0
 76
     0
330
A
331
15
1001
PLOTTRANSPARENCY
1071
        0
  0
MATERIAL
  5
265
102
{ACAD_REACTORS
330
263
102
}
330
263
100
AcDbMaterial
  1
ByBlock
 72
     1
 94
      127
  0
MATERIAL
  5
264
102
{ACAD_REACTORS
330
263
102
}
330
263
100
AcDbMaterial
  1
ByLayer
 72
     1
 94
      127
  0
MATERIAL
  5
266
102
{ACAD_REACTORS
330
263
102
}
330
263
100
AcDbMaterial
  1
Global
 72
     1
 94
      127
  0
MLEADERSTYLE
  5
D59
102
{ACAD_REACTORS
330
336
102
}
330
336
100
AcDbMLeaderStyle
170
     2
171
     1
172
     0
 90
        2
 40
0.0
 41
0.0
173
     1
 91
-1056964608
340
11
 92
       -2
290
     1
 42
2.0
291
     1
 43
8.0
  3
Standard
341
0
 44
4.0
300

342
17
174
     1
178
     6
175
     1
176
     0
 93
-1056964608
 45
4.0
292
     0
297
     0
 46
4.0
343
0
 94
-1056964608
 47
1.0
 49
1.0
140
1.0
293
     1
141
0.0
294
     1
177
     0
142
1.0
295
     0
296
     0
143
3.75
1001
ACAD_MLEADERVER
1070
     2
  0
MLINESTYLE
  5
1C
102
{ACAD_REACTORS
330
1B
102
}
330
1B
100
AcDbMlineStyle
  2
Standard
 70
     0
  3

 62
     0
 51
90.0
 52
90.0
 71
     2
 49
0.5
 62
   256
  6
BYLAYER
 49
-0.5
 62
   256
  6
BYLAYER
  0
ACDBPLACEHOLDER
  5
1D
102
{ACAD_REACTORS
330
1F
102
}
330
1F
  0
SCALE
  5
242
102
{ACAD_REACTORS
330
241
102
}
330
241
100
AcDbScale
 70
     0
300
1:1
140
1.0
141
1.0
290
     1
  0
SCALE
  5
243
102
{ACAD_REACTORS
330
241
102
}
330
241
100
AcDbScale
 70
     0
300
1:2
140
1.0
141
2.0
290
     0
  0
SCALE
  5
244
102
{ACAD_REACTORS
330
241
102
}
330
241
100
AcDbScale
 70
     0
300
1:4
140
1.0
141
4.0
290
     0
  0
SCALE
  5
245
102
{ACAD_REACTORS
330
241
102
}
330
241
100
AcDbScale
 70
     0
300
1:5
140
1.0
141
5.0
290
     0
  0
SCALE
  5
246
102
{ACAD_REACTORS
330
241
102
}
330
241
100
AcDbScale
 70
     0
300
1:8
140
1.0
141
8.0
290
     0
  0
SCALE
  5
247
102
{ACAD_REACTORS
330
241
102
}
330
241
100
AcDbScale
 70
     0
300
1:10
140
1.0
141
10.0
290
     0
  0
SCALE
  5
248
102
{ACAD_REACTORS
330
241
102
}
330
241
100
AcDbScale
 70
     0
300
1:16
140
1.0
141
16.0
290
     0
  0
SCALE
  5
249
102
{ACAD_REACTORS
330
241
102
}
330
241
100
AcDbScale
 70
     0
300
1:20
140
1.0
141
20.0
290
     0
  0
SCALE
  5
24A
102
{ACAD_REACTORS
330
241
102
}
330
241
100
AcDbScale
 70
     0
300
1:30
140
1.0
141
30.0
290
     0
  0
SCALE
  5
24B
102
{ACAD_REACTORS
330
241
102
}
330
241
100
AcDbScale
 70
     0
300
1:40
140
1.0
141
40.0
290
     0
  0
SCALE
  5
24C
102
{ACAD_REACTORS
330
241
102
}
330
241
100
AcDbScale
 70
     0
300
1:50
140
1.0
141
50.0
290
     0
  0
SCALE
  5
24D
102
{ACAD_REACTORS
330
241
102
}
330
241
100
AcDbScale
 70
     0
300
1:100
140
1.0
141
100.0
290
     0
  0
SCALE
  5
24E
102
{ACAD_REACTORS
330
241
102
}
330
241
100
AcDbScale
 70
     0
300
2:1
140
2.0
141
1.0
290
     0
  0
SCALE
  5
24F
102
{ACAD_REACTORS
330
241
102
}
330
241
100
AcDbScale
 70
     0
300
4:1
140
4.0
141
1.0
290
     0
  0
SCALE
  5
250
102
{ACAD_REACTORS
330
241
102
}
330
241
100
AcDbScale
 70
     0
300
8:1
140
8.0
141
1.0
290
     0
  0
SCALE
  5
251
102
{ACAD_REACTORS
330
241
102
}
330
241
100
AcDbScale
 70
     0
300
10:1
140
10.0
141
1.0
290
     0
  0
SCALE
  5
252
102
{ACAD_REACTORS
330
241
102
}
330
241
100
AcDbScale
 70
     0
300
100:1
140
100.0
141
1.0
290
     0
  0
SCALE
  5
253
102
{ACAD_REACTORS
330
241
102
}
330
241
100
AcDbScale
 70
     0
300
1/128" = 1'-0"
140
0.0078125
141
12.0
290
     0
  0
SCALE
  5
254
102
{ACAD_REACTORS
330
241
102
}
330
241
100
AcDbScale
 70
     0
300
1/64" = 1'-0"
140
0.015625
141
12.0
290
     0
  0
SCALE
  5
255
102
{ACAD_REACTORS
330
241
102
}
330
241
100
AcDbScale
 70
     0
300
1/32" = 1'-0"
140
0.03125
141
12.0
290
     0
  0
SCALE
  5
256
102
{ACAD_REACTORS
330
241
102
}
330
241
100
AcDbScale
 70
     0
300
1/16" = 1'-0"
140
0.0625
141
12.0
290
     0
  0
SCALE
  5
257
102
{ACAD_REACTORS
330
241
102
}
330
241
100
AcDbScale
 70
     0
300
3/32" = 1'-0"
140
0.09375
141
12.0
290
     0
  0
SCALE
  5
258
102
{ACAD_REACTORS
330
241
102
}
330
241
100
AcDbScale
 70
     0
300
1/8" = 1'-0"
140
0.125
141
12.0
290
     0
  0
SCALE
  5
259
102
{ACAD_REACTORS
330
241
102
}
330
241
100
AcDbScale
 70
     0
300
3/16" = 1'-0"
140
0.1875
141
12.0
290
     0
  0
SCALE
  5
25A
102
{ACAD_REACTORS
330
241
102
}
330
241
100
AcDbScale
 70
     0
300
1/4" = 1'-0"
140
0.25
141
12.0
290
     0
  0
SCALE
  5
25B
102
{ACAD_REACTORS
330
241
102
}
330
241
100
AcDbScale
 70
     0
300
3/8" = 1'-0"
140
0.375
141
12.0
290
     0
  0
SCALE
  5
25C
102
{ACAD_REACTORS
330
241
102
}
330
241
100
AcDbScale
 70
     0
300
1/2" = 1'-0"
140
0.5
141
12.0
290
     0
  0
SCALE
  5
25D
102
{ACAD_REACTORS
330
241
102
}
330
241
100
AcDbScale
 70
     0
300
3/4" = 1'-0"
140
0.75
141
12.0
290
     0
  0
SCALE
  5
25E
102
{ACAD_REACTORS
330
241
102
}
330
241
100
AcDbScale
 70
     0
300
1" = 1'-0"
140
1.0
141
12.0
290
     0
  0
SCALE
  5
25F
102
{ACAD_REACTORS
330
241
102
}
330
241
100
AcDbScale
 70
     0
300
1-1/2" = 1'-0"
140
1.5
141
12.0
290
     0
  0
SCALE
  5
260
102
{ACAD_REACTORS
330
241
102
}
330
241
100
AcDbScale
 70
     0
300
3" = 1'-0"
140
3.0
141
12.0
290
     0
  0
SCALE
  5
261
102
{ACAD_REACTORS
330
241
102
}
330
241
100
AcDbScale
 70
     0
300
6" = 1'-0"
140
6.0
141
12.0
290
     0
  0
SCALE
  5
262
102
{ACAD_REACTORS
330
241
102
}
330
241
100
AcDbScale
 70
     0
300
1'-0" = 1'-0"
140
12.0
141
12.0
290
     0
  0
TABLESTYLE
  5
279
102
{ACAD_REACTORS
330
278
102
}
102
{ACAD_XDICTIONARY
360
4C43
102
}
330
278
100
AcDbTableStyle
  3
Standard
 70
     0
 71
     0
 40
0.06
 41
0.06
280
     0
281
     0
  7
Standard
140
4.5
170
     2
 62
     0
 63
   257
283
     0
 90
        4
 91
        0
  1

274
    -2
284
     1
 64
     0
275
    -2
285
     1
 65
     0
276
    -2
286
     1
 66
     0
277
    -2
287
     1
 67
     0
278
    -2
288
     1
 68
     0
279
    -2
289
     1
 69
     0
  7
Standard
140
6.0
170
     5
 62
     0
 63
   257
283
     0
 90
        4
 91
        0
  1

274
    -2
284
     1
 64
     0
275
    -2
285
     1
 65
     0
276
    -2
286
     1
 66
     0
277
    -2
287
     1
 67
     0
278
    -2
288
     1
 68
     0
279
    -2
289
     1
 69
     0
  7
Standard
140
4.5
170
     5
 62
     0
 63
   257
283
     0
 90
        4
 91
        0
  1

274
    -2
284
     1
 64
     0
275
    -2
285
     1
 65
     0
276
    -2
286
     1
 66
     0
277
    -2
287
     1
 67
     0
278
    -2
288
     1
 68
     0
279
    -2
289
     1
 69
     0
  0
VISUALSTYLE
  5
26C
102
{ACAD_REACTORS
330
267
102
}
330
267
100
AcDbVisualStyle
  2
2dWireframe
 70
     4
 71
     0
 72
     2
 73
     0
 90
        0
 40
-0.6
 41
-30.0
 62
     5
 63
     7
421
 16777215
 74
     1
 91
        4
 64
     7
 65
   257
 75
     1
175
     1
 42
1.0
 92
        0
 66
   257
 43
1.0
 76
     1
 77
     6
 78
     2
 67
     7
 79
     5
170
     0
171
     0
290
     0
174
     0
 93
        1
 44
0.0
173
     0
291
     0
 45
0.0
  0
VISUALSTYLE
  5
26E
102
{ACAD_REACTORS
330
267
102
}
330
267
100
AcDbVisualStyle
  2
3D Hidden
 70
     6
 71
     1
 72
     2
 73
     2
 90
        0
 40
-0.6
 41
-30.0
 62
     5
 63
     7
421
 16777215
 74
     2
 91
        2
 64
     7
 65
   257
 75
     2
175
     1
 42
40.0
 92
        0
 66
   257
 43
1.0
 76
     1
 77
     6
 78
     2
 67
     7
 79
     3
170
     0
171
     0
290
     0
174
     0
 93
        1
 44
0.0
173
     0
291
     0
 45
0.0
  0
VISUALSTYLE
  5
26D
102
{ACAD_REACTORS
330
267
102
}
330
267
100
AcDbVisualStyle
  2
3dWireframe
 70
     5
 71
     0
 72
     2
 73
     0
 90
        0
 40
-0.6
 41
-30.0
 62
     5
 63
     7
421
 16777215
 74
     1
 91
        4
 64
     7
 65
   257
 75
     1
175
     1
 42
1.0
 92
        0
 66
   257
 43
1.0
 76
     1
 77
     6
 78
     2
 67
     7
 79
     5
170
     0
171
     0
290
     0
174
     0
 93
        1
 44
0.0
173
     0
291
     0
 45
0.0
  0
VISUALSTYLE
  5
26F
102
{ACAD_REACTORS
330
267
102
}
330
267
100
AcDbVisualStyle
  2
Basic
 70
     7
 71
     1
 72
     0
 73
     1
 90
        0
 40
-0.6
 41
-30.0
 62
     5
 63
     7
421
 16777215
 74
     0
 91
        4
 64
     7
 65
   257
 75
     1
175
     1
 42
1.0
 92
        8
 66
     7
 43
1.0
 76
     1
 77
     6
 78
     2
 67
     7
 79
     5
170
     0
171
     0
290
     0
174
     0
 93
        1
 44
0.0
173
     0
291
     1
 45
0.0
  0
VISUALSTYLE
  5
273
102
{ACAD_REACTORS
330
267
102
}
330
267
100
AcDbVisualStyle
  2
Brighten
 70
    12
 71
     2
 72
     2
 73
     0
 90
        0
 40
-0.6
 41
-30.0
 62
     5
 63
     7
421
 16777215
 74
     1
 91
        4
 64
     7
 65
   257
 75
     1
175
     1
 42
1.0
 92
        8
 66
     7
 43
1.0
 76
     1
 77
     6
 78
     2
 67
     7
 79
     5
170
     0
171
     0
290
     0
174
     0
 93
        1
 44
50.0
173
     0
291
     1
 45
0.0
  0
VISUALSTYLE
  5
277
102
{ACAD_REACTORS
330
267
102
}
330
267
100
AcDbVisualStyle
  2
ColorChange
 70
    16
 71
     2
 72
     2
 73
     3
 90
        0
 40
-0.6
 41
-30.0
 62
     5
 63
     8
421
  8421504
 74
     1
 91
        4
 64
     7
 65
   257
 75
     1
175
     1
 42
1.0
 92
        8
 66
     8
424
  8421504
 43
1.0
 76
     1
 77
     6
 78
     2
 67
     7
 79
     5
170
     0
171
     0
290
     0
174
     0
 93
        1
 44
0.0
173
     0
291
     1
 45
0.0
  0
VISUALSTYLE
  5
271
102
{ACAD_REACTORS
330
267
102
}
330
267
100
AcDbVisualStyle
  2
Conceptual
 70
     9
 71
     3
 72
     2
 73
     0
 90
        0
 40
-0.6
 41
-30.0
 62
     5
 63
     7
421
 16777215
 74
     2
 91
        2
 64
     7
 65
   257
 75
     1
175
     1
 42
40.0
 92
        8
 66
     7
 43
1.0
 76
     1
 77
     6
 78
     2
 67
     7
 79
     3
170
     0
171
     0
290
     0
174
     0
 93
        1
 44
0.0
173
     0
291
     0
 45
0.0
  0
VISUALSTYLE
  5
272
102
{ACAD_REACTORS
330
267
102
}
330
267
100
AcDbVisualStyle
  2
Dim
 70
    11
 71
     2
 72
     2
 73
     0
 90
        0
 40
-0.6
 41
-30.0
 62
     5
 63
     7
421
 16777215
 74
     1
 91
        4
 64
     7
 65
   257
 75
     1
175
     1
 42
1.0
 92
        8
 66
     7
 43
1.0
 76
     1
 77
     6
 78
     2
 67
     7
 79
     5
170
     0
171
     0
290
     0
174
     0
 93
        1
 44
-50.0
173
     0
291
     1
 45
0.0
  0
VISUALSTYLE
  5
8FE
102
{ACAD_REACTORS
330
267
102
}
330
267
100
AcDbVisualStyle
  2
EdgeColorOff
 70
    22
 71
     2
 72
     2
 73
     0
 90
        0
 40
0.6
 41
30.0
 62
     5
 63
     7
421
 16777215
 74
     1
 91
        4
 64
     7
 65
   257
 75
     1
175
     1
 42
1.0
 92
        8
 66
     7
 43
1.0
 76
     1
 77
     6
 78
     2
 67
     7
 79
     5
170
     0
171
     0
290
     0
174
     0
 93
        1
 44
0.0
173
     0
291
     1
 45
0.0
  0
VISUALSTYLE
  5
276
102
{ACAD_REACTORS
330
267
102
}
330
267
100
AcDbVisualStyle
  2
Facepattern
 70
    15
 71
     2
 72
     2
 73
     0
 90
        0
 40
-0.6
 41
-30.0
 62
     5
 63
     7
421
 16777215
 74
     1
 91
        4
 64
     7
 65
   257
 75
     1
175
     1
 42
1.0
 92
        8
 66
     7
 43
1.0
 76
     1
 77
     6
 78
     2
 67
     7
 79
     5
170
     0
171
     0
290
     0
174
     0
 93
        1
 44
0.0
173
     0
291
     1
 45
0.0
  0
VISUALSTYLE
  5
268
102
{ACAD_REACTORS
330
267
102
}
330
267
100
AcDbVisualStyle
  2
Flat
 70
     0
 71
     2
 72
     1
 73
     1
 90
        2
 40
-0.6
 41
30.0
 62
     5
 63
     7
421
 16777215
 74
     0
 91
        4
 64
     7
 65
   257
 75
     1
175
     1
 42
1.0
 92
        8
 66
     7
 43
1.0
 76
     1
 77
     6
 78
     2
 67
     7
 79
     5
170
     0
171
     0
290
     0
174
     0
 93
       13
 44
0.0
173
     0
291
     1
 45
0.0
  0
VISUALSTYLE
  5
269
102
{ACAD_REACTORS
330
267
102
}
330
267
100
AcDbVisualStyle
  2
FlatWithEdges
 70
     1
 71
     2
 72
     1
 73
     1
 90
        2
 40
-0.6
 41
30.0
 62
     5
 63
     7
421
 16777215
 74
     1
 91
        4
 64
     7
 65
   257
 75
     1
175
     1
 42
1.0
 92
        0
 66
   257
 43
1.0
 76
     1
 77
     6
 78
     2
 67
     7
 79
     5
170
     0
171
     0
290
     0
174
     0
 93
       13
 44
0.0
173
     0
291
     1
 45
0.0
  0
VISUALSTYLE
  5
26A
102
{ACAD_REACTORS
330
267
102
}
330
267
100
AcDbVisualStyle
  2
Gouraud
 70
     2
 71
     2
 72
     2
 73
     1
 90
        2
 40
-0.6
 41
30.0
 62
     5
 63
     7
421
 16777215
 74
     0
 91
        4
 64
     7
 65
   257
 75
     1
175
     1
 42
1.0
 92
        0
 66
     7
 43
1.0
 76
     1
 77
     6
 78
     2
 67
     7
 79
     5
170
     0
171
     0
290
     0
174
     0
 93
       13
 44
0.0
173
     0
291
     1
 45
0.0
  0
VISUALSTYLE
  5
26B
102
{ACAD_REACTORS
330
267
102
}
330
267
100
AcDbVisualStyle
  2
GouraudWithEdges
 70
     3
 71
     2
 72
     2
 73
     1
 90
        2
 40
-0.6
 41
30.0
 62
     5
 63
     7
421
 16777215
 74
     1
 91
        4
 64
     7
 65
   257
 75
     1
175
     1
 42
1.0
 92
        0
 66
   257
 43
1.0
 76
     1
 77
     6
 78
     2
 67
     7
 79
     5
170
     0
171
     0
290
     0
174
     0
 93
       13
 44
0.0
173
     0
291
     1
 45
0.0
  0
VISUALSTYLE
  5
8FB
102
{ACAD_REACTORS
330
267
102
}
330
267
100
AcDbVisualStyle
  2
Hidden
 70
     6
 71
     1
 72
     2
 73
     2
 90
        0
 40
0.6
 41
30.0
 62
     5
 63
     7
421
 16777215
 74
     2
 91
        2
 64
     7
 65
   257
 75
     2
175
     1
 42
40.0
 92
        0
 66
   257
 43
1.0
 76
     1
 77
     6
 78
     2
 67
     7
 79
     3
170
     0
171
     0
290
     0
174
     0
 93
        1
 44
0.0
173
     0
291
     0
 45
0.0
  0
VISUALSTYLE
  5
8FC
102
{ACAD_REACTORS
330
267
102
}
330
267
100
AcDbVisualStyle
  2
JitterOff
 70
    20
 71
     2
 72
     2
 73
     0
 90
        0
 40
0.6
 41
30.0
 62
     5
 63
     7
421
 16777215
 74
     1
 91
        4
 64
     7
 65
   257
 75
     1
175
     1
 42
1.0
 92
       10
 66
     7
 43
1.0
 76
     1
 77
     6
 78
     2
 67
     7
 79
     5
170
     0
171
     0
290
     0
174
     0
 93
        1
 44
0.0
173
     0
291
     1
 45
0.0
  0
VISUALSTYLE
  5
275
102
{ACAD_REACTORS
330
267
102
}
330
267
100
AcDbVisualStyle
  2
Linepattern
 70
    14
 71
     2
 72
     2
 73
     0
 90
        0
 40
-0.6
 41
-30.0
 62
     5
 63
     7
421
 16777215
 74
     1
 91
        4
 64
     7
 65
   257
 75
     7
175
     7
 42
1.0
 92
        8
 66
     7
 43
1.0
 76
     1
 77
     6
 78
     2
 67
     7
 79
     5
170
     0
171
     0
290
     0
174
     0
 93
        1
 44
0.0
173
     0
291
     1
 45
0.0
  0
VISUALSTYLE
  5
8FD
102
{ACAD_REACTORS
330
267
102
}
330
267
100
AcDbVisualStyle
  2
OverhangOff
 70
    21
 71
     2
 72
     2
 73
     0
 90
        0
 40
0.6
 41
30.0
 62
     5
 63
     7
421
 16777215
 74
     1
 91
        4
 64
     7
 65
   257
 75
     1
175
     1
 42
1.0
 92
        9
 66
     7
 43
1.0
 76
     1
 77
     6
 78
     2
 67
     7
 79
     5
170
     0
171
     0
290
     0
174
     0
 93
        1
 44
0.0
173
     0
291
     1
 45
0.0
  0
VISUALSTYLE
  5
270
102
{ACAD_REACTORS
330
267
102
}
330
267
100
AcDbVisualStyle
  2
Realistic
 70
     8
 71
     2
 72
     2
 73
     0
 90
        0
 40
-0.6
 41
-30.0
 62
     5
 63
     7
421
 16777215
 74
     1
 91
        0
 64
     7
 65
   257
 75
     1
175
     1
 42
1.0
 92
        8
 66
     8
424
  7895160
 43
1.0
 76
     1
 77
     6
 78
     2
 67
     7
 79
     5
170
     0
171
     0
290
     0
174
     0
 93
       13
 44
0.0
173
     0
291
     0
 45
0.0
  0
VISUALSTYLE
  5
903
102
{ACAD_REACTORS
330
267
102
}
330
267
100
AcDbVisualStyle
  2
Shaded
 70
    27
 71
     2
 72
     2
 73
     1
 90
        2
 40
0.6
 41
30.0
 62
     5
 63
     7
421
 16777215
 74
     0
 91
        4
 64
     7
 65
   257
 75
     1
175
     1
 42
1.0
 92
        8
 66
   257
 43
1.0
 76
     1
 77
     6
 78
     2
 67
     8
425
  7895160
 79
     3
170
     0
171
     0
290
     0
174
     0
 93
        5
 44
0.0
173
     0
291
     0
 45
0.0
  0
VISUALSTYLE
  5
902
102
{ACAD_REACTORS
330
267
102
}
330
267
100
AcDbVisualStyle
  2
Shaded with edges
 70
    26
 71
     2
 72
     2
 73
     1
 90
        2
 40
0.6
 41
30.0
 62
     5
 63
     7
421
 16777215
 74
     1
 91
       10
 64
     7
 65
   257
 75
     2
175
     1
 42
1.0
 92
        8
 66
   257
 43
1.0
 76
     1
 77
     6
 78
     2
 67
     7
 79
     3
170
     0
171
     0
290
     0
174
     0
 93
        5
 44
0.0
173
     0
291
     0
 45
0.0
  0
VISUALSTYLE
  5
8FF
102
{ACAD_REACTORS
330
267
102
}
330
267
100
AcDbVisualStyle
  2
Shades of Gray
 70
    23
 71
     2
 72
     2
 73
     3
 90
        0
 40
0.6
 41
30.0
 62
     5
 63
     7
421
 16777215
 74
     2
 91
        2
 64
     7
 65
     7
 75
     1
175
     1
 42
40.0
 92
        8
 66
     7
 43
1.0
 76
     1
 77
     6
 78
     2
 67
     7
 79
     3
170
     0
171
     0
290
     0
174
     0
 93
        1
 44
0.0
173
     0
291
     0
 45
0.0
  0
VISUALSTYLE
  5
900
102
{ACAD_REACTORS
330
267
102
}
330
267
100
AcDbVisualStyle
  2
Sketchy
 70
    24
 71
     1
 72
     2
 73
     2
 90
        0
 40
0.6
 41
30.0
 62
     5
 63
     7
421
 16777215
 74
     2
 91
        2
 64
     7
 65
     7
 75
     1
175
     1
 42
40.0
 92
       11
 66
     7
 43
1.0
 76
     1
 77
     6
 78
     2
 67
     7
 79
     6
170
     0
171
     0
290
     0
174
     0
 93
        1
 44
0.0
173
     0
291
     0
 45
0.0
  0
VISUALSTYLE
  5
274
102
{ACAD_REACTORS
330
267
102
}
330
267
100
AcDbVisualStyle
  2
Thicken
 70
    13
 71
     2
 72
     2
 73
     0
 90
        0
 40
-0.6
 41
-30.0
 62
     5
 63
     7
421
 16777215
 74
     1
 91
        4
 64
     7
 65
   257
 75
     1
175
     1
 42
1.0
 92
       12
 66
     7
 43
1.0
 76
     1
 77
     6
 78
     2
 67
     7
 79
     5
170
     0
171
     0
290
     0
174
     0
 93
        1
 44
0.0
173
     0
291
     1
 45
0.0
  0
VISUALSTYLE
  5
8FA
102
{ACAD_REACTORS
330
267
102
}
330
267
100
AcDbVisualStyle
  2
Wireframe
 70
     5
 71
     0
 72
     2
 73
     0
 90
        0
 40
0.6
 41
30.0
 62
     5
 63
     7
421
 16777215
 74
     1
 91
        4
 64
     7
 65
   257
 75
     1
175
     1
 42
1.0
 92
        0
 66
   257
 43
1.0
 76
     1
 77
     6
 78
     2
 67
     7
 79
     3
170
     0
171
     0
290
     0
174
     0
 93
        1
 44
0.0
173
     0
291
     0
 45
0.0
  0
VISUALSTYLE
  5
901
102
{ACAD_REACTORS
330
267
102
}
330
267
100
AcDbVisualStyle
  2
X-Ray
 70
    25
 71
     2
 72
     2
 73
     1
 90
        1
 40
0.5
 41
30.0
 62
     5
 63
     7
421
 16777215
 74
     1
 91
        0
 64
     7
 65
   257
 75
     1
175
     1
 42
1.0
 92
        8
 66
     7
 43
1.0
 76
     1
 77
     6
 78
     2
 67
     7
 79
     3
170
     0
171
     0
290
     0
174
     0
 93
       13
 44
0.0
173
     0
291
     0
 45
0.0
  0
DICTIONARYVAR
  5
331
102
{ACAD_REACTORS
330
330
102
}
330
330
100
DictionaryVariables
280
     0
  1
1:1
  0
DICTIONARYVAR
  5
D5E
102
{ACAD_REACTORS
330
330
102
}
330
330
100
DictionaryVariables
280
     0
  1
Standard
  0
DICTIONARYVAR
  5
335
102
{ACAD_REACTORS
330
330
102
}
330
330
100
DictionaryVariables
280
     0
  1
Standard
  0
DICTIONARYVAR
  5
D52
102
{ACAD_REACTORS
330
330
102
}
330
330
100
DictionaryVariables
280
     0
  1
ByLayer
  0
DICTIONARYVAR
  5
896
102
{ACAD_REACTORS
330
330
102
}
330
330
100
DictionaryVariables
280
     0
  1
0
  0
DICTIONARYVAR
  5
1DFC
102
{ACAD_REACTORS
330
E38
102
}
330
E38
100
DictionaryVariables
280
     0
  1
0.261799
  0
DICTIONARYVAR
  5
1DFA
102
{ACAD_REACTORS
330
E38
102
}
330
E38
100
DictionaryVariables
280
     0
  1
0.400000
  0
DICTIONARYVAR
  5
1DFB
102
{ACAD_REACTORS
330
E38
102
}
330
E38
100
DictionaryVariables
280
     0
  1
0.250000
  0
DICTIONARYVAR
  5
1DFD
102
{ACAD_REACTORS
330
E38
102
}
330
E38
100
DictionaryVariables
280
     0
  1
1
  0
FIELD
  5
1EAE
102
{ACAD_REACTORS
330
4A40
102
}
330
4A40
100
AcDbField
  1
_text
  2
{%<\_FldIdx 0>%M}
 90
        1
360
1EAF
 97
        0
 91
       63
 92
        0
 94
       11
 95
        2
 96
        0
300

 93
        1
  6
ACFD_FIELDTEXT_CHECKSUM
 93
        2
 90
        2
140
4556.0
 94
        0
300

302

304
ACVALUE_END
  7
ACFD_FIELD_VALUE
 93
        6
 90
        4
  1
{20240909M}
 94
        0
300

302

304
ACVALUE_END
301
{20240909M}
 98
       11
  0
DICTIONARY
  5
4C43
330
279
100
AcDbDictionary
280
     1
281
     1
  3
ACAD_ROUNDTRIP_2008_TABLESTYLE_CELLSTYLEMAP
360
4C44
  0
FIELD
  5
1EAF
330
1EAE
100
AcDbField
  1
AcVar
  2
\AcVar Date \f "yyyyMMdd"
 90
        0
 97
        0
 91
       63
 92
        0
 94
        8
 95
       64
 96
        0
300
Variable not supported
 93
        1
  6
Variable
 93
        2
 90
        4
  1
Date
 94
        0
300

302

304
ACVALUE_END
  7
ACFD_FIELD_VALUE
 93
        6
 90
        8
 92
       16
310
E8070900000009000000280028000000
 94
        0
300
yyyyMMdd
302

304
ACVALUE_END
301
20240909
 98
        8
  0
CELLSTYLEMAP
  5
4C44
102
{ACAD_REACTORS
330
4C43
102
}
330
4C43
100
AcDbCellStyleMap
 90
        3
300
CELLSTYLE
  1
TABLEFORMAT_BEGIN
 90
        5
170
     1
 91
        0
 92
    32768
 62
   257
 93
        1
300
CONTENTFORMAT
  1
CONTENTFORMAT_BEGIN
 90
        0
 91
        0
 92
        4
 93
        0
300

 40
0.0
140
1.0
 94
        5
 62
     0
340
17
144
6.0
309
CONTENTFORMAT_END
171
     1
301
MARGIN
  1
CELLMARGIN_BEGIN
 40
0.06
 40
0.06
 40
0.06
 40
0.06
 40
0.18
 40
0.18
309
CELLMARGIN_END
 94
        6
 95
        1
302
GRIDFORMAT
  1
GRIDFORMAT_BEGIN
 90
        0
 91
        1
 62
     0
 92
       -2
340
0
 93
        0
 40
0.045
309
GRIDFORMAT_END
 95
        2
302
GRIDFORMAT
  1
GRIDFORMAT_BEGIN
 90
        0
 91
        1
 62
     0
 92
       -2
340
0
 93
        0
 40
0.045
309
GRIDFORMAT_END
 95
        4
302
GRIDFORMAT
  1
GRIDFORMAT_BEGIN
 90
        0
 91
        1
 62
     0
 92
       -2
340
0
 93
        0
 40
0.045
309
GRIDFORMAT_END
 95
        8
302
GRIDFORMAT
  1
GRIDFORMAT_BEGIN
 90
        0
 91
        1
 62
     0
 92
       -2
340
0
 93
        0
 40
0.045
309
GRIDFORMAT_END
 95
       16
302
GRIDFORMAT
  1
GRIDFORMAT_BEGIN
 90
        0
 91
        1
 62
     0
 92
       -2
340
0
 93
        0
 40
0.045
309
GRIDFORMAT_END
 95
       32
302
GRIDFORMAT
  1
GRIDFORMAT_BEGIN
 90
        0
 91
        1
 62
     0
 92
       -2
340
0
 93
        0
 40
0.045
309
GRIDFORMAT_END
309
TABLEFORMAT_END
  1
CELLSTYLE_BEGIN
 90
        1
 91
        1
300
_TITLE
309
CELLSTYLE_END
300
CELLSTYLE
  1
TABLEFORMAT_BEGIN
 90
        5
170
     1
 91
        0
 92
        0
 62
   257
 93
        1
300
CONTENTFORMAT
  1
CONTENTFORMAT_BEGIN
 90
        0
 91
        0
 92
        4
 93
        0
300

 40
0.0
140
1.0
 94
        5
 62
     0
340
17
144
4.5
309
CONTENTFORMAT_END
171
     1
301
MARGIN
  1
CELLMARGIN_BEGIN
 40
0.06
 40
0.06
 40
0.06
 40
0.06
 40
0.18
 40
0.18
309
CELLMARGIN_END
 94
        6
 95
        1
302
GRIDFORMAT
  1
GRIDFORMAT_BEGIN
 90
        0
 91
        1
 62
     0
 92
       -2
340
0
 93
        0
 40
0.045
309
GRIDFORMAT_END
 95
        2
302
GRIDFORMAT
  1
GRIDFORMAT_BEGIN
 90
        0
 91
        1
 62
     0
 92
       -2
340
0
 93
        0
 40
0.045
309
GRIDFORMAT_END
 95
        4
302
GRIDFORMAT
  1
GRIDFORMAT_BEGIN
 90
        0
 91
        1
 62
     0
 92
       -2
340
0
 93
        0
 40
0.045
309
GRIDFORMAT_END
 95
        8
302
GRIDFORMAT
  1
GRIDFORMAT_BEGIN
 90
        0
 91
        1
 62
     0
 92
       -2
340
0
 93
        0
 40
0.045
309
GRIDFORMAT_END
 95
       16
302
GRIDFORMAT
  1
GRIDFORMAT_BEGIN
 90
        0
 91
        1
 62
     0
 92
       -2
340
0
 93
        0
 40
0.045
309
GRIDFORMAT_END
 95
       32
302
GRIDFORMAT
  1
GRIDFORMAT_BEGIN
 90
        0
 91
        1
 62
     0
 92
       -2
340
0
 93
        0
 40
0.045
309
GRIDFORMAT_END
309
TABLEFORMAT_END
  1
CELLSTYLE_BEGIN
 90
        2
 91
        1
300
_HEADER
309
CELLSTYLE_END
300
CELLSTYLE
  1
TABLEFORMAT_BEGIN
 90
        5
170
     1
 91
        0
 92
        0
 62
   257
 93
        1
300
CONTENTFORMAT
  1
CONTENTFORMAT_BEGIN
 90
        0
 91
        0
 92
        4
 93
        0
300

 40
0.0
140
1.0
 94
        2
 62
     0
340
17
144
4.5
309
CONTENTFORMAT_END
171
     1
301
MARGIN
  1
CELLMARGIN_BEGIN
 40
0.06
 40
0.06
 40
0.06
 40
0.06
 40
0.18
 40
0.18
309
CELLMARGIN_END
 94
        6
 95
        1
302
GRIDFORMAT
  1
GRIDFORMAT_BEGIN
 90
        0
 91
        1
 62
     0
 92
       -2
340
0
 93
        0
 40
0.045
309
GRIDFORMAT_END
 95
        2
302
GRIDFORMAT
  1
GRIDFORMAT_BEGIN
 90
        0
 91
        1
 62
     0
 92
       -2
340
0
 93
        0
 40
0.045
309
GRIDFORMAT_END
 95
        4
302
GRIDFORMAT
  1
GRIDFORMAT_BEGIN
 90
        0
 91
        1
 62
     0
 92
       -2
340
0
 93
        0
 40
0.045
309
GRIDFORMAT_END
 95
        8
302
GRIDFORMAT
  1
GRIDFORMAT_BEGIN
 90
        0
 91
        1
 62
     0
 92
       -2
340
0
 93
        0
 40
0.045
309
GRIDFORMAT_END
 95
       16
302
GRIDFORMAT
  1
GRIDFORMAT_BEGIN
 90
        0
 91
        1
 62
     0
 92
       -2
340
0
 93
        0
 40
0.045
309
GRIDFORMAT_END
 95
       32
302
GRIDFORMAT
  1
GRIDFORMAT_BEGIN
 90
        0
 91
        1
 62
     0
 92
       -2
340
0
 93
        0
 40
0.045
309
GRIDFORMAT_END
309
TABLEFORMAT_END
  1
CELLSTYLE_BEGIN
 90
        3
 91
        2
300
_DATA
309
CELLSTYLE_END
  0
ENDSEC
  0
EOF
