  0
SECTION
  2
HEADER
  9
$ACADVER
  1
AC1021
  9
$ACADMAINTVER
 70
    25
  9
$DWGCODEPAGE
  3
ANSI_932
  9
$LASTSAVEDBY
  1
tform
  9
$INSBASE
 10
0.0
 20
0.0
 30
0.0
  9
$EXTMIN
 10
0.0
 20
0.0
 30
-0.0000000000000071
  9
$EXTMAX
 10
630.0
 20
891.0
 30
0.0000000000000071
  9
$LIMMIN
 10
0.0
 20
0.0
  9
$LIMMAX
 10
630.0
 20
891.0
  9
$ORTHOMODE
 70
     1
  9
$REGENMODE
 70
     1
  9
$FILLMODE
 70
     1
  9
$QTEXTMODE
 70
     0
  9
$MIRRTEXT
 70
     1
  9
$LTSCALE
 40
1.5
  9
$ATTMODE
 70
     1
  9
$TEXTSIZE
 40
2.5
  9
$TRACEWID
 40
1.0
  9
$TEXTSTYLE
  7
ＭＳ ゴシック
  9
$CLAYER
  8
DIM
  9
$CELTYPE
  6
ByLayer
  9
$CECOLOR
 62
   256
  9
$CELTSCALE
 40
1.0
  9
$DISPSILH
 70
     0
  9
$DIMSCALE
 40
1.0
  9
$DIMASZ
 40
3.0
  9
$DIMEXO
 40
10.0
  9
$DIMDLI
 40
0.9999999999999999
  9
$DIMRND
 40
0.0
  9
$DIMDLE
 40
0.0
  9
$DIMEXE
 40
0.0
  9
$DIMTP
 40
0.0
  9
$DIMTM
 40
0.0
  9
$DIMTXT
 40
8.0
  9
$DIMCEN
 40
0.0
  9
$DIMTSZ
 40
0.0
  9
$DIMTOL
 70
     0
  9
$DIMLIM
 70
     0
  9
$DIMTIH
 70
     0
  9
$DIMTOH
 70
     0
  9
$DIMSE1
 70
     0
  9
$DIMSE2
 70
     0
  9
$DIMTAD
 70
     1
  9
$DIMZIN
 70
    11
  9
$DIMBLK
  1
DOT
  9
$DIMASO
 70
     1
  9
$DIMSHO
 70
     1
  9
$DIMPOST
  1
<>
  9
$DIMAPOST
  1
[]
  9
$DIMALT
 70
     0
  9
$DIMALTD
 70
     1
  9
$DIMALTF
 40
1.0
  9
$DIMLFAC
 40
1.0
  9
$DIMTOFL
 70
     0
  9
$DIMTVP
 40
0.0
  9
$DIMTIX
 70
     1
  9
$DIMSOXD
 70
     0
  9
$DIMSAH
 70
     0
  9
$DIMBLK1
  1

  9
$DIMBLK2
  1

  9
$DIMSTYLE
  2
tfrom線あり
  9
$DIMCLRD
 70
     0
  9
$DIMCLRE
 70
     0
  9
$DIMCLRT
 70
     0
  9
$DIMTFAC
 40
1.0
  9
$DIMGAP
 40
6.0
  9
$DIMJUST
 70
     0
  9
$DIMSD1
 70
     0
  9
$DIMSD2
 70
     0
  9
$DIMTOLJ
 70
     1
  9
$DIMTZIN
 70
    11
  9
$DIMALTZ
 70
    11
  9
$DIMALTTZ
 70
    11
  9
$DIMUPT
 70
     0
  9
$DIMDEC
 70
     0
  9
$DIMTDEC
 70
     1
  9
$DIMALTU
 70
     2
  9
$DIMALTTD
 70
     2
  9
$DIMTXSTY
  7
ＭＳ ゴシック
  9
$DIMAUNIT
 70
     0
  9
$DIMADEC
 70
     2
  9
$DIMALTRND
 40
0.0
  9
$DIMAZIN
 70
     0
  9
$DIMDSEP
 70
    46
  9
$DIMATFIT
 70
     0
  9
$DIMFRAC
 70
     2
  9
$DIMLDRBLK
  1
DOT
  9
$DIMLUNIT
 70
     2
  9
$DIMLWD
 70
    -2
  9
$DIMLWE
 70
    -2
  9
$DIMTMOVE
 70
     0
  9
$DIMFXL
 40
1.0
  9
$DIMFXLON
 70
     0
  9
$DIMJOGANG
 40
0.7853981633974483
  9
$DIMTFILL
 70
     0
  9
$DIMTFILLCLR
 70
     0
  9
$DIMARCSYM
 70
     0
  9
$DIMLTYPE
  6

  9
$DIMLTEX1
  6

  9
$DIMLTEX2
  6

  9
$LUNITS
 70
     2
  9
$LUPREC
 70
     0
  9
$SKETCHINC
 40
0.1
  9
$FILLETRAD
 40
0.0
  9
$AUNITS
 70
     0
  9
$AUPREC
 70
     0
  9
$MENU
  1
acad
  9
$ELEVATION
 40
0.0
  9
$PELEVATION
 40
0.0
  9
$THICKNESS
 40
0.0
  9
$LIMCHECK
 70
     0
  9
$CHAMFERA
 40
0.0
  9
$CHAMFERB
 40
0.0
  9
$CHAMFERC
 40
0.0
  9
$CHAMFERD
 40
0.0
  9
$SKPOLY
 70
     0
  9
$TDCREATE
 40
2447893.375
  9
$TDUCREATE
 40
0.0
  9
$TDUPDATE
 40
2460803.683879271
  9
$TDUUPDATE
 40
2460803.308879271
  9
$TDINDWG
 40
0.2317344792
  9
$TDUSRTIMER
 40
0.0007460648
  9
$USRTIMER
 70
     1
  9
$ANGBASE
 50
0.0
  9
$ANGDIR
 70
     0
  9
$PDMODE
 70
     1
  9
$PDSIZE
 40
-2.0
  9
$PLINEWID
 40
0.0
  9
$SPLFRAME
 70
     0
  9
$SPLINETYPE
 70
     6
  9
$SPLINESEGS
 70
     8
  9
$HANDSEED
  5
4C06D
  9
$SURFTAB1
 70
     6
  9
$SURFTAB2
 70
     6
  9
$SURFTYPE
 70
     6
  9
$SURFU
 70
     6
  9
$SURFV
 70
     6
  9
$UCSBASE
  2

  9
$UCSNAME
  2

  9
$UCSORG
 10
0.0
 20
0.0
 30
0.0
  9
$UCSXDIR
 10
1.0
 20
0.0
 30
0.0
  9
$UCSYDIR
 10
0.0
 20
1.0
 30
0.0
  9
$UCSORTHOREF
  2

  9
$UCSORTHOVIEW
 70
     0
  9
$UCSORGTOP
 10
0.0
 20
0.0
 30
0.0
  9
$UCSORGBOTTOM
 10
0.0
 20
0.0
 30
0.0
  9
$UCSORGLEFT
 10
0.0
 20
0.0
 30
0.0
  9
$UCSORGRIGHT
 10
0.0
 20
0.0
 30
0.0
  9
$UCSORGFRONT
 10
0.0
 20
0.0
 30
0.0
  9
$UCSORGBACK
 10
0.0
 20
0.0
 30
0.0
  9
$PUCSBASE
  2

  9
$PUCSNAME
  2

  9
$PUCSORG
 10
0.0
 20
0.0
 30
0.0
  9
$PUCSXDIR
 10
1.0
 20
0.0
 30
0.0
  9
$PUCSYDIR
 10
0.0
 20
1.0
 30
0.0
  9
$PUCSORTHOREF
  2

  9
$PUCSORTHOVIEW
 70
     0
  9
$PUCSORGTOP
 10
0.0
 20
0.0
 30
0.0
  9
$PUCSORGBOTTOM
 10
0.0
 20
0.0
 30
0.0
  9
$PUCSORGLEFT
 10
0.0
 20
0.0
 30
0.0
  9
$PUCSORGRIGHT
 10
0.0
 20
0.0
 30
0.0
  9
$PUCSORGFRONT
 10
0.0
 20
0.0
 30
0.0
  9
$PUCSORGBACK
 10
0.0
 20
0.0
 30
0.0
  9
$USERI1
 70
     0
  9
$USERI2
 70
     0
  9
$USERI3
 70
     0
  9
$USERI4
 70
     0
  9
$USERI5
 70
     0
  9
$USERR1
 40
0.0
  9
$USERR2
 40
0.0
  9
$USERR3
 40
0.0
  9
$USERR4
 40
0.0
  9
$USERR5
 40
0.0
  9
$WORLDVIEW
 70
     1
  9
$SHADEDGE
 70
     3
  9
$SHADEDIF
 70
    70
  9
$TILEMODE
 70
     1
  9
$MAXACTVP
 70
    64
  9
$PINSBASE
 10
0.0
 20
0.0
 30
0.0
  9
$PLIMCHECK
 70
     0
  9
$PEXTMIN
 10
0.0
 20
0.0
 30
0.0
  9
$PEXTMAX
 10
0.0
 20
0.0
 30
0.0
  9
$PLIMMIN
 10
-7.5
 20
-20.0
  9
$PLIMMAX
 10
412.5
 20
277.0
  9
$UNITMODE
 70
     0
  9
$VISRETAIN
 70
     0
  9
$PLINEGEN
 70
     1
  9
$PSLTSCALE
 70
     0
  9
$TREEDEPTH
 70
  3020
  9
$CMLSTYLE
  2
Standard
  9
$CMLJUST
 70
     0
  9
$CMLSCALE
 40
1.0
  9
$PROXYGRAPHICS
 70
     0
  9
$MEASUREMENT
 70
     1
  9
$CELWEIGHT
370
    -1
  9
$ENDCAPS
280
     0
  9
$JOINSTYLE
280
     0
  9
$LWDISPLAY
290
     1
  9
$INSUNITS
 70
     4
  9
$HYPERLINKBASE
  1

  9
$STYLESHEET
  1

  9
$XEDIT
290
     1
  9
$CEPSNTYPE
380
     0
  9
$PSTYLEMODE
290
     1
  9
$FINGERPRINTGUID
  2

  9
$VERSIONGUID
  2

  9
$EXTNAMES
290
     1
  9
$PSVPSCALE
 40
0.0
  9
$OLESTARTUP
290
     0
  9
$SORTENTS
280
   127
  9
$INDEXCTL
280
     0
  9
$HIDETEXT
280
     1
  9
$XCLIPFRAME
290
     0
  9
$HALOGAP
280
     0
  9
$OBSCOLOR
 70
   257
  9
$OBSLTYPE
280
     0
  9
$INTERSECTIONDISPLAY
280
     0
  9
$INTERSECTIONCOLOR
 70
   257
  9
$DIMASSOC
280
     2
  9
$PROJECTNAME
  1

  9
$CAMERADISPLAY
290
     0
  9
$LENSLENGTH
 40
50.0
  9
$CAMERAHEIGHT
 40
0.0
  9
$STEPSPERSEC
 40
2.0
  9
$STEPSIZE
 40
6.0
  9
$3DDWFPREC
 40
2.0
  9
$PSOLWIDTH
 40
0.25
  9
$PSOLHEIGHT
 40
4.0
  9
$LOFTANG1
 40
1.570796326794897
  9
$LOFTANG2
 40
1.570796326794897
  9
$LOFTMAG1
 40
0.0
  9
$LOFTMAG2
 40
0.0
  9
$LOFTPARAM
 70
     7
  9
$LOFTNORMALS
280
     1
  9
$LATITUDE
 40
37.795
  9
$LONGITUDE
 40
-122.394
  9
$NORTHDIRECTION
 40
0.0
  9
$TIMEZONE
 70
 -8000
  9
$LIGHTGLYPHDISPLAY
280
     1
  9
$TILEMODELIGHTSYNCH
280
     1
  9
$SOLIDHIST
280
     1
  9
$SHOWHIST
280
     1
  9
$DWFFRAME
280
     2
  9
$DGNFRAME
280
     2
  9
$REALWORLDSCALE
290
     1
  9
$INTERFERECOLOR
 62
   256
  9
$CSHADOW
280
     0
  9
$SHADOWPLANELOCATION
 40
0.0
  0
ENDSEC
  0
SECTION
  2
CLASSES
  0
CLASS
  1
LWPOLYLINE
  2
AcDbPolyline
  3
ObjectDBX Classes
 90
        0
 91
        1
280
     0
281
     1
  0
CLASS
  1
IMAGE
  2
AcDbRasterImage
  3
ISM
 90
      127
 91
        4
280
     0
281
     1
  0
CLASS
  1
OLE2FRAME
  2
AcDbOle2Frame
  3
ObjectDBX Classes
 90
        0
 91
        1
280
     0
281
     1
  0
CLASS
  1
HATCH
  2
AcDbHatch
  3
ObjectDBX Classes
 90
        0
 91
        1
280
     0
281
     1
  0
CLASS
  1
DICTIONARYVAR
  2
AcDbDictionaryVar
  3
ObjectDBX Classes
 90
        0
 91
        3
280
     0
281
     0
  0
CLASS
  1
RASTERVARIABLES
  2
AcDbRasterVariables
  3
ISM
 90
        0
 91
        3
280
     0
281
     0
  0
CLASS
  1
IMAGEDEF
  2
AcDbRasterImageDef
  3
ISM
 90
        0
 91
        3
280
     0
281
     0
  0
CLASS
  1
IMAGEDEF_REACTOR
  2
AcDbRasterImageDefReactor
  3
ISM
 90
        1
 91
        3
280
     0
281
     0
  0
CLASS
  1
IDBUFFER
  2
AcDbIdBuffer
  3
ObjectDBX Classes
 90
        0
 91
        3
280
     0
281
     0
  0
CLASS
  1
SPATIAL_FILTER
  2
AcDbSpatialFilter
  3
ObjectDBX Classes
 90
        0
 91
        3
280
     0
281
     0
  0
CLASS
  1
XRECORD
  2
AcDbXrecord
  3
ObjectDBX Classes
 90
        0
 91
        1
280
     0
281
     0
  0
CLASS
  1
SORTENTSTABLE
  2
AcDbSortentsTable
  3
ObjectDBX Classes
 90
        0
 91
        3
280
     0
281
     0
  0
CLASS
  1
LAYER_INDEX
  2
AcDbLayerIndex
  3
ObjectDBX Classes
 90
        0
 91
        3
280
     0
281
     0
  0
CLASS
  1
SPATIAL_INDEX
  2
AcDbSpatialIndex
  3
AutoCAD 2000
 90
        0
 91
        3
280
     0
281
     0
  0
CLASS
  1
OBJECT_PTR
  2
CAseDLPNTableRecord
  3
ASE-LPNTableRecord
 90
        1
 91
        3
280
     0
281
     0
  0
CLASS
  1
LAYOUT
  2
AcDbLayout
  3
ObjectDBX Classes
 90
        0
 91
        1
280
     0
281
     0
  0
CLASS
  1
PLOTSETTINGS
  2
AcDbPlotSettings
  3
ObjectDBX Classes
 90
        0
 91
        3
280
     0
281
     0
  0
CLASS
  1
ACDBDICTIONARYWDFLT
  2
AcDbDictionaryWithDefault
  3
ObjectDBX Classes
 90
        0
 91
        3
280
     0
281
     0
  0
CLASS
  1
ACDBPLACEHOLDER
  2
AcDbPlaceHolder
  3
ObjectDBX Classes
 90
        0
 91
        1
280
     0
281
     0
  0
CLASS
  1
SCALE
  2
AcDbScale
  3
ObjectDBX Classes
 90
     1153
 91
        3
280
     0
281
     0
  0
CLASS
  1
MATERIAL
  2
AcDbMaterial
  3
ObjectDBX Classes
 90
     1153
 91
        3
280
     0
281
     0
  0
CLASS
  1
VISUALSTYLE
  2
AcDbVisualStyle
  3
ObjectDBX Classes
 90
     4095
 91
        3
280
     0
281
     0
  0
CLASS
  1
TABLESTYLE
  2
AcDbTableStyle
  3
ObjectDBX Classes
 90
     4095
 91
        3
280
     0
281
     0
  0
CLASS
  1
DIMASSOC
  2
AcDbDimAssoc
  3
"AcDbDimAssoc|Product Desc:     AcDim ARX App For Dimension|Company:          Autodesk, Inc.|WEB Address:      www.autodesk.com"
 90
        0
 91
        3
280
     0
281
     0
  0
CLASS
  1
CELLSTYLEMAP
  2
AcDbCellStyleMap
  3
ObjectDBX Classes
 90
     1152
 91
        3
280
     0
281
     0
  0
CLASS
  1
SUN
  2
AcDbSun
  3
SCENEOE
 90
     1153
 91
        3
280
     0
281
     0
  0
CLASS
  1
MLEADERSTYLE
  2
AcDbMLeaderStyle
  3
ACDB_MLEADERSTYLE_CLASS
 90
     4095
 91
        3
280
     0
281
     0
  0
CLASS
  1
FIELD
  2
AcDbField
  3
ObjectDBX Classes
 90
     1152
 91
        3
280
     0
281
     0
  0
CLASS
  1
FIELDLIST
  2
AcDbFieldList
  3
ObjectDBX Classes
 90
     1152
 91
        3
280
     0
281
     0
  0
ENDSEC
  0
SECTION
  2
TABLES
  0
TABLE
  2
VPORT
  5
7
330
0
100
AcDbSymbolTable
 70
     1
  0
VPORT
  5
15
330
7
100
AcDbSymbolTableRecord
100
AcDbViewportTableRecord
  2
*ACTIVE
 70
     0
 10
0.0
 20
0.0
 11
1.0
 21
1.0
 12
406.0201356708978
 22
371.9012854698342
 13
0.0
 23
0.0
 14
1.0
 24
1.0
 15
0.0
 25
0.0
 16
0.0
 26
0.0
 36
1.0
 17
-91.02013567089784
 27
73.59871453016581
 37
-46.86809886248109
 40
908.82
 41
2.052208835341366
 42
50.0
 43
0.0
 44
0.0
 50
0.0
 51
0.0
 71
    16
 72
  2000
 73
     1
 74
     1
 75
     0
 76
     0
 77
     0
 78
     0
281
     0
 65
     1
110
0.0
120
0.0
130
0.0
111
1.0
121
0.0
131
0.0
112
0.0
122
1.0
132
0.0
 79
     0
146
0.0
348
3666
 60
     3
 61
     5
292
     1
282
     1
141
0.0
142
0.0
 63
   256
361
904
  0
ENDTAB
  0
TABLE
  2
LTYPE
  5
4
330
0
100
AcDbSymbolTable
 70
     4
  0
LTYPE
  5
11
330
4
100
AcDbSymbolTableRecord
100
AcDbLinetypeTableRecord
  2
ByBlock
 70
     0
  3

 72
    65
 73
     0
 40
0.0
  0
LTYPE
  5
12
330
4
100
AcDbSymbolTableRecord
100
AcDbLinetypeTableRecord
  2
ByLayer
 70
     0
  3

 72
    65
 73
     0
 40
0.0
  0
LTYPE
  5
13
330
4
100
AcDbSymbolTableRecord
100
AcDbLinetypeTableRecord
  2
Continuous
 70
     0
  3
Solid line
 72
    65
 73
     0
 40
0.0
  0
LTYPE
  5
D6C
330
4
100
AcDbSymbolTableRecord
100
AcDbLinetypeTableRecord
  2
BORDER
 70
     0
  3
Border __  __  . __  __  . __  __  . __  __  . 
 72
    65
 73
     6
 40
44.45
 49
12.7
 74
     0
 49
-6.35
 74
     0
 49
12.7
 74
     0
 49
-6.35
 74
     0
 49
0.0
 74
     0
 49
-6.35
 74
     0
  0
LTYPE
  5
D6D
330
4
100
AcDbSymbolTableRecord
100
AcDbLinetypeTableRecord
  2
HIDDEN
 70
     0
  3
Hidden _ _ _ _ _ _ _ _ _ _ _ _ _ _ _ _ _ _ _ _ 
 72
    65
 73
     2
 40
9.524999999999999
 49
6.35
 74
     0
 49
-3.175
 74
     0
  0
LTYPE
  5
1CCB5
330
4
100
AcDbSymbolTableRecord
100
AcDbLinetypeTableRecord
  2
CENTER
 70
     0
  3
 Center _____  _  _____  _  _____  _  _____  _ 
 72
    65
 73
     4
 40
50.8
 49
31.75
 74
     0
 49
-6.35
 74
     0
 49
6.35
 74
     0
 49
-6.35
 74
     0
  0
ENDTAB
  0
TABLE
  2
LAYER
  5
2
102
{ACAD_XDICTIONARY
360
2E1
102
}
330
0
100
AcDbSymbolTable
 70
     9
  0
LAYER
  5
14
330
2
100
AcDbSymbolTableRecord
100
AcDbLayerTableRecord
  2
0
 70
     0
 62
     7
  6
Continuous
370
    -3
390
1D
347
266
  0
LAYER
  5
4B
330
2
100
AcDbSymbolTableRecord
100
AcDbLayerTableRecord
  2
TEMPLATE
 70
     0
 62
     7
  6
Continuous
370
    20
390
1D
347
266
  0
LAYER
  5
4C
330
2
100
AcDbSymbolTableRecord
100
AcDbLayerTableRecord
  2
DIM
 70
     0
 62
     3
  6
Continuous
370
    13
390
1D
347
266
  0
LAYER
  5
4D
330
2
100
AcDbSymbolTableRecord
100
AcDbLayerTableRecord
  2
MODEL
 70
     0
 62
     7
  6
Continuous
370
    20
390
1D
347
266
  0
LAYER
  5
88C
330
2
100
AcDbSymbolTableRecord
100
AcDbLayerTableRecord
  2
HIDDEN
 70
     0
 62
     8
  6
HIDDEN
370
    20
390
1D
347
266
1001
AcAecLayerStandard
1000

1000

  0
LAYER
  5
D6B
330
2
100
AcDbSymbolTableRecord
100
AcDbLayerTableRecord
  2
BORDER
 70
     0
 62
     4
  6
BORDER
290
     0
370
    20
390
1D
347
266
1001
AcAecLayerStandard
1000

1000

  0
LAYER
  5
A5DF
330
2
100
AcDbSymbolTableRecord
100
AcDbLayerTableRecord
  2
Defpoints
 70
     0
 62
     7
  6
Continuous
290
     0
370
    -3
390
1D
347
266
  0
LAYER
  5
17561
102
{ACAD_XDICTIONARY
360
17562
102
}
330
2
100
AcDbSymbolTableRecord
100
AcDbLayerTableRecord
  2
注释
 70
     0
 62
     7
  6
Continuous
370
    -1
390
1D
347
266
1001
AcadStringInfo
1000
MIFCodePage
1070
     5
  0
LAYER
  5
17692
330
2
100
AcDbSymbolTableRecord
100
AcDbLayerTableRecord
  2
レイヤー 1
 70
     0
 62
     7
  6
Continuous
370
    -3
390
1D
347
266
  0
ENDTAB
  0
TABLE
  2
STYLE
  5
3
330
0
100
AcDbSymbolTable
 70
     5
  0
STYLE
  5
17
330
3
100
AcDbSymbolTableRecord
100
AcDbTextStyleTableRecord
  2
Standard
 70
     0
 40
0.0
 41
1.0
 50
0.0
 71
     0
 42
2.5
  3
txt
  4
BIGFONT.SHX
  0
STYLE
  5
39
330
3
100
AcDbSymbolTableRecord
100
AcDbTextStyleTableRecord
  2
ＭＳ ゴシック
 70
     0
 40
0.0
 41
1.0
 50
0.0
 71
     0
 42
2.5
  3
msgothic.ttc
  4
ＭＳ ゴシック
1001
ACAD
1000
ＭＳ ゴシック
1071
        0
  0
STYLE
  5
17569
330
3
100
AcDbSymbolTableRecord
100
AcDbTextStyleTableRecord
  2
SLDTEXTSTYLE0
 70
     0
 40
0.0
 41
0.75
 50
0.0
 71
     0
 42
2.5
  3
TXT
  4

  0
STYLE
  5
18B45
330
3
100
AcDbSymbolTableRecord
100
AcDbTextStyleTableRecord
  2
EXTFONT
 70
     0
 40
0.0
 41
0.75
 50
0.0
 71
     0
 42
2.5
  3
romans.shx
  4
extfont.shx
  0
STYLE
  5
19045
330
3
100
AcDbSymbolTableRecord
100
AcDbTextStyleTableRecord
  2
DIMFONT3
 70
     0
 40
0.0
 41
0.7151515151515151
 50
0.0
 71
     0
 42
2.5
  3
HGRSMP.TTF
  4

1001
ACAD
1000
HGMaruGothicMPRO
1071
    32818
  0
ENDTAB
  0
TABLE
  2
VIEW
  5
5
330
0
100
AcDbSymbolTable
 70
     0
  0
ENDTAB
  0
TABLE
  2
UCS
  5
6
330
0
100
AcDbSymbolTable
 70
     0
  0
ENDTAB
  0
TABLE
  2
APPID
  5
8
330
0
100
AcDbSymbolTable
 70
    11
  0
APPID
  5
16
330
8
100
AcDbSymbolTableRecord
100
AcDbRegAppTableRecord
  2
ACAD
 70
     0
  0
APPID
  5
7AC
330
8
100
AcDbSymbolTableRecord
100
AcDbRegAppTableRecord
  2
AcAecLayerStandard
 70
     0
  0
APPID
  5
E29
330
8
100
AcDbSymbolTableRecord
100
AcDbRegAppTableRecord
  2
ACAD_MLEADERVER
 70
     0
  0
APPID
  5
17545
330
8
100
AcDbSymbolTableRecord
100
AcDbRegAppTableRecord
  2
ACAD_DSTYLE_DIMRADIAL_EXTENSION
 70
     0
  0
APPID
  5
1755C
330
8
100
AcDbSymbolTableRecord
100
AcDbRegAppTableRecord
  2
PLOTTRANSPARENCY
 70
     0
  0
APPID
  5
17565
330
8
100
AcDbSymbolTableRecord
100
AcDbRegAppTableRecord
  2
AcadStringInfo
 70
     0
  0
APPID
  5
1756B
330
8
100
AcDbSymbolTableRecord
100
AcDbRegAppTableRecord
  2
ACAD_NAV_VCDISPLAY
 70
     0
  0
APPID
  5
18B53
330
8
100
AcDbSymbolTableRecord
100
AcDbRegAppTableRecord
  2
ACAD_DSTYLE_DIMJAG
 70
     0
  0
APPID
  5
18B54
330
8
100
AcDbSymbolTableRecord
100
AcDbRegAppTableRecord
  2
ACAD_DSTYLE_DIMTALN
 70
     0
  0
APPID
  5
18C20
330
8
100
AcDbSymbolTableRecord
100
AcDbRegAppTableRecord
  2
AcadAnnotative
 70
     0
  0
APPID
  5
19041
330
8
100
AcDbSymbolTableRecord
100
AcDbRegAppTableRecord
  2
ACAD_DSTYLE_DIMBREAK
 70
     0
  0
ENDTAB
  0
TABLE
  2
DIMSTYLE
  5
9
330
0
100
AcDbSymbolTable
 70
    12
100
AcDbDimStyleTable
  0
DIMSTYLE
105
18
330
9
100
AcDbSymbolTableRecord
100
AcDbDimStyleTableRecord
  2
Standard
 70
     0
178
     0
340
17
  0
DIMSTYLE
105
57
102
{ACAD_REACTORS
330
4BD87
330
4BDA5
330
4BDB4
330
4BDD5
330
4BDE4
330
4BED1
330
4BED4
330
4BEF4
330
4BF03
330
4BF15
102
}
330
9
100
AcDbSymbolTableRecord
100
AcDbDimStyleTableRecord
  2
tfrom線あり
 70
     0
  3
<>
  4
[]
 41
3.0
 42
10.0
 43
0.9999999999999999
 44
0.0
 73
     0
 74
     0
 77
     1
 78
    11
140
8.0
141
0.0
143
1.0
147
6.0
171
     1
174
     1
178
     0
179
     2
271
     0
272
     1
276
     2
284
    11
285
    11
286
    11
289
     0
340
39
341
4E
342
4E
  0
DIMSTYLE
105
17566
330
9
100
AcDbSymbolTableRecord
100
AcDbDimStyleTableRecord
  2
ISO-25
 70
     0
 41
2.5
 42
0.625
 43
3.75
 44
1.25
 73
     0
 74
     0
 77
     1
 78
     8
140
2.5
141
2.5
143
0.03937007874016
147
0.625
171
     3
172
     1
178
     0
271
     2
272
     2
274
     3
278
    44
283
     0
284
     8
340
17
  0
DIMSTYLE
105
17568
330
9
100
AcDbSymbolTableRecord
100
AcDbDimStyleTableRecord
  2
SLDDIMSTYLE0
 70
     0
 41
2.5
 44
0.0
 45
0.000000001
 73
     0
 74
     0
 77
     1
 78
    12
 79
     3
140
2.5
144
3.0
147
0.625
173
     1
178
     0
271
     3
272
     3
276
     2
284
    12
340
17569
  0
DIMSTYLE
105
1756A
330
9
100
AcDbSymbolTableRecord
100
AcDbDimStyleTableRecord
  2
SLDDIMSTYLE1
 70
     0
 41
2.5
 44
0.0
 45
0.000000001
 73
     0
 74
     0
 77
     1
 78
    12
 79
     3
140
2.5
144
3.0
147
0.625
172
     1
173
     1
178
     0
271
     3
272
     3
276
     2
284
    12
289
     0
340
17569
  0
DIMSTYLE
105
18A6E
330
9
100
AcDbSymbolTableRecord
100
AcDbDimStyleTableRecord
  2
SLDDIMSTYLE2
 70
     0
 41
2.5
 44
0.0
 45
0.000000001
 73
     0
 74
     0
 77
     1
 78
    12
 79
     3
140
2.5
144
2.0
147
0.625
173
     1
178
     0
271
     0
272
     0
276
     2
284
    12
340
17569
  0
DIMSTYLE
105
18A6F
330
9
100
AcDbSymbolTableRecord
100
AcDbDimStyleTableRecord
  2
tform線あり
 70
     0
  3
<>
  4
[]
 41
9.999389648437498
 42
25.0
 43
0.9999999999999999
 44
0.0
 73
     0
 74
     0
 77
     1
 78
    11
140
24.4326171875
141
0.0
143
1.0
146
0.8
147
10.0
171
     1
172
     1
174
     1
178
     0
179
     2
271
     1
272
     1
276
     2
284
    11
285
    11
286
    11
289
     0
340
39
341
4E
342
4E
  0
DIMSTYLE
105
18B44
330
9
100
AcDbSymbolTableRecord
100
AcDbDimStyleTableRecord
  2
6
 70
     0
 40
2.0
 41
1.5
 42
1.0
 43
4.0
 44
0.0
 46
1.5
 49
0.0
 69
     1
 70
     0
 73
     0
 74
     0
 77
     1
 78
     9
140
4.0
141
0.0
145
1.0
147
1.5
172
     1
176
   256
177
   256
271
     1
178
     4
271
     1
272
     1
279
     2
284
     9
285
    13
286
    13
340
18B45
341
18B46
342
18B4E
1001
ACAD_DSTYLE_DIMJAG
1070
   388
1040
1.5
1001
ACAD_DSTYLE_DIMTALN
1070
   392
1070
     0
  0
DIMSTYLE
105
18C1E
330
9
100
AcDbSymbolTableRecord
100
AcDbDimStyleTableRecord
  2
Annotative
 70
     0
178
     0
340
17
1001
AcadAnnotative
1000
AnnotativeData
1002
{
1070
     1
1070
     1
1002
}
  0
DIMSTYLE
105
1903F
330
9
100
AcDbSymbolTableRecord
100
AcDbDimStyleTableRecord
  2
Basin Dimension
 70
     0
  3
\X
  4
"
 41
9.0
 42
9.0
 44
9.0
 73
     0
 74
     0
140
18.0
143
0.03937007874
178
     0
271
     0
272
     0
340
17
1001
ACAD_DSTYLE_DIMBREAK
1070
   391
1040
0.125
1001
ACAD_DSTYLE_DIMJAG
1070
   388
1040
1.5
1001
ACAD_DSTYLE_DIMTALN
1070
   392
1070
     0
  0
DIMSTYLE
105
19044
330
9
100
AcDbSymbolTableRecord
100
AcDbDimStyleTableRecord
  2
DIM004
 70
     0
 40
10.0
 41
0.5
 42
0.0
 44
1.0
 45
1.0
 73
     0
 74
     0
 77
     3
140
2.11864406779661
147
0.3
172
     1
176
     7
177
     1
271
     0
178
     1
271
     0
273
     6
277
     6
340
19045
342
18B4E
  0
DIMSTYLE
105
1904B
330
9
100
AcDbSymbolTableRecord
100
AcDbDimStyleTableRecord
  2
1
 70
     0
 40
2.0
 41
0.8
 42
3.5
 43
3.0
 44
0.0
 46
1.5
 69
     1
 70
     0
 73
     0
 74
     0
 77
     1
 78
     9
140
3.5
141
0.0
144
10.0
145
1.0
147
1.0
172
     1
176
   256
177
   256
271
     1
178
     4
271
     1
272
     1
279
     2
284
     9
285
    13
286
    13
340
18B45
341
18B46
342
18B4E
1001
ACAD_DSTYLE_DIMJAG
1070
   388
1040
1.5
1001
ACAD_DSTYLE_DIMTALN
1070
   392
1070
     0
  0
ENDTAB
  0
TABLE
  2
BLOCK_RECORD
  5
1
330
0
100
AcDbSymbolTable
 70
    93
  0
BLOCK_RECORD
  5
A
102
{ACAD_XDICTIONARY
360
1733E
102
}
330
1
100
AcDbSymbolTableRecord
100
AcDbBlockTableRecord
  2
*MODEL_SPACE
340
20
 70
     0
280
     1
281
     0
  0
BLOCK_RECORD
  5
B
330
1
100
AcDbSymbolTableRecord
100
AcDbBlockTableRecord
  2
*PAPER_SPACE
340
21
 70
     0
280
     1
281
     0
  0
BLOCK_RECORD
  5
4E
330
1
100
AcDbSymbolTableRecord
100
AcDbBlockTableRecord
  2
_DOT
340
0
102
{BLKREFS
331
17326
331
17327
331
17335
331
17336
331
173AB
331
173AC
331
173BA
331
173BB
331
173D8
331
173D9
331
173E4
331
173E5
331
1754E
331
17559
331
18ABE
331
18ABF
331
18ACD
331
18ACE
331
18B23
331
18B24
331
18B2F
331
18B30
331
18BCC
331
18BCD
331
18BDB
331
18BDC
331
18BED
331
18BEE
331
18C39
331
18C3A
331
18C48
331
18C49
331
18C62
331
18C63
331
18C78
331
18C79
331
18CD1
331
18CD2
331
18CDE
331
18CDF
331
18D05
331
18D06
331
18D6A
331
18D75
331
18DA6
331
18DA7
331
18DB6
331
18DB7
331
18DC6
331
18DC7
331
18DED
331
18DEE
331
18DFC
331
18DFD
331
18F91
331
18F99
331
18FA2
331
18FA3
331
18FAE
331
18FAF
331
18FBA
331
18FBB
331
18FC6
331
18FC7
331
18FD2
331
18FD3
331
18FDE
331
18FDF
331
18FEA
331
18FEB
331
18FF6
331
18FF7
331
19002
331
19003
331
1900E
331
1900F
331
1901A
331
1901B
331
19026
331
19027
331
195FF
331
19600
331
1971F
331
19720
331
19815
331
19816
331
19B8F
331
19B90
331
19EE0
331
19EE1
331
1CCA7
331
1CCA8
331
1CEFC
331
1CEFD
331
1D123
331
1D124
331
1D77C
331
1D77D
331
1DA9F
331
1DAA0
331
3B8EE
331
3B8EF
331
3BC3B
331
3BC3C
331
3BDF5
331
3BDF6
331
3BF7B
331
3BF7C
331
4BA08
331
4BA09
331
4BB14
331
4BB15
331
4BBA2
331
4BBA3
331
4BBB1
331
4BBB2
331
4BBC0
331
4BBC1
331
4BBD0
331
4BBD1
331
4BD90
331
4BD91
331
4BD9F
331
4BDA0
331
4BDAE
331
4BDAF
331
4BDBF
331
4BDC0
331
4BDCF
331
4BDD0
331
4BDDE
331
4BDDF
331
4BDED
331
4BDEE
331
4BE74
331
4BE75
331
4BE85
331
4BE86
331
4BEDD
331
4BEDE
331
4BEEB
331
4BEEC
331
4BEFD
331
4BEFE
331
4BF0D
331
4BF0E
331
4BF1E
331
4BF1F
102
}
 70
     0
280
     1
281
     0
  0
BLOCK_RECORD
  5
68D
330
1
100
AcDbSymbolTableRecord
100
AcDbBlockTableRecord
  2
block 2
340
0
102
{BLKREFS
331
68C
331
1343
102
}
 70
     0
280
     1
281
     0
  0
BLOCK_RECORD
  5
17320
330
1
100
AcDbSymbolTableRecord
100
AcDbBlockTableRecord
  2
*D2
340
0
 70
     0
280
     1
281
     0
  0
BLOCK_RECORD
  5
1732F
330
1
100
AcDbSymbolTableRecord
100
AcDbBlockTableRecord
  2
*D3
340
0
 70
     0
280
     1
281
     0
  0
BLOCK_RECORD
  5
173A6
330
1
100
AcDbSymbolTableRecord
100
AcDbBlockTableRecord
  2
*D4
340
0
 70
     0
280
     1
281
     0
  0
BLOCK_RECORD
  5
173B5
330
1
100
AcDbSymbolTableRecord
100
AcDbBlockTableRecord
  2
*D5
340
0
 70
     0
280
     1
281
     0
  0
BLOCK_RECORD
  5
173D2
330
1
100
AcDbSymbolTableRecord
100
AcDbBlockTableRecord
  2
*D6
340
0
 70
     0
280
     1
281
     0
  0
BLOCK_RECORD
  5
173DE
330
1
100
AcDbSymbolTableRecord
100
AcDbBlockTableRecord
  2
*D7
340
0
 70
     0
280
     1
281
     0
  0
BLOCK_RECORD
  5
17549
330
1
100
AcDbSymbolTableRecord
100
AcDbBlockTableRecord
  2
*D8
340
0
 70
     0
280
     1
281
     0
  0
BLOCK_RECORD
  5
17554
330
1
100
AcDbSymbolTableRecord
100
AcDbBlockTableRecord
  2
*D9
340
0
 70
     0
280
     1
281
     0
  0
BLOCK_RECORD
  5
17588
330
1
100
AcDbSymbolTableRecord
100
AcDbBlockTableRecord
  2
_D
340
0
 70
     0
280
     1
281
     0
  0
BLOCK_RECORD
  5
17592
330
1
100
AcDbSymbolTableRecord
100
AcDbBlockTableRecord
  2
_D_1
340
0
 70
     0
280
     1
281
     0
  0
BLOCK_RECORD
  5
175B2
330
1
100
AcDbSymbolTableRecord
100
AcDbBlockTableRecord
  2
_D_2
340
0
 70
     0
280
     1
281
     0
  0
BLOCK_RECORD
  5
175DC
330
1
100
AcDbSymbolTableRecord
100
AcDbBlockTableRecord
  2
_D_3
340
0
 70
     0
280
     1
281
     0
  0
BLOCK_RECORD
  5
175E6
330
1
100
AcDbSymbolTableRecord
100
AcDbBlockTableRecord
  2
_D_4
340
0
 70
     0
280
     1
281
     0
  0
BLOCK_RECORD
  5
1764F
330
1
100
AcDbSymbolTableRecord
100
AcDbBlockTableRecord
  2
*D15
340
0
 70
     0
280
     1
281
     0
  0
BLOCK_RECORD
  5
1765B
330
1
100
AcDbSymbolTableRecord
100
AcDbBlockTableRecord
  2
*D16
340
0
 70
     0
280
     1
281
     0
  0
BLOCK_RECORD
  5
17667
330
1
100
AcDbSymbolTableRecord
100
AcDbBlockTableRecord
  2
*D17
340
0
 70
     0
280
     1
281
     0
  0
BLOCK_RECORD
  5
17673
330
1
100
AcDbSymbolTableRecord
100
AcDbBlockTableRecord
  2
*D18
340
0
 70
     0
280
     1
281
     0
  0
BLOCK_RECORD
  5
1767F
330
1
100
AcDbSymbolTableRecord
100
AcDbBlockTableRecord
  2
*D19
340
0
 70
     0
280
     1
281
     0
  0
BLOCK_RECORD
  5
1806C
330
1
100
AcDbSymbolTableRecord
100
AcDbBlockTableRecord
  2
*D20
340
0
 70
     0
280
     1
281
     0
  0
BLOCK_RECORD
  5
18A4B
330
1
100
AcDbSymbolTableRecord
100
AcDbBlockTableRecord
  2
*D21
340
0
 70
     0
280
     1
281
     0
  0
BLOCK_RECORD
  5
18AB9
330
1
100
AcDbSymbolTableRecord
100
AcDbBlockTableRecord
  2
*D22
340
0
 70
     0
280
     1
281
     0
  0
BLOCK_RECORD
  5
18AC8
330
1
100
AcDbSymbolTableRecord
100
AcDbBlockTableRecord
  2
*D23
340
0
 70
     0
280
     1
281
     0
  0
BLOCK_RECORD
  5
18B1D
330
1
100
AcDbSymbolTableRecord
100
AcDbBlockTableRecord
  2
*D24
340
0
 70
     0
280
     1
281
     0
  0
BLOCK_RECORD
  5
18B29
330
1
100
AcDbSymbolTableRecord
100
AcDbBlockTableRecord
  2
*D25
340
0
 70
     0
280
     1
281
     0
  0
BLOCK_RECORD
  5
18B46
102
{ACAD_XDICTIONARY
360
18B47
102
}
330
1
100
AcDbSymbolTableRecord
100
AcDbBlockTableRecord
  2
_Open30
340
0
310
2800000020000000200000000100080000000000000400000000000000000000000000000000000000000000000080000080000000808000800000008000800080800000C0C0C000C0DCC000F0CAA6000020400000206000002080000020A0000020C0000020E00000400000004020000040400000406000004080000040A0
310
000040C0000040E00000600000006020000060400000606000006080000060A0000060C0000060E00000800000008020000080400000806000008080000080A0000080C0000080E00000A0000000A0200000A0400000A0600000A0800000A0A00000A0C00000A0E00000C0000000C0200000C0400000C0600000C0800000C0
310
A00000C0C00000C0E00000E0000000E0200000E0400000E0600000E0800000E0A00000E0C00000E0E00040000000400020004000400040006000400080004000A0004000C0004000E00040200000402020004020400040206000402080004020A0004020C0004020E000404000004040200040404000404060004040800040
310
40A0004040C0004040E00040600000406020004060400040606000406080004060A0004060C0004060E00040800000408020004080400040806000408080004080A0004080C0004080E00040A0000040A0200040A0400040A0600040A0800040A0A00040A0C00040A0E00040C0000040C0200040C0400040C0600040C08000
310
40C0A00040C0C00040C0E00040E0000040E0200040E0400040E0600040E0800040E0A00040E0C00040E0E00080000000800020008000400080006000800080008000A0008000C0008000E00080200000802020008020400080206000802080008020A0008020C0008020E00080400000804020008040400080406000804080
310
008040A0008040C0008040E00080600000806020008060400080606000806080008060A0008060C0008060E00080800000808020008080400080806000808080008080A0008080C0008080E00080A0000080A0200080A0400080A0600080A0800080A0A00080A0C00080A0E00080C0000080C0200080C0400080C0600080C0
310
800080C0A00080C0C00080C0E00080E0000080E0200080E0400080E0600080E0800080E0A00080E0C00080E0E000C0000000C0002000C0004000C0006000C0008000C000A000C000C000C000E000C0200000C0202000C0204000C0206000C0208000C020A000C020C000C020E000C0400000C0402000C0404000C0406000C0
310
408000C040A000C040C000C040E000C0600000C0602000C0604000C0606000C0608000C060A000C060C000C060E000C0800000C0802000C0804000C0806000C0808000C080A000C080C000C080E000C0A00000C0A02000C0A04000C0A06000C0A08000C0A0A000C0A0C000C0A0E000C0C00000C0C02000C0C04000C0C06000
310
C0C08000C0C0A000F0FBFF00A4A0A000808080000000FF0000FF000000FFFF00FF000000FF00FF00FFFF0000FFFFFF0000000000000000000000000000000000000000000000000000000000000000000000000000000000000000000000000000000000000000000000000000000000000000000000000000000000000000
310
00000000000000000000000000000000000000000000000000000000000000000000000000000000000000000000000000000000000000000000000000000000000000000000000000000000000000000000000000000000000000000000000000000000000000000000000000000000000000000000000000000000000000
310
000000000000000000000000000000000000000000000000000000000000000000000000000000000000000000000000000000FFFF0000000000000000000000000000000000000000000000000000000000000000FFFFFFFF0000000000000000000000000000000000000000000000000000000000000000FFFFFFFF0000
310
000000000000000000000000000000000000000000000000000000000000FFFFFF0000000000000000000000000000000000000000000000000000000000000000FFFFFFFF0000000000000000000000000000000000000000000000000000000000000000FFFFFF0000000000000000000000000000000000000000000000
310
000000000000000000FFFFFFFF0000000000000000000000000000000000000000000000000000000000000000FFFFFFFF00000000FFFFFFFFFFFFFFFFFFFFFFFFFFFFFFFFFFFFFFFFFFFFFFFFFFFFFFFFFFFF00000000000000000000000000000000000000000000000000FFFFFFFF000000000000000000000000000000
310
000000000000000000FFFFFFFF000000000000000000000000000000000000000000000000FFFFFFFF000000000000000000000000000000000000000000000000FFFFFFFF000000000000000000000000000000000000000000000000FFFFFFFF000000000000000000000000000000000000000000000000FFFFFFFF0000
310
0000000000000000000000000000000000000000000000FFFFFF0000000000000000000000000000000000000000000000000000000000000000000000000000000000000000000000000000000000000000000000000000000000000000000000000000000000000000000000000000000000000000000000000000000000
310
00000000000000000000000000000000000000000000000000000000000000000000000000000000000000000000000000000000000000000000000000000000000000000000000000000000000000000000000000000000000000000000000000000000000000000000000000000000000000000000000000000000000000
310
0000000000000000000000000000000000000000000000000000000000000000000000000000000000000000000000000000000000000000
 70
     0
280
     1
281
     0
  0
BLOCK_RECORD
  5
18B4E
330
1
100
AcDbSymbolTableRecord
100
AcDbBlockTableRecord
  2
_Origin
340
0
 70
     0
280
     1
281
     0
  0
BLOCK_RECORD
  5
18BC6
330
1
100
AcDbSymbolTableRecord
100
AcDbBlockTableRecord
  2
*D28
340
0
 70
     0
280
     1
281
     0
  0
BLOCK_RECORD
  5
18BD5
330
1
100
AcDbSymbolTableRecord
100
AcDbBlockTableRecord
  2
*D29
340
0
 70
     0
280
     1
281
     0
  0
BLOCK_RECORD
  5
18BE5
330
1
100
AcDbSymbolTableRecord
100
AcDbBlockTableRecord
  2
*D30
340
0
 70
     0
280
     1
281
     0
  0
BLOCK_RECORD
  5
18C34
330
1
100
AcDbSymbolTableRecord
100
AcDbBlockTableRecord
  2
*D31
340
0
 70
     0
280
     1
281
     0
  0
BLOCK_RECORD
  5
18C43
330
1
100
AcDbSymbolTableRecord
100
AcDbBlockTableRecord
  2
*D32
340
0
 70
     0
280
     1
281
     0
  0
BLOCK_RECORD
  5
18C5D
330
1
100
AcDbSymbolTableRecord
100
AcDbBlockTableRecord
  2
*D33
340
0
 70
     0
280
     1
281
     0
  0
BLOCK_RECORD
  5
18C73
330
1
100
AcDbSymbolTableRecord
100
AcDbBlockTableRecord
  2
*D34
340
0
 70
     0
280
     1
281
     0
  0
BLOCK_RECORD
  5
18CCC
330
1
100
AcDbSymbolTableRecord
100
AcDbBlockTableRecord
  2
*D35
340
0
 70
     0
280
     1
281
     0
  0
BLOCK_RECORD
  5
18CD9
330
1
100
AcDbSymbolTableRecord
100
AcDbBlockTableRecord
  2
*D36
340
0
 70
     0
280
     1
281
     0
  0
BLOCK_RECORD
  5
18D00
330
1
100
AcDbSymbolTableRecord
100
AcDbBlockTableRecord
  2
*D37
340
0
 70
     0
280
     1
281
     0
  0
BLOCK_RECORD
  5
18D66
330
1
100
AcDbSymbolTableRecord
100
AcDbBlockTableRecord
  2
*D38
340
0
 70
     0
280
     1
281
     0
  0
BLOCK_RECORD
  5
18D71
330
1
100
AcDbSymbolTableRecord
100
AcDbBlockTableRecord
  2
*D39
340
0
 70
     0
280
     1
281
     0
  0
BLOCK_RECORD
  5
18DA1
330
1
100
AcDbSymbolTableRecord
100
AcDbBlockTableRecord
  2
*D40
340
0
 70
     0
280
     1
281
     0
  0
BLOCK_RECORD
  5
18DB1
330
1
100
AcDbSymbolTableRecord
100
AcDbBlockTableRecord
  2
*D41
340
0
 70
     0
280
     1
281
     0
  0
BLOCK_RECORD
  5
18DC1
330
1
100
AcDbSymbolTableRecord
100
AcDbBlockTableRecord
  2
*D42
340
0
 70
     0
280
     1
281
     0
  0
BLOCK_RECORD
  5
18DE8
330
1
100
AcDbSymbolTableRecord
100
AcDbBlockTableRecord
  2
*D43
340
0
 70
     0
280
     1
281
     0
  0
BLOCK_RECORD
  5
18DF7
330
1
100
AcDbSymbolTableRecord
100
AcDbBlockTableRecord
  2
*D44
340
0
 70
     0
280
     1
281
     0
  0
BLOCK_RECORD
  5
18F8C
330
1
100
AcDbSymbolTableRecord
100
AcDbBlockTableRecord
  2
*D45
340
0
 70
     0
280
     1
281
     0
  0
BLOCK_RECORD
  5
18F94
330
1
100
AcDbSymbolTableRecord
100
AcDbBlockTableRecord
  2
*D46
340
0
 70
     0
280
     1
281
     0
  0
BLOCK_RECORD
  5
18F9C
330
1
100
AcDbSymbolTableRecord
100
AcDbBlockTableRecord
  2
*D47
340
0
 70
     0
280
     1
281
     0
  0
BLOCK_RECORD
  5
18FA8
330
1
100
AcDbSymbolTableRecord
100
AcDbBlockTableRecord
  2
*D48
340
0
 70
     0
280
     1
281
     0
  0
BLOCK_RECORD
  5
18FB4
330
1
100
AcDbSymbolTableRecord
100
AcDbBlockTableRecord
  2
*D49
340
0
 70
     0
280
     1
281
     0
  0
BLOCK_RECORD
  5
18FC0
330
1
100
AcDbSymbolTableRecord
100
AcDbBlockTableRecord
  2
*D50
340
0
 70
     0
280
     1
281
     0
  0
BLOCK_RECORD
  5
18FCC
330
1
100
AcDbSymbolTableRecord
100
AcDbBlockTableRecord
  2
*D51
340
0
 70
     0
280
     1
281
     0
  0
BLOCK_RECORD
  5
18FD8
330
1
100
AcDbSymbolTableRecord
100
AcDbBlockTableRecord
  2
*D52
340
0
 70
     0
280
     1
281
     0
  0
BLOCK_RECORD
  5
18FE4
330
1
100
AcDbSymbolTableRecord
100
AcDbBlockTableRecord
  2
*D53
340
0
 70
     0
280
     1
281
     0
  0
BLOCK_RECORD
  5
18FF0
330
1
100
AcDbSymbolTableRecord
100
AcDbBlockTableRecord
  2
*D54
340
0
 70
     0
280
     1
281
     0
  0
BLOCK_RECORD
  5
18FFC
330
1
100
AcDbSymbolTableRecord
100
AcDbBlockTableRecord
  2
*D55
340
0
 70
     0
280
     1
281
     0
  0
BLOCK_RECORD
  5
19008
330
1
100
AcDbSymbolTableRecord
100
AcDbBlockTableRecord
  2
*D56
340
0
 70
     0
280
     1
281
     0
  0
BLOCK_RECORD
  5
19014
330
1
100
AcDbSymbolTableRecord
100
AcDbBlockTableRecord
  2
*D57
340
0
 70
     0
280
     1
281
     0
  0
BLOCK_RECORD
  5
19020
330
1
100
AcDbSymbolTableRecord
100
AcDbBlockTableRecord
  2
*D58
340
0
 70
     0
280
     1
281
     0
  0
BLOCK_RECORD
  5
195F9
330
1
100
AcDbSymbolTableRecord
100
AcDbBlockTableRecord
  2
*D59
340
0
 70
     0
280
     1
281
     0
  0
BLOCK_RECORD
  5
1971A
330
1
100
AcDbSymbolTableRecord
100
AcDbBlockTableRecord
  2
*D60
340
0
 70
     0
280
     1
281
     0
  0
BLOCK_RECORD
  5
1980F
330
1
100
AcDbSymbolTableRecord
100
AcDbBlockTableRecord
  2
*D61
340
0
 70
     0
280
     1
281
     0
  0
BLOCK_RECORD
  5
19B8A
330
1
100
AcDbSymbolTableRecord
100
AcDbBlockTableRecord
  2
*D62
340
0
 70
     0
280
     1
281
     0
  0
BLOCK_RECORD
  5
19EDA
330
1
100
AcDbSymbolTableRecord
100
AcDbBlockTableRecord
  2
*D63
340
0
 70
     0
280
     1
281
     0
  0
BLOCK_RECORD
  5
1CCA1
330
1
100
AcDbSymbolTableRecord
100
AcDbBlockTableRecord
  2
*D64
340
0
 70
     0
280
     1
281
     0
  0
BLOCK_RECORD
  5
1CEF7
330
1
100
AcDbSymbolTableRecord
100
AcDbBlockTableRecord
  2
*D65
340
0
 70
     0
280
     1
281
     0
  0
BLOCK_RECORD
  5
1D11D
330
1
100
AcDbSymbolTableRecord
100
AcDbBlockTableRecord
  2
*D66
340
0
 70
     0
280
     1
281
     0
  0
BLOCK_RECORD
  5
1D777
330
1
100
AcDbSymbolTableRecord
100
AcDbBlockTableRecord
  2
*D67
340
0
 70
     0
280
     1
281
     0
  0
BLOCK_RECORD
  5
1DA99
330
1
100
AcDbSymbolTableRecord
100
AcDbBlockTableRecord
  2
*D68
340
0
 70
     0
280
     1
281
     0
  0
BLOCK_RECORD
  5
3B8E8
330
1
100
AcDbSymbolTableRecord
100
AcDbBlockTableRecord
  2
*D69
340
0
 70
     0
280
     1
281
     0
  0
BLOCK_RECORD
  5
3BC35
330
1
100
AcDbSymbolTableRecord
100
AcDbBlockTableRecord
  2
*D70
340
0
 70
     0
280
     1
281
     0
  0
BLOCK_RECORD
  5
3BDF0
330
1
100
AcDbSymbolTableRecord
100
AcDbBlockTableRecord
  2
*D71
340
0
 70
     0
280
     1
281
     0
  0
BLOCK_RECORD
  5
3BF75
330
1
100
AcDbSymbolTableRecord
100
AcDbBlockTableRecord
  2
*D72
340
0
 70
     0
280
     1
281
     0
  0
BLOCK_RECORD
  5
4BA03
330
1
100
AcDbSymbolTableRecord
100
AcDbBlockTableRecord
  2
*D73
340
0
 70
     0
280
     1
281
     0
  0
BLOCK_RECORD
  5
4BB0E
330
1
100
AcDbSymbolTableRecord
100
AcDbBlockTableRecord
  2
*D74
340
0
 70
     0
280
     1
281
     0
  0
BLOCK_RECORD
  5
4BB9C
330
1
100
AcDbSymbolTableRecord
100
AcDbBlockTableRecord
  2
*D75
340
0
 70
     0
280
     1
281
     0
  0
BLOCK_RECORD
  5
4BBAB
330
1
100
AcDbSymbolTableRecord
100
AcDbBlockTableRecord
  2
*D76
340
0
 70
     0
280
     1
281
     0
  0
BLOCK_RECORD
  5
4BBBA
330
1
100
AcDbSymbolTableRecord
100
AcDbBlockTableRecord
  2
*D77
340
0
 70
     0
280
     1
281
     0
  0
BLOCK_RECORD
  5
4BBCA
330
1
100
AcDbSymbolTableRecord
100
AcDbBlockTableRecord
  2
*D78
340
0
 70
     0
280
     1
281
     0
  0
BLOCK_RECORD
  5
4BD8A
330
1
100
AcDbSymbolTableRecord
100
AcDbBlockTableRecord
  2
*D79
340
0
 70
     0
280
     1
281
     0
  0
BLOCK_RECORD
  5
4BD99
330
1
100
AcDbSymbolTableRecord
100
AcDbBlockTableRecord
  2
*D80
340
0
 70
     0
280
     1
281
     0
  0
BLOCK_RECORD
  5
4BDA8
330
1
100
AcDbSymbolTableRecord
100
AcDbBlockTableRecord
  2
*D81
340
0
 70
     0
280
     1
281
     0
  0
BLOCK_RECORD
  5
4BDB7
330
1
100
AcDbSymbolTableRecord
100
AcDbBlockTableRecord
  2
*D82
340
0
 70
     0
280
     1
281
     0
  0
BLOCK_RECORD
  5
4BDC9
330
1
100
AcDbSymbolTableRecord
100
AcDbBlockTableRecord
  2
*D83
340
0
 70
     0
280
     1
281
     0
  0
BLOCK_RECORD
  5
4BDD8
330
1
100
AcDbSymbolTableRecord
100
AcDbBlockTableRecord
  2
*D84
340
0
 70
     0
280
     1
281
     0
  0
BLOCK_RECORD
  5
4BDE7
330
1
100
AcDbSymbolTableRecord
100
AcDbBlockTableRecord
  2
*D85
340
0
 70
     0
280
     1
281
     0
  0
BLOCK_RECORD
  5
4BE6F
330
1
100
AcDbSymbolTableRecord
100
AcDbBlockTableRecord
  2
*D86
340
0
 70
     0
280
     1
281
     0
  0
BLOCK_RECORD
  5
4BE7E
330
1
100
AcDbSymbolTableRecord
100
AcDbBlockTableRecord
  2
*D87
340
0
 70
     0
280
     1
281
     0
  0
BLOCK_RECORD
  5
4BED7
330
1
100
AcDbSymbolTableRecord
100
AcDbBlockTableRecord
  2
*D88
340
0
 70
     0
280
     1
281
     0
  0
BLOCK_RECORD
  5
4BEE3
330
1
100
AcDbSymbolTableRecord
100
AcDbBlockTableRecord
  2
*D89
340
0
 70
     0
280
     1
281
     0
  0
BLOCK_RECORD
  5
4BEF7
330
1
100
AcDbSymbolTableRecord
100
AcDbBlockTableRecord
  2
*D90
340
0
 70
     0
280
     1
281
     0
  0
BLOCK_RECORD
  5
4BF06
330
1
100
AcDbSymbolTableRecord
100
AcDbBlockTableRecord
  2
*D91
340
0
 70
     0
280
     1
281
     0
  0
BLOCK_RECORD
  5
4BF18
330
1
100
AcDbSymbolTableRecord
100
AcDbBlockTableRecord
  2
*D92
340
0
 70
     0
280
     1
281
     0
  0
ENDTAB
  0
ENDSEC
  0
SECTION
  2
BLOCKS
  0
BLOCK
  5
D
330
A
100
AcDbEntity
  8
0
390
1D
100
AcDbBlockBegin
  2
*MODEL_SPACE
 70
     0
 10
0.0
 20
0.0
 30
0.0
  3
*MODEL_SPACE
  1
*MODEL_SPACE
  0
ENDBLK
  5
E
330
A
100
AcDbEntity
  8
0
390
1D
100
AcDbBlockEnd
  0
BLOCK
  5
F
330
B
100
AcDbEntity
 67
     1
  8
0
390
1D
100
AcDbBlockBegin
  2
*PAPER_SPACE
 70
     0
 10
0.0
 20
0.0
 30
0.0
  3
*PAPER_SPACE
  1
*PAPER_SPACE
  0
ENDBLK
  5
10
330
B
100
AcDbEntity
 67
     1
  8
0
390
1D
100
AcDbBlockEnd
  0
BLOCK
  5
369F
330
4E
100
AcDbEntity
  8
0
390
1D
100
AcDbBlockBegin
  2
_DOT
 70
     0
 10
0.0
 20
0.0
 30
0.0
  3
_DOT
  1
_DOT
  0
POLYLINE
  5
36A1
330
4E
100
AcDbEntity
  8
0
  6
ByBlock
 62
     0
370
    -2
390
1D
100
AcDb2dPolyline
 66
     1
 10
0.0
 20
0.0
 30
0.0
 70
     1
 40
0.5
 41
0.5
  0
VERTEX
  5
36A2
330
36A1
100
AcDbEntity
  8
0
  6
ByBlock
 62
     0
370
    -2
390
1D
100
AcDbVertex
100
AcDb2dVertex
 10
-0.25
 20
0.0
 30
0.0
 42
1.0
  0
VERTEX
  5
36A3
330
36A1
100
AcDbEntity
  8
0
  6
ByBlock
 62
     0
370
    -2
390
1D
100
AcDbVertex
100
AcDb2dVertex
 10
0.25
 20
0.0
 30
0.0
 42
1.0
  0
SEQEND
  5
36A4
330
36A1
100
AcDbEntity
  8
0
390
1D
  0
LINE
  5
36A5
330
4E
100
AcDbEntity
  8
0
  6
ByBlock
 62
     0
370
    -2
390
1D
100
AcDbLine
 10
-0.5
 20
0.0
 30
0.0
 11
-1.0
 21
0.0
 31
0.0
  0
ENDBLK
  5
36A6
330
4E
100
AcDbEntity
  8
0
390
1D
100
AcDbBlockEnd
  0
BLOCK
  5
68E
330
68D
100
AcDbEntity
  8
0
100
AcDbBlockBegin
  2
block 2
 70
     0
 10
0.0
 20
0.0
 30
0.0
  3
block 2
  1
block 2
  0
ENDBLK
  5
6B0
330
68D
100
AcDbEntity
  8
0
100
AcDbBlockEnd
  0
BLOCK
  5
17321
330
17320
100
AcDbEntity
  8
0
100
AcDbBlockBegin
  2
*D2
 70
     1
 10
0.0
 20
0.0
 30
0.0
  3
*D2
  1

  0
LINE
  5
17323
330
17320
100
AcDbEntity
  8
DIM
 62
     0
370
    -2
100
AcDbLine
 10
405.9245501690548
 20
309.7529598971253
 30
0.0
 11
405.9245501690548
 21
297.8784471131835
 31
0.0
  0
LINE
  5
17324
330
17320
100
AcDbEntity
  8
DIM
 62
     0
370
    -2
100
AcDbLine
 10
370.465565794055
 20
307.7217551386165
 30
0.0
 11
370.465565794055
 21
297.8784471131835
 31
0.0
  0
LINE
  5
17325
330
17320
100
AcDbEntity
  8
DIM
 62
     0
370
    -2
100
AcDbLine
 10
402.9245501690548
 20
297.8784471131835
 30
0.0
 11
373.465565794055
 21
297.8784471131835
 31
0.0
  0
INSERT
  5
17326
330
17320
100
AcDbEntity
  8
DIM
 62
     0
370
    -2
100
AcDbBlockReference
  2
_DOT
 10
405.9245501690548
 20
297.8784471131835
 30
0.0
 41
3.0
 42
3.0
 43
3.0
  0
INSERT
  5
17327
330
17320
100
AcDbEntity
  8
DIM
 62
     0
370
    -2
100
AcDbBlockReference
  2
_DOT
 10
370.465565794055
 20
297.8784471131835
 30
0.0
 41
3.0
 42
3.0
 43
3.0
 50
180.0
  0
MTEXT
  5
17328
330
17320
100
AcDbEntity
  8
DIM
 62
     0
100
AcDbMText
 10
388.1950579815549
 20
307.8784471131835
 30
0.0
 40
8.0
 41
0.0
 46
0.0
 71
     5
 72
     1
  1
\A1;35
  7
ＭＳ ゴシック
 73
     1
 44
1.0
  0
POINT
  5
17329
330
17320
100
AcDbEntity
  8
Defpoints
 62
     0
100
AcDbPoint
 10
405.9245501690548
 20
319.7529598971253
 30
0.0
  0
POINT
  5
1732A
330
17320
100
AcDbEntity
  8
Defpoints
 62
     0
100
AcDbPoint
 10
370.465565794055
 20
317.7217551386165
 30
0.0
  0
POINT
  5
1732B
330
17320
100
AcDbEntity
  8
Defpoints
 62
     0
100
AcDbPoint
 10
370.465565794055
 20
297.8784471131835
 30
0.0
  0
ENDBLK
  5
17322
330
17320
100
AcDbEntity
  8
0
100
AcDbBlockEnd
  0
BLOCK
  5
17330
330
1732F
100
AcDbEntity
  8
0
100
AcDbBlockBegin
  2
*D3
 70
     1
 10
0.0
 20
0.0
 30
0.0
  3
*D3
  1

  0
LINE
  5
17332
330
1732F
100
AcDbEntity
  8
DIM
 62
     0
370
    -2
100
AcDbLine
 10
336.4182475173941
 20
457.0429158371509
 30
0.0
 11
315.1384266419193
 21
457.0429158371509
 31
0.0
  0
LINE
  5
17333
330
1732F
100
AcDbEntity
  8
DIM
 62
     0
370
    -2
100
AcDbLine
 10
331.4592515249408
 20
386.1825642746509
 30
0.0
 11
315.1384266419193
 21
386.1825642746509
 31
0.0
  0
LINE
  5
17334
330
1732F
100
AcDbEntity
  8
DIM
 62
     0
370
    -2
100
AcDbLine
 10
315.1384266419193
 20
454.0429158371509
 30
0.0
 11
315.1384266419193
 21
389.1825642746509
 31
0.0
  0
INSERT
  5
17335
330
1732F
100
AcDbEntity
  8
DIM
 62
     0
370
    -2
100
AcDbBlockReference
  2
_DOT
 10
315.1384266419193
 20
457.0429158371509
 30
0.0
 41
3.0
 42
3.0
 43
3.0
 50
90.0
  0
INSERT
  5
17336
330
1732F
100
AcDbEntity
  8
DIM
 62
     0
370
    -2
100
AcDbBlockReference
  2
_DOT
 10
315.1384266419193
 20
386.1825642746509
 30
0.0
 41
3.0
 42
3.0
 43
3.0
 50
270.0
  0
MTEXT
  5
17337
330
1732F
100
AcDbEntity
  8
DIM
 62
     0
100
AcDbMText
 10
305.1384266419193
 20
421.6127400559009
 30
0.0
 40
8.0
 41
0.0
 46
0.0
 71
     5
 72
     1
  1
\A1;71
  7
ＭＳ ゴシック
 11
0.0
 21
1.0
 31
0.0
 73
     1
 44
1.0
  0
POINT
  5
17338
330
1732F
100
AcDbEntity
  8
Defpoints
 62
     0
100
AcDbPoint
 10
346.4182475173941
 20
457.0429158371509
 30
0.0
  0
POINT
  5
17339
330
1732F
100
AcDbEntity
  8
Defpoints
 62
     0
100
AcDbPoint
 10
341.4592515249408
 20
386.1825642746509
 30
0.0
  0
POINT
  5
1733A
330
1732F
100
AcDbEntity
  8
Defpoints
 62
     0
100
AcDbPoint
 10
315.1384266419193
 20
386.1825642746509
 30
0.0
  0
ENDBLK
  5
17331
330
1732F
100
AcDbEntity
  8
0
100
AcDbBlockEnd
  0
BLOCK
  5
173A7
330
173A6
100
AcDbEntity
  8
0
100
AcDbBlockBegin
  2
*D4
 70
     1
 10
0.0
 20
0.0
 30
0.0
  3
*D4
  1

  0
LINE
  5
173A8
330
173A6
100
AcDbEntity
  8
DIM
 62
     0
370
    -2
100
AcDbLine
 10
1.0
 20
135.0035410091185
 30
0.0
 11
1.0
 21
195.1497860279634
 31
0.0
  0
LINE
  5
173A9
330
173A6
100
AcDbEntity
  8
DIM
 62
     0
370
    -2
100
AcDbLine
 10
115.1779939209723
 20
135.0035410091185
 30
0.0
 11
115.1779939209723
 21
195.1497860279634
 31
0.0
  0
LINE
  5
173AA
330
173A6
100
AcDbEntity
  8
DIM
 62
     0
370
    -2
100
AcDbLine
 10
4.0
 20
195.1497860279634
 30
0.0
 11
112.1779939209723
 21
195.1497860279634
 31
0.0
  0
INSERT
  5
173AB
330
173A6
100
AcDbEntity
  8
DIM
 62
     0
370
    -2
100
AcDbBlockReference
  2
_DOT
 10
1.0
 20
195.1497860279634
 30
0.0
 41
3.0
 42
3.0
 43
3.0
 50
180.0
  0
INSERT
  5
173AC
330
173A6
100
AcDbEntity
  8
DIM
 62
     0
370
    -2
100
AcDbBlockReference
  2
_DOT
 10
115.1779939209723
 20
195.1497860279634
 30
0.0
 41
3.0
 42
3.0
 43
3.0
  0
MTEXT
  5
173AD
330
173A6
100
AcDbEntity
  8
DIM
 62
     0
100
AcDbMText
 10
58.08899696048616
 20
205.1497860279634
 30
0.0
 40
8.0
 41
0.0
 46
0.0
 71
     5
 72
     1
  1
\A1;114
  7
ＭＳ ゴシック
 73
     1
 44
1.0
  0
POINT
  5
173AE
330
173A6
100
AcDbEntity
  8
Defpoints
 62
     0
100
AcDbPoint
 10
1.0
 20
125.0035410091185
 30
0.0
  0
POINT
  5
173AF
330
173A6
100
AcDbEntity
  8
Defpoints
 62
     0
100
AcDbPoint
 10
115.1779939209723
 20
125.0035410091185
 30
0.0
  0
POINT
  5
173B0
330
173A6
100
AcDbEntity
  8
Defpoints
 62
     0
100
AcDbPoint
 10
115.1779939209723
 20
195.1497860279634
 30
0.0
  0
ENDBLK
  5
173B1
330
173A6
100
AcDbEntity
  8
0
100
AcDbBlockEnd
  0
BLOCK
  5
173B6
330
173B5
100
AcDbEntity
  8
0
100
AcDbBlockBegin
  2
*D5
 70
     1
 10
0.0
 20
0.0
 30
0.0
  3
*D5
  1

  0
LINE
  5
173B7
330
173B5
100
AcDbEntity
  8
DIM
 62
     0
370
    -2
100
AcDbLine
 10
20.20208557550177
 20
115.0035410091185
 30
0.0
 11
20.20208557550177
 21
38.30487537993926
 31
0.0
  0
LINE
  5
173B8
330
173B5
100
AcDbEntity
  8
DIM
 62
     0
370
    -2
100
AcDbLine
 10
95.97590834547054
 20
115.0035410091185
 30
0.0
 11
95.97590834547054
 21
38.30487537993926
 31
0.0
  0
LINE
  5
173B9
330
173B5
100
AcDbEntity
  8
DIM
 62
     0
370
    -2
100
AcDbLine
 10
23.20208557550177
 20
38.30487537993926
 30
0.0
 11
92.97590834547054
 21
38.30487537993926
 31
0.0
  0
INSERT
  5
173BA
330
173B5
100
AcDbEntity
  8
DIM
 62
     0
370
    -2
100
AcDbBlockReference
  2
_DOT
 10
20.20208557550177
 20
38.30487537993926
 30
0.0
 41
3.0
 42
3.0
 43
3.0
 50
180.0
  0
INSERT
  5
173BB
330
173B5
100
AcDbEntity
  8
DIM
 62
     0
370
    -2
100
AcDbBlockReference
  2
_DOT
 10
95.97590834547054
 20
38.30487537993926
 30
0.0
 41
3.0
 42
3.0
 43
3.0
  0
MTEXT
  5
173BC
330
173B5
100
AcDbEntity
  8
DIM
 62
     0
100
AcDbMText
 10
58.08899696048616
 20
48.30487537993926
 30
0.0
 40
8.0
 41
0.0
 46
0.0
 71
     5
 72
     1
  1
\A1;76
  7
ＭＳ ゴシック
 73
     1
 44
1.0
  0
POINT
  5
173BD
330
173B5
100
AcDbEntity
  8
Defpoints
 62
     0
100
AcDbPoint
 10
20.20208557550177
 20
125.0035410091185
 30
0.0
  0
POINT
  5
173BE
330
173B5
100
AcDbEntity
  8
Defpoints
 62
     0
100
AcDbPoint
 10
95.97590834547054
 20
125.0035410091185
 30
0.0
  0
POINT
  5
173BF
330
173B5
100
AcDbEntity
  8
Defpoints
 62
     0
100
AcDbPoint
 10
95.97590834547054
 20
38.30487537993926
 30
0.0
  0
ENDBLK
  5
173C0
330
173B5
100
AcDbEntity
  8
0
100
AcDbBlockEnd
  0
BLOCK
  5
173D3
330
173D2
100
AcDbEntity
  8
0
100
AcDbBlockBegin
  2
*D6
 70
     1
 10
0.0
 20
0.0
 30
0.0
  3
*D6
  1

  0
LINE
  5
173D5
330
173D2
100
AcDbEntity
  8
DIM
 62
     0
370
    -2
100
AcDbLine
 10
228.7947264437692
 20
485.5501747355622
 30
0.0
 11
228.7947264437692
 21
580.7695422638294
 31
0.0
  0
LINE
  5
173D6
330
173D2
100
AcDbEntity
  8
DIM
 62
     0
370
    -2
100
AcDbLine
 10
400.0617173252274
 20
485.5501747355622
 30
0.0
 11
400.0617173252274
 21
580.7695422638294
 31
0.0
  0
LINE
  5
173D7
330
173D2
100
AcDbEntity
  8
DIM
 62
     0
370
    -2
100
AcDbLine
 10
231.7947264437692
 20
580.7695422638294
 30
0.0
 11
397.0617173252274
 21
580.7695422638294
 31
0.0
  0
INSERT
  5
173D8
330
173D2
100
AcDbEntity
  8
DIM
 62
     0
370
    -2
100
AcDbBlockReference
  2
_DOT
 10
228.7947264437692
 20
580.7695422638294
 30
0.0
 41
3.0
 42
3.0
 43
3.0
 50
180.0
  0
INSERT
  5
173D9
330
173D2
100
AcDbEntity
  8
DIM
 62
     0
370
    -2
100
AcDbBlockReference
  2
_DOT
 10
400.0617173252274
 20
580.7695422638294
 30
0.0
 41
3.0
 42
3.0
 43
3.0
  0
MTEXT
  5
173DA
330
173D2
100
AcDbEntity
  8
DIM
 62
     0
100
AcDbMText
 10
314.4282218844983
 20
590.7695422638294
 30
0.0
 40
8.0
 41
0.0
 46
0.0
 71
     5
 72
     1
  1
\A1;171
  7
ＭＳ ゴシック
 73
     1
 44
1.0
  0
POINT
  5
173DB
330
173D2
100
AcDbEntity
  8
Defpoints
 62
     0
100
AcDbPoint
 10
228.7947264437692
 20
475.5501747355622
 30
0.0
  0
POINT
  5
173DC
330
173D2
100
AcDbEntity
  8
Defpoints
 62
     0
100
AcDbPoint
 10
400.0617173252274
 20
475.5501747355622
 30
0.0
  0
POINT
  5
173DD
330
173D2
100
AcDbEntity
  8
Defpoints
 62
     0
100
AcDbPoint
 10
400.0617173252274
 20
580.7695422638294
 30
0.0
  0
ENDBLK
  5
173D4
330
173D2
100
AcDbEntity
  8
0
100
AcDbBlockEnd
  0
BLOCK
  5
173DF
330
173DE
100
AcDbEntity
  8
0
100
AcDbBlockBegin
  2
*D7
 70
     1
 10
0.0
 20
0.0
 30
0.0
  3
*D7
  1

  0
LINE
  5
173E1
330
173DE
100
AcDbEntity
  8
DIM
 62
     0
370
    -2
100
AcDbLine
 10
257.5978548070218
 20
465.5501747355622
 30
0.0
 11
257.5978548070218
 21
345.5021762917933
 31
0.0
  0
LINE
  5
173E2
330
173DE
100
AcDbEntity
  8
DIM
 62
     0
370
    -2
100
AcDbLine
 10
371.2585889619747
 20
465.5501747355622
 30
0.0
 11
371.2585889619747
 21
345.5021762917933
 31
0.0
  0
LINE
  5
173E3
330
173DE
100
AcDbEntity
  8
DIM
 62
     0
370
    -2
100
AcDbLine
 10
260.5978548070218
 20
345.5021762917933
 30
0.0
 11
368.2585889619747
 21
345.5021762917933
 31
0.0
  0
INSERT
  5
173E4
330
173DE
100
AcDbEntity
  8
DIM
 62
     0
370
    -2
100
AcDbBlockReference
  2
_DOT
 10
257.5978548070218
 20
345.5021762917933
 30
0.0
 41
3.0
 42
3.0
 43
3.0
 50
180.0
  0
INSERT
  5
173E5
330
173DE
100
AcDbEntity
  8
DIM
 62
     0
370
    -2
100
AcDbBlockReference
  2
_DOT
 10
371.2585889619747
 20
345.5021762917933
 30
0.0
 41
3.0
 42
3.0
 43
3.0
  0
MTEXT
  5
173E6
330
173DE
100
AcDbEntity
  8
DIM
 62
     0
100
AcDbMText
 10
314.4282218844983
 20
355.5021762917933
 30
0.0
 40
8.0
 41
0.0
 46
0.0
 71
     5
 72
     1
  1
\A1;114
  7
ＭＳ ゴシック
 73
     1
 44
1.0
  0
POINT
  5
173E7
330
173DE
100
AcDbEntity
  8
Defpoints
 62
     0
100
AcDbPoint
 10
257.5978548070218
 20
475.5501747355622
 30
0.0
  0
POINT
  5
173E8
330
173DE
100
AcDbEntity
  8
Defpoints
 62
     0
100
AcDbPoint
 10
371.2585889619747
 20
475.5501747355622
 30
0.0
  0
POINT
  5
173E9
330
173DE
100
AcDbEntity
  8
Defpoints
 62
     0
100
AcDbPoint
 10
371.2585889619747
 20
345.5021762917933
 30
0.0
  0
ENDBLK
  5
173E0
330
173DE
100
AcDbEntity
  8
0
100
AcDbBlockEnd
  0
BLOCK
  5
1754A
330
17549
100
AcDbEntity
  8
0
100
AcDbBlockBegin
  2
*D8
 70
     1
 10
0.0
 20
0.0
 30
0.0
  3
*D8
  1

  0
LINE
  5
1754C
330
17549
100
AcDbEntity
  8
DIM
 62
     0
370
    -2
100
AcDbLine
 10
341.6454557578078
 20
622.1225633307629
 30
0.0
 11
404.5596742679407
 21
671.4274364809719
 31
0.0
  0
MTEXT
  5
1754D
330
17549
100
AcDbEntity
  8
DIM
 62
     0
100
AcDbMText
 10
390.198715287876
 20
672.8798503558534
 30
0.0
 40
8.0
 41
0.0
 46
0.0
 71
     5
 72
     1
  1
\A1;16
  7
ＭＳ ゴシック
 11
0.7870940051534154
 21
0.6168330625473601
 31
0.0
 73
     1
 44
1.0
  0
INSERT
  5
1754E
330
17549
100
AcDbEntity
  8
DIM
 62
     0
370
    -2
100
AcDbBlockReference
  2
_DOT
 10
339.2841737423475
 20
620.2720641431208
 30
0.0
 41
3.0
 42
3.0
 43
3.0
 50
218.0852349539064
  0
POINT
  5
1754F
330
17549
100
AcDbEntity
  8
Defpoints
 62
     0
100
AcDbPoint
 10
339.2841737423475
 20
620.2720641431208
 30
0.0
  0
POINT
  5
17550
330
17549
100
AcDbEntity
  8
Defpoints
 62
     0
100
AcDbPoint
 10
326.8166047007174
 20
610.5014284323706
 30
0.0
  0
ENDBLK
  5
1754B
330
17549
100
AcDbEntity
  8
0
100
AcDbBlockEnd
  0
BLOCK
  5
17555
330
17554
100
AcDbEntity
  8
0
100
AcDbBlockBegin
  2
*D9
 70
     1
 10
0.0
 20
0.0
 30
0.0
  3
*D9
  1

  0
LINE
  5
17557
330
17554
100
AcDbEntity
  8
DIM
 62
     0
370
    -2
100
AcDbLine
 10
347.5703756368899
 20
615.3668843182141
 30
0.0
 11
441.6537646295605
 21
615.2381871313073
 31
0.0
  0
MTEXT
  5
17558
330
17554
100
AcDbEntity
  8
DIM
 62
     0
100
AcDbMText
 10
431.0177120343959
 20
625.2542461662746
 30
0.0
 40
8.0
 41
0.0
 46
0.0
 71
     5
 72
     1
  1
\A1;23
  7
ＭＳ ゴシック
 11
0.9999990644185606
 21
-0.001367904237698567
 31
0.0
 73
     1
 44
1.0
  0
INSERT
  5
17559
330
17554
100
AcDbEntity
  8
DIM
 62
     0
370
    -2
100
AcDbBlockReference
  2
_DOT
 10
344.5703784436342
 20
615.3709880309273
 30
0.0
 41
3.0
 42
3.0
 43
3.0
 50
179.9216248359597
  0
POINT
  5
1755A
330
17554
100
AcDbEntity
  8
Defpoints
 62
     0
100
AcDbPoint
 10
344.5703784436342
 20
615.3709880309273
 30
0.0
  0
POINT
  5
1755B
330
17554
100
AcDbEntity
  8
Defpoints
 62
     0
100
AcDbPoint
 10
321.5303999994306
 20
615.4025045445638
 30
0.0
  0
ENDBLK
  5
17556
330
17554
100
AcDbEntity
  8
0
100
AcDbBlockEnd
  0
BLOCK
  5
17589
330
17588
100
AcDbEntity
  8
0
100
AcDbBlockBegin
  2
_D
 70
     0
 10
0.0
 20
0.0
 30
0.0
  3
_D
  1

  0
LINE
  5
1758A
330
17588
100
AcDbEntity
  8
注释
 62
     0
370
    -2
100
AcDbLine
 10
44.21303339613382
 20
112.4490468663911
 30
0.0
 11
3.222669174806822
 21
112.4490468663909
 31
0.0
  0
LINE
  5
1758B
330
17588
100
AcDbEntity
  8
注释
 62
     0
370
    -2
100
AcDbLine
 10
44.29636672946717
 20
50.449046866391
 30
0.0
 11
3.22266917480701
 21
50.44904686639084
 31
0.0
  0
LINE
  5
1758C
330
17588
100
AcDbEntity
  8
注释
 62
     0
370
    -2
100
AcDbLine
 10
3.222669174806829
 20
109.9490468663909
 30
0.0
 11
3.222669174807003
 21
52.94904686639084
 31
0.0
  0
SOLID
  5
1758D
330
17588
100
AcDbEntity
  8
注释
 62
     0
100
AcDbTrace
 10
3.639335841473496
 20
109.9490468663909
 30
0.0
 11
2.806002508140163
 21
109.9490468663909
 31
0.0
 12
3.222669174806822
 22
112.4490468663909
 32
0.0
 13
3.222669174806822
 23
112.4490468663909
 33
0.0
  0
SOLID
  5
1758E
330
17588
100
AcDbEntity
  8
注释
 62
     0
100
AcDbTrace
 10
2.806002508140336
 20
52.94904686639084
 30
0.0
 11
3.639335841473669
 21
52.94904686639084
 31
0.0
 12
3.22266917480701
 22
50.44904686639084
 32
0.0
 13
3.22266917480701
 23
50.44904686639084
 33
0.0
  0
MTEXT
  5
1758F
330
17588
100
AcDbEntity
  8
注释
 62
     0
100
AcDbMText
 10
0.0976691748069101
 20
83.4461839583031
 30
0.0
 40
2.5
 41
0.0
 46
0.0
 71
     2
 72
     1
  1
\A1;186
  7
SLDTEXTSTYLE0
 11
-3.044159906230264E-15
 21
1.0
 31
0.0
 73
     1
 44
1.0
  0
POINT
  5
175F2
330
17588
100
AcDbEntity
  8
Defpoints
 62
     0
100
AcDbPoint
 10
44.27553339613382
 20
112.4490468663911
 30
0.0
  0
POINT
  5
175F3
330
17588
100
AcDbEntity
  8
Defpoints
 62
     0
100
AcDbPoint
 10
44.35886672946717
 20
50.449046866391
 30
0.0
  0
POINT
  5
175F4
330
17588
100
AcDbEntity
  8
Defpoints
 62
     0
100
AcDbPoint
 10
3.22266917480691
 20
50.44904686639084
 30
0.0
  0
ENDBLK
  5
17590
330
17588
100
AcDbEntity
  8
0
100
AcDbBlockEnd
  0
BLOCK
  5
17593
330
17592
100
AcDbEntity
  8
0
100
AcDbBlockBegin
  2
_D_1
 70
     0
 10
0.0
 20
0.0
 30
0.0
  3
_D_1
  1

  0
LINE
  5
17594
330
17592
100
AcDbEntity
  8
注释
 62
     0
370
    -2
100
AcDbLine
 10
16.35886672946714
 20
78.38654686639109
 30
0.0
 11
16.35886672946714
 21
40.449046866391
 31
0.0
  0
LINE
  5
17595
330
17592
100
AcDbEntity
  8
注释
 62
     0
370
    -2
100
AcDbLine
 10
72.35886672946718
 20
78.386546866391
 30
0.0
 11
72.35886672946718
 21
40.449046866391
 31
0.0
  0
LINE
  5
17596
330
17592
100
AcDbEntity
  8
注释
 62
     0
370
    -2
100
AcDbLine
 10
18.85886672946714
 20
40.449046866391
 30
0.0
 11
69.85886672946718
 21
40.449046866391
 31
0.0
  0
SOLID
  5
17597
330
17592
100
AcDbEntity
  8
注释
 62
     0
100
AcDbTrace
 10
18.85886672946714
 20
40.86571353305767
 30
0.0
 11
18.85886672946714
 21
40.03238019972434
 31
0.0
 12
16.35886672946714
 22
40.449046866391
 32
0.0
 13
16.35886672946714
 23
40.449046866391
 33
0.0
  0
SOLID
  5
17598
330
17592
100
AcDbEntity
  8
注释
 62
     0
100
AcDbTrace
 10
69.85886672946718
 20
40.03238019972434
 30
0.0
 11
69.85886672946718
 21
40.86571353305767
 31
0.0
 12
72.35886672946718
 22
40.449046866391
 32
0.0
 13
72.35886672946718
 23
40.449046866391
 33
0.0
  0
MTEXT
  5
17599
330
17592
100
AcDbEntity
  8
注释
 62
     0
100
AcDbMText
 10
44.22610543605225
 20
43.574046866391
 30
0.0
 40
2.5
 41
0.0
 46
0.0
 71
     2
 72
     1
  1
\A1;%%c168
  7
SLDTEXTSTYLE0
 73
     1
 44
1.0
  0
POINT
  5
1759A
330
17592
100
AcDbEntity
  8
Defpoints
 62
     0
100
AcDbPoint
 10
16.35886672946714
 20
78.44904686639109
 30
0.0
  0
POINT
  5
175F5
330
17592
100
AcDbEntity
  8
Defpoints
 62
     0
100
AcDbPoint
 10
72.35886672946718
 20
78.449046866391
 30
0.0
  0
POINT
  5
175F6
330
17592
100
AcDbEntity
  8
Defpoints
 62
     0
100
AcDbPoint
 10
72.35886672946718
 20
40.449046866391
 30
0.0
  0
ENDBLK
  5
1759B
330
17592
100
AcDbEntity
  8
0
100
AcDbBlockEnd
  0
BLOCK
  5
175B3
330
175B2
100
AcDbEntity
  8
0
100
AcDbBlockBegin
  2
_D_2
 70
     0
 10
0.0
 20
0.0
 30
0.0
  3
_D_2
  1

  0
LINE
  5
175B4
330
175B2
100
AcDbEntity
  8
注释
 62
     0
370
    -2
100
AcDbLine
 10
51.60886672946715
 20
11.72916666666666
 30
0.0
 11
51.60886672946715
 21
16.08263247388291
 31
0.0
  0
LINE
  5
175B5
330
175B2
100
AcDbEntity
  8
注释
 62
     0
370
    -2
100
AcDbLine
 10
36.9422000628005
 20
11.72916666666666
 30
0.0
 11
36.9422000628005
 21
16.08263247388291
 31
0.0
  0
LINE
  5
175B6
330
175B2
100
AcDbEntity
  8
注释
 62
     0
370
    -2
100
AcDbLine
 10
49.10886672946715
 20
16.08263247388291
 30
0.0
 11
39.4422000628005
 21
16.08263247388291
 31
0.0
  0
SOLID
  5
175B7
330
175B2
100
AcDbEntity
  8
注释
 62
     0
100
AcDbTrace
 10
49.10886672946715
 20
15.66596580721624
 30
0.0
 11
49.10886672946715
 21
16.49929914054958
 31
0.0
 12
51.60886672946715
 22
16.08263247388291
 32
0.0
 13
51.60886672946715
 23
16.08263247388291
 33
0.0
  0
SOLID
  5
175B8
330
175B2
100
AcDbEntity
  8
注释
 62
     0
100
AcDbTrace
 10
39.4422000628005
 20
16.49929914054958
 30
0.0
 11
39.4422000628005
 21
15.66596580721624
 31
0.0
 12
36.9422000628005
 22
16.08263247388291
 32
0.0
 13
36.9422000628005
 23
16.08263247388291
 33
0.0
  0
MTEXT
  5
175B9
330
175B2
100
AcDbEntity
  8
注释
 62
     0
100
AcDbMText
 10
43.29407778180585
 20
19.20763247388291
 30
0.0
 40
2.5
 41
0.0
 46
0.0
 71
     2
 72
     1
  1
\A1;%%c44
  7
SLDTEXTSTYLE0
 73
     1
 44
1.0
  0
POINT
  5
175BA
330
175B2
100
AcDbEntity
  8
Defpoints
 62
     0
100
AcDbPoint
 10
51.60886672946715
 20
11.66666666666666
 30
0.0
  0
POINT
  5
175F7
330
175B2
100
AcDbEntity
  8
Defpoints
 62
     0
100
AcDbPoint
 10
36.9422000628005
 20
11.66666666666666
 30
0.0
  0
POINT
  5
175F8
330
175B2
100
AcDbEntity
  8
Defpoints
 62
     0
100
AcDbPoint
 10
36.9422000628005
 20
16.08263247388291
 30
0.0
  0
ENDBLK
  5
175BB
330
175B2
100
AcDbEntity
  8
0
100
AcDbBlockEnd
  0
BLOCK
  5
175DD
330
175DC
100
AcDbEntity
  8
0
100
AcDbBlockBegin
  2
_D_3
 70
     0
 10
0.0
 20
0.0
 30
0.0
  3
_D_3
  1

  0
LINE
  5
175DE
330
175DC
100
AcDbEntity
  8
注释
 62
     0
370
    -2
100
AcDbLine
 10
111.8144252154851
 20
112.5115468663911
 30
0.0
 11
111.8144252154851
 21
118.7042583458507
 31
0.0
  0
LINE
  5
175DF
330
175DC
100
AcDbEntity
  8
注释
 62
     0
370
    -2
100
AcDbLine
 10
123.4810918821517
 20
108.1782135330578
 30
0.0
 11
123.4810918821517
 21
118.7042583458507
 31
0.0
  0
LINE
  5
175E0
330
175DC
100
AcDbEntity
  8
注释
 62
     0
370
    -2
100
AcDbLine
 10
114.3144252154851
 20
118.7042583458507
 30
0.0
 11
120.9810918821517
 21
118.7042583458507
 31
0.0
  0
SOLID
  5
175E1
330
175DC
100
AcDbEntity
  8
注释
 62
     0
100
AcDbTrace
 10
114.3144252154851
 20
119.1209250125174
 30
0.0
 11
114.3144252154851
 21
118.287591679184
 31
0.0
 12
111.8144252154851
 22
118.7042583458507
 32
0.0
 13
111.8144252154851
 23
118.7042583458507
 33
0.0
  0
SOLID
  5
175E2
330
175DC
100
AcDbEntity
  8
注释
 62
     0
100
AcDbTrace
 10
120.9810918821517
 20
118.287591679184
 30
0.0
 11
120.9810918821517
 21
119.1209250125174
 31
0.0
 12
123.4810918821517
 22
118.7042583458507
 32
0.0
 13
123.4810918821517
 23
118.7042583458507
 33
0.0
  0
MTEXT
  5
175E3
330
175DC
100
AcDbEntity
  8
注释
 62
     0
100
AcDbMText
 10
117.1769933955
 20
121.8292583458507
 30
0.0
 40
2.5
 41
0.0
 46
0.0
 71
     2
 72
     1
  1
\A1;35
  7
SLDTEXTSTYLE0
 73
     1
 44
1.0
  0
POINT
  5
175F9
330
175DC
100
AcDbEntity
  8
Defpoints
 62
     0
100
AcDbPoint
 10
111.8144252154851
 20
112.4490468663911
 30
0.0
  0
POINT
  5
175FA
330
175DC
100
AcDbEntity
  8
Defpoints
 62
     0
100
AcDbPoint
 10
123.4810918821517
 20
108.1157135330578
 30
0.0
  0
POINT
  5
175FB
330
175DC
100
AcDbEntity
  8
Defpoints
 62
     0
100
AcDbPoint
 10
123.4810918821517
 20
118.7042583458507
 30
0.0
  0
ENDBLK
  5
175E4
330
175DC
100
AcDbEntity
  8
0
100
AcDbBlockEnd
  0
BLOCK
  5
175E7
330
175E6
100
AcDbEntity
  8
0
100
AcDbBlockBegin
  2
_D_4
 70
     0
 10
0.0
 20
0.0
 30
0.0
  3
_D_4
  1

  0
LINE
  5
175E8
330
175E6
100
AcDbEntity
  8
注释
 62
     0
370
    -2
100
AcDbLine
 10
119.8144252154851
 20
51.8448801997244
 30
0.0
 11
119.8144252154851
 21
59.76658369274139
 31
0.0
  0
LINE
  5
175E9
330
175E6
100
AcDbEntity
  8
注释
 62
     0
370
    -2
100
AcDbLine
 10
122.4810918821517
 20
51.8448801997244
 30
0.0
 11
122.4810918821517
 21
59.76658369274139
 31
0.0
  0
LINE
  5
175EA
330
175E6
100
AcDbEntity
  8
注释
 62
     0
370
    -2
100
AcDbLine
 10
119.8144252154851
 20
59.76658369274139
 30
0.0
 11
110.4394252154851
 21
59.76658369274139
 31
0.0
  0
LINE
  5
175EB
330
175E6
100
AcDbEntity
  8
注释
 62
     0
370
    -2
100
AcDbLine
 10
119.8144252154851
 20
59.76658369274139
 30
0.0
 11
122.4810918821517
 21
59.76658369274139
 31
0.0
  0
LINE
  5
175EC
330
175E6
100
AcDbEntity
  8
注释
 62
     0
370
    -2
100
AcDbLine
 10
117.3144252154851
 20
59.76658369274139
 30
0.0
 11
114.8144252154851
 21
59.76658369274139
 31
0.0
  0
LINE
  5
175ED
330
175E6
100
AcDbEntity
  8
注释
 62
     0
370
    -2
100
AcDbLine
 10
124.9810918821517
 20
59.76658369274139
 30
0.0
 11
127.4810918821517
 21
59.76658369274139
 31
0.0
  0
SOLID
  5
175EE
330
175E6
100
AcDbEntity
  8
注释
 62
     0
100
AcDbTrace
 10
117.3144252154851
 20
59.34991702607473
 30
0.0
 11
117.3144252154851
 21
60.18325035940806
 31
0.0
 12
119.8144252154851
 22
59.76658369274139
 32
0.0
 13
119.8144252154851
 23
59.76658369274139
 33
0.0
  0
SOLID
  5
175FC
330
175E6
100
AcDbEntity
  8
注释
 62
     0
100
AcDbTrace
 10
124.9810918821517
 20
60.18325035940806
 30
0.0
 11
124.9810918821517
 21
59.34991702607473
 31
0.0
 12
122.4810918821517
 22
59.76658369274139
 32
0.0
 13
122.4810918821517
 23
59.76658369274139
 33
0.0
  0
MTEXT
  5
175FD
330
175E6
100
AcDbEntity
  8
注释
 62
     0
100
AcDbMText
 10
112.6269252154851
 20
62.89158369274139
 30
0.0
 40
2.5
 41
0.0
 46
0.0
 71
     2
 72
     1
  1
\A1;%%c8
  7
SLDTEXTSTYLE0
 73
     1
 44
1.0
  0
POINT
  5
175FE
330
175E6
100
AcDbEntity
  8
Defpoints
 62
     0
100
AcDbPoint
 10
119.8144252154851
 20
51.7823801997244
 30
0.0
  0
POINT
  5
175FF
330
175E6
100
AcDbEntity
  8
Defpoints
 62
     0
100
AcDbPoint
 10
122.4810918821517
 20
51.7823801997244
 30
0.0
  0
POINT
  5
17600
330
175E6
100
AcDbEntity
  8
Defpoints
 62
     0
100
AcDbPoint
 10
122.4810918821517
 20
59.76658369274139
 30
0.0
  0
ENDBLK
  5
175EF
330
175E6
100
AcDbEntity
  8
0
100
AcDbBlockEnd
  0
BLOCK
  5
17650
330
1764F
100
AcDbEntity
  8
0
100
AcDbBlockBegin
  2
*D15
 70
     1
 10
0.0
 20
0.0
 30
0.0
  3
*D15
  1

  0
LINE
  5
17652
330
1764F
100
AcDbEntity
  8
注释
 62
     0
370
    -2
100
AcDbLine
 10
262.9639148242098
 20
637.0043025621146
 30
0.0
 11
139.8678221602289
 21
637.0043025621142
 31
0.0
  0
LINE
  5
17653
330
1764F
100
AcDbEntity
  8
注释
 62
     0
370
    -2
100
AcDbLine
 10
263.2139148242098
 20
451.0043025621144
 30
0.0
 11
139.8678221602295
 21
451.0043025621139
 31
0.0
  0
LINE
  5
17654
330
1764F
100
AcDbEntity
  8
注释
 62
     0
370
    -2
100
AcDbLine
 10
139.8678221602289
 20
634.5043025621142
 30
0.0
 11
139.8678221602295
 21
453.5043025621139
 31
0.0
  0
SOLID
  5
17655
330
1764F
100
AcDbEntity
  8
注释
 62
     0
100
AcDbTrace
 10
140.2844888268955
 20
634.5043025621142
 30
0.0
 11
139.4511554935622
 21
634.5043025621142
 31
0.0
 12
139.8678221602289
 22
637.0043025621142
 32
0.0
 13
139.8678221602289
 23
637.0043025621142
 33
0.0
  0
SOLID
  5
17656
330
1764F
100
AcDbEntity
  8
注释
 62
     0
100
AcDbTrace
 10
139.4511554935628
 20
453.5043025621139
 30
0.0
 11
140.2844888268961
 21
453.5043025621139
 31
0.0
 12
139.8678221602295
 22
451.0043025621139
 32
0.0
 13
139.8678221602295
 23
451.0043025621139
 33
0.0
  0
MTEXT
  5
17657
330
1764F
100
AcDbEntity
  8
注释
 62
     0
100
AcDbMText
 10
136.7428221602291
 20
549.9957138378506
 30
0.0
 40
2.5
 41
0.0
 46
0.0
 71
     2
 72
     1
  1
\A1;558
  7
SLDTEXTSTYLE0
 11
-3.056097788215481E-15
 21
1.0
 31
0.0
 73
     1
 44
1.0
  0
POINT
  5
17658
330
1764F
100
AcDbEntity
  8
Defpoints
 62
     0
100
AcDbPoint
 10
263.0264148242098
 20
637.0043025621146
 30
0.0
  0
POINT
  5
17659
330
1764F
100
AcDbEntity
  8
Defpoints
 62
     0
100
AcDbPoint
 10
263.2764148242098
 20
451.0043025621144
 30
0.0
  0
POINT
  5
1765A
330
1764F
100
AcDbEntity
  8
Defpoints
 62
     0
100
AcDbPoint
 10
139.8678221602294
 20
451.0043025621139
 30
0.0
  0
ENDBLK
  5
17651
330
1764F
100
AcDbEntity
  8
0
100
AcDbBlockEnd
  0
BLOCK
  5
1765C
330
1765B
100
AcDbEntity
  8
0
100
AcDbBlockBegin
  2
*D16
 70
     1
 10
0.0
 20
0.0
 30
0.0
  3
*D16
  1

  0
LINE
  5
1765E
330
1765B
100
AcDbEntity
  8
注释
 62
     0
370
    -2
100
AcDbLine
 10
179.2764148242098
 20
534.9418025621146
 30
0.0
 11
179.2764148242098
 21
421.0043025621144
 31
0.0
  0
LINE
  5
1765F
330
1765B
100
AcDbEntity
  8
注释
 62
     0
370
    -2
100
AcDbLine
 10
347.27641482421
 20
534.9418025621144
 30
0.0
 11
347.27641482421
 21
421.0043025621144
 31
0.0
  0
LINE
  5
17660
330
1765B
100
AcDbEntity
  8
注释
 62
     0
370
    -2
100
AcDbLine
 10
181.7764148242098
 20
421.0043025621144
 30
0.0
 11
344.77641482421
 21
421.0043025621144
 31
0.0
  0
SOLID
  5
17661
330
1765B
100
AcDbEntity
  8
注释
 62
     0
100
AcDbTrace
 10
181.7764148242098
 20
421.4209692287811
 30
0.0
 11
181.7764148242098
 21
420.5876358954477
 31
0.0
 12
179.2764148242098
 22
421.0043025621144
 32
0.0
 13
179.2764148242098
 23
421.0043025621144
 33
0.0
  0
SOLID
  5
17662
330
1765B
100
AcDbEntity
  8
注释
 62
     0
100
AcDbTrace
 10
344.77641482421
 20
420.5876358954477
 30
0.0
 11
344.77641482421
 21
421.4209692287811
 31
0.0
 12
347.27641482421
 22
421.0043025621144
 32
0.0
 13
347.27641482421
 23
421.0043025621144
 33
0.0
  0
MTEXT
  5
17663
330
1765B
100
AcDbEntity
  8
注释
 62
     0
100
AcDbMText
 10
262.8781309439652
 20
424.1293025621144
 30
0.0
 40
2.5
 41
0.0
 46
0.0
 71
     2
 72
     1
  1
\A1;%%c504
  7
SLDTEXTSTYLE0
 73
     1
 44
1.0
  0
POINT
  5
17664
330
1765B
100
AcDbEntity
  8
Defpoints
 62
     0
100
AcDbPoint
 10
179.2764148242098
 20
535.0043025621146
 30
0.0
  0
POINT
  5
17665
330
1765B
100
AcDbEntity
  8
Defpoints
 62
     0
100
AcDbPoint
 10
347.27641482421
 20
535.0043025621144
 30
0.0
  0
POINT
  5
17666
330
1765B
100
AcDbEntity
  8
Defpoints
 62
     0
100
AcDbPoint
 10
347.27641482421
 20
421.0043025621144
 30
0.0
  0
ENDBLK
  5
1765D
330
1765B
100
AcDbEntity
  8
0
100
AcDbBlockEnd
  0
BLOCK
  5
17668
330
17667
100
AcDbEntity
  8
0
100
AcDbBlockBegin
  2
*D17
 70
     1
 10
0.0
 20
0.0
 30
0.0
  3
*D17
  1

  0
LINE
  5
1766A
330
17667
100
AcDbEntity
  8
注释
 62
     0
370
    -2
100
AcDbLine
 10
285.0264148242098
 20
334.7196619629415
 30
0.0
 11
285.0264148242098
 21
347.9050593845902
 31
0.0
  0
LINE
  5
1766B
330
17667
100
AcDbEntity
  8
注释
 62
     0
370
    -2
100
AcDbLine
 10
241.0264148242098
 20
334.7196619629415
 30
0.0
 11
241.0264148242098
 21
347.9050593845902
 31
0.0
  0
LINE
  5
1766C
330
17667
100
AcDbEntity
  8
注释
 62
     0
370
    -2
100
AcDbLine
 10
282.5264148242098
 20
347.9050593845902
 30
0.0
 11
243.5264148242098
 21
347.9050593845902
 31
0.0
  0
SOLID
  5
1766D
330
17667
100
AcDbEntity
  8
注释
 62
     0
100
AcDbTrace
 10
282.5264148242098
 20
347.4883927179235
 30
0.0
 11
282.5264148242098
 21
348.3217260512569
 31
0.0
 12
285.0264148242098
 22
347.9050593845902
 32
0.0
 13
285.0264148242098
 23
347.9050593845902
 33
0.0
  0
SOLID
  5
1766E
330
17667
100
AcDbEntity
  8
注释
 62
     0
100
AcDbTrace
 10
243.5264148242098
 20
348.3217260512569
 30
0.0
 11
243.5264148242098
 21
347.4883927179235
 31
0.0
 12
241.0264148242098
 22
347.9050593845902
 32
0.0
 13
241.0264148242098
 23
347.9050593845902
 33
0.0
  0
MTEXT
  5
1766F
330
17667
100
AcDbEntity
  8
注释
 62
     0
100
AcDbMText
 10
260.082047981226
 20
351.0300593845902
 30
0.0
 40
2.5
 41
0.0
 46
0.0
 71
     2
 72
     1
  1
\A1;%%c132
  7
SLDTEXTSTYLE0
 73
     1
 44
1.0
  0
POINT
  5
17670
330
17667
100
AcDbEntity
  8
Defpoints
 62
     0
100
AcDbPoint
 10
285.0264148242098
 20
334.6571619629415
 30
0.0
  0
POINT
  5
17671
330
17667
100
AcDbEntity
  8
Defpoints
 62
     0
100
AcDbPoint
 10
241.0264148242098
 20
334.6571619629415
 30
0.0
  0
POINT
  5
17672
330
17667
100
AcDbEntity
  8
Defpoints
 62
     0
100
AcDbPoint
 10
241.0264148242098
 20
347.9050593845902
 30
0.0
  0
ENDBLK
  5
17669
330
17667
100
AcDbEntity
  8
0
100
AcDbBlockEnd
  0
BLOCK
  5
17674
330
17673
100
AcDbEntity
  8
0
100
AcDbBlockBegin
  2
*D18
 70
     1
 10
0.0
 20
0.0
 30
0.0
  3
*D18
  1

  0
LINE
  5
17676
330
17673
100
AcDbEntity
  8
注释
 62
     0
370
    -2
100
AcDbLine
 10
465.6430902822636
 20
637.0668025621146
 30
0.0
 11
465.6430902822636
 21
655.7699370004937
 31
0.0
  0
LINE
  5
17677
330
17673
100
AcDbEntity
  8
注释
 62
     0
370
    -2
100
AcDbLine
 10
500.6430902822633
 20
624.0668025621151
 30
0.0
 11
500.6430902822633
 21
655.7699370004937
 31
0.0
  0
LINE
  5
17678
330
17673
100
AcDbEntity
  8
注释
 62
     0
370
    -2
100
AcDbLine
 10
468.1430902822636
 20
655.7699370004937
 30
0.0
 11
498.1430902822633
 21
655.7699370004937
 31
0.0
  0
SOLID
  5
17679
330
17673
100
AcDbEntity
  8
注释
 62
     0
100
AcDbTrace
 10
468.1430902822636
 20
656.1866036671603
 30
0.0
 11
468.1430902822636
 21
655.353270333827
 31
0.0
 12
465.6430902822636
 22
655.7699370004937
 32
0.0
 13
465.6430902822636
 23
655.7699370004937
 33
0.0
  0
SOLID
  5
1767A
330
17673
100
AcDbEntity
  8
注释
 62
     0
100
AcDbTrace
 10
498.1430902822633
 20
655.353270333827
 30
0.0
 11
498.1430902822633
 21
656.1866036671603
 31
0.0
 12
500.6430902822633
 22
655.7699370004937
 32
0.0
 13
500.6430902822633
 23
655.7699370004937
 33
0.0
  0
MTEXT
  5
1767B
330
17673
100
AcDbEntity
  8
注释
 62
     0
100
AcDbMText
 10
481.7307948223082
 20
658.8949370004937
 30
0.0
 40
2.5
 41
0.0
 46
0.0
 71
     2
 72
     1
  1
\A1;105
  7
SLDTEXTSTYLE0
 73
     1
 44
1.0
  0
POINT
  5
1767C
330
17673
100
AcDbEntity
  8
Defpoints
 62
     0
100
AcDbPoint
 10
465.6430902822636
 20
637.0043025621146
 30
0.0
  0
POINT
  5
1767D
330
17673
100
AcDbEntity
  8
Defpoints
 62
     0
100
AcDbPoint
 10
500.6430902822633
 20
624.0043025621151
 30
0.0
  0
POINT
  5
1767E
330
17673
100
AcDbEntity
  8
Defpoints
 62
     0
100
AcDbPoint
 10
500.6430902822633
 20
655.7699370004937
 30
0.0
  0
ENDBLK
  5
17675
330
17673
100
AcDbEntity
  8
0
100
AcDbBlockEnd
  0
BLOCK
  5
17680
330
1767F
100
AcDbEntity
  8
0
100
AcDbBlockBegin
  2
*D19
 70
     1
 10
0.0
 20
0.0
 30
0.0
  3
*D19
  1

  0
LINE
  5
17682
330
1767F
100
AcDbEntity
  8
注释
 62
     0
370
    -2
100
AcDbLine
 10
489.6430902822636
 20
455.0668025621148
 30
0.0
 11
489.6430902822636
 21
478.9569130411658
 31
0.0
  0
LINE
  5
17683
330
1767F
100
AcDbEntity
  8
注释
 62
     0
370
    -2
100
AcDbLine
 10
497.6430902822633
 20
455.0668025621148
 30
0.0
 11
497.6430902822633
 21
478.9569130411658
 31
0.0
  0
LINE
  5
17684
330
1767F
100
AcDbEntity
  8
注释
 62
     0
370
    -2
100
AcDbLine
 10
489.6430902822636
 20
478.9569130411658
 30
0.0
 11
464.9555902822636
 21
478.9569130411658
 31
0.0
  0
LINE
  5
17685
330
1767F
100
AcDbEntity
  8
注释
 62
     0
370
    -2
100
AcDbLine
 10
489.6430902822636
 20
478.9569130411658
 30
0.0
 11
497.6430902822633
 21
478.9569130411658
 31
0.0
  0
LINE
  5
17686
330
1767F
100
AcDbEntity
  8
注释
 62
     0
370
    -2
100
AcDbLine
 10
487.1430902822636
 20
478.9569130411658
 30
0.0
 11
484.6430902822636
 21
478.9569130411658
 31
0.0
  0
LINE
  5
17687
330
1767F
100
AcDbEntity
  8
注释
 62
     0
370
    -2
100
AcDbLine
 10
500.1430902822633
 20
478.9569130411658
 30
0.0
 11
502.6430902822633
 21
478.9569130411658
 31
0.0
  0
SOLID
  5
17688
330
1767F
100
AcDbEntity
  8
注释
 62
     0
100
AcDbTrace
 10
487.1430902822636
 20
478.5402463744991
 30
0.0
 11
487.1430902822636
 21
479.3735797078324
 31
0.0
 12
489.6430902822636
 22
478.9569130411658
 32
0.0
 13
489.6430902822636
 23
478.9569130411658
 33
0.0
  0
SOLID
  5
17689
330
1767F
100
AcDbEntity
  8
注释
 62
     0
100
AcDbTrace
 10
500.1430902822633
 20
479.3735797078324
 30
0.0
 11
500.1430902822633
 21
478.5402463744991
 31
0.0
 12
497.6430902822633
 22
478.9569130411658
 32
0.0
 13
497.6430902822633
 23
478.9569130411658
 33
0.0
  0
MTEXT
  5
1768A
330
1767F
100
AcDbEntity
  8
注释
 62
     0
100
AcDbMText
 10
468.0805902822636
 20
482.0819130411658
 30
0.0
 40
2.5
 41
0.0
 46
0.0
 71
     2
 72
     1
  1
\A1;%%c24
  7
SLDTEXTSTYLE0
 73
     1
 44
1.0
  0
POINT
  5
1768B
330
1767F
100
AcDbEntity
  8
Defpoints
 62
     0
100
AcDbPoint
 10
489.6430902822636
 20
455.0043025621148
 30
0.0
  0
POINT
  5
1768C
330
1767F
100
AcDbEntity
  8
Defpoints
 62
     0
100
AcDbPoint
 10
497.6430902822633
 20
455.0043025621148
 30
0.0
  0
POINT
  5
1768D
330
1767F
100
AcDbEntity
  8
Defpoints
 62
     0
100
AcDbPoint
 10
497.6430902822633
 20
478.9569130411658
 30
0.0
  0
ENDBLK
  5
17681
330
1767F
100
AcDbEntity
  8
0
100
AcDbBlockEnd
  0
BLOCK
  5
1806D
330
1806C
100
AcDbEntity
  8
0
100
AcDbBlockBegin
  2
*D20
 70
     1
 10
0.0
 20
0.0
 30
0.0
  3
*D20
  1

  0
LINE
  5
1806E
330
1806C
100
AcDbEntity
  8
0
 62
     0
370
    -2
100
AcDbLine
 10
544.9328549940547
 20
473.6680369892564
 30
0.0
 11
544.9328549940547
 21
498.8774045504456
 31
0.0
  0
LINE
  5
1806F
330
1806C
100
AcDbEntity
  8
0
 62
     0
370
    -2
100
AcDbLine
 10
299.0654899591752
 20
307.2613211396921
 30
0.0
 11
299.0654899591752
 21
498.8774045504456
 31
0.0
  0
LINE
  5
18070
330
1806C
100
AcDbEntity
  8
0
 62
     0
370
    -2
100
AcDbLine
 10
544.7528549940547
 20
498.6974045504456
 30
0.0
 11
299.2454899591752
 21
498.6974045504456
 31
0.0
  0
LINE
  5
18071
330
1806C
100
AcDbEntity
  8
0
 62
     0
370
    -2
100
AcDbLine
 10
299.2454899591752
 20
498.6974045504456
 30
0.0
 11
544.7528549940547
 21
498.6974045504456
 31
0.0
  0
SOLID
  5
18072
330
1806C
100
AcDbEntity
  8
0
 62
     0
100
AcDbTrace
 10
544.7528549940547
 20
498.6674045504457
 30
0.0
 11
544.7528549940547
 21
498.7274045504456
 31
0.0
 12
544.9328549940547
 22
498.6974045504456
 32
0.0
 13
544.9328549940547
 23
498.6974045504456
 33
0.0
  0
SOLID
  5
18073
330
1806C
100
AcDbEntity
  8
0
 62
     0
100
AcDbTrace
 10
299.2454899591752
 20
498.7274045504456
 30
0.0
 11
299.2454899591752
 21
498.6674045504457
 31
0.0
 12
299.0654899591752
 22
498.6974045504456
 32
0.0
 13
299.0654899591752
 23
498.6974045504456
 33
0.0
  0
MTEXT
  5
18074
330
1806C
100
AcDbEntity
  8
0
 62
     0
100
AcDbMText
 10
421.9991724766149
 20
503.1974045504456
 30
0.0
 40
5.0
 41
0.0
 46
0.0
 71
     5
 72
     1
  1
\A1;245.8674
 73
     1
 44
1.0
  0
POINT
  5
18075
330
1806C
100
AcDbEntity
  8
Defpoints
 62
     0
100
AcDbPoint
 10
544.9328549940547
 20
473.6055369892564
 30
0.0
  0
POINT
  5
18076
330
1806C
100
AcDbEntity
  8
Defpoints
 62
     0
100
AcDbPoint
 10
299.0654899591752
 20
307.1988211396921
 30
0.0
  0
POINT
  5
18077
330
1806C
100
AcDbEntity
  8
Defpoints
 62
     0
100
AcDbPoint
 10
299.0654899591752
 20
498.6974045504456
 30
0.0
  0
ENDBLK
  5
18078
330
1806C
100
AcDbEntity
  8
0
100
AcDbBlockEnd
  0
BLOCK
  5
18A4C
330
18A4B
100
AcDbEntity
  8
0
100
AcDbBlockBegin
  2
*D21
 70
     1
 10
0.0
 20
0.0
 30
0.0
  3
*D21
  1

  0
LINE
  5
18A4E
330
18A4B
100
AcDbEntity
  8
0
 62
     0
370
    -2
100
AcDbLine
 10
1283.054473984931
 20
599.9573478847041
 30
0.0
 11
1283.054473984931
 21
625.1667154458933
 31
0.0
  0
LINE
  5
18A4F
330
18A4B
100
AcDbEntity
  8
0
 62
     0
370
    -2
100
AcDbLine
 10
1037.187108950052
 20
433.5506320351398
 30
0.0
 11
1037.187108950052
 21
625.1667154458933
 31
0.0
  0
LINE
  5
18A50
330
18A4B
100
AcDbEntity
  8
0
 62
     0
370
    -2
100
AcDbLine
 10
1282.874473984931
 20
624.9867154458933
 30
0.0
 11
1037.367108950052
 21
624.9867154458933
 31
0.0
  0
LINE
  5
18A51
330
18A4B
100
AcDbEntity
  8
0
 62
     0
370
    -2
100
AcDbLine
 10
1037.367108950052
 20
624.9867154458933
 30
0.0
 11
1282.874473984931
 21
624.9867154458933
 31
0.0
  0
SOLID
  5
18A52
330
18A4B
100
AcDbEntity
  8
0
 62
     0
100
AcDbTrace
 10
1282.874473984931
 20
624.9567154458933
 30
0.0
 11
1282.874473984931
 21
625.0167154458933
 31
0.0
 12
1283.054473984931
 22
624.9867154458933
 32
0.0
 13
1283.054473984931
 23
624.9867154458933
 33
0.0
  0
SOLID
  5
18A53
330
18A4B
100
AcDbEntity
  8
0
 62
     0
100
AcDbTrace
 10
1037.367108950052
 20
625.0167154458933
 30
0.0
 11
1037.367108950052
 21
624.9567154458933
 31
0.0
 12
1037.187108950052
 22
624.9867154458933
 32
0.0
 13
1037.187108950052
 23
624.9867154458933
 33
0.0
  0
MTEXT
  5
18A54
330
18A4B
100
AcDbEntity
  8
0
 62
     0
100
AcDbMText
 10
1160.120791467491
 20
629.4867154458933
 30
0.0
 40
5.0
 41
0.0
 46
0.0
 71
     5
 72
     1
  1
\A1;245.8674
 73
     1
 44
1.0
  0
POINT
  5
18A55
330
18A4B
100
AcDbEntity
  8
Defpoints
 62
     0
100
AcDbPoint
 10
1283.054473984931
 20
599.8948478847041
 30
0.0
  0
POINT
  5
18A56
330
18A4B
100
AcDbEntity
  8
Defpoints
 62
     0
100
AcDbPoint
 10
1037.187108950052
 20
433.4881320351398
 30
0.0
  0
POINT
  5
18A57
330
18A4B
100
AcDbEntity
  8
Defpoints
 62
     0
100
AcDbPoint
 10
1037.187108950052
 20
624.9867154458933
 30
0.0
  0
ENDBLK
  5
18A4D
330
18A4B
100
AcDbEntity
  8
0
100
AcDbBlockEnd
  0
BLOCK
  5
18ABA
330
18AB9
100
AcDbEntity
  8
0
100
AcDbBlockBegin
  2
*D22
 70
     1
 10
0.0
 20
0.0
 30
0.0
  3
*D22
  1

  0
LINE
  5
18ABB
330
18AB9
100
AcDbEntity
  8
DIM
 62
     0
370
    -2
100
AcDbLine
 10
7.200002670288683
 20
108.8132936712834
 30
0.0
 11
7.200002670288683
 21
129.9043090826806
 31
0.0
  0
LINE
  5
18ABC
330
18AB9
100
AcDbEntity
  8
DIM
 62
     0
370
    -2
100
AcDbLine
 10
227.3436427915616
 20
108.8132936712835
 30
0.0
 11
227.3436427915616
 21
129.9043090826806
 31
0.0
  0
LINE
  5
18ABD
330
18AB9
100
AcDbEntity
  8
DIM
 62
     0
370
    -2
100
AcDbLine
 10
10.20000267028868
 20
129.9043090826806
 30
0.0
 11
224.3436427915616
 21
129.9043090826806
 31
0.0
  0
INSERT
  5
18ABE
330
18AB9
100
AcDbEntity
  8
DIM
 62
     0
370
    -2
100
AcDbBlockReference
  2
_DOT
 10
7.200002670288683
 20
129.9043090826806
 30
0.0
 41
3.0
 42
3.0
 43
3.0
 50
180.0
  0
INSERT
  5
18ABF
330
18AB9
100
AcDbEntity
  8
DIM
 62
     0
370
    -2
100
AcDbBlockReference
  2
_DOT
 10
227.3436427915616
 20
129.9043090826806
 30
0.0
 41
3.0
 42
3.0
 43
3.0
  0
MTEXT
  5
18AC0
330
18AB9
100
AcDbEntity
  8
DIM
 62
     0
100
AcDbMText
 10
117.2718227309251
 20
139.9058096453916
 30
0.0
 40
8.0
 41
0.0
 46
0.0
 71
     5
 72
     1
  1
\A1;220
  7
ＭＳ ゴシック
 73
     1
 44
1.0
  0
POINT
  5
18AC1
330
18AB9
100
AcDbEntity
  8
Defpoints
 62
     0
100
AcDbPoint
 10
7.200002670288683
 20
98.81329367128342
 30
0.0
  0
POINT
  5
18AC2
330
18AB9
100
AcDbEntity
  8
Defpoints
 62
     0
100
AcDbPoint
 10
227.3436427915616
 20
98.81329367128347
 30
0.0
  0
POINT
  5
18AC3
330
18AB9
100
AcDbEntity
  8
Defpoints
 62
     0
100
AcDbPoint
 10
227.3436427915616
 20
129.9043090826806
 30
0.0
  0
ENDBLK
  5
18AC4
330
18AB9
100
AcDbEntity
  8
0
100
AcDbBlockEnd
  0
BLOCK
  5
18AC9
330
18AC8
100
AcDbEntity
  8
0
100
AcDbBlockBegin
  2
*D23
 70
     1
 10
0.0
 20
0.0
 30
0.0
  3
*D23
  1

  0
LINE
  5
18ACA
330
18AC8
100
AcDbEntity
  8
DIM
 62
     0
370
    -2
100
AcDbLine
 10
244.5436454618495
 20
11.47661237417256
 30
0.0
 11
269.265029578572
 21
11.47661237417256
 31
0.0
  0
LINE
  5
18ACB
330
18AC8
100
AcDbEntity
  8
DIM
 62
     0
370
    -2
100
AcDbLine
 10
244.5436454618495
 20
66.6766109913448
 30
0.0
 11
269.265029578572
 21
66.6766109913448
 31
0.0
  0
LINE
  5
18ACC
330
18AC8
100
AcDbEntity
  8
DIM
 62
     0
370
    -2
100
AcDbLine
 10
269.265029578572
 20
14.47661237417256
 30
0.0
 11
269.265029578572
 21
63.6766109913448
 31
0.0
  0
INSERT
  5
18ACD
330
18AC8
100
AcDbEntity
  8
DIM
 62
     0
370
    -2
100
AcDbBlockReference
  2
_DOT
 10
269.265029578572
 20
11.47661237417256
 30
0.0
 41
3.0
 42
3.0
 43
3.0
 50
270.0
  0
INSERT
  5
18ACE
330
18AC8
100
AcDbEntity
  8
DIM
 62
     0
370
    -2
100
AcDbBlockReference
  2
_DOT
 10
269.265029578572
 20
66.6766109913448
 30
0.0
 41
3.0
 42
3.0
 43
3.0
 50
90.0
  0
MTEXT
  5
18ACF
330
18AC8
100
AcDbEntity
  8
DIM
 62
     0
100
AcDbMText
 10
259.263529015861
 20
39.07661168275868
 30
0.0
 40
8.0
 41
0.0
 46
0.0
 71
     5
 72
     1
  1
\A1;55
  7
ＭＳ ゴシック
 11
0.0
 21
1.0
 31
0.0
 73
     1
 44
1.0
  0
POINT
  5
18AD0
330
18AC8
100
AcDbEntity
  8
Defpoints
 62
     0
100
AcDbPoint
 10
234.5436454618495
 20
11.47661237417256
 30
0.0
  0
POINT
  5
18AD1
330
18AC8
100
AcDbEntity
  8
Defpoints
 62
     0
100
AcDbPoint
 10
234.5436454618495
 20
66.6766109913448
 30
0.0
  0
POINT
  5
18AD2
330
18AC8
100
AcDbEntity
  8
Defpoints
 62
     0
100
AcDbPoint
 10
269.265029578572
 20
66.6766109913448
 30
0.0
  0
ENDBLK
  5
18AD3
330
18AC8
100
AcDbEntity
  8
0
100
AcDbBlockEnd
  0
BLOCK
  5
18B1E
330
18B1D
100
AcDbEntity
  8
0
100
AcDbBlockBegin
  2
*D24
 70
     1
 10
0.0
 20
0.0
 30
0.0
  3
*D24
  1

  0
LINE
  5
18B20
330
18B1D
100
AcDbEntity
  8
DIM
 62
     0
370
    -2
100
AcDbLine
 10
86.59930480841457
 20
438.118604799692
 30
0.0
 11
86.59930480841456
 21
467.1236968612631
 31
0.0
  0
LINE
  5
18B21
330
18B1D
100
AcDbEntity
  8
DIM
 62
     0
370
    -2
100
AcDbLine
 10
362.779507869648
 20
438.118604799692
 30
0.0
 11
362.779507869648
 21
467.1236968612631
 31
0.0
  0
LINE
  5
18B22
330
18B1D
100
AcDbEntity
  8
DIM
 62
     0
370
    -2
100
AcDbLine
 10
89.59930480841456
 20
467.1236968612631
 30
0.0
 11
359.779507869648
 21
467.1236968612631
 31
0.0
  0
INSERT
  5
18B23
330
18B1D
100
AcDbEntity
  8
DIM
 62
     0
370
    -2
100
AcDbBlockReference
  2
_DOT
 10
86.59930480841456
 20
467.1236968612631
 30
0.0
 41
3.0
 42
3.0
 43
3.0
 50
180.0
  0
INSERT
  5
18B24
330
18B1D
100
AcDbEntity
  8
DIM
 62
     0
370
    -2
100
AcDbBlockReference
  2
_DOT
 10
362.779507869648
 20
467.1236968612631
 30
0.0
 41
3.0
 42
3.0
 43
3.0
  0
MTEXT
  5
18B25
330
18B1D
100
AcDbEntity
  8
DIM
 62
     0
100
AcDbMText
 10
224.6894063390313
 20
477.1251974239741
 30
0.0
 40
8.0
 41
0.0
 46
0.0
 71
     5
 72
     1
  1
\A1;582
  7
ＭＳ ゴシック
 73
     1
 44
1.0
  0
POINT
  5
18B26
330
18B1D
100
AcDbEntity
  8
Defpoints
 62
     0
100
AcDbPoint
 10
86.59930480841459
 20
428.118604799692
 30
0.0
  0
POINT
  5
18B27
330
18B1D
100
AcDbEntity
  8
Defpoints
 62
     0
100
AcDbPoint
 10
362.779507869648
 20
428.118604799692
 30
0.0
  0
POINT
  5
18B28
330
18B1D
100
AcDbEntity
  8
Defpoints
 62
     0
100
AcDbPoint
 10
362.779507869648
 20
467.1236968612631
 30
0.0
  0
ENDBLK
  5
18B1F
330
18B1D
100
AcDbEntity
  8
0
100
AcDbBlockEnd
  0
BLOCK
  5
18B2A
330
18B29
100
AcDbEntity
  8
0
100
AcDbBlockBegin
  2
*D25
 70
     1
 10
0.0
 20
0.0
 30
0.0
  3
*D25
  1

  0
LINE
  5
18B2C
330
18B29
100
AcDbEntity
  8
DIM
 62
     0
370
    -2
100
AcDbLine
 10
381.8122384923728
 20
318.5507682633166
 30
0.0
 11
415.3717931115339
 21
318.5507682633166
 31
0.0
  0
LINE
  5
18B2D
330
18B29
100
AcDbEntity
  8
DIM
 62
     0
370
    -2
100
AcDbLine
 10
381.8122384923728
 20
387.8016756194053
 30
0.0
 11
415.3717931115339
 21
387.8016756194053
 31
0.0
  0
LINE
  5
18B2E
330
18B29
100
AcDbEntity
  8
DIM
 62
     0
370
    -2
100
AcDbLine
 10
415.3717931115339
 20
321.5507682633166
 30
0.0
 11
415.3717931115339
 21
384.8016756194053
 31
0.0
  0
INSERT
  5
18B2F
330
18B29
100
AcDbEntity
  8
DIM
 62
     0
370
    -2
100
AcDbBlockReference
  2
_DOT
 10
415.3717931115339
 20
318.5507682633166
 30
0.0
 41
3.0
 42
3.0
 43
3.0
 50
270.0
  0
INSERT
  5
18B30
330
18B29
100
AcDbEntity
  8
DIM
 62
     0
370
    -2
100
AcDbBlockReference
  2
_DOT
 10
415.3717931115339
 20
387.8016756194053
 30
0.0
 41
3.0
 42
3.0
 43
3.0
 50
90.0
  0
MTEXT
  5
18B31
330
18B29
100
AcDbEntity
  8
DIM
 62
     0
100
AcDbMText
 10
405.3717931115339
 20
353.176221941361
 30
0.0
 40
8.0
 41
0.0
 46
0.0
 71
     5
 72
     1
  1
\A1;69
  7
ＭＳ ゴシック
 11
0.0
 21
1.0
 31
0.0
 73
     1
 44
1.0
  0
POINT
  5
18B32
330
18B29
100
AcDbEntity
  8
Defpoints
 62
     0
100
AcDbPoint
 10
371.8122384923728
 20
318.5507682633166
 30
0.0
  0
POINT
  5
18B33
330
18B29
100
AcDbEntity
  8
Defpoints
 62
     0
100
AcDbPoint
 10
371.8122384923728
 20
387.8016756194053
 30
0.0
  0
POINT
  5
18B34
330
18B29
100
AcDbEntity
  8
Defpoints
 62
     0
100
AcDbPoint
 10
415.3717931115339
 20
387.8016756194053
 30
0.0
  0
ENDBLK
  5
18B2B
330
18B29
100
AcDbEntity
  8
0
100
AcDbBlockEnd
  0
BLOCK
  5
18B49
330
18B46
100
AcDbEntity
  8
0
100
AcDbBlockBegin
  2
_Open30
 70
     0
 10
0.0
 20
0.0
 30
0.0
  3
_Open30
  1

  0
LINE
  5
18B4A
330
18B46
100
AcDbEntity
  8
0
 62
     0
370
    -2
100
AcDbLine
 10
-1.0
 20
0.2679491899998538
 30
0.0
 11
0.0
 21
0.0
 31
0.0
  0
LINE
  5
18B4B
330
18B46
100
AcDbEntity
  8
0
 62
     0
370
    -2
100
AcDbLine
 10
0.0
 20
0.0
 30
0.0
 11
-1.0
 21
-0.2679491899998538
 31
0.0
  0
LINE
  5
18B4C
330
18B46
100
AcDbEntity
  8
0
 62
     0
370
    -2
100
AcDbLine
 10
0.0
 20
0.0
 30
0.0
 11
-1.0
 21
0.0
 31
0.0
  0
ENDBLK
  5
18B4D
330
18B46
100
AcDbEntity
  8
0
100
AcDbBlockEnd
  0
BLOCK
  5
18B4F
330
18B4E
100
AcDbEntity
  8
0
100
AcDbBlockBegin
  2
_Origin
 70
     0
 10
0.0
 20
0.0
 30
0.0
  3
_Origin
  1

  0
CIRCLE
  5
18B50
330
18B4E
100
AcDbEntity
  8
0
  6
ByBlock
 62
     0
370
    -2
100
AcDbCircle
 10
0.0
 20
0.0
 30
0.0
 40
0.5
  0
LINE
  5
18B51
330
18B4E
100
AcDbEntity
  8
0
  6
ByBlock
 62
     0
370
    -2
100
AcDbLine
 10
0.0
 20
0.0
 30
0.0
 11
-1.0
 21
0.0
 31
0.0
  0
ENDBLK
  5
18B52
330
18B4E
100
AcDbEntity
  8
0
100
AcDbBlockEnd
  0
BLOCK
  5
18BC7
330
18BC6
100
AcDbEntity
  8
0
100
AcDbBlockBegin
  2
*D28
 70
     1
 10
0.0
 20
0.0
 30
0.0
  3
*D28
  1

  0
LINE
  5
18BC9
330
18BC6
100
AcDbEntity
  8
DIM
 62
     0
370
    -2
100
AcDbLine
 10
77.56657418568905
 20
615.29465163417
 30
0.0
 11
77.56657418568903
 21
673.3498500867579
 31
0.0
  0
LINE
  5
18BCA
330
18BC6
100
AcDbEntity
  8
DIM
 62
     0
370
    -2
100
AcDbLine
 10
371.8122384923726
 20
615.2946516341702
 30
0.0
 11
371.8122384923726
 21
673.3498500867579
 31
0.0
  0
LINE
  5
18BCB
330
18BC6
100
AcDbEntity
  8
DIM
 62
     0
370
    -2
100
AcDbLine
 10
80.56657418568903
 20
673.3498500867579
 30
0.0
 11
368.8122384923726
 21
673.3498500867579
 31
0.0
  0
INSERT
  5
18BCC
330
18BC6
100
AcDbEntity
  8
DIM
 62
     0
370
    -2
100
AcDbBlockReference
  2
_DOT
 10
77.56657418568903
 20
673.3498500867579
 30
0.0
 41
3.0
 42
3.0
 43
3.0
 50
180.0
  0
INSERT
  5
18BCD
330
18BC6
100
AcDbEntity
  8
DIM
 62
     0
370
    -2
100
AcDbBlockReference
  2
_DOT
 10
371.8122384923726
 20
673.3498500867579
 30
0.0
 41
3.0
 42
3.0
 43
3.0
  0
MTEXT
  5
18BCE
330
18BC6
100
AcDbEntity
  8
DIM
 62
     0
100
AcDbMText
 10
224.6894063390308
 20
683.3498500867579
 30
0.0
 40
8.0
 41
0.0
 46
0.0
 71
     5
 72
     1
  1
\A1;600
  7
ＭＳ ゴシック
 73
     1
 44
1.0
  0
POINT
  5
18BCF
330
18BC6
100
AcDbEntity
  8
Defpoints
 62
     0
100
AcDbPoint
 10
77.56657418568905
 20
605.29465163417
 30
0.0
  0
POINT
  5
18BD0
330
18BC6
100
AcDbEntity
  8
Defpoints
 62
     0
100
AcDbPoint
 10
371.8122384923726
 20
605.2946516341702
 30
0.0
  0
POINT
  5
18BD1
330
18BC6
100
AcDbEntity
  8
Defpoints
 62
     0
100
AcDbPoint
 10
371.8122384923726
 20
673.3498500867579
 30
0.0
  0
ENDBLK
  5
18BC8
330
18BC6
100
AcDbEntity
  8
0
100
AcDbBlockEnd
  0
BLOCK
  5
18BD6
330
18BD5
100
AcDbEntity
  8
0
100
AcDbBlockBegin
  2
*D29
 70
     1
 10
0.0
 20
0.0
 30
0.0
  3
*D29
  1

  0
LINE
  5
18BD8
330
18BD5
100
AcDbEntity
  8
DIM
 62
     0
370
    -2
100
AcDbLine
 10
468.4130666666666
 20
614.3273788999572
 30
0.0
 11
411.8758179164126
 21
614.3273788999572
 31
0.0
  0
LINE
  5
18BD9
330
18BD5
100
AcDbEntity
  8
DIM
 62
     0
370
    -2
100
AcDbLine
 10
428.09613748638
 20
605.2946516272307
 30
0.0
 11
411.8758179164126
 21
605.2946516272307
 31
0.0
  0
LINE
  5
18BDA
330
18BD5
100
AcDbEntity
  8
DIM
 62
     0
370
    -2
100
AcDbLine
 10
411.8758179164126
 20
611.3273788999572
 30
0.0
 11
411.8758179164126
 21
608.2946516272307
 31
0.0
  0
INSERT
  5
18BDB
330
18BD5
100
AcDbEntity
  8
DIM
 62
     0
370
    -2
100
AcDbBlockReference
  2
_DOT
 10
411.8758179164126
 20
614.3273788999572
 30
0.0
 41
3.0
 42
3.0
 43
3.0
 50
90.0
  0
INSERT
  5
18BDC
330
18BD5
100
AcDbEntity
  8
DIM
 62
     0
370
    -2
100
AcDbBlockReference
  2
_DOT
 10
411.8758179164126
 20
605.2946516272307
 30
0.0
 41
3.0
 42
3.0
 43
3.0
 50
270.0
  0
MTEXT
  5
18BDD
330
18BD5
100
AcDbEntity
  8
DIM
 62
     0
100
AcDbMText
 10
401.8758179164126
 20
609.811015263594
 30
0.0
 40
8.0
 41
0.0
 46
0.0
 71
     5
 72
     1
  1
\A1;9
  7
ＭＳ ゴシック
 11
0.0
 21
1.0
 31
0.0
 73
     1
 44
1.0
  0
POINT
  5
18BDE
330
18BD5
100
AcDbEntity
  8
Defpoints
 62
     0
100
AcDbPoint
 10
478.4130666666666
 20
614.3273788999572
 30
0.0
  0
POINT
  5
18BDF
330
18BD5
100
AcDbEntity
  8
Defpoints
 62
     0
100
AcDbPoint
 10
438.09613748638
 20
605.2946516272307
 30
0.0
  0
POINT
  5
18BE0
330
18BD5
100
AcDbEntity
  8
Defpoints
 62
     0
100
AcDbPoint
 10
411.8758179164126
 20
605.2946516272307
 30
0.0
  0
ENDBLK
  5
18BD7
330
18BD5
100
AcDbEntity
  8
0
100
AcDbBlockEnd
  0
BLOCK
  5
18BE6
330
18BE5
100
AcDbEntity
  8
0
100
AcDbBlockBegin
  2
*D30
 70
     1
 10
0.0
 20
0.0
 30
0.0
  3
*D30
  1

  0
LINE
  5
18BE8
330
18BE5
100
AcDbEntity
  8
DIM
 62
     0
370
    -2
100
AcDbLine
 10
289.7026581510793
 20
336.486293713156
 30
0.0
 11
296.6824909217015
 21
336.486293713156
 31
0.0
  0
LINE
  5
18BE9
330
18BE5
100
AcDbEntity
  8
DIM
 62
     0
370
    -2
100
AcDbLine
 10
289.7026581510793
 20
318.5507682633166
 30
0.0
 11
296.6824909217015
 21
318.5507682633166
 31
0.0
  0
LINE
  5
18BEA
330
18BE5
100
AcDbEntity
  8
DIM
 62
     0
370
    -2
100
AcDbLine
 10
296.6824909217015
 20
318.5507682633166
 30
0.0
 11
296.6824909217015
 21
285.6799417033566
 31
0.0
  0
LINE
  5
18BEB
330
18BE5
100
AcDbEntity
  8
DIM
 62
     0
370
    -2
100
AcDbLine
 10
296.6824909217015
 20
333.486293713156
 30
0.0
 11
296.6824909217015
 21
321.5507682633166
 31
0.0
  0
LINE
  5
18BEC
330
18BE5
100
AcDbEntity
  8
DIM
 62
     0
370
    -2
100
AcDbLine
 10
296.6824909217015
 20
321.5507682633166
 30
0.0
 11
296.6824909217015
 21
324.5507682633166
 31
0.0
  0
INSERT
  5
18BED
330
18BE5
100
AcDbEntity
  8
DIM
 62
     0
370
    -2
100
AcDbBlockReference
  2
_DOT
 10
296.6824909217015
 20
336.486293713156
 30
0.0
 41
3.0
 42
3.0
 43
3.0
 50
90.0
  0
INSERT
  5
18BEE
330
18BE5
100
AcDbEntity
  8
DIM
 62
     0
370
    -2
100
AcDbBlockReference
  2
_DOT
 10
296.6824909217015
 20
318.5507682633166
 30
0.0
 41
3.0
 42
3.0
 43
3.0
 50
270.0
  0
MTEXT
  5
18BEF
330
18BE5
100
AcDbEntity
  8
DIM
 62
     0
100
AcDbMText
 10
286.6809903589905
 20
299.1153549833366
 30
0.0
 40
8.0
 41
0.0
 46
0.0
 71
     5
 72
     1
  1
\A1;%%c18
  7
ＭＳ ゴシック
 11
0.0
 21
1.0
 31
0.0
 73
     1
 44
1.0
  0
POINT
  5
18BF0
330
18BE5
100
AcDbEntity
  8
Defpoints
 62
     0
100
AcDbPoint
 10
299.7026581510793
 20
336.486293713156
 30
0.0
  0
POINT
  5
18BF1
330
18BE5
100
AcDbEntity
  8
Defpoints
 62
     0
100
AcDbPoint
 10
299.7026581510793
 20
318.5507682633166
 30
0.0
  0
POINT
  5
18BF2
330
18BE5
100
AcDbEntity
  8
Defpoints
 62
     0
100
AcDbPoint
 10
296.6824909217015
 20
318.5507682633166
 30
0.0
  0
ENDBLK
  5
18BE7
330
18BE5
100
AcDbEntity
  8
0
100
AcDbBlockEnd
  0
BLOCK
  5
18C35
330
18C34
100
AcDbEntity
  8
0
100
AcDbBlockBegin
  2
*D31
 70
     1
 10
0.0
 20
0.0
 30
0.0
  3
*D31
  1

  0
LINE
  5
18C36
330
18C34
100
AcDbEntity
  8
DIM
 62
     0
370
    -2
100
AcDbLine
 10
414.8819679434902
 20
417.4486450319374
 30
0.0
 11
518.452367467328
 21
417.4486450319374
 31
0.0
  0
LINE
  5
18C37
330
18C34
100
AcDbEntity
  8
DIM
 62
     0
370
    -2
100
AcDbLine
 10
492.3083658771739
 20
106.7266203636815
 30
0.0
 11
518.452367467328
 21
106.7266203636815
 31
0.0
  0
LINE
  5
18C38
330
18C34
100
AcDbEntity
  8
DIM
 62
     0
370
    -2
100
AcDbLine
 10
518.452367467328
 20
414.4486450319374
 30
0.0
 11
518.452367467328
 21
109.7266203636815
 31
0.0
  0
INSERT
  5
18C39
330
18C34
100
AcDbEntity
  8
DIM
 62
     0
370
    -2
100
AcDbBlockReference
  2
_DOT
 10
518.452367467328
 20
417.4486450319374
 30
0.0
 41
3.0
 42
3.0
 43
3.0
 50
90.0
  0
INSERT
  5
18C3A
330
18C34
100
AcDbEntity
  8
DIM
 62
     0
370
    -2
100
AcDbBlockReference
  2
_DOT
 10
518.452367467328
 20
106.7266203636815
 30
0.0
 41
3.0
 42
3.0
 43
3.0
 50
270.0
  0
MTEXT
  5
18C3B
330
18C34
100
AcDbEntity
  8
DIM
 62
     0
100
AcDbMText
 10
508.450866904617
 20
262.0876326978095
 30
0.0
 40
8.0
 41
0.0
 46
0.0
 71
     5
 72
     1
  1
\A1;311
  7
ＭＳ ゴシック
 11
0.0
 21
1.0
 31
0.0
 73
     1
 44
1.0
  0
POINT
  5
18C3C
330
18C34
100
AcDbEntity
  8
Defpoints
 62
     0
100
AcDbPoint
 10
404.8819679434902
 20
417.4486450319374
 30
0.0
  0
POINT
  5
18C3D
330
18C34
100
AcDbEntity
  8
Defpoints
 62
     0
100
AcDbPoint
 10
482.3083658771739
 20
106.7266203636815
 30
0.0
  0
POINT
  5
18C3E
330
18C34
100
AcDbEntity
  8
Defpoints
 62
     0
100
AcDbPoint
 10
518.452367467328
 20
106.7266203636815
 30
0.0
  0
ENDBLK
  5
18C3F
330
18C34
100
AcDbEntity
  8
0
100
AcDbBlockEnd
  0
BLOCK
  5
18C44
330
18C43
100
AcDbEntity
  8
0
100
AcDbBlockBegin
  2
*D32
 70
     1
 10
0.0
 20
0.0
 30
0.0
  3
*D32
  1

  0
LINE
  5
18C45
330
18C43
100
AcDbEntity
  8
DIM
 62
     0
370
    -2
100
AcDbLine
 10
139.0919147415342
 20
417.4488173780824
 30
0.0
 11
283.9418572371418
 21
417.4488173780824
 31
0.0
  0
LINE
  5
18C46
330
18C43
100
AcDbEntity
  8
DIM
 62
     0
370
    -2
100
AcDbLine
 10
259.569728017236
 20
398.6555797420111
 30
0.0
 11
283.9418572371418
 21
398.6555797420111
 31
0.0
  0
LINE
  5
18C47
330
18C43
100
AcDbEntity
  8
DIM
 62
     0
370
    -2
100
AcDbLine
 10
283.9418572371418
 20
414.4488173780824
 30
0.0
 11
283.9418572371418
 21
401.6555797420111
 31
0.0
  0
INSERT
  5
18C48
330
18C43
100
AcDbEntity
  8
DIM
 62
     0
370
    -2
100
AcDbBlockReference
  2
_DOT
 10
283.9418572371418
 20
417.4488173780824
 30
0.0
 41
3.0
 42
3.0
 43
3.0
 50
90.0
  0
INSERT
  5
18C49
330
18C43
100
AcDbEntity
  8
DIM
 62
     0
370
    -2
100
AcDbBlockReference
  2
_DOT
 10
283.9418572371418
 20
398.6555797420111
 30
0.0
 41
3.0
 42
3.0
 43
3.0
 50
270.0
  0
MTEXT
  5
18C4A
330
18C43
100
AcDbEntity
  8
DIM
 62
     0
100
AcDbMText
 10
273.9403566744307
 20
408.0521985600467
 30
0.0
 40
8.0
 41
0.0
 46
0.0
 71
     5
 72
     1
  1
\A1;19
  7
ＭＳ ゴシック
 11
0.0
 21
1.0
 31
0.0
 73
     1
 44
1.0
  0
POINT
  5
18C4B
330
18C43
100
AcDbEntity
  8
Defpoints
 62
     0
100
AcDbPoint
 10
129.0919147415342
 20
417.4488173780824
 30
0.0
  0
POINT
  5
18C4C
330
18C43
100
AcDbEntity
  8
Defpoints
 62
     0
100
AcDbPoint
 10
249.569728017236
 20
398.6555797420111
 30
0.0
  0
POINT
  5
18C4D
330
18C43
100
AcDbEntity
  8
Defpoints
 62
     0
100
AcDbPoint
 10
283.9418572371418
 20
398.6555797420111
 30
0.0
  0
ENDBLK
  5
18C4E
330
18C43
100
AcDbEntity
  8
0
100
AcDbBlockEnd
  0
BLOCK
  5
18C5E
330
18C5D
100
AcDbEntity
  8
0
100
AcDbBlockBegin
  2
*D33
 70
     1
 10
0.0
 20
0.0
 30
0.0
  3
*D33
  1

  0
LINE
  5
18C5F
330
18C5D
100
AcDbEntity
  8
DIM
 62
     0
370
    -2
100
AcDbLine
 10
36.58686640701907
 20
332.7332304161425
 30
0.0
 11
36.58686640701907
 21
291.2970426796325
 31
0.0
  0
LINE
  5
18C60
330
18C5D
100
AcDbEntity
  8
DIM
 62
     0
370
    -2
100
AcDbLine
 10
249.569728017236
 20
388.6555797420111
 30
0.0
 11
249.569728017236
 21
291.2970426796325
 31
0.0
  0
LINE
  5
18C61
330
18C5D
100
AcDbEntity
  8
DIM
 62
     0
370
    -2
100
AcDbLine
 10
39.58686640701907
 20
291.2970426796325
 30
0.0
 11
246.569728017236
 21
291.2970426796325
 31
0.0
  0
INSERT
  5
18C62
330
18C5D
100
AcDbEntity
  8
DIM
 62
     0
370
    -2
100
AcDbBlockReference
  2
_DOT
 10
36.58686640701907
 20
291.2970426796325
 30
0.0
 41
3.0
 42
3.0
 43
3.0
 50
180.0
  0
INSERT
  5
18C63
330
18C5D
100
AcDbEntity
  8
DIM
 62
     0
370
    -2
100
AcDbBlockReference
  2
_DOT
 10
249.569728017236
 20
291.2970426796325
 30
0.0
 41
3.0
 42
3.0
 43
3.0
  0
MTEXT
  5
18C64
330
18C5D
100
AcDbEntity
  8
DIM
 62
     0
100
AcDbMText
 10
143.0782972121276
 20
301.2985432423436
 30
0.0
 40
8.0
 41
0.0
 46
0.0
 71
     5
 72
     1
  1
\A1;213
  7
ＭＳ ゴシック
 73
     1
 44
1.0
  0
POINT
  5
18C65
330
18C5D
100
AcDbEntity
  8
Defpoints
 62
     0
100
AcDbPoint
 10
36.58686640701907
 20
342.7332304161425
 30
0.0
  0
POINT
  5
18C66
330
18C5D
100
AcDbEntity
  8
Defpoints
 62
     0
100
AcDbPoint
 10
249.569728017236
 20
398.6555797420111
 30
0.0
  0
POINT
  5
18C67
330
18C5D
100
AcDbEntity
  8
Defpoints
 62
     0
100
AcDbPoint
 10
249.569728017236
 20
291.2970426796325
 30
0.0
  0
ENDBLK
  5
18C68
330
18C5D
100
AcDbEntity
  8
0
100
AcDbBlockEnd
  0
BLOCK
  5
18C74
330
18C73
100
AcDbEntity
  8
0
100
AcDbBlockBegin
  2
*D34
 70
     1
 10
0.0
 20
0.0
 30
0.0
  3
*D34
  1

  0
LINE
  5
18C75
330
18C73
100
AcDbEntity
  8
DIM
 62
     0
370
    -2
100
AcDbLine
 10
262.3083582427974
 20
106.7265988204133
 30
0.0
 11
228.2328155773138
 21
106.7265988204133
 31
0.0
  0
LINE
  5
18C76
330
18C73
100
AcDbEntity
  8
DIM
 62
     0
370
    -2
100
AcDbLine
 10
355.1661702510255
 20
139.5947536803563
 30
0.0
 11
228.2328155773138
 21
139.5947536803563
 31
0.0
  0
LINE
  5
18C77
330
18C73
100
AcDbEntity
  8
DIM
 62
     0
370
    -2
100
AcDbLine
 10
228.2328155773138
 20
109.7265988204133
 30
0.0
 11
228.2328155773138
 21
136.5947536803563
 31
0.0
  0
INSERT
  5
18C78
330
18C73
100
AcDbEntity
  8
DIM
 62
     0
370
    -2
100
AcDbBlockReference
  2
_DOT
 10
228.2328155773138
 20
106.7265988204133
 30
0.0
 41
3.0
 42
3.0
 43
3.0
 50
270.0
  0
INSERT
  5
18C79
330
18C73
100
AcDbEntity
  8
DIM
 62
     0
370
    -2
100
AcDbBlockReference
  2
_DOT
 10
228.2328155773138
 20
139.5947536803563
 30
0.0
 41
3.0
 42
3.0
 43
3.0
 50
90.0
  0
MTEXT
  5
18C7A
330
18C73
100
AcDbEntity
  8
DIM
 62
     0
100
AcDbMText
 10
218.2313150146028
 20
123.1606762503848
 30
0.0
 40
8.0
 41
0.0
 46
0.0
 71
     5
 72
     1
  1
\A1;33
  7
ＭＳ ゴシック
 11
0.0
 21
1.0
 31
0.0
 73
     1
 44
1.0
  0
POINT
  5
18C7B
330
18C73
100
AcDbEntity
  8
Defpoints
 62
     0
100
AcDbPoint
 10
272.3083582427974
 20
106.7265988204133
 30
0.0
  0
POINT
  5
18C7C
330
18C73
100
AcDbEntity
  8
Defpoints
 62
     0
100
AcDbPoint
 10
365.1661702510255
 20
139.5947536803563
 30
0.0
  0
POINT
  5
18C7D
330
18C73
100
AcDbEntity
  8
Defpoints
 62
     0
100
AcDbPoint
 10
228.2328155773138
 20
139.5947536803563
 30
0.0
  0
ENDBLK
  5
18C7E
330
18C73
100
AcDbEntity
  8
0
100
AcDbBlockEnd
  0
BLOCK
  5
18CCD
330
18CCC
100
AcDbEntity
  8
0
100
AcDbBlockBegin
  2
*D35
 70
     1
 10
0.0
 20
0.0
 30
0.0
  3
*D35
  1

  0
LINE
  5
18CCE
330
18CCC
100
AcDbEntity
  8
DIM
 62
     0
370
    -2
100
AcDbLine
 10
74.02938956153422
 20
427.4488173780824
 30
0.0
 11
74.02938956153422
 21
490.8964962388615
 31
0.0
  0
LINE
  5
18CCF
330
18CCC
100
AcDbEntity
  8
DIM
 62
     0
370
    -2
100
AcDbLine
 10
129.0919147415342
 20
427.4488173780824
 30
0.0
 11
129.0919147415342
 21
490.8964962388615
 31
0.0
  0
LINE
  5
18CD0
330
18CCC
100
AcDbEntity
  8
DIM
 62
     0
370
    -2
100
AcDbLine
 10
77.02938956153422
 20
490.8964962388615
 30
0.0
 11
126.0919147415342
 21
490.8964962388615
 31
0.0
  0
INSERT
  5
18CD1
330
18CCC
100
AcDbEntity
  8
DIM
 62
     0
370
    -2
100
AcDbBlockReference
  2
_DOT
 10
74.02938956153422
 20
490.8964962388615
 30
0.0
 41
3.0
 42
3.0
 43
3.0
 50
180.0
  0
INSERT
  5
18CD2
330
18CCC
100
AcDbEntity
  8
DIM
 62
     0
370
    -2
100
AcDbBlockReference
  2
_DOT
 10
129.0919147415342
 20
490.8964962388615
 30
0.0
 41
3.0
 42
3.0
 43
3.0
  0
MTEXT
  5
18CD3
330
18CCC
100
AcDbEntity
  8
DIM
 62
     0
100
AcDbMText
 10
101.5606521515342
 20
500.8979968015725
 30
0.0
 40
8.0
 41
0.0
 46
0.0
 71
     5
 72
     1
  1
\A1;%%C55
  7
ＭＳ ゴシック
 73
     1
 44
1.0
  0
POINT
  5
18CD4
330
18CCC
100
AcDbEntity
  8
Defpoints
 62
     0
100
AcDbPoint
 10
74.02938956153422
 20
417.4488173780824
 30
0.0
  0
POINT
  5
18CD5
330
18CCC
100
AcDbEntity
  8
Defpoints
 62
     0
100
AcDbPoint
 10
129.0919147415342
 20
417.4488173780824
 30
0.0
  0
POINT
  5
18CD6
330
18CCC
100
AcDbEntity
  8
Defpoints
 62
     0
100
AcDbPoint
 10
129.0919147415342
 20
490.8964962388615
 30
0.0
  0
ENDBLK
  5
18CD7
330
18CCC
100
AcDbEntity
  8
0
100
AcDbBlockEnd
  0
BLOCK
  5
18CDA
330
18CD9
100
AcDbEntity
  8
0
100
AcDbBlockBegin
  2
*D36
 70
     1
 10
0.0
 20
0.0
 30
0.0
  3
*D36
  1

  0
LINE
  5
18CDB
330
18CD9
100
AcDbEntity
  8
DIM
 62
     0
370
    -2
100
AcDbLine
 10
85.56161266299702
 20
458.4707107802085
 30
0.0
 11
85.56161266299702
 21
470.1765858876383
 31
0.0
  0
LINE
  5
18CDC
330
18CD9
100
AcDbEntity
  8
DIM
 62
     0
370
    -2
100
AcDbLine
 10
101.561612662997
 20
458.2513948608548
 30
0.0
 11
101.561612662997
 21
470.1765858876383
 31
0.0
  0
LINE
  5
18CDD
330
18CD9
100
AcDbEntity
  8
DIM
 62
     0
370
    -2
100
AcDbLine
 10
88.56161266299702
 20
470.1765858876383
 30
0.0
 11
98.56161266299702
 21
470.1765858876383
 31
0.0
  0
INSERT
  5
18CDE
330
18CD9
100
AcDbEntity
  8
DIM
 62
     0
370
    -2
100
AcDbBlockReference
  2
_DOT
 10
85.56161266299702
 20
470.1765858876383
 30
0.0
 41
3.0
 42
3.0
 43
3.0
 50
180.0
  0
INSERT
  5
18CDF
330
18CD9
100
AcDbEntity
  8
DIM
 62
     0
370
    -2
100
AcDbBlockReference
  2
_DOT
 10
101.561612662997
 20
470.1765858876383
 30
0.0
 41
3.0
 42
3.0
 43
3.0
  0
MTEXT
  5
18CE0
330
18CD9
100
AcDbEntity
  8
DIM
 62
     0
100
AcDbMText
 10
93.56161266299702
 20
480.1780864503494
 30
0.0
 40
8.0
 41
0.0
 46
0.0
 71
     5
 72
     1
  1
\A1;16
  7
ＭＳ ゴシック
 73
     1
 44
1.0
  0
POINT
  5
18CE1
330
18CD9
100
AcDbEntity
  8
Defpoints
 62
     0
100
AcDbPoint
 10
85.56161266299702
 20
448.4707107802085
 30
0.0
  0
POINT
  5
18CE2
330
18CD9
100
AcDbEntity
  8
Defpoints
 62
     0
100
AcDbPoint
 10
101.561612662997
 20
448.2513948608548
 30
0.0
  0
POINT
  5
18CE3
330
18CD9
100
AcDbEntity
  8
Defpoints
 62
     0
100
AcDbPoint
 10
101.561612662997
 20
470.1765858876383
 30
0.0
  0
ENDBLK
  5
18CE4
330
18CD9
100
AcDbEntity
  8
0
100
AcDbBlockEnd
  0
BLOCK
  5
18D01
330
18D00
100
AcDbEntity
  8
0
100
AcDbBlockBegin
  2
*D37
 70
     1
 10
0.0
 20
0.0
 30
0.0
  3
*D37
  1

  0
LINE
  5
18D02
330
18D00
100
AcDbEntity
  8
DIM
 62
     0
370
    -2
100
AcDbLine
 10
101.5606521515345
 20
458.4707107802085
 30
0.0
 11
101.5606521515345
 21
470.1765858876383
 31
0.0
  0
LINE
  5
18D03
330
18D00
100
AcDbEntity
  8
DIM
 62
     0
370
    -2
100
AcDbLine
 10
117.5606521515345
 20
458.2513948608548
 30
0.0
 11
117.5606521515345
 21
470.1765858876383
 31
0.0
  0
LINE
  5
18D04
330
18D00
100
AcDbEntity
  8
DIM
 62
     0
370
    -2
100
AcDbLine
 10
104.5606521515345
 20
470.1765858876383
 30
0.0
 11
114.5606521515345
 21
470.1765858876383
 31
0.0
  0
INSERT
  5
18D05
330
18D00
100
AcDbEntity
  8
DIM
 62
     0
370
    -2
100
AcDbBlockReference
  2
_DOT
 10
101.5606521515345
 20
470.1765858876383
 30
0.0
 41
3.0
 42
3.0
 43
3.0
 50
180.0
  0
INSERT
  5
18D06
330
18D00
100
AcDbEntity
  8
DIM
 62
     0
370
    -2
100
AcDbBlockReference
  2
_DOT
 10
117.5606521515345
 20
470.1765858876383
 30
0.0
 41
3.0
 42
3.0
 43
3.0
  0
MTEXT
  5
18D07
330
18D00
100
AcDbEntity
  8
DIM
 62
     0
100
AcDbMText
 10
109.5606521515345
 20
480.1780864503494
 30
0.0
 40
8.0
 41
0.0
 46
0.0
 71
     5
 72
     1
  1
\A1;16
  7
ＭＳ ゴシック
 73
     1
 44
1.0
  0
POINT
  5
18D08
330
18D00
100
AcDbEntity
  8
Defpoints
 62
     0
100
AcDbPoint
 10
101.5606521515345
 20
448.4707107802085
 30
0.0
  0
POINT
  5
18D09
330
18D00
100
AcDbEntity
  8
Defpoints
 62
     0
100
AcDbPoint
 10
117.5606521515345
 20
448.2513948608548
 30
0.0
  0
POINT
  5
18D0A
330
18D00
100
AcDbEntity
  8
Defpoints
 62
     0
100
AcDbPoint
 10
117.5606521515345
 20
470.1765858876383
 30
0.0
  0
ENDBLK
  5
18D0B
330
18D00
100
AcDbEntity
  8
0
100
AcDbBlockEnd
  0
BLOCK
  5
18D67
330
18D66
100
AcDbEntity
  8
0
100
AcDbBlockBegin
  2
*D38
 70
     1
 10
0.0
 20
0.0
 30
0.0
  3
*D38
  1

  0
LINE
  5
18D68
330
18D66
100
AcDbEntity
  8
DIM
 62
     0
370
    -2
100
AcDbLine
 10
211.5161660905336
 20
724.5040087713014
 30
0.0
 11
242.6827698549649
 21
761.1778777448332
 31
0.0
  0
MTEXT
  5
18D69
330
18D66
100
AcDbEntity
  8
DIM
 62
     0
100
AcDbMText
 10
224.6373774833825
 20
755.3883637169929
 30
0.0
 40
8.0
 41
0.0
 46
0.0
 71
     5
 72
     1
  1
\A1;%%C210
  7
ＭＳ ゴシック
 11
0.647573811523433
 21
0.7620027287543092
 31
0.0
 73
     1
 44
1.0
  0
INSERT
  5
18D6A
330
18D66
100
AcDbEntity
  8
DIM
 62
     0
370
    -2
100
AcDbBlockReference
  2
_DOT
 10
209.5734446559633
 20
722.2180005850385
 30
0.0
 41
3.0
 42
3.0
 43
3.0
 50
229.6410735566364
  0
POINT
  5
18D6B
330
18D66
100
AcDbEntity
  8
Defpoints
 62
     0
100
AcDbPoint
 10
209.5734446559633
 20
722.2180005850385
 30
0.0
  0
POINT
  5
18D6C
330
18D66
100
AcDbEntity
  8
Defpoints
 62
     0
100
AcDbPoint
 10
73.58294423604232
 20
562.1974275466334
 30
0.0
  0
ENDBLK
  5
18D6D
330
18D66
100
AcDbEntity
  8
0
100
AcDbBlockEnd
  0
BLOCK
  5
18D72
330
18D71
100
AcDbEntity
  8
0
100
AcDbBlockBegin
  2
*D39
 70
     1
 10
0.0
 20
0.0
 30
0.0
  3
*D39
  1

  0
LINE
  5
18D73
330
18D71
100
AcDbEntity
  8
DIM
 62
     0
370
    -2
100
AcDbLine
 10
223.6184323518831
 20
704.4845104216743
 30
0.0
 11
281.7034665802132
 21
748.5768965518752
 31
0.0
  0
MTEXT
  5
18D74
330
18D71
100
AcDbEntity
  8
DIM
 62
     0
100
AcDbMText
 10
248.9320901791998
 20
736.7921726034408
 30
0.0
 40
8.0
 41
0.0
 46
0.0
 71
     5
 72
     1
  1
\A1;ミラー %%C200
  7
ＭＳ ゴシック
 11
0.7965071641347599
 21
0.6046290908333823
 31
0.0
 73
     1
 44
1.0
  0
INSERT
  5
18D75
330
18D71
100
AcDbEntity
  8
DIM
 62
     0
370
    -2
100
AcDbBlockReference
  2
_DOT
 10
221.2289108594788
 20
702.6706231491742
 30
0.0
 41
3.0
 42
3.0
 43
3.0
 50
217.2021562544206
  0
POINT
  5
18D76
330
18D71
100
AcDbEntity
  8
Defpoints
 62
     0
100
AcDbPoint
 10
221.2289108594788
 20
702.6706231491742
 30
0.0
  0
POINT
  5
18D77
330
18D71
100
AcDbEntity
  8
Defpoints
 62
     0
100
AcDbPoint
 10
61.92747803252692
 20
581.7448049824977
 30
0.0
  0
ENDBLK
  5
18D78
330
18D71
100
AcDbEntity
  8
0
100
AcDbBlockEnd
  0
BLOCK
  5
18DA2
330
18DA1
100
AcDbEntity
  8
0
100
AcDbBlockBegin
  2
*D40
 70
     1
 10
0.0
 20
0.0
 30
0.0
  3
*D40
  1

  0
LINE
  5
18DA3
330
18DA1
100
AcDbEntity
  8
DIM
 62
     0
370
    -2
100
AcDbLine
 10
295.7987929162893
 20
634.682410468434
 30
0.0
 11
286.0373064817124
 21
634.682410468434
 31
0.0
  0
LINE
  5
18DA4
330
18DA1
100
AcDbEntity
  8
DIM
 62
     0
370
    -2
100
AcDbLine
 10
295.5564961025458
 20
662.6960890272707
 30
0.0
 11
286.0373064817124
 21
662.6960890272707
 31
0.0
  0
LINE
  5
18DA5
330
18DA1
100
AcDbEntity
  8
DIM
 62
     0
370
    -2
100
AcDbLine
 10
286.0373064817124
 20
637.682410468434
 30
0.0
 11
286.0373064817124
 21
659.6960890272707
 31
0.0
  0
INSERT
  5
18DA6
330
18DA1
100
AcDbEntity
  8
DIM
 62
     0
370
    -2
100
AcDbBlockReference
  2
_DOT
 10
286.0373064817124
 20
634.682410468434
 30
0.0
 41
3.0
 42
3.0
 43
3.0
 50
270.0
  0
INSERT
  5
18DA7
330
18DA1
100
AcDbEntity
  8
DIM
 62
     0
370
    -2
100
AcDbBlockReference
  2
_DOT
 10
286.0373064817124
 20
662.6960890272707
 30
0.0
 41
3.0
 42
3.0
 43
3.0
 50
90.0
  0
MTEXT
  5
18DA8
330
18DA1
100
AcDbEntity
  8
DIM
 62
     0
100
AcDbMText
 10
276.0358059190013
 20
648.6892497478523
 30
0.0
 40
8.0
 41
0.0
 46
0.0
 71
     5
 72
     1
  1
\A1;28
  7
ＭＳ ゴシック
 11
0.0
 21
1.0
 31
0.0
 73
     1
 44
1.0
  0
POINT
  5
18DA9
330
18DA1
100
AcDbEntity
  8
Defpoints
 62
     0
100
AcDbPoint
 10
305.7987929162893
 20
634.682410468434
 30
0.0
  0
POINT
  5
18DAA
330
18DA1
100
AcDbEntity
  8
Defpoints
 62
     0
100
AcDbPoint
 10
305.5564961025458
 20
662.6960890272707
 30
0.0
  0
POINT
  5
18DAB
330
18DA1
100
AcDbEntity
  8
Defpoints
 62
     0
100
AcDbPoint
 10
286.0373064817124
 20
662.6960890272707
 30
0.0
  0
ENDBLK
  5
18DAC
330
18DA1
100
AcDbEntity
  8
0
100
AcDbBlockEnd
  0
BLOCK
  5
18DB2
330
18DB1
100
AcDbEntity
  8
0
100
AcDbBlockBegin
  2
*D41
 70
     1
 10
0.0
 20
0.0
 30
0.0
  3
*D41
  1

  0
LINE
  5
18DB3
330
18DB1
100
AcDbEntity
  8
DIM
 62
     0
370
    -2
100
AcDbLine
 10
337.2634504786865
 20
611.1935019435721
 30
0.0
 11
337.2634504786865
 21
503.0126228767517
 31
0.0
  0
LINE
  5
18DB4
330
18DB1
100
AcDbEntity
  8
DIM
 62
     0
370
    -2
100
AcDbLine
 10
411.9790805271624
 20
527.1595897857892
 30
0.0
 11
411.9790805271624
 21
503.0126228767517
 31
0.0
  0
LINE
  5
18DB5
330
18DB1
100
AcDbEntity
  8
DIM
 62
     0
370
    -2
100
AcDbLine
 10
340.2634504786865
 20
503.0126228767517
 30
0.0
 11
408.9790805271624
 21
503.0126228767517
 31
0.0
  0
INSERT
  5
18DB6
330
18DB1
100
AcDbEntity
  8
DIM
 62
     0
370
    -2
100
AcDbBlockReference
  2
_DOT
 10
337.2634504786865
 20
503.0126228767517
 30
0.0
 41
3.0
 42
3.0
 43
3.0
 50
180.0
  0
INSERT
  5
18DB7
330
18DB1
100
AcDbEntity
  8
DIM
 62
     0
370
    -2
100
AcDbBlockReference
  2
_DOT
 10
411.9790805271624
 20
503.0126228767517
 30
0.0
 41
3.0
 42
3.0
 43
3.0
  0
MTEXT
  5
18DB8
330
18DB1
100
AcDbEntity
  8
DIM
 62
     0
100
AcDbMText
 10
374.6212655029245
 20
513.0141234394628
 30
0.0
 40
8.0
 41
0.0
 46
0.0
 71
     5
 72
     1
  1
\A1;75
  7
ＭＳ ゴシック
 73
     1
 44
1.0
  0
POINT
  5
18DB9
330
18DB1
100
AcDbEntity
  8
Defpoints
 62
     0
100
AcDbPoint
 10
337.2634504786865
 20
621.1935019435721
 30
0.0
  0
POINT
  5
18DBA
330
18DB1
100
AcDbEntity
  8
Defpoints
 62
     0
100
AcDbPoint
 10
411.9790805271624
 20
537.1595897857892
 30
0.0
  0
POINT
  5
18DBB
330
18DB1
100
AcDbEntity
  8
Defpoints
 62
     0
100
AcDbPoint
 10
411.9790805271624
 20
503.0126228767517
 30
0.0
  0
ENDBLK
  5
18DBC
330
18DB1
100
AcDbEntity
  8
0
100
AcDbBlockEnd
  0
BLOCK
  5
18DC2
330
18DC1
100
AcDbEntity
  8
0
100
AcDbBlockBegin
  2
*D42
 70
     1
 10
0.0
 20
0.0
 30
0.0
  3
*D42
  1

  0
LINE
  5
18DC3
330
18DC1
100
AcDbEntity
  8
DIM
 62
     0
370
    -2
100
AcDbLine
 10
337.263536651759
 20
686.1714913394403
 30
0.0
 11
337.263536651759
 21
717.2106400107065
 31
0.0
  0
LINE
  5
18DC4
330
18DC1
100
AcDbEntity
  8
DIM
 62
     0
370
    -2
100
AcDbLine
 10
369.1997512757769
 20
685.8325726452592
 30
0.0
 11
369.1997512757769
 21
717.2106400107065
 31
0.0
  0
LINE
  5
18DC5
330
18DC1
100
AcDbEntity
  8
DIM
 62
     0
370
    -2
100
AcDbLine
 10
340.263536651759
 20
717.2106400107065
 30
0.0
 11
366.1997512757769
 21
717.2106400107065
 31
0.0
  0
INSERT
  5
18DC6
330
18DC1
100
AcDbEntity
  8
DIM
 62
     0
370
    -2
100
AcDbBlockReference
  2
_DOT
 10
337.263536651759
 20
717.2106400107065
 30
0.0
 41
3.0
 42
3.0
 43
3.0
 50
180.0
  0
INSERT
  5
18DC7
330
18DC1
100
AcDbEntity
  8
DIM
 62
     0
370
    -2
100
AcDbBlockReference
  2
_DOT
 10
369.1997512757769
 20
717.2106400107065
 30
0.0
 41
3.0
 42
3.0
 43
3.0
  0
MTEXT
  5
18DC8
330
18DC1
100
AcDbEntity
  8
DIM
 62
     0
100
AcDbMText
 10
354.5826051121281
 20
727.2121405734175
 30
0.0
 40
8.0
 41
0.0
 46
0.0
 71
     5
 72
     1
  1
\A1;32
  7
ＭＳ ゴシック
 73
     1
 44
1.0
  0
POINT
  5
18DC9
330
18DC1
100
AcDbEntity
  8
Defpoints
 62
     0
100
AcDbPoint
 10
337.263536651759
 20
676.1714913394403
 30
0.0
  0
POINT
  5
18DCA
330
18DC1
100
AcDbEntity
  8
Defpoints
 62
     0
100
AcDbPoint
 10
369.1997512757769
 20
675.8325726452592
 30
0.0
  0
POINT
  5
18DCB
330
18DC1
100
AcDbEntity
  8
Defpoints
 62
     0
100
AcDbPoint
 10
369.1997512757769
 20
717.2106400107065
 30
0.0
  0
ENDBLK
  5
18DCC
330
18DC1
100
AcDbEntity
  8
0
100
AcDbBlockEnd
  0
BLOCK
  5
18DE9
330
18DE8
100
AcDbEntity
  8
0
100
AcDbBlockBegin
  2
*D43
 70
     1
 10
0.0
 20
0.0
 30
0.0
  3
*D43
  1

  0
LINE
  5
18DEA
330
18DE8
100
AcDbEntity
  8
DIM
 62
     0
370
    -2
100
AcDbLine
 10
327.2634504786865
 20
676.1713189932952
 30
0.0
 11
267.3368327592247
 21
676.1713189932952
 31
0.0
  0
LINE
  5
18DEB
330
18DE8
100
AcDbEntity
  8
DIM
 62
     0
370
    -2
100
AcDbLine
 10
339.3741879421038
 20
600.7779808160662
 30
0.0
 11
267.3368327592247
 21
600.7779808160662
 31
0.0
  0
LINE
  5
18DEC
330
18DE8
100
AcDbEntity
  8
DIM
 62
     0
370
    -2
100
AcDbLine
 10
267.3368327592247
 20
673.1713189932952
 30
0.0
 11
267.3368327592247
 21
603.7779808160662
 31
0.0
  0
INSERT
  5
18DED
330
18DE8
100
AcDbEntity
  8
DIM
 62
     0
370
    -2
100
AcDbBlockReference
  2
_DOT
 10
267.3368327592247
 20
676.1713189932952
 30
0.0
 41
3.0
 42
3.0
 43
3.0
 50
90.0
  0
INSERT
  5
18DEE
330
18DE8
100
AcDbEntity
  8
DIM
 62
     0
370
    -2
100
AcDbBlockReference
  2
_DOT
 10
267.3368327592247
 20
600.7779808160662
 30
0.0
 41
3.0
 42
3.0
 43
3.0
 50
270.0
  0
MTEXT
  5
18DEF
330
18DE8
100
AcDbEntity
  8
DIM
 62
     0
100
AcDbMText
 10
257.3353321965137
 20
638.4746499046806
 30
0.0
 40
8.0
 41
0.0
 46
0.0
 71
     5
 72
     1
  1
\A1;75
  7
ＭＳ ゴシック
 11
0.0
 21
1.0
 31
0.0
 73
     1
 44
1.0
  0
POINT
  5
18DF0
330
18DE8
100
AcDbEntity
  8
Defpoints
 62
     0
100
AcDbPoint
 10
337.2634504786865
 20
676.1713189932952
 30
0.0
  0
POINT
  5
18DF1
330
18DE8
100
AcDbEntity
  8
Defpoints
 62
     0
100
AcDbPoint
 10
349.3741879421038
 20
600.7779808160662
 30
0.0
  0
POINT
  5
18DF2
330
18DE8
100
AcDbEntity
  8
Defpoints
 62
     0
100
AcDbPoint
 10
267.3368327592247
 20
600.7779808160662
 30
0.0
  0
ENDBLK
  5
18DF3
330
18DE8
100
AcDbEntity
  8
0
100
AcDbBlockEnd
  0
BLOCK
  5
18DF8
330
18DF7
100
AcDbEntity
  8
0
100
AcDbBlockBegin
  2
*D44
 70
     1
 10
0.0
 20
0.0
 30
0.0
  3
*D44
  1

  0
LINE
  5
18DF9
330
18DF7
100
AcDbEntity
  8
DIM
 62
     0
370
    -2
100
AcDbLine
 10
337.2634504786865
 20
611.1935019435721
 30
0.0
 11
337.2634504786865
 21
572.6860278796051
 31
0.0
  0
LINE
  5
18DFA
330
18DF7
100
AcDbEntity
  8
DIM
 62
     0
370
    -2
100
AcDbLine
 10
366.0653781093793
 20
591.7944783793914
 30
0.0
 11
366.0653781093793
 21
572.6860278796051
 31
0.0
  0
LINE
  5
18DFB
330
18DF7
100
AcDbEntity
  8
DIM
 62
     0
370
    -2
100
AcDbLine
 10
340.2634504786865
 20
572.6860278796051
 30
0.0
 11
363.0653781093793
 21
572.6860278796051
 31
0.0
  0
INSERT
  5
18DFC
330
18DF7
100
AcDbEntity
  8
DIM
 62
     0
370
    -2
100
AcDbBlockReference
  2
_DOT
 10
337.2634504786865
 20
572.6860278796051
 30
0.0
 41
3.0
 42
3.0
 43
3.0
 50
180.0
  0
INSERT
  5
18DFD
330
18DF7
100
AcDbEntity
  8
DIM
 62
     0
370
    -2
100
AcDbBlockReference
  2
_DOT
 10
366.0653781093793
 20
572.6860278796051
 30
0.0
 41
3.0
 42
3.0
 43
3.0
  0
MTEXT
  5
18DFE
330
18DF7
100
AcDbEntity
  8
DIM
 62
     0
100
AcDbMText
 10
351.6644142940329
 20
582.6875284423162
 30
0.0
 40
8.0
 41
0.0
 46
0.0
 71
     5
 72
     1
  1
\A1;29
  7
ＭＳ ゴシック
 73
     1
 44
1.0
  0
POINT
  5
18DFF
330
18DF7
100
AcDbEntity
  8
Defpoints
 62
     0
100
AcDbPoint
 10
337.2634504786865
 20
621.1935019435721
 30
0.0
  0
POINT
  5
18E00
330
18DF7
100
AcDbEntity
  8
Defpoints
 62
     0
100
AcDbPoint
 10
366.0653781093793
 20
601.7944783793914
 30
0.0
  0
POINT
  5
18E01
330
18DF7
100
AcDbEntity
  8
Defpoints
 62
     0
100
AcDbPoint
 10
366.0653781093793
 20
572.6860278796051
 30
0.0
  0
ENDBLK
  5
18E02
330
18DF7
100
AcDbEntity
  8
0
100
AcDbBlockEnd
  0
BLOCK
  5
18F8D
330
18F8C
100
AcDbEntity
  8
0
100
AcDbBlockBegin
  2
*D45
 70
     1
 10
0.0
 20
0.0
 30
0.0
  3
*D45
  1

  0
LINE
  5
18F8F
330
18F8C
100
AcDbEntity
  8
DIM
 62
     0
370
    -2
100
AcDbLine
 10
237.1532800341717
 20
772.4205046149102
 30
0.0
 11
268.319883798603
 21
809.0943735884421
 31
0.0
  0
MTEXT
  5
18F90
330
18F8C
100
AcDbEntity
  8
DIM
 62
     0
100
AcDbMText
 10
250.2744914270206
 20
803.3048595606017
 30
0.0
 40
8.0
 41
0.0
 46
0.0
 71
     5
 72
     1
  1
\A1;%%C210
  7
ＭＳ ゴシック
 11
0.647573811523433
 21
0.7620027287543092
 31
0.0
 73
     1
 44
1.0
  0
INSERT
  5
18F91
330
18F8C
100
AcDbEntity
  8
DIM
 62
     0
370
    -2
100
AcDbBlockReference
  2
_DOT
 10
235.2105585996014
 20
770.1344964286473
 30
0.0
 41
3.0
 42
3.0
 43
3.0
 50
229.6410735566364
  0
POINT
  5
18F92
330
18F8C
100
AcDbEntity
  8
Defpoints
 62
     0
100
AcDbPoint
 10
235.2105585996014
 20
770.1344964286473
 30
0.0
  0
POINT
  5
18F93
330
18F8C
100
AcDbEntity
  8
Defpoints
 62
     0
100
AcDbPoint
 10
99.2200581796804
 20
610.1139233902422
 30
0.0
  0
ENDBLK
  5
18F8E
330
18F8C
100
AcDbEntity
  8
0
100
AcDbBlockEnd
  0
BLOCK
  5
18F95
330
18F94
100
AcDbEntity
  8
0
100
AcDbBlockBegin
  2
*D46
 70
     1
 10
0.0
 20
0.0
 30
0.0
  3
*D46
  1

  0
LINE
  5
18F97
330
18F94
100
AcDbEntity
  8
DIM
 62
     0
370
    -2
100
AcDbLine
 10
249.2555462955212
 20
752.4010062652831
 30
0.0
 11
307.3405805238513
 21
796.4933923954841
 31
0.0
  0
MTEXT
  5
18F98
330
18F94
100
AcDbEntity
  8
DIM
 62
     0
100
AcDbMText
 10
274.5692041228378
 20
784.7086684470497
 30
0.0
 40
8.0
 41
0.0
 46
0.0
 71
     5
 72
     1
  1
\A1;ミラー %%C200
  7
ＭＳ ゴシック
 11
0.7965071641347599
 21
0.6046290908333825
 31
0.0
 73
     1
 44
1.0
  0
INSERT
  5
18F99
330
18F94
100
AcDbEntity
  8
DIM
 62
     0
370
    -2
100
AcDbBlockReference
  2
_DOT
 10
246.8660248031169
 20
750.587118992783
 30
0.0
 41
3.0
 42
3.0
 43
3.0
 50
217.2021562544207
  0
POINT
  5
18F9A
330
18F94
100
AcDbEntity
  8
Defpoints
 62
     0
100
AcDbPoint
 10
246.8660248031169
 20
750.587118992783
 30
0.0
  0
POINT
  5
18F9B
330
18F94
100
AcDbEntity
  8
Defpoints
 62
     0
100
AcDbPoint
 10
87.56459197616499
 20
629.6613008261065
 30
0.0
  0
ENDBLK
  5
18F96
330
18F94
100
AcDbEntity
  8
0
100
AcDbBlockEnd
  0
BLOCK
  5
18F9D
330
18F9C
100
AcDbEntity
  8
0
100
AcDbBlockBegin
  2
*D47
 70
     1
 10
0.0
 20
0.0
 30
0.0
  3
*D47
  1

  0
LINE
  5
18F9F
330
18F9C
100
AcDbEntity
  8
DIM
 62
     0
370
    -2
100
AcDbLine
 10
99.66650350517229
 20
475.3653132216912
 30
0.0
 11
99.66650350517229
 21
538.8129920824703
 31
0.0
  0
LINE
  5
18FA0
330
18F9C
100
AcDbEntity
  8
DIM
 62
     0
370
    -2
100
AcDbLine
 10
154.7290286851723
 20
475.3653132216912
 30
0.0
 11
154.7290286851723
 21
538.8129920824703
 31
0.0
  0
LINE
  5
18FA1
330
18F9C
100
AcDbEntity
  8
DIM
 62
     0
370
    -2
100
AcDbLine
 10
102.6665035051723
 20
538.8129920824703
 30
0.0
 11
151.7290286851723
 21
538.8129920824703
 31
0.0
  0
INSERT
  5
18FA2
330
18F9C
100
AcDbEntity
  8
DIM
 62
     0
370
    -2
100
AcDbBlockReference
  2
_DOT
 10
99.66650350517229
 20
538.8129920824703
 30
0.0
 41
3.0
 42
3.0
 43
3.0
 50
180.0
  0
INSERT
  5
18FA3
330
18F9C
100
AcDbEntity
  8
DIM
 62
     0
370
    -2
100
AcDbBlockReference
  2
_DOT
 10
154.7290286851723
 20
538.8129920824703
 30
0.0
 41
3.0
 42
3.0
 43
3.0
  0
MTEXT
  5
18FA4
330
18F9C
100
AcDbEntity
  8
DIM
 62
     0
100
AcDbMText
 10
127.1977660951723
 20
548.8144926451813
 30
0.0
 40
8.0
 41
0.0
 46
0.0
 71
     5
 72
     1
  1
\A1;%%C55
  7
ＭＳ ゴシック
 73
     1
 44
1.0
  0
POINT
  5
18FA5
330
18F9C
100
AcDbEntity
  8
Defpoints
 62
     0
100
AcDbPoint
 10
99.66650350517229
 20
465.3653132216912
 30
0.0
  0
POINT
  5
18FA6
330
18F9C
100
AcDbEntity
  8
Defpoints
 62
     0
100
AcDbPoint
 10
154.7290286851723
 20
465.3653132216912
 30
0.0
  0
POINT
  5
18FA7
330
18F9C
100
AcDbEntity
  8
Defpoints
 62
     0
100
AcDbPoint
 10
154.7290286851723
 20
538.8129920824703
 30
0.0
  0
ENDBLK
  5
18F9E
330
18F9C
100
AcDbEntity
  8
0
100
AcDbBlockEnd
  0
BLOCK
  5
18FA9
330
18FA8
100
AcDbEntity
  8
0
100
AcDbBlockBegin
  2
*D48
 70
     1
 10
0.0
 20
0.0
 30
0.0
  3
*D48
  1

  0
LINE
  5
18FAB
330
18FA8
100
AcDbEntity
  8
DIM
 62
     0
370
    -2
100
AcDbLine
 10
164.7290286851723
 20
465.3653132216912
 30
0.0
 11
309.5789711807799
 21
465.3653132216912
 31
0.0
  0
LINE
  5
18FAC
330
18FA8
100
AcDbEntity
  8
DIM
 62
     0
370
    -2
100
AcDbLine
 10
285.2068419608741
 20
446.5720755856199
 30
0.0
 11
309.5789711807799
 21
446.5720755856199
 31
0.0
  0
LINE
  5
18FAD
330
18FA8
100
AcDbEntity
  8
DIM
 62
     0
370
    -2
100
AcDbLine
 10
309.5789711807799
 20
462.3653132216912
 30
0.0
 11
309.5789711807799
 21
449.5720755856199
 31
0.0
  0
INSERT
  5
18FAE
330
18FA8
100
AcDbEntity
  8
DIM
 62
     0
370
    -2
100
AcDbBlockReference
  2
_DOT
 10
309.5789711807799
 20
465.3653132216912
 30
0.0
 41
3.0
 42
3.0
 43
3.0
 50
90.0
  0
INSERT
  5
18FAF
330
18FA8
100
AcDbEntity
  8
DIM
 62
     0
370
    -2
100
AcDbBlockReference
  2
_DOT
 10
309.5789711807799
 20
446.5720755856199
 30
0.0
 41
3.0
 42
3.0
 43
3.0
 50
270.0
  0
MTEXT
  5
18FB0
330
18FA8
100
AcDbEntity
  8
DIM
 62
     0
100
AcDbMText
 10
299.5774706180688
 20
455.9686944036555
 30
0.0
 40
8.0
 41
0.0
 46
0.0
 71
     5
 72
     1
  1
\A1;19
  7
ＭＳ ゴシック
 11
0.0
 21
1.0
 31
0.0
 73
     1
 44
1.0
  0
POINT
  5
18FB1
330
18FA8
100
AcDbEntity
  8
Defpoints
 62
     0
100
AcDbPoint
 10
154.7290286851723
 20
465.3653132216912
 30
0.0
  0
POINT
  5
18FB2
330
18FA8
100
AcDbEntity
  8
Defpoints
 62
     0
100
AcDbPoint
 10
275.2068419608741
 20
446.5720755856199
 30
0.0
  0
POINT
  5
18FB3
330
18FA8
100
AcDbEntity
  8
Defpoints
 62
     0
100
AcDbPoint
 10
309.5789711807799
 20
446.5720755856199
 30
0.0
  0
ENDBLK
  5
18FAA
330
18FA8
100
AcDbEntity
  8
0
100
AcDbBlockEnd
  0
BLOCK
  5
18FB5
330
18FB4
100
AcDbEntity
  8
0
100
AcDbBlockBegin
  2
*D49
 70
     1
 10
0.0
 20
0.0
 30
0.0
  3
*D49
  1

  0
LINE
  5
18FB7
330
18FB4
100
AcDbEntity
  8
DIM
 62
     0
370
    -2
100
AcDbLine
 10
482.6330910406903
 20
736.0363603524946
 30
0.0
 11
482.6330910406903
 21
767.0755090237608
 31
0.0
  0
LINE
  5
18FB8
330
18FB4
100
AcDbEntity
  8
DIM
 62
     0
370
    -2
100
AcDbLine
 10
514.5693056647082
 20
735.6974416583136
 30
0.0
 11
514.5693056647082
 21
767.0755090237608
 31
0.0
  0
LINE
  5
18FB9
330
18FB4
100
AcDbEntity
  8
DIM
 62
     0
370
    -2
100
AcDbLine
 10
485.6330910406903
 20
767.0755090237608
 30
0.0
 11
511.5693056647082
 21
767.0755090237608
 31
0.0
  0
INSERT
  5
18FBA
330
18FB4
100
AcDbEntity
  8
DIM
 62
     0
370
    -2
100
AcDbBlockReference
  2
_DOT
 10
482.6330910406903
 20
767.0755090237608
 30
0.0
 41
3.0
 42
3.0
 43
3.0
 50
180.0
  0
INSERT
  5
18FBB
330
18FB4
100
AcDbEntity
  8
DIM
 62
     0
370
    -2
100
AcDbBlockReference
  2
_DOT
 10
514.5693056647082
 20
767.0755090237608
 30
0.0
 41
3.0
 42
3.0
 43
3.0
  0
MTEXT
  5
18FBC
330
18FB4
100
AcDbEntity
  8
DIM
 62
     0
100
AcDbMText
 10
499.9521595010594
 20
777.0770095864718
 30
0.0
 40
8.0
 41
0.0
 46
0.0
 71
     5
 72
     1
  1
\A1;32
  7
ＭＳ ゴシック
 73
     1
 44
1.0
  0
POINT
  5
18FBD
330
18FB4
100
AcDbEntity
  8
Defpoints
 62
     0
100
AcDbPoint
 10
482.6330910406903
 20
726.0363603524946
 30
0.0
  0
POINT
  5
18FBE
330
18FB4
100
AcDbEntity
  8
Defpoints
 62
     0
100
AcDbPoint
 10
514.5693056647082
 20
725.6974416583136
 30
0.0
  0
POINT
  5
18FBF
330
18FB4
100
AcDbEntity
  8
Defpoints
 62
     0
100
AcDbPoint
 10
514.5693056647082
 20
767.0755090237608
 30
0.0
  0
ENDBLK
  5
18FB6
330
18FB4
100
AcDbEntity
  8
0
100
AcDbBlockEnd
  0
BLOCK
  5
18FC1
330
18FC0
100
AcDbEntity
  8
0
100
AcDbBlockBegin
  2
*D50
 70
     1
 10
0.0
 20
0.0
 30
0.0
  3
*D50
  1

  0
LINE
  5
18FC3
330
18FC0
100
AcDbEntity
  8
DIM
 62
     0
370
    -2
100
AcDbLine
 10
452.4588192637909
 20
465.3651408755463
 30
0.0
 11
556.0292187876288
 21
465.3651408755463
 31
0.0
  0
LINE
  5
18FC4
330
18FC0
100
AcDbEntity
  8
DIM
 62
     0
370
    -2
100
AcDbLine
 10
529.8852171974746
 20
154.6431162072904
 30
0.0
 11
556.0292187876288
 21
154.6431162072904
 31
0.0
  0
LINE
  5
18FC5
330
18FC0
100
AcDbEntity
  8
DIM
 62
     0
370
    -2
100
AcDbLine
 10
556.0292187876288
 20
462.3651408755463
 30
0.0
 11
556.0292187876288
 21
157.6431162072904
 31
0.0
  0
INSERT
  5
18FC6
330
18FC0
100
AcDbEntity
  8
DIM
 62
     0
370
    -2
100
AcDbBlockReference
  2
_DOT
 10
556.0292187876288
 20
465.3651408755463
 30
0.0
 41
3.0
 42
3.0
 43
3.0
 50
90.0
  0
INSERT
  5
18FC7
330
18FC0
100
AcDbEntity
  8
DIM
 62
     0
370
    -2
100
AcDbBlockReference
  2
_DOT
 10
556.0292187876288
 20
154.6431162072904
 30
0.0
 41
3.0
 42
3.0
 43
3.0
 50
270.0
  0
MTEXT
  5
18FC8
330
18FC0
100
AcDbEntity
  8
DIM
 62
     0
100
AcDbMText
 10
546.0277182249177
 20
310.0041285414184
 30
0.0
 40
8.0
 41
0.0
 46
0.0
 71
     5
 72
     1
  1
\A1;311
  7
ＭＳ ゴシック
 11
0.0
 21
1.0
 31
0.0
 73
     1
 44
1.0
  0
POINT
  5
18FC9
330
18FC0
100
AcDbEntity
  8
Defpoints
 62
     0
100
AcDbPoint
 10
442.4588192637909
 20
465.3651408755463
 30
0.0
  0
POINT
  5
18FCA
330
18FC0
100
AcDbEntity
  8
Defpoints
 62
     0
100
AcDbPoint
 10
519.8852171974746
 20
154.6431162072904
 30
0.0
  0
POINT
  5
18FCB
330
18FC0
100
AcDbEntity
  8
Defpoints
 62
     0
100
AcDbPoint
 10
556.0292187876288
 20
154.6431162072904
 30
0.0
  0
ENDBLK
  5
18FC2
330
18FC0
100
AcDbEntity
  8
0
100
AcDbBlockEnd
  0
BLOCK
  5
18FCD
330
18FCC
100
AcDbEntity
  8
0
100
AcDbBlockBegin
  2
*D51
 70
     1
 10
0.0
 20
0.0
 30
0.0
  3
*D51
  1

  0
LINE
  5
18FCF
330
18FCC
100
AcDbEntity
  8
DIM
 62
     0
370
    -2
100
AcDbLine
 10
482.6330048676178
 20
661.0583709566264
 30
0.0
 11
482.6330048676178
 21
622.5508968926595
 31
0.0
  0
LINE
  5
18FD0
330
18FCC
100
AcDbEntity
  8
DIM
 62
     0
370
    -2
100
AcDbLine
 10
511.4349324983106
 20
641.6593473924457
 30
0.0
 11
511.4349324983106
 21
622.5508968926595
 31
0.0
  0
LINE
  5
18FD1
330
18FCC
100
AcDbEntity
  8
DIM
 62
     0
370
    -2
100
AcDbLine
 10
485.6330048676178
 20
622.5508968926595
 30
0.0
 11
508.4349324983106
 21
622.5508968926595
 31
0.0
  0
INSERT
  5
18FD2
330
18FCC
100
AcDbEntity
  8
DIM
 62
     0
370
    -2
100
AcDbBlockReference
  2
_DOT
 10
482.6330048676178
 20
622.5508968926595
 30
0.0
 41
3.0
 42
3.0
 43
3.0
 50
180.0
  0
INSERT
  5
18FD3
330
18FCC
100
AcDbEntity
  8
DIM
 62
     0
370
    -2
100
AcDbBlockReference
  2
_DOT
 10
511.4349324983106
 20
622.5508968926595
 30
0.0
 41
3.0
 42
3.0
 43
3.0
  0
MTEXT
  5
18FD4
330
18FCC
100
AcDbEntity
  8
DIM
 62
     0
100
AcDbMText
 10
497.0339686829642
 20
632.5523974553705
 30
0.0
 40
8.0
 41
0.0
 46
0.0
 71
     5
 72
     1
  1
\A1;29
  7
ＭＳ ゴシック
 73
     1
 44
1.0
  0
POINT
  5
18FD5
330
18FCC
100
AcDbEntity
  8
Defpoints
 62
     0
100
AcDbPoint
 10
482.6330048676178
 20
671.0583709566264
 30
0.0
  0
POINT
  5
18FD6
330
18FCC
100
AcDbEntity
  8
Defpoints
 62
     0
100
AcDbPoint
 10
511.4349324983106
 20
651.6593473924457
 30
0.0
  0
POINT
  5
18FD7
330
18FCC
100
AcDbEntity
  8
Defpoints
 62
     0
100
AcDbPoint
 10
511.4349324983106
 20
622.5508968926595
 30
0.0
  0
ENDBLK
  5
18FCE
330
18FCC
100
AcDbEntity
  8
0
100
AcDbBlockEnd
  0
BLOCK
  5
18FD9
330
18FD8
100
AcDbEntity
  8
0
100
AcDbBlockBegin
  2
*D52
 70
     1
 10
0.0
 20
0.0
 30
0.0
  3
*D52
  1

  0
LINE
  5
18FDB
330
18FD8
100
AcDbEntity
  8
DIM
 62
     0
370
    -2
100
AcDbLine
 10
299.8852095630981
 20
154.6430946640222
 30
0.0
 11
265.8096668976145
 21
154.6430946640222
 31
0.0
  0
LINE
  5
18FDC
330
18FD8
100
AcDbEntity
  8
DIM
 62
     0
370
    -2
100
AcDbLine
 10
392.7430215713263
 20
187.5112495239652
 30
0.0
 11
265.8096668976145
 21
187.5112495239652
 31
0.0
  0
LINE
  5
18FDD
330
18FD8
100
AcDbEntity
  8
DIM
 62
     0
370
    -2
100
AcDbLine
 10
265.8096668976145
 20
157.6430946640222
 30
0.0
 11
265.8096668976145
 21
184.5112495239652
 31
0.0
  0
INSERT
  5
18FDE
330
18FD8
100
AcDbEntity
  8
DIM
 62
     0
370
    -2
100
AcDbBlockReference
  2
_DOT
 10
265.8096668976145
 20
154.6430946640222
 30
0.0
 41
3.0
 42
3.0
 43
3.0
 50
270.0
  0
INSERT
  5
18FDF
330
18FD8
100
AcDbEntity
  8
DIM
 62
     0
370
    -2
100
AcDbBlockReference
  2
_DOT
 10
265.8096668976145
 20
187.5112495239652
 30
0.0
 41
3.0
 42
3.0
 43
3.0
 50
90.0
  0
MTEXT
  5
18FE0
330
18FD8
100
AcDbEntity
  8
DIM
 62
     0
100
AcDbMText
 10
255.8081663349035
 20
171.0771720939937
 30
0.0
 40
8.0
 41
0.0
 46
0.0
 71
     5
 72
     1
  1
\A1;33
  7
ＭＳ ゴシック
 11
0.0
 21
1.0
 31
0.0
 73
     1
 44
1.0
  0
POINT
  5
18FE1
330
18FD8
100
AcDbEntity
  8
Defpoints
 62
     0
100
AcDbPoint
 10
309.8852095630981
 20
154.6430946640222
 30
0.0
  0
POINT
  5
18FE2
330
18FD8
100
AcDbEntity
  8
Defpoints
 62
     0
100
AcDbPoint
 10
402.7430215713263
 20
187.5112495239652
 30
0.0
  0
POINT
  5
18FE3
330
18FD8
100
AcDbEntity
  8
Defpoints
 62
     0
100
AcDbPoint
 10
265.8096668976145
 20
187.5112495239652
 30
0.0
  0
ENDBLK
  5
18FDA
330
18FD8
100
AcDbEntity
  8
0
100
AcDbBlockEnd
  0
BLOCK
  5
18FE5
330
18FE4
100
AcDbEntity
  8
0
100
AcDbBlockBegin
  2
*D53
 70
     1
 10
0.0
 20
0.0
 30
0.0
  3
*D53
  1

  0
LINE
  5
18FE7
330
18FE4
100
AcDbEntity
  8
DIM
 62
     0
370
    -2
100
AcDbLine
 10
62.22398035065714
 20
380.6497262597513
 30
0.0
 11
62.22398035065714
 21
339.2135385232413
 31
0.0
  0
LINE
  5
18FE8
330
18FE4
100
AcDbEntity
  8
DIM
 62
     0
370
    -2
100
AcDbLine
 10
275.2068419608741
 20
436.5720755856199
 30
0.0
 11
275.2068419608741
 21
339.2135385232413
 31
0.0
  0
LINE
  5
18FE9
330
18FE4
100
AcDbEntity
  8
DIM
 62
     0
370
    -2
100
AcDbLine
 10
65.22398035065714
 20
339.2135385232413
 30
0.0
 11
272.2068419608741
 21
339.2135385232413
 31
0.0
  0
INSERT
  5
18FEA
330
18FE4
100
AcDbEntity
  8
DIM
 62
     0
370
    -2
100
AcDbBlockReference
  2
_DOT
 10
62.22398035065714
 20
339.2135385232413
 30
0.0
 41
3.0
 42
3.0
 43
3.0
 50
180.0
  0
INSERT
  5
18FEB
330
18FE4
100
AcDbEntity
  8
DIM
 62
     0
370
    -2
100
AcDbBlockReference
  2
_DOT
 10
275.2068419608741
 20
339.2135385232413
 30
0.0
 41
3.0
 42
3.0
 43
3.0
  0
MTEXT
  5
18FEC
330
18FE4
100
AcDbEntity
  8
DIM
 62
     0
100
AcDbMText
 10
168.7154111557656
 20
349.2150390859524
 30
0.0
 40
8.0
 41
0.0
 46
0.0
 71
     5
 72
     1
  1
\A1;213
  7
ＭＳ ゴシック
 73
     1
 44
1.0
  0
POINT
  5
18FED
330
18FE4
100
AcDbEntity
  8
Defpoints
 62
     0
100
AcDbPoint
 10
62.22398035065714
 20
390.6497262597513
 30
0.0
  0
POINT
  5
18FEE
330
18FE4
100
AcDbEntity
  8
Defpoints
 62
     0
100
AcDbPoint
 10
275.2068419608741
 20
446.5720755856199
 30
0.0
  0
POINT
  5
18FEF
330
18FE4
100
AcDbEntity
  8
Defpoints
 62
     0
100
AcDbPoint
 10
275.2068419608741
 20
339.2135385232413
 30
0.0
  0
ENDBLK
  5
18FE6
330
18FE4
100
AcDbEntity
  8
0
100
AcDbBlockEnd
  0
BLOCK
  5
18FF1
330
18FF0
100
AcDbEntity
  8
0
100
AcDbBlockBegin
  2
*D54
 70
     1
 10
0.0
 20
0.0
 30
0.0
  3
*D54
  1

  0
LINE
  5
18FF3
330
18FF0
100
AcDbEntity
  8
DIM
 62
     0
370
    -2
100
AcDbLine
 10
482.6330048676178
 20
661.0583709566264
 30
0.0
 11
482.6330048676178
 21
552.877491889806
 31
0.0
  0
LINE
  5
18FF4
330
18FF0
100
AcDbEntity
  8
DIM
 62
     0
370
    -2
100
AcDbLine
 10
557.3486349160937
 20
577.0244587988435
 30
0.0
 11
557.3486349160937
 21
552.877491889806
 31
0.0
  0
LINE
  5
18FF5
330
18FF0
100
AcDbEntity
  8
DIM
 62
     0
370
    -2
100
AcDbLine
 10
485.6330048676178
 20
552.877491889806
 30
0.0
 11
554.3486349160937
 21
552.877491889806
 31
0.0
  0
INSERT
  5
18FF6
330
18FF0
100
AcDbEntity
  8
DIM
 62
     0
370
    -2
100
AcDbBlockReference
  2
_DOT
 10
482.6330048676178
 20
552.877491889806
 30
0.0
 41
3.0
 42
3.0
 43
3.0
 50
180.0
  0
INSERT
  5
18FF7
330
18FF0
100
AcDbEntity
  8
DIM
 62
     0
370
    -2
100
AcDbBlockReference
  2
_DOT
 10
557.3486349160937
 20
552.877491889806
 30
0.0
 41
3.0
 42
3.0
 43
3.0
  0
MTEXT
  5
18FF8
330
18FF0
100
AcDbEntity
  8
DIM
 62
     0
100
AcDbMText
 10
519.9908198918558
 20
562.8789924525171
 30
0.0
 40
8.0
 41
0.0
 46
0.0
 71
     5
 72
     1
  1
\A1;75
  7
ＭＳ ゴシック
 73
     1
 44
1.0
  0
POINT
  5
18FF9
330
18FF0
100
AcDbEntity
  8
Defpoints
 62
     0
100
AcDbPoint
 10
482.6330048676178
 20
671.0583709566264
 30
0.0
  0
POINT
  5
18FFA
330
18FF0
100
AcDbEntity
  8
Defpoints
 62
     0
100
AcDbPoint
 10
557.3486349160937
 20
587.0244587988435
 30
0.0
  0
POINT
  5
18FFB
330
18FF0
100
AcDbEntity
  8
Defpoints
 62
     0
100
AcDbPoint
 10
557.3486349160937
 20
552.877491889806
 30
0.0
  0
ENDBLK
  5
18FF2
330
18FF0
100
AcDbEntity
  8
0
100
AcDbBlockEnd
  0
BLOCK
  5
18FFD
330
18FFC
100
AcDbEntity
  8
0
100
AcDbBlockBegin
  2
*D55
 70
     1
 10
0.0
 20
0.0
 30
0.0
  3
*D55
  1

  0
LINE
  5
18FFF
330
18FFC
100
AcDbEntity
  8
DIM
 62
     0
370
    -2
100
AcDbLine
 10
472.6330048676178
 20
726.0361880063496
 30
0.0
 11
412.706387148156
 21
726.0361880063496
 31
0.0
  0
LINE
  5
19000
330
18FFC
100
AcDbEntity
  8
DIM
 62
     0
370
    -2
100
AcDbLine
 10
484.7437423310352
 20
650.6428498291206
 30
0.0
 11
412.706387148156
 21
650.6428498291206
 31
0.0
  0
LINE
  5
19001
330
18FFC
100
AcDbEntity
  8
DIM
 62
     0
370
    -2
100
AcDbLine
 10
412.706387148156
 20
723.0361880063496
 30
0.0
 11
412.706387148156
 21
653.6428498291206
 31
0.0
  0
INSERT
  5
19002
330
18FFC
100
AcDbEntity
  8
DIM
 62
     0
370
    -2
100
AcDbBlockReference
  2
_DOT
 10
412.706387148156
 20
726.0361880063496
 30
0.0
 41
3.0
 42
3.0
 43
3.0
 50
90.0
  0
INSERT
  5
19003
330
18FFC
100
AcDbEntity
  8
DIM
 62
     0
370
    -2
100
AcDbBlockReference
  2
_DOT
 10
412.706387148156
 20
650.6428498291206
 30
0.0
 41
3.0
 42
3.0
 43
3.0
 50
270.0
  0
MTEXT
  5
19004
330
18FFC
100
AcDbEntity
  8
DIM
 62
     0
100
AcDbMText
 10
402.7048865854449
 20
688.339518917735
 30
0.0
 40
8.0
 41
0.0
 46
0.0
 71
     5
 72
     1
  1
\A1;75
  7
ＭＳ ゴシック
 11
0.0
 21
1.0
 31
0.0
 73
     1
 44
1.0
  0
POINT
  5
19005
330
18FFC
100
AcDbEntity
  8
Defpoints
 62
     0
100
AcDbPoint
 10
482.6330048676178
 20
726.0361880063496
 30
0.0
  0
POINT
  5
19006
330
18FFC
100
AcDbEntity
  8
Defpoints
 62
     0
100
AcDbPoint
 10
494.7437423310352
 20
650.6428498291206
 30
0.0
  0
POINT
  5
19007
330
18FFC
100
AcDbEntity
  8
Defpoints
 62
     0
100
AcDbPoint
 10
412.706387148156
 20
650.6428498291206
 30
0.0
  0
ENDBLK
  5
18FFE
330
18FFC
100
AcDbEntity
  8
0
100
AcDbBlockEnd
  0
BLOCK
  5
19009
330
19008
100
AcDbEntity
  8
0
100
AcDbBlockBegin
  2
*D56
 70
     1
 10
0.0
 20
0.0
 30
0.0
  3
*D56
  1

  0
LINE
  5
1900B
330
19008
100
AcDbEntity
  8
DIM
 62
     0
370
    -2
100
AcDbLine
 10
441.1683473052205
 20
684.5472794814883
 30
0.0
 11
431.4068608706436
 21
684.5472794814883
 31
0.0
  0
LINE
  5
1900C
330
19008
100
AcDbEntity
  8
DIM
 62
     0
370
    -2
100
AcDbLine
 10
440.9260504914771
 20
712.560958040325
 30
0.0
 11
431.4068608706436
 21
712.560958040325
 31
0.0
  0
LINE
  5
1900D
330
19008
100
AcDbEntity
  8
DIM
 62
     0
370
    -2
100
AcDbLine
 10
431.4068608706436
 20
687.5472794814883
 30
0.0
 11
431.4068608706436
 21
709.560958040325
 31
0.0
  0
INSERT
  5
1900E
330
19008
100
AcDbEntity
  8
DIM
 62
     0
370
    -2
100
AcDbBlockReference
  2
_DOT
 10
431.4068608706436
 20
684.5472794814883
 30
0.0
 41
3.0
 42
3.0
 43
3.0
 50
270.0
  0
INSERT
  5
1900F
330
19008
100
AcDbEntity
  8
DIM
 62
     0
370
    -2
100
AcDbBlockReference
  2
_DOT
 10
431.4068608706436
 20
712.560958040325
 30
0.0
 41
3.0
 42
3.0
 43
3.0
 50
90.0
  0
MTEXT
  5
19010
330
19008
100
AcDbEntity
  8
DIM
 62
     0
100
AcDbMText
 10
421.4053603079326
 20
698.5541187609067
 30
0.0
 40
8.0
 41
0.0
 46
0.0
 71
     5
 72
     1
  1
\A1;28
  7
ＭＳ ゴシック
 11
0.0
 21
1.0
 31
0.0
 73
     1
 44
1.0
  0
POINT
  5
19011
330
19008
100
AcDbEntity
  8
Defpoints
 62
     0
100
AcDbPoint
 10
451.1683473052205
 20
684.5472794814883
 30
0.0
  0
POINT
  5
19012
330
19008
100
AcDbEntity
  8
Defpoints
 62
     0
100
AcDbPoint
 10
450.9260504914771
 20
712.560958040325
 30
0.0
  0
POINT
  5
19013
330
19008
100
AcDbEntity
  8
Defpoints
 62
     0
100
AcDbPoint
 10
431.4068608706436
 20
712.560958040325
 30
0.0
  0
ENDBLK
  5
1900A
330
19008
100
AcDbEntity
  8
0
100
AcDbBlockEnd
  0
BLOCK
  5
19015
330
19014
100
AcDbEntity
  8
0
100
AcDbBlockBegin
  2
*D57
 70
     1
 10
0.0
 20
0.0
 30
0.0
  3
*D57
  1

  0
LINE
  5
19017
330
19014
100
AcDbEntity
  8
DIM
 62
     0
370
    -2
100
AcDbLine
 10
127.1977660951726
 20
506.3872066238173
 30
0.0
 11
127.1977660951726
 21
518.0930817312471
 31
0.0
  0
LINE
  5
19018
330
19014
100
AcDbEntity
  8
DIM
 62
     0
370
    -2
100
AcDbLine
 10
143.1977660951726
 20
506.1678907044636
 30
0.0
 11
143.1977660951726
 21
518.0930817312471
 31
0.0
  0
LINE
  5
19019
330
19014
100
AcDbEntity
  8
DIM
 62
     0
370
    -2
100
AcDbLine
 10
130.1977660951726
 20
518.0930817312471
 30
0.0
 11
140.1977660951726
 21
518.0930817312471
 31
0.0
  0
INSERT
  5
1901A
330
19014
100
AcDbEntity
  8
DIM
 62
     0
370
    -2
100
AcDbBlockReference
  2
_DOT
 10
127.1977660951726
 20
518.0930817312471
 30
0.0
 41
3.0
 42
3.0
 43
3.0
 50
180.0
  0
INSERT
  5
1901B
330
19014
100
AcDbEntity
  8
DIM
 62
     0
370
    -2
100
AcDbBlockReference
  2
_DOT
 10
143.1977660951726
 20
518.0930817312471
 30
0.0
 41
3.0
 42
3.0
 43
3.0
  0
MTEXT
  5
1901C
330
19014
100
AcDbEntity
  8
DIM
 62
     0
100
AcDbMText
 10
135.1977660951726
 20
528.0945822939582
 30
0.0
 40
8.0
 41
0.0
 46
0.0
 71
     5
 72
     1
  1
\A1;16
  7
ＭＳ ゴシック
 73
     1
 44
1.0
  0
POINT
  5
1901D
330
19014
100
AcDbEntity
  8
Defpoints
 62
     0
100
AcDbPoint
 10
127.1977660951726
 20
496.3872066238173
 30
0.0
  0
POINT
  5
1901E
330
19014
100
AcDbEntity
  8
Defpoints
 62
     0
100
AcDbPoint
 10
143.1977660951726
 20
496.1678907044636
 30
0.0
  0
POINT
  5
1901F
330
19014
100
AcDbEntity
  8
Defpoints
 62
     0
100
AcDbPoint
 10
143.1977660951726
 20
518.0930817312471
 30
0.0
  0
ENDBLK
  5
19016
330
19014
100
AcDbEntity
  8
0
100
AcDbBlockEnd
  0
BLOCK
  5
19021
330
19020
100
AcDbEntity
  8
0
100
AcDbBlockBegin
  2
*D58
 70
     1
 10
0.0
 20
0.0
 30
0.0
  3
*D58
  1

  0
LINE
  5
19023
330
19020
100
AcDbEntity
  8
DIM
 62
     0
370
    -2
100
AcDbLine
 10
111.1987266066351
 20
506.3872066238173
 30
0.0
 11
111.1987266066351
 21
518.0930817312471
 31
0.0
  0
LINE
  5
19024
330
19020
100
AcDbEntity
  8
DIM
 62
     0
370
    -2
100
AcDbLine
 10
127.1987266066351
 20
506.1678907044636
 30
0.0
 11
127.1987266066351
 21
518.0930817312471
 31
0.0
  0
LINE
  5
19025
330
19020
100
AcDbEntity
  8
DIM
 62
     0
370
    -2
100
AcDbLine
 10
114.1987266066351
 20
518.0930817312471
 30
0.0
 11
124.1987266066351
 21
518.0930817312471
 31
0.0
  0
INSERT
  5
19026
330
19020
100
AcDbEntity
  8
DIM
 62
     0
370
    -2
100
AcDbBlockReference
  2
_DOT
 10
111.1987266066351
 20
518.0930817312471
 30
0.0
 41
3.0
 42
3.0
 43
3.0
 50
180.0
  0
INSERT
  5
19027
330
19020
100
AcDbEntity
  8
DIM
 62
     0
370
    -2
100
AcDbBlockReference
  2
_DOT
 10
127.1987266066351
 20
518.0930817312471
 30
0.0
 41
3.0
 42
3.0
 43
3.0
  0
MTEXT
  5
19028
330
19020
100
AcDbEntity
  8
DIM
 62
     0
100
AcDbMText
 10
119.1987266066351
 20
528.0945822939582
 30
0.0
 40
8.0
 41
0.0
 46
0.0
 71
     5
 72
     1
  1
\A1;16
  7
ＭＳ ゴシック
 73
     1
 44
1.0
  0
POINT
  5
19029
330
19020
100
AcDbEntity
  8
Defpoints
 62
     0
100
AcDbPoint
 10
111.1987266066351
 20
496.3872066238173
 30
0.0
  0
POINT
  5
1902A
330
19020
100
AcDbEntity
  8
Defpoints
 62
     0
100
AcDbPoint
 10
127.1987266066351
 20
496.1678907044636
 30
0.0
  0
POINT
  5
1902B
330
19020
100
AcDbEntity
  8
Defpoints
 62
     0
100
AcDbPoint
 10
127.1987266066351
 20
518.0930817312471
 30
0.0
  0
ENDBLK
  5
19022
330
19020
100
AcDbEntity
  8
0
100
AcDbBlockEnd
  0
BLOCK
  5
195FA
330
195F9
100
AcDbEntity
  8
0
100
AcDbBlockBegin
  2
*D59
 70
     1
 10
0.0
 20
0.0
 30
0.0
  3
*D59
  1

  0
LINE
  5
195FC
330
195F9
100
AcDbEntity
  8
DIM
 62
     0
370
    -2
100
AcDbLine
 10
394.3941213493802
 20
559.9159897168372
 30
0.0
 11
340.2818848740079
 21
559.9159897168372
 31
0.0
  0
LINE
  5
195FD
330
195F9
100
AcDbEntity
  8
DIM
 62
     0
370
    -2
100
AcDbLine
 10
386.4156581219725
 20
392.1943448025593
 30
0.0
 11
340.2818848740079
 21
392.1943448025593
 31
0.0
  0
LINE
  5
195FE
330
195F9
100
AcDbEntity
  8
DIM
 62
     0
370
    -2
100
AcDbLine
 10
340.2818848740079
 20
556.9159897168372
 30
0.0
 11
340.2818848740079
 21
395.1943448025593
 31
0.0
  0
INSERT
  5
195FF
330
195F9
100
AcDbEntity
  8
DIM
 62
     0
370
    -2
100
AcDbBlockReference
  2
_DOT
 10
340.2818848740079
 20
559.9159897168372
 30
0.0
 41
3.0
 42
3.0
 43
3.0
 50
90.0
  0
INSERT
  5
19600
330
195F9
100
AcDbEntity
  8
DIM
 62
     0
370
    -2
100
AcDbBlockReference
  2
_DOT
 10
340.2818848740079
 20
392.1943448025593
 30
0.0
 41
3.0
 42
3.0
 43
3.0
 50
270.0
  0
MTEXT
  5
19601
330
195F9
100
AcDbEntity
  8
DIM
 62
     0
100
AcDbMText
 10
330.2803843112969
 20
476.0551672596982
 30
0.0
 40
8.0
 41
0.0
 46
0.0
 71
     5
 72
     1
  1
\A1;168
  7
ＭＳ ゴシック
 11
0.0
 21
1.0
 31
0.0
 73
     1
 44
1.0
  0
POINT
  5
19602
330
195F9
100
AcDbEntity
  8
Defpoints
 62
     0
100
AcDbPoint
 10
404.3941213493802
 20
559.9159897168372
 30
0.0
  0
POINT
  5
19603
330
195F9
100
AcDbEntity
  8
Defpoints
 62
     0
100
AcDbPoint
 10
396.4156581219725
 20
392.1943448025593
 30
0.0
  0
POINT
  5
19604
330
195F9
100
AcDbEntity
  8
Defpoints
 62
     0
100
AcDbPoint
 10
340.2818848740079
 20
392.1943448025593
 30
0.0
  0
ENDBLK
  5
195FB
330
195F9
100
AcDbEntity
  8
0
100
AcDbBlockEnd
  0
BLOCK
  5
1971B
330
1971A
100
AcDbEntity
  8
0
100
AcDbBlockBegin
  2
*D60
 70
     1
 10
0.0
 20
0.0
 30
0.0
  3
*D60
  1

  0
LINE
  5
1971C
330
1971A
100
AcDbEntity
  8
DIM
 62
     0
370
    -2
100
AcDbLine
 10
256.1235684427776
 20
169.2216449142779
 30
0.0
 11
202.0113319674053
 21
169.2216449142779
 31
0.0
  0
LINE
  5
1971D
330
1971A
100
AcDbEntity
  8
DIM
 62
     0
370
    -2
100
AcDbLine
 10
248.1451052153699
 20
1.500000000000001
 30
0.0
 11
202.0113319674053
 21
1.500000000000003
 31
0.0
  0
LINE
  5
1971E
330
1971A
100
AcDbEntity
  8
DIM
 62
     0
370
    -2
100
AcDbLine
 10
202.0113319674053
 20
166.2216449142779
 30
0.0
 11
202.0113319674053
 21
4.500000000000004
 31
0.0
  0
INSERT
  5
1971F
330
1971A
100
AcDbEntity
  8
DIM
 62
     0
370
    -2
100
AcDbBlockReference
  2
_DOT
 10
202.0113319674053
 20
169.2216449142779
 30
0.0
 41
3.0
 42
3.0
 43
3.0
 50
90.0
  0
INSERT
  5
19720
330
1971A
100
AcDbEntity
  8
DIM
 62
     0
370
    -2
100
AcDbBlockReference
  2
_DOT
 10
202.0113319674053
 20
1.500000000000003
 30
0.0
 41
3.0
 42
3.0
 43
3.0
 50
270.0
  0
MTEXT
  5
19721
330
1971A
100
AcDbEntity
  8
DIM
 62
     0
100
AcDbMText
 10
192.0098314046943
 20
85.36082245713897
 30
0.0
 40
8.0
 41
0.0
 46
0.0
 71
     5
 72
     1
  1
\A1;168
  7
ＭＳ ゴシック
 11
0.0
 21
1.0
 31
0.0
 73
     1
 44
1.0
  0
POINT
  5
19722
330
1971A
100
AcDbEntity
  8
Defpoints
 62
     0
100
AcDbPoint
 10
266.1235684427776
 20
169.2216449142779
 30
0.0
  0
POINT
  5
19723
330
1971A
100
AcDbEntity
  8
Defpoints
 62
     0
100
AcDbPoint
 10
258.1451052153699
 20
1.5
 30
0.0
  0
POINT
  5
19724
330
1971A
100
AcDbEntity
  8
Defpoints
 62
     0
100
AcDbPoint
 10
202.0113319674053
 20
1.500000000000003
 30
0.0
  0
ENDBLK
  5
19725
330
1971A
100
AcDbEntity
  8
0
100
AcDbBlockEnd
  0
BLOCK
  5
19810
330
1980F
100
AcDbEntity
  8
0
100
AcDbBlockBegin
  2
*D61
 70
     1
 10
0.0
 20
0.0
 30
0.0
  3
*D61
  1

  0
LINE
  5
19812
330
1980F
100
AcDbEntity
  8
DIM
 62
     0
370
    -2
100
AcDbLine
 10
1117.924405153174
 20
585.8442123170593
 30
0.0
 11
1063.812168677802
 21
585.8442123170593
 31
0.0
  0
LINE
  5
19813
330
1980F
100
AcDbEntity
  8
DIM
 62
     0
370
    -2
100
AcDbLine
 10
1109.945941925766
 20
418.1225674027813
 30
0.0
 11
1063.812168677802
 21
418.1225674027813
 31
0.0
  0
LINE
  5
19814
330
1980F
100
AcDbEntity
  8
DIM
 62
     0
370
    -2
100
AcDbLine
 10
1063.812168677802
 20
582.8442123170593
 30
0.0
 11
1063.812168677802
 21
421.1225674027813
 31
0.0
  0
INSERT
  5
19815
330
1980F
100
AcDbEntity
  8
DIM
 62
     0
370
    -2
100
AcDbBlockReference
  2
_DOT
 10
1063.812168677802
 20
585.8442123170593
 30
0.0
 41
3.0
 42
3.0
 43
3.0
 50
90.0
  0
INSERT
  5
19816
330
1980F
100
AcDbEntity
  8
DIM
 62
     0
370
    -2
100
AcDbBlockReference
  2
_DOT
 10
1063.812168677802
 20
418.1225674027813
 30
0.0
 41
3.0
 42
3.0
 43
3.0
 50
270.0
  0
MTEXT
  5
19817
330
1980F
100
AcDbEntity
  8
DIM
 62
     0
100
AcDbMText
 10
1053.81066811509
 20
501.9833898599203
 30
0.0
 40
8.0
 41
0.0
 46
0.0
 71
     5
 72
     1
  1
\A1;168
  7
ＭＳ ゴシック
 11
0.0
 21
1.0
 31
0.0
 73
     1
 44
1.0
  0
POINT
  5
19818
330
1980F
100
AcDbEntity
  8
Defpoints
 62
     0
100
AcDbPoint
 10
1127.924405153174
 20
585.8442123170593
 30
0.0
  0
POINT
  5
19819
330
1980F
100
AcDbEntity
  8
Defpoints
 62
     0
100
AcDbPoint
 10
1119.945941925766
 20
418.1225674027813
 30
0.0
  0
POINT
  5
1981A
330
1980F
100
AcDbEntity
  8
Defpoints
 62
     0
100
AcDbPoint
 10
1063.812168677802
 20
418.1225674027813
 30
0.0
  0
ENDBLK
  5
19811
330
1980F
100
AcDbEntity
  8
0
100
AcDbBlockEnd
  0
BLOCK
  5
19B8B
330
19B8A
100
AcDbEntity
  8
0
100
AcDbBlockBegin
  2
*D62
 70
     1
 10
0.0
 20
0.0
 30
0.0
  3
*D62
  1

  0
LINE
  5
19B8C
330
19B8A
100
AcDbEntity
  8
0
 62
     0
370
    -2
100
AcDbLine
 10
113.3253197034071
 20
345.2338816397641
 30
0.0
 11
101.1114048201332
 21
345.2338816397641
 31
0.0
  0
LINE
  5
19B8D
330
19B8A
100
AcDbEntity
  8
0
 62
     0
370
    -2
100
AcDbLine
 10
113.3648138212418
 20
177.233803194752
 30
0.0
 11
101.1114048201332
 21
177.233803194752
 31
0.0
  0
LINE
  5
19B8E
330
19B8A
100
AcDbEntity
  8
0
 62
     0
370
    -2
100
AcDbLine
 10
101.1114048201332
 20
342.2338816397641
 30
0.0
 11
101.1114048201332
 21
180.233803194752
 31
0.0
  0
INSERT
  5
19B8F
330
19B8A
100
AcDbEntity
  8
0
 62
     0
370
    -2
100
AcDbBlockReference
  2
_DOT
 10
101.1114048201332
 20
345.2338816397641
 30
0.0
 41
3.0
 42
3.0
 43
3.0
 50
90.0
  0
INSERT
  5
19B90
330
19B8A
100
AcDbEntity
  8
0
 62
     0
370
    -2
100
AcDbBlockReference
  2
_DOT
 10
101.1114048201332
 20
177.233803194752
 30
0.0
 41
3.0
 42
3.0
 43
3.0
 50
270.0
  0
MTEXT
  5
19B91
330
19B8A
100
AcDbEntity
  8
0
 62
     0
100
AcDbMText
 10
91.10990425742216
 20
261.2338424172581
 30
0.0
 40
8.0
 41
0.0
 46
0.0
 71
     5
 72
     1
  1
\A1;168
  7
ＭＳ ゴシック
 11
8.458838142657973E-17
 21
1.0
 31
0.0
 73
     1
 44
1.0
  0
POINT
  5
19B92
330
19B8A
100
AcDbEntity
  8
Defpoints
 62
     0
100
AcDbPoint
 10
123.3253197034071
 20
345.2338816397641
 30
0.0
  0
POINT
  5
19B93
330
19B8A
100
AcDbEntity
  8
Defpoints
 62
     0
100
AcDbPoint
 10
123.3648138212418
 20
177.233803194752
 30
0.0
  0
POINT
  5
19B94
330
19B8A
100
AcDbEntity
  8
Defpoints
 62
     0
100
AcDbPoint
 10
101.1114048201332
 20
177.233803194752
 30
0.0
  0
ENDBLK
  5
19B95
330
19B8A
100
AcDbEntity
  8
0
100
AcDbBlockEnd
  0
BLOCK
  5
19EDB
330
19EDA
100
AcDbEntity
  8
0
100
AcDbBlockBegin
  2
*D63
 70
     1
 10
0.0
 20
0.0
 30
0.0
  3
*D63
  1

  0
LINE
  5
19EDD
330
19EDA
100
AcDbEntity
  8
0
 62
     0
370
    -2
100
AcDbLine
 10
969.5234800090363
 20
300.7348374010569
 30
0.0
 11
957.3095651257624
 21
300.7348374010569
 31
0.0
  0
LINE
  5
19EDE
330
19EDA
100
AcDbEntity
  8
0
 62
     0
370
    -2
100
AcDbLine
 10
969.562974126871
 20
132.7347589560447
 30
0.0
 11
957.3095651257624
 21
132.7347589560447
 31
0.0
  0
LINE
  5
19EDF
330
19EDA
100
AcDbEntity
  8
0
 62
     0
370
    -2
100
AcDbLine
 10
957.3095651257624
 20
297.7348374010569
 30
0.0
 11
957.3095651257624
 21
135.7347589560447
 31
0.0
  0
INSERT
  5
19EE0
330
19EDA
100
AcDbEntity
  8
0
 62
     0
370
    -2
100
AcDbBlockReference
  2
_DOT
 10
957.3095651257624
 20
300.7348374010569
 30
0.0
 41
3.0
 42
3.0
 43
3.0
 50
90.0
  0
INSERT
  5
19EE1
330
19EDA
100
AcDbEntity
  8
0
 62
     0
370
    -2
100
AcDbBlockReference
  2
_DOT
 10
957.3095651257624
 20
132.7347589560447
 30
0.0
 41
3.0
 42
3.0
 43
3.0
 50
270.0
  0
MTEXT
  5
19EE2
330
19EDA
100
AcDbEntity
  8
0
 62
     0
100
AcDbMText
 10
947.3080645630514
 20
216.7347981785508
 30
0.0
 40
8.0
 41
0.0
 46
0.0
 71
     5
 72
     1
  1
\A1;168
  7
ＭＳ ゴシック
 11
0.0
 21
1.0
 31
0.0
 73
     1
 44
1.0
  0
POINT
  5
19EE3
330
19EDA
100
AcDbEntity
  8
Defpoints
 62
     0
100
AcDbPoint
 10
979.5234800090363
 20
300.7348374010569
 30
0.0
  0
POINT
  5
19EE4
330
19EDA
100
AcDbEntity
  8
Defpoints
 62
     0
100
AcDbPoint
 10
979.562974126871
 20
132.7347589560447
 30
0.0
  0
POINT
  5
19EE5
330
19EDA
100
AcDbEntity
  8
Defpoints
 62
     0
100
AcDbPoint
 10
957.3095651257624
 20
132.7347589560447
 30
0.0
  0
ENDBLK
  5
19EDC
330
19EDA
100
AcDbEntity
  8
0
100
AcDbBlockEnd
  0
BLOCK
  5
1CCA2
330
1CCA1
100
AcDbEntity
  8
0
100
AcDbBlockBegin
  2
*D64
 70
     1
 10
0.0
 20
0.0
 30
0.0
  3
*D64
  1

  0
LINE
  5
1CCA4
330
1CCA1
100
AcDbEntity
  8
DIM
 62
     0
370
    -2
100
AcDbLine
 10
991.0764608038573
 20
675.8803188914353
 30
0.0
 11
1080.68437220439
 21
675.8803188914353
 31
0.0
  0
LINE
  5
1CCA5
330
1CCA1
100
AcDbEntity
  8
DIM
 62
     0
370
    -2
100
AcDbLine
 10
903.0172101871419
 20
575.8803188800662
 30
0.0
 11
1080.68437220439
 21
575.8803188800662
 31
0.0
  0
LINE
  5
1CCA6
330
1CCA1
100
AcDbEntity
  8
DIM
 62
     0
370
    -2
100
AcDbLine
 10
1080.68437220439
 20
672.8803188914353
 30
0.0
 11
1080.68437220439
 21
578.8803188800662
 31
0.0
  0
INSERT
  5
1CCA7
330
1CCA1
100
AcDbEntity
  8
DIM
 62
     0
370
    -2
100
AcDbBlockReference
  2
_DOT
 10
1080.68437220439
 20
675.8803188914353
 30
0.0
 41
3.0
 42
3.0
 43
3.0
 50
90.0
  0
INSERT
  5
1CCA8
330
1CCA1
100
AcDbEntity
  8
DIM
 62
     0
370
    -2
100
AcDbBlockReference
  2
_DOT
 10
1080.68437220439
 20
575.8803188800662
 30
0.0
 41
3.0
 42
3.0
 43
3.0
 50
270.0
  0
MTEXT
  5
1CCA9
330
1CCA1
100
AcDbEntity
  8
DIM
 62
     0
100
AcDbMText
 10
1070.682871641679
 20
625.8803188857507
 30
0.0
 40
8.0
 41
0.0
 46
0.0
 71
     5
 72
     1
  1
\A1;100.00000001
  7
ＭＳ ゴシック
 11
0.0
 21
1.0
 31
0.0
 73
     1
 44
1.0
  0
POINT
  5
1CCAA
330
1CCA1
100
AcDbEntity
  8
Defpoints
 62
     0
100
AcDbPoint
 10
981.0764608038573
 20
675.8803188914353
 30
0.0
  0
POINT
  5
1CCAB
330
1CCA1
100
AcDbEntity
  8
Defpoints
 62
     0
100
AcDbPoint
 10
893.0172101871419
 20
575.8803188800662
 30
0.0
  0
POINT
  5
1CCAC
330
1CCA1
100
AcDbEntity
  8
Defpoints
 62
     0
100
AcDbPoint
 10
1080.68437220439
 20
575.8803188800662
 30
0.0
  0
ENDBLK
  5
1CCA3
330
1CCA1
100
AcDbEntity
  8
0
100
AcDbBlockEnd
  0
BLOCK
  5
1CEF8
330
1CEF7
100
AcDbEntity
  8
0
100
AcDbBlockBegin
  2
*D65
 70
     1
 10
0.0
 20
0.0
 30
0.0
  3
*D65
  1

  0
LINE
  5
1CEF9
330
1CEF7
100
AcDbEntity
  8
DIM
 62
     0
370
    -2
100
AcDbLine
 10
52.73574438771243
 20
198.2536363499221
 30
0.0
 11
88.00965869078364
 21
198.2536363499221
 31
0.0
  0
LINE
  5
1CEFA
330
1CEF7
100
AcDbEntity
  8
DIM
 62
     0
370
    -2
100
AcDbLine
 10
29.40843048097062
 20
29.23240204142516
 30
0.0
 11
88.00965869078362
 21
29.23240204142516
 31
0.0
  0
LINE
  5
1CEFB
330
1CEF7
100
AcDbEntity
  8
DIM
 62
     0
370
    -2
100
AcDbLine
 10
88.00965869078364
 20
195.2536363499221
 30
0.0
 11
88.00965869078362
 21
32.23240204142516
 31
0.0
  0
INSERT
  5
1CEFC
330
1CEF7
100
AcDbEntity
  8
DIM
 62
     0
370
    -2
100
AcDbBlockReference
  2
_DOT
 10
88.00965869078364
 20
198.2536363499221
 30
0.0
 41
3.0
 42
3.0
 43
3.0
 50
90.0
  0
INSERT
  5
1CEFD
330
1CEF7
100
AcDbEntity
  8
DIM
 62
     0
370
    -2
100
AcDbBlockReference
  2
_DOT
 10
88.00965869078362
 20
29.23240204142516
 30
0.0
 41
3.0
 42
3.0
 43
3.0
 50
270.0
  0
MTEXT
  5
1CEFE
330
1CEF7
100
AcDbEntity
  8
DIM
 62
     0
100
AcDbMText
 10
78.00815812807261
 20
113.7430191956737
 30
0.0
 40
8.0
 41
0.0
 46
0.0
 71
     5
 72
     1
  1
\A1;395
  7
ＭＳ ゴシック
 11
8.407733367550967E-17
 21
1.0
 31
0.0
 73
     1
 44
1.0
  0
POINT
  5
1CEFF
330
1CEF7
100
AcDbEntity
  8
Defpoints
 62
     0
100
AcDbPoint
 10
42.73574438771243
 20
198.2536363499221
 30
0.0
  0
POINT
  5
1CF00
330
1CEF7
100
AcDbEntity
  8
Defpoints
 62
     0
100
AcDbPoint
 10
19.40843048097062
 20
29.23240204142516
 30
0.0
  0
POINT
  5
1CF01
330
1CEF7
100
AcDbEntity
  8
Defpoints
 62
     0
100
AcDbPoint
 10
88.00965869078362
 20
29.23240204142516
 30
0.0
  0
ENDBLK
  5
1CF02
330
1CEF7
100
AcDbEntity
  8
0
100
AcDbBlockEnd
  0
BLOCK
  5
1D11E
330
1D11D
100
AcDbEntity
  8
0
100
AcDbBlockBegin
  2
*D66
 70
     1
 10
0.0
 20
0.0
 30
0.0
  3
*D66
  1

  0
LINE
  5
1D120
330
1D11D
100
AcDbEntity
  8
DIM
 62
     0
370
    -2
100
AcDbLine
 10
775.3898985397982
 20
415.4977026116289
 30
0.0
 11
810.6638128428694
 21
415.4977026116289
 31
0.0
  0
LINE
  5
1D121
330
1D11D
100
AcDbEntity
  8
DIM
 62
     0
370
    -2
100
AcDbLine
 10
752.0625846330564
 20
246.4764683031319
 30
0.0
 11
810.6638128428694
 21
246.4764683031319
 31
0.0
  0
LINE
  5
1D122
330
1D11D
100
AcDbEntity
  8
DIM
 62
     0
370
    -2
100
AcDbLine
 10
810.6638128428694
 20
412.4977026116289
 30
0.0
 11
810.6638128428694
 21
249.4764683031319
 31
0.0
  0
INSERT
  5
1D123
330
1D11D
100
AcDbEntity
  8
DIM
 62
     0
370
    -2
100
AcDbBlockReference
  2
_DOT
 10
810.6638128428694
 20
415.4977026116289
 30
0.0
 41
3.0
 42
3.0
 43
3.0
 50
90.0
  0
INSERT
  5
1D124
330
1D11D
100
AcDbEntity
  8
DIM
 62
     0
370
    -2
100
AcDbBlockReference
  2
_DOT
 10
810.6638128428694
 20
246.4764683031319
 30
0.0
 41
3.0
 42
3.0
 43
3.0
 50
270.0
  0
MTEXT
  5
1D125
330
1D11D
100
AcDbEntity
  8
DIM
 62
     0
100
AcDbMText
 10
800.6623122801584
 20
330.9870854573804
 30
0.0
 40
8.0
 41
0.0
 46
0.0
 71
     5
 72
     1
  1
\A1;395
  7
ＭＳ ゴシック
 11
0.0
 21
1.0
 31
0.0
 73
     1
 44
1.0
  0
POINT
  5
1D126
330
1D11D
100
AcDbEntity
  8
Defpoints
 62
     0
100
AcDbPoint
 10
765.3898985397982
 20
415.4977026116289
 30
0.0
  0
POINT
  5
1D127
330
1D11D
100
AcDbEntity
  8
Defpoints
 62
     0
100
AcDbPoint
 10
742.0625846330564
 20
246.4764683031319
 30
0.0
  0
POINT
  5
1D128
330
1D11D
100
AcDbEntity
  8
Defpoints
 62
     0
100
AcDbPoint
 10
810.6638128428694
 20
246.4764683031319
 30
0.0
  0
ENDBLK
  5
1D11F
330
1D11D
100
AcDbEntity
  8
0
100
AcDbBlockEnd
  0
BLOCK
  5
1D778
330
1D777
100
AcDbEntity
  8
0
100
AcDbBlockBegin
  2
*D67
 70
     1
 10
0.0
 20
0.0
 30
0.0
  3
*D67
  1

  0
LINE
  5
1D779
330
1D777
100
AcDbEntity
  8
DIM
 62
     0
 48
0.05
370
    -2
100
AcDbLine
 10
190.5939865359362
 20
48.60648669245893
 30
0.0
 11
190.5939865359362
 21
38.60648669245893
 31
0.0
  0
LINE
  5
1D77A
330
1D777
100
AcDbEntity
  8
DIM
 62
     0
 48
0.05
370
    -2
100
AcDbLine
 10
430.593986526647
 20
48.60648669245893
 30
0.0
 11
430.593986526647
 21
38.60648669245893
 31
0.0
  0
LINE
  5
1D77B
330
1D777
100
AcDbEntity
  8
DIM
 62
     0
 48
0.05
370
    -2
100
AcDbLine
 10
193.5939865359362
 20
38.60648669245893
 30
0.0
 11
427.593986526647
 21
38.60648669245893
 31
0.0
  0
INSERT
  5
1D77C
330
1D777
100
AcDbEntity
  8
DIM
 62
     0
370
    -2
100
AcDbBlockReference
  2
_DOT
 10
190.5939865359362
 20
38.60648669245893
 30
0.0
 41
3.0
 42
3.0
 43
3.0
 50
180.0
  0
INSERT
  5
1D77D
330
1D777
100
AcDbEntity
  8
DIM
 62
     0
370
    -2
100
AcDbBlockReference
  2
_DOT
 10
430.593986526647
 20
38.60648669245893
 30
0.0
 41
3.0
 42
3.0
 43
3.0
  0
MTEXT
  5
1D77E
330
1D777
100
AcDbEntity
  8
DIM
 62
     0
100
AcDbMText
 10
310.5939865312916
 20
48.60798725516995
 30
0.0
 40
8.0
 41
0.0
 46
0.0
 71
     5
 72
     1
  1
\A1;239.99999999
  7
ＭＳ ゴシック
 73
     1
 44
1.0
  0
POINT
  5
1D77F
330
1D777
100
AcDbEntity
  8
Defpoints
 62
     0
100
AcDbPoint
 10
190.5939865359362
 20
38.60648669245893
 30
0.0
  0
POINT
  5
1D780
330
1D777
100
AcDbEntity
  8
Defpoints
 62
     0
100
AcDbPoint
 10
430.593986526647
 20
38.60648669245893
 30
0.0
  0
POINT
  5
1D781
330
1D777
100
AcDbEntity
  8
Defpoints
 62
     0
100
AcDbPoint
 10
430.593986526647
 20
38.60648669245893
 30
0.0
  0
ENDBLK
  5
1D782
330
1D777
100
AcDbEntity
  8
0
100
AcDbBlockEnd
  0
BLOCK
  5
1DA9A
330
1DA99
100
AcDbEntity
  8
0
100
AcDbBlockBegin
  2
*D68
 70
     1
 10
0.0
 20
0.0
 30
0.0
  3
*D68
  1

  0
LINE
  5
1DA9C
330
1DA99
100
AcDbEntity
  8
DIM
 62
     0
 48
0.05
370
    -2
100
AcDbLine
 10
-697.3915869214909
 20
541.4155455086101
 30
0.0
 11
-697.3915869214909
 21
531.4155455086101
 31
0.0
  0
LINE
  5
1DA9D
330
1DA99
100
AcDbEntity
  8
DIM
 62
     0
 48
0.05
370
    -2
100
AcDbLine
 10
-457.3915869307801
 20
541.4155455086101
 30
0.0
 11
-457.3915869307801
 21
531.4155455086101
 31
0.0
  0
LINE
  5
1DA9E
330
1DA99
100
AcDbEntity
  8
DIM
 62
     0
 48
0.05
370
    -2
100
AcDbLine
 10
-694.3915869214909
 20
531.4155455086101
 30
0.0
 11
-460.3915869307801
 21
531.4155455086101
 31
0.0
  0
INSERT
  5
1DA9F
330
1DA99
100
AcDbEntity
  8
DIM
 62
     0
370
    -2
100
AcDbBlockReference
  2
_DOT
 10
-697.3915869214909
 20
531.4155455086101
 30
0.0
 41
3.0
 42
3.0
 43
3.0
 50
180.0
  0
INSERT
  5
1DAA0
330
1DA99
100
AcDbEntity
  8
DIM
 62
     0
370
    -2
100
AcDbBlockReference
  2
_DOT
 10
-457.3915869307801
 20
531.4155455086101
 30
0.0
 41
3.0
 42
3.0
 43
3.0
  0
MTEXT
  5
1DAA1
330
1DA99
100
AcDbEntity
  8
DIM
 62
     0
100
AcDbMText
 10
-577.3915869261355
 20
541.4170460713211
 30
0.0
 40
8.0
 41
0.0
 46
0.0
 71
     5
 72
     1
  1
\A1;239.99999999
  7
ＭＳ ゴシック
 73
     1
 44
1.0
  0
POINT
  5
1DAA2
330
1DA99
100
AcDbEntity
  8
Defpoints
 62
     0
100
AcDbPoint
 10
-697.3915869214909
 20
531.4155455086101
 30
0.0
  0
POINT
  5
1DAA3
330
1DA99
100
AcDbEntity
  8
Defpoints
 62
     0
100
AcDbPoint
 10
-457.3915869307801
 20
531.4155455086101
 30
0.0
  0
POINT
  5
1DAA4
330
1DA99
100
AcDbEntity
  8
Defpoints
 62
     0
100
AcDbPoint
 10
-457.3915869307801
 20
531.4155455086101
 30
0.0
  0
ENDBLK
  5
1DA9B
330
1DA99
100
AcDbEntity
  8
0
100
AcDbBlockEnd
  0
BLOCK
  5
3B8E9
330
3B8E8
100
AcDbEntity
  8
0
100
AcDbBlockBegin
  2
*D69
 70
     1
 10
0.0
 20
0.0
 30
0.0
  3
*D69
  1

  0
LINE
  5
3B8EB
330
3B8E8
100
AcDbEntity
  8
DIM
 62
     0
370
    -2
100
AcDbLine
 10
88.40343721585191
 20
354.6296762684818
 30
0.0
 11
88.40343721585191
 21
387.8733397852994
 31
0.0
  0
LINE
  5
3B8EC
330
3B8E8
100
AcDbEntity
  8
DIM
 62
     0
370
    -2
100
AcDbLine
 10
310.3858303495751
 20
356.0055148602801
 30
0.0
 11
310.3858303495751
 21
387.8733397852994
 31
0.0
  0
LINE
  5
3B8ED
330
3B8E8
100
AcDbEntity
  8
DIM
 62
     0
370
    -2
100
AcDbLine
 10
91.40343721585191
 20
387.8733397852994
 30
0.0
 11
307.3858303495751
 21
387.8733397852994
 31
0.0
  0
INSERT
  5
3B8EE
330
3B8E8
100
AcDbEntity
  8
DIM
 62
     0
370
    -2
100
AcDbBlockReference
  2
_DOT
 10
88.40343721585191
 20
387.8733397852994
 30
0.0
 41
3.0
 42
3.0
 43
3.0
 50
180.0
  0
INSERT
  5
3B8EF
330
3B8E8
100
AcDbEntity
  8
DIM
 62
     0
370
    -2
100
AcDbBlockReference
  2
_DOT
 10
310.3858303495751
 20
387.8733397852994
 30
0.0
 41
3.0
 42
3.0
 43
3.0
  0
MTEXT
  5
3B8F0
330
3B8E8
100
AcDbEntity
  8
DIM
 62
     0
100
AcDbMText
 10
199.3946337827135
 20
397.8748403480105
 30
0.0
 40
8.0
 41
0.0
 46
0.0
 71
     5
 72
     1
  1
\A1;222
  7
ＭＳ ゴシック
 73
     1
 44
1.0
  0
POINT
  5
3B8F1
330
3B8E8
100
AcDbEntity
  8
Defpoints
 62
     0
100
AcDbPoint
 10
88.40343721585191
 20
344.6296762684818
 30
0.0
  0
POINT
  5
3B8F2
330
3B8E8
100
AcDbEntity
  8
Defpoints
 62
     0
100
AcDbPoint
 10
310.3858303495751
 20
346.0055148602801
 30
0.0
  0
POINT
  5
3B8F3
330
3B8E8
100
AcDbEntity
  8
Defpoints
 62
     0
100
AcDbPoint
 10
310.3858303495751
 20
387.8733397852994
 30
0.0
  0
ENDBLK
  5
3B8EA
330
3B8E8
100
AcDbEntity
  8
0
100
AcDbBlockEnd
  0
BLOCK
  5
3BC36
330
3BC35
100
AcDbEntity
  8
0
100
AcDbBlockBegin
  2
*D70
 70
     1
 10
0.0
 20
0.0
 30
0.0
  3
*D70
  1

  0
LINE
  5
3BC38
330
3BC35
100
AcDbEntity
  8
DIM
 62
     0
370
    -2
100
AcDbLine
 10
238.1189292516424
 20
814.5179849709584
 30
0.0
 11
238.1189292516424
 21
823.6706154909074
 31
0.0
  0
LINE
  5
3BC39
330
3BC35
100
AcDbEntity
  8
DIM
 62
     0
370
    -2
100
AcDbLine
 10
308.2254448819835
 20
814.5179849709584
 30
0.0
 11
308.2254448819835
 21
823.6706154909074
 31
0.0
  0
LINE
  5
3BC3A
330
3BC35
100
AcDbEntity
  8
DIM
 62
     0
370
    -2
100
AcDbLine
 10
241.1189292516424
 20
823.6706154909074
 30
0.0
 11
305.2254448819835
 21
823.6706154909074
 31
0.0
  0
INSERT
  5
3BC3B
330
3BC35
100
AcDbEntity
  8
DIM
 62
     0
370
    -2
100
AcDbBlockReference
  2
_DOT
 10
238.1189292516424
 20
823.6706154909074
 30
0.0
 41
3.0
 42
3.0
 43
3.0
 50
180.0
  0
INSERT
  5
3BC3C
330
3BC35
100
AcDbEntity
  8
DIM
 62
     0
370
    -2
100
AcDbBlockReference
  2
_DOT
 10
308.2254448819835
 20
823.6706154909074
 30
0.0
 41
3.0
 42
3.0
 43
3.0
  0
MTEXT
  5
3BC3D
330
3BC35
100
AcDbEntity
  8
DIM
 62
     0
100
AcDbMText
 10
273.172187066813
 20
833.6721160536184
 30
0.0
 40
8.0
 41
0.0
 46
0.0
 71
     5
 72
     1
  1
\A1;70
  7
ＭＳ ゴシック
 73
     1
 44
1.0
  0
POINT
  5
3BC3E
330
3BC35
100
AcDbEntity
  8
Defpoints
 62
     0
100
AcDbPoint
 10
238.1189292516424
 20
804.5179849709584
 30
0.0
  0
POINT
  5
3BC3F
330
3BC35
100
AcDbEntity
  8
Defpoints
 62
     0
100
AcDbPoint
 10
308.2254448819835
 20
804.5179849709584
 30
0.0
  0
POINT
  5
3BC40
330
3BC35
100
AcDbEntity
  8
Defpoints
 62
     0
100
AcDbPoint
 10
308.2254448819835
 20
823.6706154909074
 30
0.0
  0
ENDBLK
  5
3BC37
330
3BC35
100
AcDbEntity
  8
0
100
AcDbBlockEnd
  0
BLOCK
  5
3BDF1
330
3BDF0
100
AcDbEntity
  8
0
100
AcDbBlockBegin
  2
*D71
 70
     1
 10
0.0
 20
0.0
 30
0.0
  3
*D71
  1

  0
LINE
  5
3BDF2
330
3BDF0
100
AcDbEntity
  8
DIM
 62
     0
370
    -2
100
AcDbLine
 10
1.5
 20
75.41911126848868
 30
0.0
 11
1.5
 21
84.57174178843763
 31
0.0
  0
LINE
  5
3BDF3
330
3BDF0
100
AcDbEntity
  8
DIM
 62
     0
370
    -2
100
AcDbLine
 10
71.60651563034116
 20
75.41911126848868
 30
0.0
 11
71.60651563034116
 21
84.57174178843763
 31
0.0
  0
LINE
  5
3BDF4
330
3BDF0
100
AcDbEntity
  8
DIM
 62
     0
370
    -2
100
AcDbLine
 10
4.5
 20
84.57174178843763
 30
0.0
 11
68.60651563034116
 21
84.57174178843763
 31
0.0
  0
INSERT
  5
3BDF5
330
3BDF0
100
AcDbEntity
  8
DIM
 62
     0
370
    -2
100
AcDbBlockReference
  2
_DOT
 10
1.5
 20
84.57174178843763
 30
0.0
 41
3.0
 42
3.0
 43
3.0
 50
180.0
  0
INSERT
  5
3BDF6
330
3BDF0
100
AcDbEntity
  8
DIM
 62
     0
370
    -2
100
AcDbBlockReference
  2
_DOT
 10
71.60651563034116
 20
84.57174178843763
 30
0.0
 41
3.0
 42
3.0
 43
3.0
  0
MTEXT
  5
3BDF7
330
3BDF0
100
AcDbEntity
  8
DIM
 62
     0
100
AcDbMText
 10
36.55325781517058
 20
94.57324235114865
 30
0.0
 40
8.0
 41
0.0
 46
0.0
 71
     5
 72
     1
  1
\A1;70
  7
ＭＳ ゴシック
 73
     1
 44
1.0
  0
POINT
  5
3BDF8
330
3BDF0
100
AcDbEntity
  8
Defpoints
 62
     0
100
AcDbPoint
 10
1.5
 20
65.41911126848868
 30
0.0
  0
POINT
  5
3BDF9
330
3BDF0
100
AcDbEntity
  8
Defpoints
 62
     0
100
AcDbPoint
 10
71.60651563034116
 20
65.41911126848868
 30
0.0
  0
POINT
  5
3BDFA
330
3BDF0
100
AcDbEntity
  8
Defpoints
 62
     0
100
AcDbPoint
 10
71.60651563034116
 20
84.57174178843763
 30
0.0
  0
ENDBLK
  5
3BDFB
330
3BDF0
100
AcDbEntity
  8
0
100
AcDbBlockEnd
  0
BLOCK
  5
3BF76
330
3BF75
100
AcDbEntity
  8
0
100
AcDbBlockBegin
  2
*D72
 70
     1
 10
0.0
 20
0.0
 30
0.0
  3
*D72
  1

  0
LINE
  5
3BF78
330
3BF75
100
AcDbEntity
  8
DIM
 62
     0
370
    -2
100
AcDbLine
 10
-422.0620903712888
 20
756.7552009510557
 30
0.0
 11
-422.0620903712888
 21
765.9078314710047
 31
0.0
  0
LINE
  5
3BF79
330
3BF75
100
AcDbEntity
  8
DIM
 62
     0
370
    -2
100
AcDbLine
 10
-351.9555747409476
 20
756.7552009510557
 30
0.0
 11
-351.9555747409476
 21
765.9078314710047
 31
0.0
  0
LINE
  5
3BF7A
330
3BF75
100
AcDbEntity
  8
DIM
 62
     0
370
    -2
100
AcDbLine
 10
-419.0620903712888
 20
765.9078314710047
 30
0.0
 11
-354.9555747409476
 21
765.9078314710047
 31
0.0
  0
INSERT
  5
3BF7B
330
3BF75
100
AcDbEntity
  8
DIM
 62
     0
370
    -2
100
AcDbBlockReference
  2
_DOT
 10
-422.0620903712888
 20
765.9078314710047
 30
0.0
 41
3.0
 42
3.0
 43
3.0
 50
180.0
  0
INSERT
  5
3BF7C
330
3BF75
100
AcDbEntity
  8
DIM
 62
     0
370
    -2
100
AcDbBlockReference
  2
_DOT
 10
-351.9555747409476
 20
765.9078314710047
 30
0.0
 41
3.0
 42
3.0
 43
3.0
  0
MTEXT
  5
3BF7D
330
3BF75
100
AcDbEntity
  8
DIM
 62
     0
100
AcDbMText
 10
-387.0088325561182
 20
775.9093320337157
 30
0.0
 40
8.0
 41
0.0
 46
0.0
 71
     5
 72
     1
  1
\A1;70
  7
ＭＳ ゴシック
 73
     1
 44
1.0
  0
POINT
  5
3BF7E
330
3BF75
100
AcDbEntity
  8
Defpoints
 62
     0
100
AcDbPoint
 10
-422.0620903712888
 20
746.7552009510557
 30
0.0
  0
POINT
  5
3BF7F
330
3BF75
100
AcDbEntity
  8
Defpoints
 62
     0
100
AcDbPoint
 10
-351.9555747409476
 20
746.7552009510557
 30
0.0
  0
POINT
  5
3BF80
330
3BF75
100
AcDbEntity
  8
Defpoints
 62
     0
100
AcDbPoint
 10
-351.9555747409476
 20
765.9078314710047
 30
0.0
  0
ENDBLK
  5
3BF77
330
3BF75
100
AcDbEntity
  8
0
100
AcDbBlockEnd
  0
BLOCK
  5
4BA04
330
4BA03
100
AcDbEntity
  8
0
100
AcDbBlockBegin
  2
*D73
 70
     1
 10
0.0
 20
0.0
 30
0.0
  3
*D73
  1

  0
LINE
  5
4BA05
330
4BA03
100
AcDbEntity
  8
DIM
 62
     0
370
    -2
100
AcDbLine
 10
1.5
 20
75.41911126848868
 30
0.0
 11
1.5
 21
84.57174178843763
 31
0.0
  0
LINE
  5
4BA06
330
4BA03
100
AcDbEntity
  8
DIM
 62
     0
370
    -2
100
AcDbLine
 10
71.60651563034116
 20
75.41911126848868
 30
0.0
 11
71.60651563034116
 21
84.57174178843763
 31
0.0
  0
LINE
  5
4BA07
330
4BA03
100
AcDbEntity
  8
DIM
 62
     0
370
    -2
100
AcDbLine
 10
4.5
 20
84.57174178843763
 30
0.0
 11
68.60651563034116
 21
84.57174178843763
 31
0.0
  0
INSERT
  5
4BA08
330
4BA03
100
AcDbEntity
  8
DIM
 62
     0
370
    -2
100
AcDbBlockReference
  2
_DOT
 10
1.5
 20
84.57174178843763
 30
0.0
 41
3.0
 42
3.0
 43
3.0
 50
180.0
  0
INSERT
  5
4BA09
330
4BA03
100
AcDbEntity
  8
DIM
 62
     0
370
    -2
100
AcDbBlockReference
  2
_DOT
 10
71.60651563034116
 20
84.57174178843763
 30
0.0
 41
3.0
 42
3.0
 43
3.0
  0
MTEXT
  5
4BA0A
330
4BA03
100
AcDbEntity
  8
DIM
 62
     0
100
AcDbMText
 10
36.55325781517058
 20
94.57324235114865
 30
0.0
 40
8.0
 41
0.0
 46
0.0
 71
     5
 72
     1
  1
\A1;70
  7
ＭＳ ゴシック
 73
     1
 44
1.0
  0
POINT
  5
4BA0B
330
4BA03
100
AcDbEntity
  8
Defpoints
 62
     0
100
AcDbPoint
 10
1.5
 20
65.41911126848868
 30
0.0
  0
POINT
  5
4BA0C
330
4BA03
100
AcDbEntity
  8
Defpoints
 62
     0
100
AcDbPoint
 10
71.60651563034116
 20
65.41911126848868
 30
0.0
  0
POINT
  5
4BA0D
330
4BA03
100
AcDbEntity
  8
Defpoints
 62
     0
100
AcDbPoint
 10
71.60651563034116
 20
84.57174178843763
 30
0.0
  0
ENDBLK
  5
4BA0E
330
4BA03
100
AcDbEntity
  8
0
100
AcDbBlockEnd
  0
BLOCK
  5
4BB0F
330
4BB0E
100
AcDbEntity
  8
0
100
AcDbBlockBegin
  2
*D74
 70
     1
 10
0.0
 20
0.0
 30
0.0
  3
*D74
  1

  0
LINE
  5
4BB11
330
4BB0E
100
AcDbEntity
  8
DIM
 62
     0
370
    -2
100
AcDbLine
 10
-388.3355999199979
 20
364.802575231971
 30
0.0
 11
-388.3355999199979
 21
373.9552057519199
 31
0.0
  0
LINE
  5
4BB12
330
4BB0E
100
AcDbEntity
  8
DIM
 62
     0
370
    -2
100
AcDbLine
 10
-318.2290842896568
 20
364.802575231971
 30
0.0
 11
-318.2290842896568
 21
373.9552057519199
 31
0.0
  0
LINE
  5
4BB13
330
4BB0E
100
AcDbEntity
  8
DIM
 62
     0
370
    -2
100
AcDbLine
 10
-385.3355999199979
 20
373.9552057519199
 30
0.0
 11
-321.2290842896568
 21
373.9552057519199
 31
0.0
  0
INSERT
  5
4BB14
330
4BB0E
100
AcDbEntity
  8
DIM
 62
     0
370
    -2
100
AcDbBlockReference
  2
_DOT
 10
-388.3355999199979
 20
373.9552057519199
 30
0.0
 41
3.0
 42
3.0
 43
3.0
 50
180.0
  0
INSERT
  5
4BB15
330
4BB0E
100
AcDbEntity
  8
DIM
 62
     0
370
    -2
100
AcDbBlockReference
  2
_DOT
 10
-318.2290842896568
 20
373.9552057519199
 30
0.0
 41
3.0
 42
3.0
 43
3.0
  0
MTEXT
  5
4BB16
330
4BB0E
100
AcDbEntity
  8
DIM
 62
     0
100
AcDbMText
 10
-353.2823421048274
 20
383.956706314631
 30
0.0
 40
8.0
 41
0.0
 46
0.0
 71
     5
 72
     1
  1
\A1;70
  7
ＭＳ ゴシック
 73
     1
 44
1.0
  0
POINT
  5
4BB17
330
4BB0E
100
AcDbEntity
  8
Defpoints
 62
     0
100
AcDbPoint
 10
-388.3355999199979
 20
354.802575231971
 30
0.0
  0
POINT
  5
4BB18
330
4BB0E
100
AcDbEntity
  8
Defpoints
 62
     0
100
AcDbPoint
 10
-318.2290842896568
 20
354.802575231971
 30
0.0
  0
POINT
  5
4BB19
330
4BB0E
100
AcDbEntity
  8
Defpoints
 62
     0
100
AcDbPoint
 10
-318.2290842896568
 20
373.9552057519199
 30
0.0
  0
ENDBLK
  5
4BB10
330
4BB0E
100
AcDbEntity
  8
0
100
AcDbBlockEnd
  0
BLOCK
  5
4BB9D
330
4BB9C
100
AcDbEntity
  8
0
100
AcDbBlockBegin
  2
*D75
 70
     1
 10
0.0
 20
0.0
 30
0.0
  3
*D75
  1

  0
LINE
  5
4BB9F
330
4BB9C
100
AcDbEntity
  8
DIM
 62
     0
370
    -2
100
AcDbLine
 10
231.8885515817686
 20
722.3423384571759
 30
0.0
 11
231.8885515817686
 21
809.566575676638
 31
0.0
  0
LINE
  5
4BBA0
330
4BB9C
100
AcDbEntity
  8
DIM
 62
     0
370
    -2
100
AcDbLine
 10
581.942867709601
 20
722.3423384571759
 30
0.0
 11
581.942867709601
 21
809.566575676638
 31
0.0
  0
LINE
  5
4BBA1
330
4BB9C
100
AcDbEntity
  8
DIM
 62
     0
370
    -2
100
AcDbLine
 10
234.8885515817686
 20
809.566575676638
 30
0.0
 11
578.942867709601
 21
809.566575676638
 31
0.0
  0
INSERT
  5
4BBA2
330
4BB9C
100
AcDbEntity
  8
DIM
 62
     0
370
    -2
100
AcDbBlockReference
  2
_DOT
 10
231.8885515817686
 20
809.566575676638
 30
0.0
 41
3.0
 42
3.0
 43
3.0
 50
180.0
  0
INSERT
  5
4BBA3
330
4BB9C
100
AcDbEntity
  8
DIM
 62
     0
370
    -2
100
AcDbBlockReference
  2
_DOT
 10
581.942867709601
 20
809.566575676638
 30
0.0
 41
3.0
 42
3.0
 43
3.0
  0
MTEXT
  5
4BBA4
330
4BB9C
100
AcDbEntity
  8
DIM
 62
     0
100
AcDbMText
 10
406.9157096456848
 20
819.568076239349
 30
0.0
 40
8.0
 41
0.0
 46
0.0
 71
     5
 72
     1
  1
\A1;350
  7
ＭＳ ゴシック
 73
     1
 44
1.0
  0
POINT
  5
4BBA5
330
4BB9C
100
AcDbEntity
  8
Defpoints
 62
     0
100
AcDbPoint
 10
231.8885515817686
 20
712.3423384571759
 30
0.0
  0
POINT
  5
4BBA6
330
4BB9C
100
AcDbEntity
  8
Defpoints
 62
     0
100
AcDbPoint
 10
581.942867709601
 20
712.3423384571759
 30
0.0
  0
POINT
  5
4BBA7
330
4BB9C
100
AcDbEntity
  8
Defpoints
 62
     0
100
AcDbPoint
 10
581.942867709601
 20
809.566575676638
 30
0.0
  0
ENDBLK
  5
4BB9E
330
4BB9C
100
AcDbEntity
  8
0
100
AcDbBlockEnd
  0
BLOCK
  5
4BBAC
330
4BBAB
100
AcDbEntity
  8
0
100
AcDbBlockBegin
  2
*D76
 70
     1
 10
0.0
 20
0.0
 30
0.0
  3
*D76
  1

  0
LINE
  5
4BBAE
330
4BBAB
100
AcDbEntity
  8
DIM
 62
     0
370
    -2
100
AcDbLine
 10
197.7646866035161
 20
503.780968265975
 30
0.0
 11
197.7646866035161
 21
542.3116606831346
 31
0.0
  0
LINE
  5
4BBAF
330
4BBAB
100
AcDbEntity
  8
DIM
 62
     0
370
    -2
100
AcDbLine
 10
547.8190027313485
 20
503.780968265975
 30
0.0
 11
547.8190027313485
 21
542.3116606831346
 31
0.0
  0
LINE
  5
4BBB0
330
4BBAB
100
AcDbEntity
  8
DIM
 62
     0
370
    -2
100
AcDbLine
 10
200.7646866035161
 20
542.3116606831346
 30
0.0
 11
544.8190027313485
 21
542.3116606831346
 31
0.0
  0
INSERT
  5
4BBB1
330
4BBAB
100
AcDbEntity
  8
DIM
 62
     0
370
    -2
100
AcDbBlockReference
  2
_DOT
 10
197.7646866035161
 20
542.3116606831346
 30
0.0
 41
3.0
 42
3.0
 43
3.0
 50
180.0
  0
INSERT
  5
4BBB2
330
4BBAB
100
AcDbEntity
  8
DIM
 62
     0
370
    -2
100
AcDbBlockReference
  2
_DOT
 10
547.8190027313485
 20
542.3116606831346
 30
0.0
 41
3.0
 42
3.0
 43
3.0
  0
MTEXT
  5
4BBB3
330
4BBAB
100
AcDbEntity
  8
DIM
 62
     0
100
AcDbMText
 10
372.7918446674323
 20
552.3131612458457
 30
0.0
 40
8.0
 41
0.0
 46
0.0
 71
     5
 72
     1
  1
\A1;350
  7
ＭＳ ゴシック
 73
     1
 44
1.0
  0
POINT
  5
4BBB4
330
4BBAB
100
AcDbEntity
  8
Defpoints
 62
     0
100
AcDbPoint
 10
197.7646866035161
 20
493.780968265975
 30
0.0
  0
POINT
  5
4BBB5
330
4BBAB
100
AcDbEntity
  8
Defpoints
 62
     0
100
AcDbPoint
 10
547.8190027313485
 20
493.780968265975
 30
0.0
  0
POINT
  5
4BBB6
330
4BBAB
100
AcDbEntity
  8
Defpoints
 62
     0
100
AcDbPoint
 10
547.8190027313485
 20
542.3116606831346
 30
0.0
  0
ENDBLK
  5
4BBAD
330
4BBAB
100
AcDbEntity
  8
0
100
AcDbBlockEnd
  0
BLOCK
  5
4BBBB
330
4BBBA
100
AcDbEntity
  8
0
100
AcDbBlockBegin
  2
*D77
 70
     1
 10
0.0
 20
0.0
 30
0.0
  3
*D77
  1

  0
LINE
  5
4BBBD
330
4BBBA
100
AcDbEntity
  8
DIM
 62
     0
370
    -2
100
AcDbLine
 10
122.8145691721076
 20
503.780968265975
 30
0.0
 11
122.8145691721076
 21
541.9129965096406
 31
0.0
  0
LINE
  5
4BBBE
330
4BBBA
100
AcDbEntity
  8
DIM
 62
     0
370
    -2
100
AcDbLine
 10
134.8372713278422
 20
503.780968265975
 30
0.0
 11
134.8372713278422
 21
541.9129965096406
 31
0.0
  0
LINE
  5
4BBBF
330
4BBBA
100
AcDbEntity
  8
DIM
 62
     0
370
    -2
100
AcDbLine
 10
125.8145691721076
 20
541.9129965096406
 30
0.0
 11
131.8372713278422
 21
541.9129965096406
 31
0.0
  0
INSERT
  5
4BBC0
330
4BBBA
100
AcDbEntity
  8
DIM
 62
     0
370
    -2
100
AcDbBlockReference
  2
_DOT
 10
122.8145691721076
 20
541.9129965096406
 30
0.0
 41
3.0
 42
3.0
 43
3.0
 50
180.0
  0
INSERT
  5
4BBC1
330
4BBBA
100
AcDbEntity
  8
DIM
 62
     0
370
    -2
100
AcDbBlockReference
  2
_DOT
 10
134.8372713278422
 20
541.9129965096406
 30
0.0
 41
3.0
 42
3.0
 43
3.0
  0
MTEXT
  5
4BBC2
330
4BBBA
100
AcDbEntity
  8
DIM
 62
     0
100
AcDbMText
 10
128.8259202499749
 20
551.9144970723517
 30
0.0
 40
8.0
 41
0.0
 46
0.0
 71
     5
 72
     1
  1
\A1;12
  7
ＭＳ ゴシック
 73
     1
 44
1.0
  0
POINT
  5
4BBC3
330
4BBBA
100
AcDbEntity
  8
Defpoints
 62
     0
100
AcDbPoint
 10
122.8145691721076
 20
493.780968265975
 30
0.0
  0
POINT
  5
4BBC4
330
4BBBA
100
AcDbEntity
  8
Defpoints
 62
     0
100
AcDbPoint
 10
134.8372713278422
 20
493.780968265975
 30
0.0
  0
POINT
  5
4BBC5
330
4BBBA
100
AcDbEntity
  8
Defpoints
 62
     0
100
AcDbPoint
 10
134.8372713278422
 20
541.9129965096406
 30
0.0
  0
ENDBLK
  5
4BBBC
330
4BBBA
100
AcDbEntity
  8
0
100
AcDbBlockEnd
  0
BLOCK
  5
4BBCB
330
4BBCA
100
AcDbEntity
  8
0
100
AcDbBlockBegin
  2
*D78
 70
     1
 10
0.0
 20
0.0
 30
0.0
  3
*D78
  1

  0
LINE
  5
4BBCD
330
4BBCA
100
AcDbEntity
  8
DIM
 62
     0
370
    -2
100
AcDbLine
 10
112.8145691721076
 20
493.780968265975
 30
0.0
 11
87.32458774864074
 21
493.780968265975
 31
0.0
  0
LINE
  5
4BBCE
330
4BBCA
100
AcDbEntity
  8
DIM
 62
     0
370
    -2
100
AcDbLine
 10
112.8145691721076
 20
463.7242128766382
 30
0.0
 11
87.32458774864074
 21
463.7242128766382
 31
0.0
  0
LINE
  5
4BBCF
330
4BBCA
100
AcDbEntity
  8
DIM
 62
     0
370
    -2
100
AcDbLine
 10
87.32458774864074
 20
490.780968265975
 30
0.0
 11
87.32458774864074
 21
466.7242128766382
 31
0.0
  0
INSERT
  5
4BBD0
330
4BBCA
100
AcDbEntity
  8
DIM
 62
     0
370
    -2
100
AcDbBlockReference
  2
_DOT
 10
87.32458774864074
 20
493.780968265975
 30
0.0
 41
3.0
 42
3.0
 43
3.0
 50
90.0
  0
INSERT
  5
4BBD1
330
4BBCA
100
AcDbEntity
  8
DIM
 62
     0
370
    -2
100
AcDbBlockReference
  2
_DOT
 10
87.32458774864074
 20
463.7242128766382
 30
0.0
 41
3.0
 42
3.0
 43
3.0
 50
270.0
  0
MTEXT
  5
4BBD2
330
4BBCA
100
AcDbEntity
  8
DIM
 62
     0
100
AcDbMText
 10
77.3230871859297
 20
478.7525905713066
 30
0.0
 40
8.0
 41
0.0
 46
0.0
 71
     5
 72
     1
  1
\A1;30
  7
ＭＳ ゴシック
 11
0.0
 21
1.0
 31
0.0
 73
     1
 44
1.0
  0
POINT
  5
4BBD3
330
4BBCA
100
AcDbEntity
  8
Defpoints
 62
     0
100
AcDbPoint
 10
122.8145691721076
 20
493.780968265975
 30
0.0
  0
POINT
  5
4BBD4
330
4BBCA
100
AcDbEntity
  8
Defpoints
 62
     0
100
AcDbPoint
 10
122.8145691721076
 20
463.7242128766382
 30
0.0
  0
POINT
  5
4BBD5
330
4BBCA
100
AcDbEntity
  8
Defpoints
 62
     0
100
AcDbPoint
 10
87.32458774864074
 20
463.7242128766382
 30
0.0
  0
ENDBLK
  5
4BBCC
330
4BBCA
100
AcDbEntity
  8
0
100
AcDbBlockEnd
  0
BLOCK
  5
4BD8B
330
4BD8A
100
AcDbEntity
  8
0
100
AcDbBlockBegin
  2
*D79
 70
     1
 10
0.0
 20
0.0
 30
0.0
  3
*D79
  1

  0
LINE
  5
4BD8D
330
4BD8A
100
AcDbEntity
  8
DIM
 62
     0
370
    -2
100
AcDbLine
 10
85.03999590670361
 20
626.3729957007854
 30
0.0
 11
85.03999590670361
 21
660.0259036678424
 31
0.0
  0
LINE
  5
4BD8E
330
4BD8A
100
AcDbEntity
  8
DIM
 62
     0
370
    -2
100
AcDbLine
 10
373.0763512152611
 20
630.8081375137996
 30
0.0
 11
373.0763512152611
 21
660.0259036678424
 31
0.0
  0
LINE
  5
4BD8F
330
4BD8A
100
AcDbEntity
  8
DIM
 62
     0
370
    -2
100
AcDbLine
 10
88.03999590670361
 20
660.0259036678424
 30
0.0
 11
370.0763512152611
 21
660.0259036678424
 31
0.0
  0
INSERT
  5
4BD90
330
4BD8A
100
AcDbEntity
  8
DIM
 62
     0
370
    -2
100
AcDbBlockReference
  2
_DOT
 10
85.03999590670361
 20
660.0259036678424
 30
0.0
 41
3.0
 42
3.0
 43
3.0
 50
180.0
  0
INSERT
  5
4BD91
330
4BD8A
100
AcDbEntity
  8
DIM
 62
     0
370
    -2
100
AcDbBlockReference
  2
_DOT
 10
373.0763512152611
 20
660.0259036678424
 30
0.0
 41
3.0
 42
3.0
 43
3.0
  0
MTEXT
  5
4BD92
330
4BD8A
100
AcDbEntity
  8
DIM
 62
     0
100
AcDbMText
 10
229.0581735609825
 20
670.0274042305534
 30
0.0
 40
8.0
 41
0.0
 46
0.0
 71
     5
 72
     1
  1
\A1;288
  7
ＭＳ ゴシック
 73
     1
 44
1.0
  0
POINT
  5
4BD93
330
4BD8A
100
AcDbEntity
  8
Defpoints
 62
     0
100
AcDbPoint
 10
85.03999590670361
 20
616.3729957007854
 30
0.0
  0
POINT
  5
4BD94
330
4BD8A
100
AcDbEntity
  8
Defpoints
 62
     0
100
AcDbPoint
 10
373.0763512152611
 20
620.8081375137996
 30
0.0
  0
POINT
  5
4BD95
330
4BD8A
100
AcDbEntity
  8
Defpoints
 62
     0
100
AcDbPoint
 10
373.0763512152611
 20
660.0259036678424
 30
0.0
  0
ENDBLK
  5
4BD8C
330
4BD8A
100
AcDbEntity
  8
0
100
AcDbBlockEnd
  0
BLOCK
  5
4BD9A
330
4BD99
100
AcDbEntity
  8
0
100
AcDbBlockBegin
  2
*D80
 70
     1
 10
0.0
 20
0.0
 30
0.0
  3
*D80
  1

  0
LINE
  5
4BD9C
330
4BD99
100
AcDbEntity
  8
DIM
 62
     0
370
    -2
100
AcDbLine
 10
69.0286448288362
 20
571.3729957007854
 30
0.0
 11
40.56555345254174
 21
571.3729957007854
 31
0.0
  0
LINE
  5
4BD9D
330
4BD99
100
AcDbEntity
  8
DIM
 62
     0
370
    -2
100
AcDbLine
 10
69.0286448288362
 20
478.3243503559981
 30
0.0
 11
40.56555345254174
 21
478.3243503559981
 31
0.0
  0
LINE
  5
4BD9E
330
4BD99
100
AcDbEntity
  8
DIM
 62
     0
370
    -2
100
AcDbLine
 10
40.56555345254174
 20
568.3729957007854
 30
0.0
 11
40.56555345254174
 21
481.3243503559981
 31
0.0
  0
INSERT
  5
4BD9F
330
4BD99
100
AcDbEntity
  8
DIM
 62
     0
370
    -2
100
AcDbBlockReference
  2
_DOT
 10
40.56555345254174
 20
571.3729957007854
 30
0.0
 41
3.0
 42
3.0
 43
3.0
 50
90.0
  0
INSERT
  5
4BDA0
330
4BD99
100
AcDbEntity
  8
DIM
 62
     0
370
    -2
100
AcDbBlockReference
  2
_DOT
 10
40.56555345254174
 20
478.3243503559981
 30
0.0
 41
3.0
 42
3.0
 43
3.0
 50
270.0
  0
MTEXT
  5
4BDA1
330
4BD99
100
AcDbEntity
  8
DIM
 62
     0
100
AcDbMText
 10
30.56405288983069
 20
524.8486730283918
 30
0.0
 40
8.0
 41
0.0
 46
0.0
 71
     5
 72
     1
  1
\A1;93
  7
ＭＳ ゴシック
 11
7.636250190717103E-17
 21
1.0
 31
0.0
 73
     1
 44
1.0
  0
POINT
  5
4BDA2
330
4BD99
100
AcDbEntity
  8
Defpoints
 62
     0
100
AcDbPoint
 10
79.0286448288362
 20
571.3729957007854
 30
0.0
  0
POINT
  5
4BDA3
330
4BD99
100
AcDbEntity
  8
Defpoints
 62
     0
100
AcDbPoint
 10
79.0286448288362
 20
478.3243503559981
 30
0.0
  0
POINT
  5
4BDA4
330
4BD99
100
AcDbEntity
  8
Defpoints
 62
     0
100
AcDbPoint
 10
40.56555345254174
 20
478.3243503559981
 30
0.0
  0
ENDBLK
  5
4BD9B
330
4BD99
100
AcDbEntity
  8
0
100
AcDbBlockEnd
  0
BLOCK
  5
4BDA9
330
4BDA8
100
AcDbEntity
  8
0
100
AcDbBlockBegin
  2
*D81
 70
     1
 10
0.0
 20
0.0
 30
0.0
  3
*D81
  1

  0
LINE
  5
4BDAB
330
4BDA8
100
AcDbEntity
  8
DIM
 62
     0
370
    -2
100
AcDbLine
 10
571.4615254226477
 20
389.7362838304399
 30
0.0
 11
591.7063648855636
 21
389.7362838304399
 31
0.0
  0
LINE
  5
4BDAC
330
4BDA8
100
AcDbEntity
  8
DIM
 62
     0
370
    -2
100
AcDbLine
 10
571.3338956291144
 20
359.6795284411029
 30
0.0
 11
591.7063648855636
 21
359.6795284411029
 31
0.0
  0
LINE
  5
4BDAD
330
4BDA8
100
AcDbEntity
  8
DIM
 62
     0
370
    -2
100
AcDbLine
 10
591.7063648855636
 20
386.7362838304399
 30
0.0
 11
591.7063648855636
 21
362.6795284411029
 31
0.0
  0
INSERT
  5
4BDAE
330
4BDA8
100
AcDbEntity
  8
DIM
 62
     0
370
    -2
100
AcDbBlockReference
  2
_DOT
 10
591.7063648855636
 20
389.7362838304399
 30
0.0
 41
3.0
 42
3.0
 43
3.0
 50
90.0
  0
INSERT
  5
4BDAF
330
4BDA8
100
AcDbEntity
  8
DIM
 62
     0
370
    -2
100
AcDbBlockReference
  2
_DOT
 10
591.7063648855636
 20
359.6795284411029
 30
0.0
 41
3.0
 42
3.0
 43
3.0
 50
270.0
  0
MTEXT
  5
4BDB0
330
4BDA8
100
AcDbEntity
  8
DIM
 62
     0
100
AcDbMText
 10
581.7048643228526
 20
374.7079061357714
 30
0.0
 40
8.0
 41
0.0
 46
0.0
 71
     5
 72
     1
  1
\A1;30
  7
ＭＳ ゴシック
 11
0.0
 21
1.0
 31
0.0
 73
     1
 44
1.0
  0
POINT
  5
4BDB1
330
4BDA8
100
AcDbEntity
  8
Defpoints
 62
     0
100
AcDbPoint
 10
561.4615254226477
 20
389.7362838304399
 30
0.0
  0
POINT
  5
4BDB2
330
4BDA8
100
AcDbEntity
  8
Defpoints
 62
     0
100
AcDbPoint
 10
561.3338956291144
 20
359.6795284411029
 30
0.0
  0
POINT
  5
4BDB3
330
4BDA8
100
AcDbEntity
  8
Defpoints
 62
     0
100
AcDbPoint
 10
591.7063648855636
 20
359.6795284411029
 30
0.0
  0
ENDBLK
  5
4BDAA
330
4BDA8
100
AcDbEntity
  8
0
100
AcDbBlockEnd
  0
BLOCK
  5
4BDB8
330
4BDB7
100
AcDbEntity
  8
0
100
AcDbBlockBegin
  2
*D82
 70
     1
 10
0.0
 20
0.0
 30
0.0
  3
*D82
  1

  0
LINE
  5
4BDBA
330
4BDB7
100
AcDbEntity
  8
DIM
 62
     0
370
    -2
100
AcDbLine
 10
389.0877022931285
 20
484.3353569240898
 30
0.0
 11
412.3137766741044
 21
484.3353569240898
 31
0.0
  0
LINE
  5
4BDBB
330
4BDB7
100
AcDbEntity
  8
DIM
 62
     0
370
    -2
100
AcDbLine
 10
389.0877022931285
 20
478.3243503559981
 30
0.0
 11
412.3137766741044
 21
478.3243503559981
 31
0.0
  0
LINE
  5
4BDBC
330
4BDB7
100
AcDbEntity
  8
DIM
 62
     0
370
    -2
100
AcDbLine
 10
412.3137766741044
 20
478.3243503559981
 30
0.0
 11
412.3137766741044
 21
455.0076261879029
 31
0.0
  0
LINE
  5
4BDBD
330
4BDB7
100
AcDbEntity
  8
DIM
 62
     0
370
    -2
100
AcDbLine
 10
412.3137766741044
 20
484.3353569240898
 30
0.0
 11
412.3137766741044
 21
487.3353569240898
 31
0.0
  0
LINE
  5
4BDBE
330
4BDB7
100
AcDbEntity
  8
DIM
 62
     0
370
    -2
100
AcDbLine
 10
412.3137766741044
 20
481.3243503559981
 30
0.0
 11
412.3137766741044
 21
484.3243503559981
 31
0.0
  0
INSERT
  5
4BDBF
330
4BDB7
100
AcDbEntity
  8
DIM
 62
     0
370
    -2
100
AcDbBlockReference
  2
_DOT
 10
412.3137766741044
 20
484.3353569240898
 30
0.0
 41
3.0
 42
3.0
 43
3.0
 50
90.0
  0
INSERT
  5
4BDC0
330
4BDB7
100
AcDbEntity
  8
DIM
 62
     0
370
    -2
100
AcDbBlockReference
  2
_DOT
 10
412.3137766741044
 20
478.3243503559981
 30
0.0
 41
3.0
 42
3.0
 43
3.0
 50
270.0
  0
MTEXT
  5
4BDC1
330
4BDB7
100
AcDbEntity
  8
DIM
 62
     0
100
AcDbMText
 10
402.3137766741044
 20
463.0380751062473
 30
0.0
 40
8.0
 41
0.0
 46
0.0
 71
     5
 72
     1
  1
\A1;6
  7
ＭＳ ゴシック
 11
0.0
 21
1.0
 31
0.0
 73
     1
 44
1.0
  0
POINT
  5
4BDC2
330
4BDB7
100
AcDbEntity
  8
Defpoints
 62
     0
100
AcDbPoint
 10
379.0877022931285
 20
484.3353569240898
 30
0.0
  0
POINT
  5
4BDC3
330
4BDB7
100
AcDbEntity
  8
Defpoints
 62
     0
100
AcDbPoint
 10
379.0877022931285
 20
478.3243503559981
 30
0.0
  0
POINT
  5
4BDC4
330
4BDB7
100
AcDbEntity
  8
Defpoints
 62
     0
100
AcDbPoint
 10
412.3137766741044
 20
478.3243503559981
 30
0.0
  0
ENDBLK
  5
4BDB9
330
4BDB7
100
AcDbEntity
  8
0
100
AcDbBlockEnd
  0
BLOCK
  5
4BDCA
330
4BDC9
100
AcDbEntity
  8
0
100
AcDbBlockBegin
  2
*D83
 70
     1
 10
0.0
 20
0.0
 30
0.0
  3
*D83
  1

  0
LINE
  5
4BDCC
330
4BDC9
100
AcDbEntity
  8
DIM
 62
     0
370
    -2
100
AcDbLine
 10
91.05134698457101
 20
474.3353569240898
 30
0.0
 11
91.05134698457101
 21
435.6163178581426
 31
0.0
  0
LINE
  5
4BDCD
330
4BDC9
100
AcDbEntity
  8
DIM
 62
     0
370
    -2
100
AcDbLine
 10
367.0650001373937
 20
474.3353569240898
 30
0.0
 11
367.0650001373937
 21
435.6163178581426
 31
0.0
  0
LINE
  5
4BDCE
330
4BDC9
100
AcDbEntity
  8
DIM
 62
     0
370
    -2
100
AcDbLine
 10
94.05134698457101
 20
435.6163178581426
 30
0.0
 11
364.0650001373937
 21
435.6163178581426
 31
0.0
  0
INSERT
  5
4BDCF
330
4BDC9
100
AcDbEntity
  8
DIM
 62
     0
370
    -2
100
AcDbBlockReference
  2
_DOT
 10
91.05134698457101
 20
435.6163178581426
 30
0.0
 41
3.0
 42
3.0
 43
3.0
 50
180.0
  0
INSERT
  5
4BDD0
330
4BDC9
100
AcDbEntity
  8
DIM
 62
     0
370
    -2
100
AcDbBlockReference
  2
_DOT
 10
367.0650001373937
 20
435.6163178581426
 30
0.0
 41
3.0
 42
3.0
 43
3.0
  0
MTEXT
  5
4BDD1
330
4BDC9
100
AcDbEntity
  8
DIM
 62
     0
100
AcDbMText
 10
229.0581735609824
 20
445.6178184208537
 30
0.0
 40
8.0
 41
0.0
 46
0.0
 71
     5
 72
     1
  1
\A1;276
  7
ＭＳ ゴシック
 73
     1
 44
1.0
  0
POINT
  5
4BDD2
330
4BDC9
100
AcDbEntity
  8
Defpoints
 62
     0
100
AcDbPoint
 10
91.05134698457101
 20
484.3353569240898
 30
0.0
  0
POINT
  5
4BDD3
330
4BDC9
100
AcDbEntity
  8
Defpoints
 62
     0
100
AcDbPoint
 10
367.0650001373937
 20
484.3353569240898
 30
0.0
  0
POINT
  5
4BDD4
330
4BDC9
100
AcDbEntity
  8
Defpoints
 62
     0
100
AcDbPoint
 10
367.0650001373937
 20
435.6163178581426
 30
0.0
  0
ENDBLK
  5
4BDCB
330
4BDC9
100
AcDbEntity
  8
0
100
AcDbBlockEnd
  0
BLOCK
  5
4BDD9
330
4BDD8
100
AcDbEntity
  8
0
100
AcDbBlockBegin
  2
*D84
 70
     1
 10
0.0
 20
0.0
 30
0.0
  3
*D84
  1

  0
LINE
  5
4BDDB
330
4BDD8
100
AcDbEntity
  8
DIM
 62
     0
370
    -2
100
AcDbLine
 10
79.02864482883611
 20
350.6958322797016
 30
0.0
 11
79.0286448288361
 21
294.6666996845602
 31
0.0
  0
LINE
  5
4BDDC
330
4BDD8
100
AcDbEntity
  8
DIM
 62
     0
370
    -2
100
AcDbLine
 10
379.0877022931283
 20
350.6958322797016
 30
0.0
 11
379.0877022931283
 21
294.6666996845602
 31
0.0
  0
LINE
  5
4BDDD
330
4BDD8
100
AcDbEntity
  8
DIM
 62
     0
370
    -2
100
AcDbLine
 10
82.0286448288361
 20
294.6666996845602
 30
0.0
 11
376.0877022931283
 21
294.6666996845602
 31
0.0
  0
INSERT
  5
4BDDE
330
4BDD8
100
AcDbEntity
  8
DIM
 62
     0
370
    -2
100
AcDbBlockReference
  2
_DOT
 10
79.0286448288361
 20
294.6666996845602
 30
0.0
 41
3.0
 42
3.0
 43
3.0
 50
180.0
  0
INSERT
  5
4BDDF
330
4BDD8
100
AcDbEntity
  8
DIM
 62
     0
370
    -2
100
AcDbBlockReference
  2
_DOT
 10
379.0877022931283
 20
294.6666996845602
 30
0.0
 41
3.0
 42
3.0
 43
3.0
  0
MTEXT
  5
4BDE0
330
4BDD8
100
AcDbEntity
  8
DIM
 62
     0
100
AcDbMText
 10
229.0581735609822
 20
304.6682002472713
 30
0.0
 40
8.0
 41
0.0
 46
0.0
 71
     5
 72
     1
  1
\A1;300
  7
ＭＳ ゴシック
 73
     1
 44
1.0
  0
POINT
  5
4BDE1
330
4BDD8
100
AcDbEntity
  8
Defpoints
 62
     0
100
AcDbPoint
 10
79.02864482883611
 20
360.6958322797016
 30
0.0
  0
POINT
  5
4BDE2
330
4BDD8
100
AcDbEntity
  8
Defpoints
 62
     0
100
AcDbPoint
 10
379.0877022931283
 20
360.6958322797016
 30
0.0
  0
POINT
  5
4BDE3
330
4BDD8
100
AcDbEntity
  8
Defpoints
 62
     0
100
AcDbPoint
 10
379.0877022931283
 20
294.6666996845602
 30
0.0
  0
ENDBLK
  5
4BDDA
330
4BDD8
100
AcDbEntity
  8
0
100
AcDbBlockEnd
  0
BLOCK
  5
4BDE8
330
4BDE7
100
AcDbEntity
  8
0
100
AcDbBlockBegin
  2
*D85
 70
     1
 10
0.0
 20
0.0
 30
0.0
  3
*D85
  1

  0
LINE
  5
4BDEA
330
4BDE7
100
AcDbEntity
  8
DIM
 62
     0
370
    -2
100
AcDbLine
 10
389.0877022931285
 20
571.3729957007854
 30
0.0
 11
412.3137766741044
 21
571.3729957007854
 31
0.0
  0
LINE
  5
4BDEB
330
4BDE7
100
AcDbEntity
  8
DIM
 62
     0
370
    -2
100
AcDbLine
 10
389.0877022931285
 20
484.3353569240898
 30
0.0
 11
412.3137766741044
 21
484.3353569240898
 31
0.0
  0
LINE
  5
4BDEC
330
4BDE7
100
AcDbEntity
  8
DIM
 62
     0
370
    -2
100
AcDbLine
 10
412.3137766741044
 20
568.3729957007854
 30
0.0
 11
412.3137766741044
 21
487.3353569240898
 31
0.0
  0
INSERT
  5
4BDED
330
4BDE7
100
AcDbEntity
  8
DIM
 62
     0
370
    -2
100
AcDbBlockReference
  2
_DOT
 10
412.3137766741044
 20
571.3729957007854
 30
0.0
 41
3.0
 42
3.0
 43
3.0
 50
90.0
  0
INSERT
  5
4BDEE
330
4BDE7
100
AcDbEntity
  8
DIM
 62
     0
370
    -2
100
AcDbBlockReference
  2
_DOT
 10
412.3137766741044
 20
484.3353569240898
 30
0.0
 41
3.0
 42
3.0
 43
3.0
 50
270.0
  0
MTEXT
  5
4BDEF
330
4BDE7
100
AcDbEntity
  8
DIM
 62
     0
100
AcDbMText
 10
402.3122761113934
 20
527.8541763124376
 30
0.0
 40
8.0
 41
0.0
 46
0.0
 71
     5
 72
     1
  1
\A1;87
  7
ＭＳ ゴシック
 11
0.0
 21
1.0
 31
0.0
 73
     1
 44
1.0
  0
POINT
  5
4BDF0
330
4BDE7
100
AcDbEntity
  8
Defpoints
 62
     0
100
AcDbPoint
 10
379.0877022931285
 20
571.3729957007854
 30
0.0
  0
POINT
  5
4BDF1
330
4BDE7
100
AcDbEntity
  8
Defpoints
 62
     0
100
AcDbPoint
 10
379.0877022931285
 20
484.3353569240898
 30
0.0
  0
POINT
  5
4BDF2
330
4BDE7
100
AcDbEntity
  8
Defpoints
 62
     0
100
AcDbPoint
 10
412.3137766741044
 20
484.3353569240898
 30
0.0
  0
ENDBLK
  5
4BDE9
330
4BDE7
100
AcDbEntity
  8
0
100
AcDbBlockEnd
  0
BLOCK
  5
4BE70
330
4BE6F
100
AcDbEntity
  8
0
100
AcDbBlockBegin
  2
*D86
 70
     1
 10
0.0
 20
0.0
 30
0.0
  3
*D86
  1

  0
LINE
  5
4BE71
330
4BE6F
100
AcDbEntity
  8
DIM
 62
     0
370
    -2
100
AcDbLine
 10
8.124357609308973
 20
20.04686323082558
 30
0.0
 11
4.001688133049925
 21
20.04686323082558
 31
0.0
  0
LINE
  5
4BE72
330
4BE6F
100
AcDbEntity
  8
DIM
 62
     0
370
    -2
100
AcDbLine
 10
8.1243576093092
 20
2.032482543911556
 30
0.0
 11
4.001688133049925
 21
2.032482543911556
 31
0.0
  0
LINE
  5
4BE73
330
4BE6F
100
AcDbEntity
  8
DIM
 62
     0
370
    -2
100
AcDbLine
 10
4.001688133049925
 20
17.04686323082558
 30
0.0
 11
4.001688133049925
 21
5.032482543911556
 31
0.0
  0
INSERT
  5
4BE74
330
4BE6F
100
AcDbEntity
  8
DIM
 62
     0
370
    -2
100
AcDbBlockReference
  2
_DOT
 10
4.001688133049925
 20
20.04686323082558
 30
0.0
 41
3.0
 42
3.0
 43
3.0
 50
90.0
  0
INSERT
  5
4BE75
330
4BE6F
100
AcDbEntity
  8
DIM
 62
     0
370
    -2
100
AcDbBlockReference
  2
_DOT
 10
4.001688133049925
 20
2.032482543911556
 30
0.0
 41
3.0
 42
3.0
 43
3.0
 50
270.0
  0
MTEXT
  5
4BE76
330
4BE6F
100
AcDbEntity
  8
DIM
 62
     0
100
AcDbMText
 10
-5.999812429661091
 20
11.03967288736857
 30
0.0
 40
8.0
 41
0.0
 46
0.0
 71
     5
 72
     1
  1
\A1;18
  7
ＭＳ ゴシック
 11
4.930385535514492E-17
 21
1.0
 31
0.0
 73
     1
 44
1.0
  0
POINT
  5
4BE77
330
4BE6F
100
AcDbEntity
  8
Defpoints
 62
     0
100
AcDbPoint
 10
18.12435760930897
 20
20.04686323082558
 30
0.0
  0
POINT
  5
4BE78
330
4BE6F
100
AcDbEntity
  8
Defpoints
 62
     0
100
AcDbPoint
 10
18.1243576093092
 20
2.032482543911556
 30
0.0
  0
POINT
  5
4BE79
330
4BE6F
100
AcDbEntity
  8
Defpoints
 62
     0
100
AcDbPoint
 10
4.001688133049925
 20
2.032482543911557
 30
0.0
  0
ENDBLK
  5
4BE7A
330
4BE6F
100
AcDbEntity
  8
0
100
AcDbBlockEnd
  0
BLOCK
  5
4BE7F
330
4BE7E
100
AcDbEntity
  8
0
100
AcDbBlockBegin
  2
*D87
 70
     1
 10
0.0
 20
0.0
 30
0.0
  3
*D87
  1

  0
LINE
  5
4BE80
330
4BE7E
100
AcDbEntity
  8
DIM
 62
     0
370
    -2
100
AcDbLine
 10
53.1243576093091
 20
26.04686323082547
 30
0.0
 11
4.001688133049925
 21
26.04686323082547
 31
0.0
  0
LINE
  5
4BE81
330
4BE7E
100
AcDbEntity
  8
DIM
 62
     0
370
    -2
100
AcDbLine
 10
8.124357609308973
 20
20.04686323082558
 30
0.0
 11
4.001688133049925
 21
20.04686323082558
 31
0.0
  0
LINE
  5
4BE82
330
4BE7E
100
AcDbEntity
  8
DIM
 62
     0
370
    -2
100
AcDbLine
 10
4.001688133049925
 20
26.04686323082547
 30
0.0
 11
4.001688133049925
 21
48.10776106751423
 31
0.0
  0
LINE
  5
4BE83
330
4BE7E
100
AcDbEntity
  8
DIM
 62
     0
370
    -2
100
AcDbLine
 10
4.001688133049925
 20
23.04686323082547
 30
0.0
 11
4.001688133049925
 21
23.04686323082558
 31
0.0
  0
LINE
  5
4BE84
330
4BE7E
100
AcDbEntity
  8
DIM
 62
     0
370
    -2
100
AcDbLine
 10
4.001688133049925
 20
23.04686323082547
 30
0.0
 11
4.001688133049925
 21
20.04686323082547
 31
0.0
  0
INSERT
  5
4BE85
330
4BE7E
100
AcDbEntity
  8
DIM
 62
     0
370
    -2
100
AcDbBlockReference
  2
_DOT
 10
4.001688133049925
 20
26.04686323082547
 30
0.0
 41
3.0
 42
3.0
 43
3.0
 50
90.0
  0
INSERT
  5
4BE86
330
4BE7E
100
AcDbEntity
  8
DIM
 62
     0
370
    -2
100
AcDbBlockReference
  2
_DOT
 10
4.001688133049925
 20
20.04686323082558
 30
0.0
 41
3.0
 42
3.0
 43
3.0
 50
270.0
  0
MTEXT
  5
4BE87
330
4BE7E
100
AcDbEntity
  8
DIM
 62
     0
100
AcDbMText
 10
-5.998311866950075
 20
40.07731214916985
 30
0.0
 40
8.0
 41
0.0
 46
0.0
 71
     5
 72
     1
  1
\A1;6
  7
ＭＳ ゴシック
 11
0.0
 21
1.0
 31
0.0
 73
     1
 44
1.0
  0
POINT
  5
4BE88
330
4BE7E
100
AcDbEntity
  8
Defpoints
 62
     0
100
AcDbPoint
 10
63.1243576093091
 20
26.04686323082547
 30
0.0
  0
POINT
  5
4BE89
330
4BE7E
100
AcDbEntity
  8
Defpoints
 62
     0
100
AcDbPoint
 10
18.12435760930897
 20
20.04686323082558
 30
0.0
  0
POINT
  5
4BE8A
330
4BE7E
100
AcDbEntity
  8
Defpoints
 62
     0
100
AcDbPoint
 10
4.001688133049925
 20
20.04686323082558
 30
0.0
  0
ENDBLK
  5
4BE8B
330
4BE7E
100
AcDbEntity
  8
0
100
AcDbBlockEnd
  0
BLOCK
  5
4BED8
330
4BED7
100
AcDbEntity
  8
0
100
AcDbBlockBegin
  2
*D88
 70
     1
 10
0.0
 20
0.0
 30
0.0
  3
*D88
  1

  0
LINE
  5
4BEDA
330
4BED7
100
AcDbEntity
  8
DIM
 62
     0
370
    -2
100
AcDbLine
 10
413.4128800778603
 20
383.73628383044
 30
0.0
 11
403.675260040406
 21
383.73628383044
 31
0.0
  0
LINE
  5
4BEDB
330
4BED7
100
AcDbEntity
  8
DIM
 62
     0
370
    -2
100
AcDbLine
 10
413.4128800778606
 20
365.721903143526
 30
0.0
 11
403.675260040406
 21
365.721903143526
 31
0.0
  0
LINE
  5
4BEDC
330
4BED7
100
AcDbEntity
  8
DIM
 62
     0
370
    -2
100
AcDbLine
 10
403.675260040406
 20
380.73628383044
 30
0.0
 11
403.675260040406
 21
368.721903143526
 31
0.0
  0
INSERT
  5
4BEDD
330
4BED7
100
AcDbEntity
  8
DIM
 62
     0
370
    -2
100
AcDbBlockReference
  2
_DOT
 10
403.675260040406
 20
383.73628383044
 30
0.0
 41
3.0
 42
3.0
 43
3.0
 50
90.0
  0
INSERT
  5
4BEDE
330
4BED7
100
AcDbEntity
  8
DIM
 62
     0
370
    -2
100
AcDbBlockReference
  2
_DOT
 10
403.675260040406
 20
365.721903143526
 30
0.0
 41
3.0
 42
3.0
 43
3.0
 50
270.0
  0
MTEXT
  5
4BEDF
330
4BED7
100
AcDbEntity
  8
DIM
 62
     0
100
AcDbMText
 10
393.6737594776949
 20
374.7290934869831
 30
0.0
 40
8.0
 41
0.0
 46
0.0
 71
     5
 72
     1
  1
\A1;18
  7
ＭＳ ゴシック
 11
0.0
 21
1.0
 31
0.0
 73
     1
 44
1.0
  0
POINT
  5
4BEE0
330
4BED7
100
AcDbEntity
  8
Defpoints
 62
     0
100
AcDbPoint
 10
423.4128800778603
 20
383.73628383044
 30
0.0
  0
POINT
  5
4BEE1
330
4BED7
100
AcDbEntity
  8
Defpoints
 62
     0
100
AcDbPoint
 10
423.4128800778606
 20
365.721903143526
 30
0.0
  0
POINT
  5
4BEE2
330
4BED7
100
AcDbEntity
  8
Defpoints
 62
     0
100
AcDbPoint
 10
403.675260040406
 20
365.721903143526
 30
0.0
  0
ENDBLK
  5
4BED9
330
4BED7
100
AcDbEntity
  8
0
100
AcDbBlockEnd
  0
BLOCK
  5
4BEE4
330
4BEE3
100
AcDbEntity
  8
0
100
AcDbBlockBegin
  2
*D89
 70
     1
 10
0.0
 20
0.0
 30
0.0
  3
*D89
  1

  0
LINE
  5
4BEE6
330
4BEE3
100
AcDbEntity
  8
DIM
 62
     0
370
    -2
100
AcDbLine
 10
458.4128800778605
 20
389.7362838304399
 30
0.0
 11
403.675260040406
 21
389.7362838304399
 31
0.0
  0
LINE
  5
4BEE7
330
4BEE3
100
AcDbEntity
  8
DIM
 62
     0
370
    -2
100
AcDbLine
 10
413.4128800778603
 20
383.73628383044
 30
0.0
 11
403.675260040406
 21
383.73628383044
 31
0.0
  0
LINE
  5
4BEE8
330
4BEE3
100
AcDbEntity
  8
DIM
 62
     0
370
    -2
100
AcDbLine
 10
403.675260040406
 20
389.7362838304399
 30
0.0
 11
403.675260040406
 21
411.7971816671287
 31
0.0
  0
LINE
  5
4BEE9
330
4BEE3
100
AcDbEntity
  8
DIM
 62
     0
370
    -2
100
AcDbLine
 10
403.675260040406
 20
386.7362838304399
 30
0.0
 11
403.675260040406
 21
386.73628383044
 31
0.0
  0
LINE
  5
4BEEA
330
4BEE3
100
AcDbEntity
  8
DIM
 62
     0
370
    -2
100
AcDbLine
 10
403.675260040406
 20
386.7362838304399
 30
0.0
 11
403.675260040406
 21
383.7362838304399
 31
0.0
  0
INSERT
  5
4BEEB
330
4BEE3
100
AcDbEntity
  8
DIM
 62
     0
370
    -2
100
AcDbBlockReference
  2
_DOT
 10
403.675260040406
 20
389.7362838304399
 30
0.0
 41
3.0
 42
3.0
 43
3.0
 50
90.0
  0
INSERT
  5
4BEEC
330
4BEE3
100
AcDbEntity
  8
DIM
 62
     0
370
    -2
100
AcDbBlockReference
  2
_DOT
 10
403.675260040406
 20
383.73628383044
 30
0.0
 41
3.0
 42
3.0
 43
3.0
 50
270.0
  0
MTEXT
  5
4BEED
330
4BEE3
100
AcDbEntity
  8
DIM
 62
     0
100
AcDbMText
 10
393.675260040406
 20
403.7667327487843
 30
0.0
 40
8.0
 41
0.0
 46
0.0
 71
     5
 72
     1
  1
\A1;6
  7
ＭＳ ゴシック
 11
0.0
 21
1.0
 31
0.0
 73
     1
 44
1.0
  0
POINT
  5
4BEEE
330
4BEE3
100
AcDbEntity
  8
Defpoints
 62
     0
100
AcDbPoint
 10
468.4128800778605
 20
389.7362838304399
 30
0.0
  0
POINT
  5
4BEEF
330
4BEE3
100
AcDbEntity
  8
Defpoints
 62
     0
100
AcDbPoint
 10
423.4128800778603
 20
383.73628383044
 30
0.0
  0
POINT
  5
4BEF0
330
4BEE3
100
AcDbEntity
  8
Defpoints
 62
     0
100
AcDbPoint
 10
403.675260040406
 20
383.73628383044
 30
0.0
  0
ENDBLK
  5
4BEE5
330
4BEE3
100
AcDbEntity
  8
0
100
AcDbBlockEnd
  0
BLOCK
  5
4BEF8
330
4BEF7
100
AcDbEntity
  8
0
100
AcDbBlockBegin
  2
*D90
 70
     1
 10
0.0
 20
0.0
 30
0.0
  3
*D90
  1

  0
LINE
  5
4BEFA
330
4BEF7
100
AcDbEntity
  8
DIM
 62
     0
370
    -2
100
AcDbLine
 10
69.0286448288362
 20
571.3729957007854
 30
0.0
 11
50.20959188819271
 21
571.3729957007854
 31
0.0
  0
LINE
  5
4BEFB
330
4BEF7
100
AcDbEntity
  8
DIM
 62
     0
370
    -2
100
AcDbLine
 10
69.0286448288362
 20
478.3243503559981
 30
0.0
 11
50.2095918881927
 21
478.3243503559981
 31
0.0
  0
LINE
  5
4BEFC
330
4BEF7
100
AcDbEntity
  8
DIM
 62
     0
370
    -2
100
AcDbLine
 10
50.20959188819271
 20
568.3729957007854
 30
0.0
 11
50.2095918881927
 21
481.3243503559981
 31
0.0
  0
INSERT
  5
4BEFD
330
4BEF7
100
AcDbEntity
  8
DIM
 62
     0
370
    -2
100
AcDbBlockReference
  2
_DOT
 10
50.20959188819271
 20
571.3729957007854
 30
0.0
 41
3.0
 42
3.0
 43
3.0
 50
90.0
  0
INSERT
  5
4BEFE
330
4BEF7
100
AcDbEntity
  8
DIM
 62
     0
370
    -2
100
AcDbBlockReference
  2
_DOT
 10
50.2095918881927
 20
478.3243503559981
 30
0.0
 41
3.0
 42
3.0
 43
3.0
 50
270.0
  0
MTEXT
  5
4BEFF
330
4BEF7
100
AcDbEntity
  8
DIM
 62
     0
100
AcDbMText
 10
40.20809132548166
 20
524.8486730283918
 30
0.0
 40
8.0
 41
0.0
 46
0.0
 71
     5
 72
     1
  1
\A1;93
  7
ＭＳ ゴシック
 11
7.636250190717103E-17
 21
1.0
 31
0.0
 73
     1
 44
1.0
  0
POINT
  5
4BF00
330
4BEF7
100
AcDbEntity
  8
Defpoints
 62
     0
100
AcDbPoint
 10
79.0286448288362
 20
571.3729957007854
 30
0.0
  0
POINT
  5
4BF01
330
4BEF7
100
AcDbEntity
  8
Defpoints
 62
     0
100
AcDbPoint
 10
79.0286448288362
 20
478.3243503559981
 30
0.0
  0
POINT
  5
4BF02
330
4BEF7
100
AcDbEntity
  8
Defpoints
 62
     0
100
AcDbPoint
 10
50.2095918881927
 20
478.3243503559981
 30
0.0
  0
ENDBLK
  5
4BEF9
330
4BEF7
100
AcDbEntity
  8
0
100
AcDbBlockEnd
  0
BLOCK
  5
4BF07
330
4BF06
100
AcDbEntity
  8
0
100
AcDbBlockBegin
  2
*D91
 70
     1
 10
0.0
 20
0.0
 30
0.0
  3
*D91
  1

  0
LINE
  5
4BF09
330
4BF06
100
AcDbEntity
  8
DIM
 62
     0
370
    -2
100
AcDbLine
 10
91.05134698457101
 20
529.775260104687
 30
0.0
 11
120.4261572112457
 21
529.775260104687
 31
0.0
  0
LINE
  5
4BF0A
330
4BF06
100
AcDbEntity
  8
DIM
 62
     0
370
    -2
100
AcDbLine
 10
79.0286448288362
 20
529.775260104687
 30
0.0
 11
91.05134698457101
 21
529.775260104687
 31
0.0
  0
LINE
  5
4BF0B
330
4BF06
100
AcDbEntity
  8
DIM
 62
     0
370
    -2
100
AcDbLine
 10
76.0286448288362
 20
529.775260104687
 30
0.0
 11
73.0286448288362
 21
529.775260104687
 31
0.0
  0
LINE
  5
4BF0C
330
4BF06
100
AcDbEntity
  8
DIM
 62
     0
370
    -2
100
AcDbLine
 10
94.05134698457101
 20
529.775260104687
 30
0.0
 11
97.05134698457101
 21
529.775260104687
 31
0.0
  0
INSERT
  5
4BF0D
330
4BF06
100
AcDbEntity
  8
DIM
 62
     0
370
    -2
100
AcDbBlockReference
  2
_DOT
 10
79.0286448288362
 20
529.775260104687
 30
0.0
 41
3.0
 42
3.0
 43
3.0
  0
INSERT
  5
4BF0E
330
4BF06
100
AcDbEntity
  8
DIM
 62
     0
370
    -2
100
AcDbBlockReference
  2
_DOT
 10
91.05134698457101
 20
529.775260104687
 30
0.0
 41
3.0
 42
3.0
 43
3.0
 50
180.0
  0
MTEXT
  5
4BF0F
330
4BF06
100
AcDbEntity
  8
DIM
 62
     0
100
AcDbMText
 10
110.0205050917009
 20
539.7767606673981
 30
0.0
 40
8.0
 41
0.0
 46
0.0
 71
     5
 72
     1
  1
\A1;12
  7
ＭＳ ゴシック
 73
     1
 44
1.0
  0
POINT
  5
4BF10
330
4BF06
100
AcDbEntity
  8
Defpoints
 62
     0
100
AcDbPoint
 10
79.0286448288362
 20
519.8794055479519
 30
0.0
  0
POINT
  5
4BF11
330
4BF06
100
AcDbEntity
  8
Defpoints
 62
     0
100
AcDbPoint
 10
91.05134698457101
 20
519.8794055479519
 30
0.0
  0
POINT
  5
4BF14
330
4BF06
100
AcDbEntity
  8
Defpoints
 62
     0
100
AcDbPoint
 10
91.05134698457101
 20
529.775260104687
 30
0.0
  0
ENDBLK
  5
4BF08
330
4BF06
100
AcDbEntity
  8
0
100
AcDbBlockEnd
  0
BLOCK
  5
4BF19
330
4BF18
100
AcDbEntity
  8
0
100
AcDbBlockBegin
  2
*D92
 70
     1
 10
0.0
 20
0.0
 30
0.0
  3
*D92
  1

  0
LINE
  5
4BF1B
330
4BF18
100
AcDbEntity
  8
DIM
 62
     0
370
    -2
100
AcDbLine
 10
91.05134698457101
 20
474.3353569240898
 30
0.0
 11
91.05134698457101
 21
439.7458240540207
 31
0.0
  0
LINE
  5
4BF1C
330
4BF18
100
AcDbEntity
  8
DIM
 62
     0
370
    -2
100
AcDbLine
 10
367.0650001373937
 20
474.3353569240898
 30
0.0
 11
367.0650001373937
 21
439.7458240540207
 31
0.0
  0
LINE
  5
4BF1D
330
4BF18
100
AcDbEntity
  8
DIM
 62
     0
370
    -2
100
AcDbLine
 10
94.05134698457101
 20
439.7458240540207
 30
0.0
 11
364.0650001373937
 21
439.7458240540207
 31
0.0
  0
INSERT
  5
4BF1E
330
4BF18
100
AcDbEntity
  8
DIM
 62
     0
370
    -2
100
AcDbBlockReference
  2
_DOT
 10
91.05134698457101
 20
439.7458240540207
 30
0.0
 41
3.0
 42
3.0
 43
3.0
 50
180.0
  0
INSERT
  5
4BF1F
330
4BF18
100
AcDbEntity
  8
DIM
 62
     0
370
    -2
100
AcDbBlockReference
  2
_DOT
 10
367.0650001373937
 20
439.7458240540207
 30
0.0
 41
3.0
 42
3.0
 43
3.0
  0
MTEXT
  5
4BF20
330
4BF18
100
AcDbEntity
  8
DIM
 62
     0
100
AcDbMText
 10
229.0581735609824
 20
449.7473246167317
 30
0.0
 40
8.0
 41
0.0
 46
0.0
 71
     5
 72
     1
  1
\A1;276
  7
ＭＳ ゴシック
 73
     1
 44
1.0
  0
POINT
  5
4BF21
330
4BF18
100
AcDbEntity
  8
Defpoints
 62
     0
100
AcDbPoint
 10
91.05134698457101
 20
484.3353569240898
 30
0.0
  0
POINT
  5
4BF22
330
4BF18
100
AcDbEntity
  8
Defpoints
 62
     0
100
AcDbPoint
 10
367.0650001373937
 20
484.3353569240898
 30
0.0
  0
POINT
  5
4BF23
330
4BF18
100
AcDbEntity
  8
Defpoints
 62
     0
100
AcDbPoint
 10
367.0650001373937
 20
439.7458240540207
 30
0.0
  0
ENDBLK
  5
4BF1A
330
4BF18
100
AcDbEntity
  8
0
100
AcDbBlockEnd
  0
ENDSEC
  0
SECTION
  2
ENTITIES
  0
MTEXT
  5
177
330
A
100
AcDbEntity
  8
TEMPLATE
390
1D
100
AcDbMText
 10
23.76064336431923
 20
103.1195254894285
 30
0.0
 40
4.886523437499998
 41
0.0
 46
0.0
 71
     1
 72
     1
  1
品名
  7
ＭＳ ゴシック
 73
     1
 44
0.7828267384257843
  0
MTEXT
  5
178
330
A
100
AcDbEntity
  8
TEMPLATE
390
1D
100
AcDbMText
 10
23.76064336431923
 20
77.6195254894284
 30
0.0
 40
4.886523437499998
 41
0.0
 46
0.0
 71
     1
 72
     1
  1
仕様
  7
ＭＳ ゴシック
 73
     1
 44
0.7828267384257843
  0
LINE
  5
179
330
A
100
AcDbEntity
  8
TEMPLATE
390
1D
100
AcDbLine
 10
606.6606433641745
 20
80.14400205192852
 30
0.0
 11
21.66064336417462
 21
80.14400205192852
 31
0.0
  0
LWPOLYLINE
  5
17A
330
A
100
AcDbEntity
  8
TEMPLATE
390
1D
100
AcDbPolyline
 90
        5
 70
   128
 43
0.0
 10
606.6606433641745
 20
869.1440020519278
 10
21.66064336417462
 20
869.1440020519278
 10
21.66064336417462
 20
29.14400205192847
 10
606.6606433641745
 20
29.14400205192847
 10
606.6606433641745
 20
869.1440020519278
  0
LINE
  5
17B
330
A
100
AcDbEntity
  8
TEMPLATE
390
1D
100
AcDbLine
 10
606.6606433641745
 20
105.6440020519285
 30
0.0
 11
21.66064336417462
 21
105.6440020519285
 31
0.0
  0
LINE
  5
17C
330
A
100
AcDbEntity
  8
TEMPLATE
390
1D
100
AcDbLine
 10
606.6606433643196
 20
54.64400205192847
 30
0.0
 11
380.760643364319
 21
54.64400205192847
 31
0.0
  0
MTEXT
  5
17E
330
A
100
AcDbEntity
  8
TEMPLATE
390
1D
100
AcDbMText
 10
389.7220652399973
 20
45.67088370993605
 30
0.0
 40
7.329785156250001
 41
0.0
 46
0.0
 71
     1
 72
     1
  1
大洋金物株式会社 ティーフォルム事業部
  7
ＭＳ ゴシック
 73
     1
 44
0.7828267384257843
  0
MTEXT
  5
180
330
A
100
AcDbEntity
  8
TEMPLATE
390
1D
100
AcDbMText
 10
549.360643364397
 20
69.04478720817846
 30
0.0
 40
7.329785156250001
 41
0.0
 46
7.329785156250001
 71
     1
 72
     1
  1
{1:3}
  7
ＭＳ ゴシック
 73
     1
 44
0.7828267384257843
1001
ACAD
1000
ACAD_MTEXT_DEFINED_HEIGHT_BEGIN
1070
    46
1040
7.329785156250001
1000
ACAD_MTEXT_DEFINED_HEIGHT_END
  0
MTEXT
  5
181
330
A
100
AcDbEntity
  8
TEMPLATE
390
1D
100
AcDbMText
 10
533.4606433643969
 20
77.6195254894284
 30
0.0
 40
4.886523437499998
 41
0.0
 46
0.0
 71
     1
 72
     1
  1
縮尺
  7
ＭＳ ゴシック
 73
     1
 44
0.7828267384257843
  0
LINE
  5
182
330
A
100
AcDbEntity
  8
TEMPLATE
390
1D
100
AcDbLine
 10
531.360643364397
 20
54.64400205192847
 30
0.0
 11
531.360643364397
 21
80.14400205192852
 31
0.0
  0
MTEXT
  5
183
330
A
100
AcDbEntity
  8
TEMPLATE
390
1D
100
AcDbMText
 10
458.1606433643969
 20
77.6195254894284
 30
0.0
 40
4.886523437499998
 41
0.0
 46
0.0
 71
     1
 72
     1
  1
容量
  7
ＭＳ ゴシック
 73
     1
 44
0.7828267384257843
  0
LINE
  5
184
330
A
100
AcDbEntity
  8
TEMPLATE
390
1D
100
AcDbLine
 10
456.060643364397
 20
54.64400205192847
 30
0.0
 11
456.060643364397
 21
80.14400205192852
 31
0.0
  0
MTEXT
  5
185
330
A
100
AcDbEntity
  8
TEMPLATE
390
1D
100
AcDbMText
 10
382.860643364397
 20
103.1195254894285
 30
0.0
 40
4.886523437499998
 41
0.0
 46
0.0
 71
     1
 72
     1
  1
品番
  7
ＭＳ ゴシック
 73
     1
 44
0.7828267384257843
  0
MTEXT
  5
186
330
A
100
AcDbEntity
  8
TEMPLATE
390
1D
100
AcDbMText
 10
382.860643364397
 20
77.6195254894284
 30
0.0
 40
4.886523437499998
 41
0.0
 46
0.0
 71
     1
 72
     1
  1
重量
  7
ＭＳ ゴシック
 73
     1
 44
0.7828267384257843
  0
LINE
  5
188
330
A
100
AcDbEntity
  8
TEMPLATE
390
1D
100
AcDbLine
 10
380.760643364397
 20
29.14400205192847
 30
0.0
 11
380.760643364397
 21
105.6440020519285
 31
0.0
  0
INSERT
  5
68C
330
A
100
AcDbEntity
  8
TEMPLATE
100
AcDbBlockReference
  2
block 2
 10
367.7097207081031
 20
3.349230605734547
 30
0.0
 41
0.1524
 42
0.1524
 43
0.1524
  0
LWPOLYLINE
  5
D69
330
A
100
AcDbEntity
  8
BORDER
100
AcDbPolyline
 90
        4
 70
     1
 43
0.0
 10
0.0
 20
0.0
 10
0.0
 20
891.0
 10
630.0
 20
891.0
 10
630.0
 20
0.0
  0
INSERT
  5
1343
330
A
100
AcDbEntity
  8
TEMPLATE
100
AcDbBlockReference
  2
block 2
 10
838.6973883465873
 20
9.774128564918277
 30
0.0
 41
0.1524
 42
0.1524
 43
0.1524
  0
MTEXT
  5
36AC
102
{ACAD_XDICTIONARY
360
36AE
102
}
330
A
100
AcDbEntity
  8
TEMPLATE
 48
0.05
100
AcDbMText
 10
22.06848147481188
 20
25.15049698669364
 30
0.0
 40
7.0
 41
0.0
 46
7.0
 71
     1
 72
     1
  1
{20240909M}
  7
ＭＳ ゴシック
 73
     1
 44
1.0
1001
ACAD
1000
ACAD_MTEXT_DEFINED_HEIGHT_BEGIN
1070
    46
1040
7.0
1000
ACAD_MTEXT_DEFINED_HEIGHT_END
  0
HATCH
  5
172F9
102
{ACAD_REACTORS
330
1730A
102
}
330
A
100
AcDbEntity
  8
TEMPLATE
100
AcDbHatch
 10
0.0
 20
0.0
 30
0.0
210
0.0
220
0.0
230
1.0
  2
SOLID
 70
     1
 71
     1
 91
        6
 92
        1
 93
        8
 72
     1
 10
580.3195574690816
 20
45.81237511424545
 11
580.3195574690816
 21
44.03955282504737
 72
     1
 10
580.3195574690816
 20
44.03955282504737
 11
577.5113800039879
 21
44.03955282504737
 72
     1
 10
577.5113800039879
 20
44.03955282504737
 11
577.5113800039879
 21
36.81237511467916
 72
     1
 10
577.5113800039879
 20
36.81237511467916
 11
575.0415960580052
 21
36.81237511467916
 72
     1
 10
575.0415960580052
 20
36.81237511467916
 11
575.0415960580052
 21
44.03955282504737
 72
     1
 10
575.0415960580052
 20
44.03955282504737
 11
572.2831856276422
 21
44.03955282504737
 72
     1
 10
572.2831856276422
 20
44.03955282504737
 11
572.2831856276422
 21
45.81237511424545
 72
     1
 10
572.2831856276422
 20
45.81237511424545
 11
580.3195574690816
 21
45.81237511424545
 97
        1
330
172FA
 92
        1
 93
        1
 72
     4
 94
        3
 73
     0
 74
     1
 95
       56
 96
       52
 40
0.0
 40
0.0
 40
0.0
 40
0.0
 40
1.0
 40
1.0
 40
1.0
 40
2.0
 40
2.0
 40
2.0
 40
3.0
 40
3.0
 40
3.0
 40
4.0
 40
4.0
 40
4.0
 40
5.0
 40
5.0
 40
5.0
 40
6.0
 40
6.0
 40
6.0
 40
7.0
 40
7.0
 40
7.0
 40
8.0
 40
8.0
 40
8.0
 40
9.0
 40
9.0
 40
9.0
 40
10.0
 40
10.0
 40
10.0
 40
11.0
 40
11.0
 40
11.0
 40
12.0
 40
12.0
 40
12.0
 40
13.0
 40
13.0
 40
13.0
 40
14.0
 40
14.0
 40
14.0
 40
15.0
 40
15.0
 40
15.0
 40
16.0
 40
16.0
 40
16.0
 40
17.0
 40
17.0
 40
17.0
 40
17.0
 10
584.0822130993691
 20
45.59806442612169
 10
584.4283729539446
 20
45.69550069232489
 10
584.8752496819451
 20
45.61399880405779
 10
584.8752496819451
 20
45.61399880405779
 10
584.8752496819451
 20
45.61399880405779
 10
584.6605596038704
 20
44.96972771633077
 10
584.6605596038704
 20
44.96972771633077
 10
584.6605596038704
 20
44.96972771633077
 10
584.2218509183414
 20
45.07124800376958
 10
583.8834797162866
 20
44.80442528303579
 10
583.6205401632852
 20
44.59576081006296
 10
583.4501940753495
 20
44.04131587246591
 10
583.3848497355779
 20
43.83050896212374
 10
583.3848497355779
 20
43.83050896212374
 10
583.0935228874299
 20
42.93630916500408
 10
583.0935228874299
 20
42.93630916500408
 10
583.0935228874299
 20
42.93630916500408
 10
584.0487598325259
 20
42.93630916500408
 10
584.0487598325259
 20
42.93630916500408
 10
584.0487598325259
 20
42.93630916500408
 10
583.9001951911804
 20
42.37351764848811
 10
583.9001951911804
 20
42.37351764848811
 10
583.9001951911804
 20
42.37351764848811
 10
582.9371695935639
 20
42.37351764848811
 10
582.9371695935639
 20
42.37351764848811
 10
582.9371695935639
 20
42.37351764848811
 10
581.2141366561519
 20
36.81237511467916
 10
581.2141366561519
 20
36.81237511467916
 10
581.2141366561519
 20
36.81237511467916
 10
580.6746664630858
 20
36.81237511467916
 10
580.6746664630858
 20
36.81237511467916
 10
580.6746664630858
 20
36.81237511467916
 10
582.3992615944129
 20
42.37351764848811
 10
582.3992615944129
 20
42.37351764848811
 10
582.3992615944129
 20
42.37351764848811
 10
581.6886418993973
 20
42.37351764848811
 10
581.6886418993973
 20
42.37351764848811
 10
581.6886418993973
 20
42.37351764848811
 10
581.8376082477495
 20
42.93630916500408
 10
581.8376082477495
 20
42.93630916500408
 10
581.8376082477495
 20
42.93630916500408
 10
582.5556148882789
 20
42.93630916500408
 10
582.5556148882789
 20
42.93630916500408
 10
582.5556148882789
 20
42.93630916500408
 10
582.8095829847954
 20
43.71615636752356
 10
582.8095829847954
 20
43.71615636752356
 10
583.0149445334899
 20
44.36997915518985
 10
583.1891961062141
 20
44.72100412795849
 10
583.3385641615731
 20
44.98566209426688
 10
583.4863477059606
 20
45.25054323113452
 10
583.7788350410173
 20
45.51073778625616
 10
584.0822130993691
 20
45.59806442612169
 97
        1
330
17305
 92
        1
 93
        1
 72
     4
 94
        3
 73
     0
 74
     1
 95
       32
 96
       28
 40
0.0
 40
0.0
 40
0.0
 40
0.0
 40
1.0
 40
1.0
 40
1.0
 40
2.0
 40
2.0
 40
2.0
 40
3.0
 40
3.0
 40
3.0
 40
4.0
 40
4.0
 40
4.0
 40
5.0
 40
5.0
 40
5.0
 40
6.0
 40
6.0
 40
6.0
 40
7.0
 40
7.0
 40
7.0
 40
8.0
 40
8.0
 40
8.0
 40
9.0
 40
9.0
 40
9.0
 40
9.0
 10
585.394880012287
 20
42.5961972325865
 10
585.0701222143513
 20
42.17612328876155
 10
584.8200372855671
 20
41.79807236125814
 10
584.4151612568324
 20
40.60984535222244
 10
584.0429350809274
 20
39.52296009417805
 10
583.8060618492556
 20
38.73222216836346
 10
583.7702876085951
 20
37.76919657074652
 10
583.7430608003568
 20
37.0525512706291
 10
584.1794485120689
 20
36.81237511467916
 10
584.8192785056652
 20
36.81237511467916
 10
585.0950280487724
 20
36.81237511467916
 10
585.7908738527602
 20
36.82991632064248
 10
586.2864017626947
 20
37.44247487188884
 10
586.6332980801157
 20
37.87283697849896
 10
586.9530122234106
 20
38.3189549265978
 10
587.3816335996579
 20
39.78237355234214
 10
587.7383047875777
 20
41.00579455858404
 10
587.985265328531
 20
41.79651016734281
 10
587.9670099767781
 20
42.24671213667737
 10
587.9670099767781
 20
42.24671213667737
 10
587.9670099767781
 20
42.24671213667737
 10
587.9670099767781
 20
42.24671213667737
 10
587.8506934812557
 20
42.9977703370432
 10
587.305398536591
 20
43.1564669217822
 10
586.9938524357677
 20
43.1564669217822
 10
586.6869929166902
 20
43.1564669217822
 10
585.8647433078983
 20
43.20955919784658
 10
585.394880012287
 20
42.5961972325865
 97
        1
330
17308
 92
        1
 93
        1
 72
     4
 94
        3
 73
     0
 74
     1
 95
       38
 96
       34
 40
0.0
 40
0.0
 40
0.0
 40
0.0
 40
1.0
 40
1.0
 40
1.0
 40
2.0
 40
2.0
 40
2.0
 40
3.0
 40
3.0
 40
3.0
 40
4.0
 40
4.0
 40
4.0
 40
5.0
 40
5.0
 40
5.0
 40
6.0
 40
6.0
 40
6.0
 40
7.0
 40
7.0
 40
7.0
 40
8.0
 40
8.0
 40
8.0
 40
9.0
 40
9.0
 40
9.0
 40
10.0
 40
10.0
 40
10.0
 40
11.0
 40
11.0
 40
11.0
 40
11.0
 10
589.9393467460162
 20
42.91472857191693
 10
589.9393467460162
 20
42.91472857191693
 10
590.4939702200608
 20
42.91472857191693
 10
590.4939702200608
 20
42.91472857191693
 10
590.4939702200608
 20
42.91472857191693
 10
590.2462062650937
 20
42.12146881878184
 10
590.2462062650937
 20
42.12146881878184
 10
590.4344729489438
 20
42.34414840288034
 10
590.7316022316344
 20
42.6407197591727
 10
590.9867754491712
 20
42.79026635097919
 10
591.3679507645053
 20
43.01294593507769
 10
591.5857652304104
 20
43.04231518068534
 10
591.8253165087943
 20
43.03646811203098
 10
591.8253165087943
 20
43.03646811203098
 10
591.591210592058
 20
42.28639186212602
 10
591.591210592058
 20
42.28639186212602
 10
591.4387404659245
 20
42.35095510493986
 10
590.968877170313
 20
42.22805507791734
 10
590.6993317687555
 20
42.03416449597226
 10
590.4562543955343
 20
41.85933267979383
 10
590.2882069643596
 20
41.71056718494513
 10
590.0890941913261
 20
41.33657796162161
 10
589.8914989780961
 20
40.96203081189956
 10
589.735547391237
 20
40.36480407807901
 10
589.4671624765878
 20
39.49841133265191
 10
589.4671624765878
 20
39.49841133265191
 10
588.6289784898598
 20
36.81237511467916
 10
588.6289784898598
 20
36.81237511467916
 10
588.6289784898598
 20
36.81237511467916
 10
588.0906911007581
 20
36.81237511467916
 10
588.0906911007581
 20
36.81237511467916
 10
588.0906911007581
 20
36.81237511467916
 10
589.9393467460162
 20
42.91472857191693
 10
589.9393467460162
 20
42.91472857191693
 97
        1
330
17306
 92
        1
 93
        1
 72
     4
 94
        3
 73
     0
 74
     1
 95
      104
 96
      100
 40
0.0
 40
0.0
 40
0.0
 40
0.0
 40
1.0
 40
1.0
 40
1.0
 40
2.0
 40
2.0
 40
2.0
 40
3.0
 40
3.0
 40
3.0
 40
4.0
 40
4.0
 40
4.0
 40
5.0
 40
5.0
 40
5.0
 40
6.0
 40
6.0
 40
6.0
 40
7.0
 40
7.0
 40
7.0
 40
8.0
 40
8.0
 40
8.0
 40
9.0
 40
9.0
 40
9.0
 40
10.0
 40
10.0
 40
10.0
 40
11.0
 40
11.0
 40
11.0
 40
12.0
 40
12.0
 40
12.0
 40
13.0
 40
13.0
 40
13.0
 40
14.0
 40
14.0
 40
14.0
 40
15.0
 40
15.0
 40
15.0
 40
16.0
 40
16.0
 40
16.0
 40
17.0
 40
17.0
 40
17.0
 40
18.0
 40
18.0
 40
18.0
 40
19.0
 40
19.0
 40
19.0
 40
20.0
 40
20.0
 40
20.0
 40
21.0
 40
21.0
 40
21.0
 40
22.0
 40
22.0
 40
22.0
 40
23.0
 40
23.0
 40
23.0
 40
24.0
 40
24.0
 40
24.0
 40
25.0
 40
25.0
 40
25.0
 40
26.0
 40
26.0
 40
26.0
 40
27.0
 40
27.0
 40
27.0
 40
28.0
 40
28.0
 40
28.0
 40
29.0
 40
29.0
 40
29.0
 40
30.0
 40
30.0
 40
30.0
 40
31.0
 40
31.0
 40
31.0
 40
32.0
 40
32.0
 40
32.0
 40
33.0
 40
33.0
 40
33.0
 40
33.0
 10
592.9921860953021
 20
42.91803149619498
 10
592.9921860953021
 20
42.91803149619498
 10
593.4764215749343
 20
42.91803149619498
 10
593.4764215749343
 20
42.91803149619498
 10
593.4764215749343
 20
42.91803149619498
 10
593.2317820077977
 20
42.12401296315816
 10
593.2317820077977
 20
42.12401296315816
 10
593.4441064779436
 20
42.4569388035653
 10
593.6346941356106
 20
42.6053249084632
 10
593.8879034522253
 20
42.79707305303871
 10
594.1418715487417
 20
42.98609851679041
 10
594.4433303402833
 20
43.02461775533059
 10
594.6525750567104
 20
43.02461775533059
 10
594.9116314419795
 20
43.02461775533059
 10
595.1617163707637
 20
42.97346706313235
 10
595.2931638302083
 20
42.68952716049805
 10
595.3939030206897
 20
42.46686989345537
 10
595.3985896024354
 20
42.44060271862234
 10
595.369800600282
 20
42.0010906190797
 10
595.6330972261784
 20
42.451694295421
 10
595.8275680515779
 20
42.64578573086951
 10
596.1581729181679
 20
42.83226705024479
 10
596.5051138697007
 20
43.02461775533059
 10
596.7073510305648
 20
43.0390122564073
 10
596.9423049954265
 20
43.00437618559952
 10
597.2884425329456
 20
42.95324781045711
 10
597.5093813866816
 20
42.82974522292441
 10
597.6248944681903
 20
42.45441697624481
 10
597.7408092567058
 20
42.0802492164738
 10
597.678187597758
 20
41.87955193246919
 10
597.5350460010044
 20
41.28388739256386
 10
597.4697016612328
 20
41.01260126064356
 10
597.3751666123011
 20
40.68411651436711
 10
597.251485488321
 20
40.29325559675826
 10
597.251485488321
 20
40.29325559675826
 10
596.1581729181679
 20
36.81237511467916
 10
596.1581729181679
 20
36.81237511467916
 10
596.1581729181679
 20
36.81237511467916
 10
595.5895343329975
 20
36.81237511467916
 10
595.5895343329975
 20
36.81237511467916
 10
595.5895343329975
 20
36.81237511467916
 10
596.5467574960716
 20
39.85548422757834
 10
596.5467574960716
 20
39.85548422757834
 10
596.7466736831187
 20
40.49218983334411
 10
596.8820043102957
 20
40.95716569370618
 10
596.952035231813
 20
41.24869339535778
 10
597.0399197980768
 20
41.61234982178448
 10
597.0749129417799
 20
41.73234863153571
 10
597.0333139495209
 20
41.99702891489992
 10
596.9951964179876
 20
42.24340921239921
 10
596.8707118799938
 20
42.40384652750092
 10
596.6575839958344
 20
42.40384652750092
 10
596.4304410005492
 20
42.40384652750092
 10
596.2464591914385
 20
42.37856130312887
 10
595.9890096341963
 20
42.11992894192245
 10
595.7315154428426
 20
41.85933267979383
 10
595.5187446315782
 20
41.55343279412157
 10
595.3519023214238
 20
41.20162672439526
 10
595.1854170841642
 20
40.8476782172995
 10
595.0166108730879
 20
40.39903844188016
 10
594.8454836881943
 20
39.85548422757834
 10
594.8454836881943
 20
39.85548422757834
 10
593.8879034522253
 20
36.81237511467916
 10
593.8879034522253
 20
36.81237511467916
 10
593.8879034522253
 20
36.81237511467916
 10
593.3530975238492
 20
36.81237511467916
 10
593.3530975238492
 20
36.81237511467916
 10
593.3530975238492
 20
36.81237511467916
 10
594.4479722879174
 20
40.29169340284293
 10
594.4479722879174
 20
40.29169340284293
 10
594.5634853694261
 20
40.66197799488166
 10
594.6502540828932
 20
40.96379385931832
 10
594.7074303801934
 20
41.19968514052912
 10
594.804643475837
 20
41.60574397322828
 10
594.8318702840753
 20
41.88033302942674
 10
594.7583579018323
 20
42.12401296315816
 10
594.6860060064979
 20
42.36691179993202
 10
594.5588434217922
 20
42.42895321542549
 10
594.3464743175347
 20
42.42895321542549
 10
594.1683395770782
 20
42.42895321542549
 10
593.9944897113609
 20
42.3525172988552
 10
593.7961357182293
 20
42.20042656267251
 10
593.5464078623398
 20
42.00908012510374
 10
593.4464720858722
 20
41.85194573428019
 10
593.3239514488008
 20
41.66524124434543
 10
593.1586266984499
 20
41.41825838633597
 10
593.0812311484743
 20
41.25199631963583
 10
592.941615646558
 20
40.88715708924472
 10
592.8019555105301
 20
40.52017542148403
 10
592.6697492711836
 20
40.09311623915196
 10
592.5775351960687
 20
39.7977276868239
 10
592.5775351960687
 20
39.7977276868239
 10
591.6382549459648
 20
36.81237511467916
 10
591.6382549459648
 20
36.81237511467916
 10
591.6382549459648
 20
36.81237511467916
 10
591.0781861102724
 20
36.81237511467916
 10
591.0781861102724
 20
36.81237511467916
 10
591.0781861102724
 20
36.81237511467916
 10
592.9921860953021
 20
42.91803149619498
 10
592.9921860953021
 20
42.91803149619498
 97
        1
330
17307
 92
       16
 93
        1
 72
     4
 94
        3
 73
     0
 74
     1
 95
       29
 96
       25
 40
0.0
 40
0.0
 40
0.0
 40
0.0
 40
1.0
 40
1.0
 40
1.0
 40
2.0
 40
2.0
 40
2.0
 40
3.0
 40
3.0
 40
3.0
 40
4.0
 40
4.0
 40
4.0
 40
5.0
 40
5.0
 40
5.0
 40
6.0
 40
6.0
 40
6.0
 40
7.0
 40
7.0
 40
7.0
 40
8.0
 40
8.0
 40
8.0
 40
8.0
 10
584.3513791109762
 20
37.94925057801331
 10
584.3490135030473
 20
38.37439049353518
 10
584.4832282774277
 20
39.12973356864027
 10
584.82704484113
 20
40.1403837636178
 10
585.2953459428262
 20
41.50888795047954
 10
585.5761837746858
 20
42.00908012510374
 10
585.821939194619
 20
42.25255920533161
 10
586.1809759904676
 20
42.60708795588196
 10
586.6636492761844
 20
42.62476306418078
 10
586.8060320930364
 20
42.60708795588196
 10
587.0086709609071
 20
42.58276236491495
 10
587.2949095203024
 20
42.45013210150578
 10
587.3120043851471
 20
42.00363476345613
 10
587.325662423378
 20
41.621499814717
 10
587.2155500694051
 20
40.90583646506057
 10
586.8301345134438
 20
39.78237355234214
 10
586.3859358321553
 20
38.47687041437903
 10
586.1191131114214
 20
37.96366739614584
 10
585.9052264473606
 20
37.74000586158636
 10
585.5022696854361
 20
37.32071301471897
 10
585.0701222143513
 20
37.36097298362186
 10
585.006340068495
 20
37.36097298362186
 10
584.923499156872
 20
37.36097298362186
 10
584.3525395978846
 20
37.45086608491963
 10
584.3513791109762
 20
37.94925057801331
 97
        1
330
17309
 75
     0
 76
     1
 98
        1
 10
557.776987685974
 20
21.56103299246715
1001
ACAD
1010
0.0
1020
0.0
1030
0.0
  0
POLYLINE
  5
172FA
102
{ACAD_REACTORS
330
172F9
330
1730A
102
}
330
A
100
AcDbEntity
  8
TEMPLATE
100
AcDb2dPolyline
 66
     1
 10
0.0
 20
0.0
 30
0.0
  0
VERTEX
  5
172FB
330
172FA
100
AcDbEntity
  8
TEMPLATE
100
AcDbVertex
100
AcDb2dVertex
 10
580.3195574690816
 20
45.81237511424545
 30
0.0
  0
VERTEX
  5
172FC
330
172FA
100
AcDbEntity
  8
TEMPLATE
100
AcDbVertex
100
AcDb2dVertex
 10
580.3195574690816
 20
44.03955282504737
 30
0.0
  0
VERTEX
  5
172FD
330
172FA
100
AcDbEntity
  8
TEMPLATE
100
AcDbVertex
100
AcDb2dVertex
 10
577.5113800039879
 20
44.03955282504737
 30
0.0
  0
VERTEX
  5
172FE
330
172FA
100
AcDbEntity
  8
TEMPLATE
100
AcDbVertex
100
AcDb2dVertex
 10
577.5113800039879
 20
36.81237511467916
 30
0.0
  0
VERTEX
  5
172FF
330
172FA
100
AcDbEntity
  8
TEMPLATE
100
AcDbVertex
100
AcDb2dVertex
 10
575.0415960580052
 20
36.81237511467916
 30
0.0
  0
VERTEX
  5
17300
330
172FA
100
AcDbEntity
  8
TEMPLATE
100
AcDbVertex
100
AcDb2dVertex
 10
575.0415960580052
 20
44.03955282504737
 30
0.0
  0
VERTEX
  5
17301
330
172FA
100
AcDbEntity
  8
TEMPLATE
100
AcDbVertex
100
AcDb2dVertex
 10
572.2831856276422
 20
44.03955282504737
 30
0.0
  0
VERTEX
  5
17302
330
172FA
100
AcDbEntity
  8
TEMPLATE
100
AcDbVertex
100
AcDb2dVertex
 10
572.2831856276422
 20
45.81237511424545
 30
0.0
  0
VERTEX
  5
17303
330
172FA
100
AcDbEntity
  8
TEMPLATE
100
AcDbVertex
100
AcDb2dVertex
 10
580.3195574690816
 20
45.81237511424545
 30
0.0
  0
SEQEND
  5
17304
330
172FA
100
AcDbEntity
  8
TEMPLATE
  0
SPLINE
  5
17305
102
{ACAD_REACTORS
330
172F9
330
1730A
102
}
330
A
100
AcDbEntity
  8
TEMPLATE
100
AcDbSpline
210
0.0
220
0.0
230
1.0
 70
    11
 71
     3
 72
    56
 73
    52
 74
     0
 42
0.000000001
 43
0.0000000001
 40
0.0
 40
0.0
 40
0.0
 40
0.0
 40
1.0
 40
1.0
 40
1.0
 40
2.0
 40
2.0
 40
2.0
 40
3.0
 40
3.0
 40
3.0
 40
4.0
 40
4.0
 40
4.0
 40
5.0
 40
5.0
 40
5.0
 40
6.0
 40
6.0
 40
6.0
 40
7.0
 40
7.0
 40
7.0
 40
8.0
 40
8.0
 40
8.0
 40
9.0
 40
9.0
 40
9.0
 40
10.0
 40
10.0
 40
10.0
 40
11.0
 40
11.0
 40
11.0
 40
12.0
 40
12.0
 40
12.0
 40
13.0
 40
13.0
 40
13.0
 40
14.0
 40
14.0
 40
14.0
 40
15.0
 40
15.0
 40
15.0
 40
16.0
 40
16.0
 40
16.0
 40
17.0
 40
17.0
 40
17.0
 40
17.0
 10
584.0822130993691
 20
45.59806442612169
 30
0.0
 10
584.4283729539446
 20
45.69550069232489
 30
0.0
 10
584.8752496819451
 20
45.61399880405779
 30
0.0
 10
584.8752496819451
 20
45.61399880405779
 30
0.0
 10
584.8752496819451
 20
45.61399880405779
 30
0.0
 10
584.6605596038704
 20
44.96972771633077
 30
0.0
 10
584.6605596038704
 20
44.96972771633077
 30
0.0
 10
584.6605596038704
 20
44.96972771633077
 30
0.0
 10
584.2218509183414
 20
45.07124800376958
 30
0.0
 10
583.8834797162866
 20
44.80442528303579
 30
0.0
 10
583.6205401632852
 20
44.59576081006296
 30
0.0
 10
583.4501940753495
 20
44.04131587246591
 30
0.0
 10
583.3848497355779
 20
43.83050896212374
 30
0.0
 10
583.3848497355779
 20
43.83050896212374
 30
0.0
 10
583.0935228874299
 20
42.93630916500408
 30
0.0
 10
583.0935228874299
 20
42.93630916500408
 30
0.0
 10
583.0935228874299
 20
42.93630916500408
 30
0.0
 10
584.0487598325259
 20
42.93630916500408
 30
0.0
 10
584.0487598325259
 20
42.93630916500408
 30
0.0
 10
584.0487598325259
 20
42.93630916500408
 30
0.0
 10
583.9001951911804
 20
42.37351764848811
 30
0.0
 10
583.9001951911804
 20
42.37351764848811
 30
0.0
 10
583.9001951911804
 20
42.37351764848811
 30
0.0
 10
582.9371695935639
 20
42.37351764848811
 30
0.0
 10
582.9371695935639
 20
42.37351764848811
 30
0.0
 10
582.9371695935639
 20
42.37351764848811
 30
0.0
 10
581.2141366561519
 20
36.81237511467916
 30
0.0
 10
581.2141366561519
 20
36.81237511467916
 30
0.0
 10
581.2141366561519
 20
36.81237511467916
 30
0.0
 10
580.6746664630858
 20
36.81237511467916
 30
0.0
 10
580.6746664630858
 20
36.81237511467916
 30
0.0
 10
580.6746664630858
 20
36.81237511467916
 30
0.0
 10
582.3992615944129
 20
42.37351764848811
 30
0.0
 10
582.3992615944129
 20
42.37351764848811
 30
0.0
 10
582.3992615944129
 20
42.37351764848811
 30
0.0
 10
581.6886418993973
 20
42.37351764848811
 30
0.0
 10
581.6886418993973
 20
42.37351764848811
 30
0.0
 10
581.6886418993973
 20
42.37351764848811
 30
0.0
 10
581.8376082477495
 20
42.93630916500408
 30
0.0
 10
581.8376082477495
 20
42.93630916500408
 30
0.0
 10
581.8376082477495
 20
42.93630916500408
 30
0.0
 10
582.5556148882789
 20
42.93630916500408
 30
0.0
 10
582.5556148882789
 20
42.93630916500408
 30
0.0
 10
582.5556148882789
 20
42.93630916500408
 30
0.0
 10
582.8095829847954
 20
43.71615636752356
 30
0.0
 10
582.8095829847954
 20
43.71615636752356
 30
0.0
 10
583.0149445334899
 20
44.36997915518985
 30
0.0
 10
583.1891961062141
 20
44.72100412795849
 30
0.0
 10
583.3385641615731
 20
44.98566209426688
 30
0.0
 10
583.4863477059606
 20
45.25054323113452
 30
0.0
 10
583.7788350410173
 20
45.51073778625616
 30
0.0
 10
584.0822130993691
 20
45.59806442612169
 30
0.0
  0
SPLINE
  5
17306
102
{ACAD_REACTORS
330
172F9
330
1730A
102
}
330
A
100
AcDbEntity
  8
TEMPLATE
100
AcDbSpline
210
0.0
220
0.0
230
1.0
 70
    11
 71
     3
 72
    38
 73
    34
 74
     0
 42
0.000000001
 43
0.0000000001
 40
0.0
 40
0.0
 40
0.0
 40
0.0
 40
1.0
 40
1.0
 40
1.0
 40
2.0
 40
2.0
 40
2.0
 40
3.0
 40
3.0
 40
3.0
 40
4.0
 40
4.0
 40
4.0
 40
5.0
 40
5.0
 40
5.0
 40
6.0
 40
6.0
 40
6.0
 40
7.0
 40
7.0
 40
7.0
 40
8.0
 40
8.0
 40
8.0
 40
9.0
 40
9.0
 40
9.0
 40
10.0
 40
10.0
 40
10.0
 40
11.0
 40
11.0
 40
11.0
 40
11.0
 10
589.9393467460162
 20
42.91472857191693
 30
0.0
 10
589.9393467460162
 20
42.91472857191693
 30
0.0
 10
590.4939702200608
 20
42.91472857191693
 30
0.0
 10
590.4939702200608
 20
42.91472857191693
 30
0.0
 10
590.4939702200608
 20
42.91472857191693
 30
0.0
 10
590.2462062650937
 20
42.12146881878184
 30
0.0
 10
590.2462062650937
 20
42.12146881878184
 30
0.0
 10
590.4344729489438
 20
42.34414840288034
 30
0.0
 10
590.7316022316344
 20
42.6407197591727
 30
0.0
 10
590.9867754491712
 20
42.79026635097919
 30
0.0
 10
591.3679507645053
 20
43.01294593507769
 30
0.0
 10
591.5857652304104
 20
43.04231518068534
 30
0.0
 10
591.8253165087943
 20
43.03646811203098
 30
0.0
 10
591.8253165087943
 20
43.03646811203098
 30
0.0
 10
591.591210592058
 20
42.28639186212602
 30
0.0
 10
591.591210592058
 20
42.28639186212602
 30
0.0
 10
591.4387404659245
 20
42.35095510493986
 30
0.0
 10
590.968877170313
 20
42.22805507791734
 30
0.0
 10
590.6993317687555
 20
42.03416449597226
 30
0.0
 10
590.4562543955343
 20
41.85933267979383
 30
0.0
 10
590.2882069643596
 20
41.71056718494513
 30
0.0
 10
590.0890941913261
 20
41.33657796162161
 30
0.0
 10
589.8914989780961
 20
40.96203081189956
 30
0.0
 10
589.735547391237
 20
40.36480407807901
 30
0.0
 10
589.4671624765878
 20
39.49841133265191
 30
0.0
 10
589.4671624765878
 20
39.49841133265191
 30
0.0
 10
588.6289784898598
 20
36.81237511467916
 30
0.0
 10
588.6289784898598
 20
36.81237511467916
 30
0.0
 10
588.6289784898598
 20
36.81237511467916
 30
0.0
 10
588.0906911007581
 20
36.81237511467916
 30
0.0
 10
588.0906911007581
 20
36.81237511467916
 30
0.0
 10
588.0906911007581
 20
36.81237511467916
 30
0.0
 10
589.9393467460162
 20
42.91472857191693
 30
0.0
 10
589.9393467460162
 20
42.91472857191693
 30
0.0
  0
SPLINE
  5
17307
102
{ACAD_REACTORS
330
172F9
330
1730A
102
}
330
A
100
AcDbEntity
  8
TEMPLATE
100
AcDbSpline
210
0.0
220
0.0
230
1.0
 70
    11
 71
     3
 72
   104
 73
   100
 74
     0
 42
0.000000001
 43
0.0000000001
 40
0.0
 40
0.0
 40
0.0
 40
0.0
 40
1.0
 40
1.0
 40
1.0
 40
2.0
 40
2.0
 40
2.0
 40
3.0
 40
3.0
 40
3.0
 40
4.0
 40
4.0
 40
4.0
 40
5.0
 40
5.0
 40
5.0
 40
6.0
 40
6.0
 40
6.0
 40
7.0
 40
7.0
 40
7.0
 40
8.0
 40
8.0
 40
8.0
 40
9.0
 40
9.0
 40
9.0
 40
10.0
 40
10.0
 40
10.0
 40
11.0
 40
11.0
 40
11.0
 40
12.0
 40
12.0
 40
12.0
 40
13.0
 40
13.0
 40
13.0
 40
14.0
 40
14.0
 40
14.0
 40
15.0
 40
15.0
 40
15.0
 40
16.0
 40
16.0
 40
16.0
 40
17.0
 40
17.0
 40
17.0
 40
18.0
 40
18.0
 40
18.0
 40
19.0
 40
19.0
 40
19.0
 40
20.0
 40
20.0
 40
20.0
 40
21.0
 40
21.0
 40
21.0
 40
22.0
 40
22.0
 40
22.0
 40
23.0
 40
23.0
 40
23.0
 40
24.0
 40
24.0
 40
24.0
 40
25.0
 40
25.0
 40
25.0
 40
26.0
 40
26.0
 40
26.0
 40
27.0
 40
27.0
 40
27.0
 40
28.0
 40
28.0
 40
28.0
 40
29.0
 40
29.0
 40
29.0
 40
30.0
 40
30.0
 40
30.0
 40
31.0
 40
31.0
 40
31.0
 40
32.0
 40
32.0
 40
32.0
 40
33.0
 40
33.0
 40
33.0
 40
33.0
 10
592.9921860953021
 20
42.91803149619498
 30
0.0
 10
592.9921860953021
 20
42.91803149619498
 30
0.0
 10
593.4764215749343
 20
42.91803149619498
 30
0.0
 10
593.4764215749343
 20
42.91803149619498
 30
0.0
 10
593.4764215749343
 20
42.91803149619498
 30
0.0
 10
593.2317820077977
 20
42.12401296315816
 30
0.0
 10
593.2317820077977
 20
42.12401296315816
 30
0.0
 10
593.4441064779436
 20
42.4569388035653
 30
0.0
 10
593.6346941356106
 20
42.6053249084632
 30
0.0
 10
593.8879034522253
 20
42.79707305303871
 30
0.0
 10
594.1418715487417
 20
42.98609851679041
 30
0.0
 10
594.4433303402833
 20
43.02461775533059
 30
0.0
 10
594.6525750567104
 20
43.02461775533059
 30
0.0
 10
594.9116314419795
 20
43.02461775533059
 30
0.0
 10
595.1617163707637
 20
42.97346706313235
 30
0.0
 10
595.2931638302083
 20
42.68952716049805
 30
0.0
 10
595.3939030206897
 20
42.46686989345537
 30
0.0
 10
595.3985896024354
 20
42.44060271862234
 30
0.0
 10
595.369800600282
 20
42.0010906190797
 30
0.0
 10
595.6330972261784
 20
42.451694295421
 30
0.0
 10
595.8275680515779
 20
42.64578573086951
 30
0.0
 10
596.1581729181679
 20
42.83226705024479
 30
0.0
 10
596.5051138697007
 20
43.02461775533059
 30
0.0
 10
596.7073510305648
 20
43.0390122564073
 30
0.0
 10
596.9423049954265
 20
43.00437618559952
 30
0.0
 10
597.2884425329456
 20
42.95324781045711
 30
0.0
 10
597.5093813866816
 20
42.82974522292441
 30
0.0
 10
597.6248944681903
 20
42.45441697624481
 30
0.0
 10
597.7408092567058
 20
42.0802492164738
 30
0.0
 10
597.678187597758
 20
41.87955193246919
 30
0.0
 10
597.5350460010044
 20
41.28388739256386
 30
0.0
 10
597.4697016612328
 20
41.01260126064356
 30
0.0
 10
597.3751666123011
 20
40.68411651436711
 30
0.0
 10
597.251485488321
 20
40.29325559675826
 30
0.0
 10
597.251485488321
 20
40.29325559675826
 30
0.0
 10
596.1581729181679
 20
36.81237511467916
 30
0.0
 10
596.1581729181679
 20
36.81237511467916
 30
0.0
 10
596.1581729181679
 20
36.81237511467916
 30
0.0
 10
595.5895343329975
 20
36.81237511467916
 30
0.0
 10
595.5895343329975
 20
36.81237511467916
 30
0.0
 10
595.5895343329975
 20
36.81237511467916
 30
0.0
 10
596.5467574960716
 20
39.85548422757834
 30
0.0
 10
596.5467574960716
 20
39.85548422757834
 30
0.0
 10
596.7466736831187
 20
40.49218983334411
 30
0.0
 10
596.8820043102957
 20
40.95716569370618
 30
0.0
 10
596.952035231813
 20
41.24869339535778
 30
0.0
 10
597.0399197980768
 20
41.61234982178448
 30
0.0
 10
597.0749129417799
 20
41.73234863153571
 30
0.0
 10
597.0333139495209
 20
41.99702891489992
 30
0.0
 10
596.9951964179876
 20
42.24340921239921
 30
0.0
 10
596.8707118799938
 20
42.40384652750092
 30
0.0
 10
596.6575839958344
 20
42.40384652750092
 30
0.0
 10
596.4304410005492
 20
42.40384652750092
 30
0.0
 10
596.2464591914385
 20
42.37856130312887
 30
0.0
 10
595.9890096341963
 20
42.11992894192245
 30
0.0
 10
595.7315154428426
 20
41.85933267979383
 30
0.0
 10
595.5187446315782
 20
41.55343279412157
 30
0.0
 10
595.3519023214238
 20
41.20162672439526
 30
0.0
 10
595.1854170841642
 20
40.8476782172995
 30
0.0
 10
595.0166108730879
 20
40.39903844188016
 30
0.0
 10
594.8454836881943
 20
39.85548422757834
 30
0.0
 10
594.8454836881943
 20
39.85548422757834
 30
0.0
 10
593.8879034522253
 20
36.81237511467916
 30
0.0
 10
593.8879034522253
 20
36.81237511467916
 30
0.0
 10
593.8879034522253
 20
36.81237511467916
 30
0.0
 10
593.3530975238492
 20
36.81237511467916
 30
0.0
 10
593.3530975238492
 20
36.81237511467916
 30
0.0
 10
593.3530975238492
 20
36.81237511467916
 30
0.0
 10
594.4479722879174
 20
40.29169340284293
 30
0.0
 10
594.4479722879174
 20
40.29169340284293
 30
0.0
 10
594.5634853694261
 20
40.66197799488166
 30
0.0
 10
594.6502540828932
 20
40.96379385931832
 30
0.0
 10
594.7074303801934
 20
41.19968514052912
 30
0.0
 10
594.804643475837
 20
41.60574397322828
 30
0.0
 10
594.8318702840753
 20
41.88033302942674
 30
0.0
 10
594.7583579018323
 20
42.12401296315816
 30
0.0
 10
594.6860060064979
 20
42.36691179993202
 30
0.0
 10
594.5588434217922
 20
42.42895321542549
 30
0.0
 10
594.3464743175347
 20
42.42895321542549
 30
0.0
 10
594.1683395770782
 20
42.42895321542549
 30
0.0
 10
593.9944897113609
 20
42.3525172988552
 30
0.0
 10
593.7961357182293
 20
42.20042656267251
 30
0.0
 10
593.5464078623398
 20
42.00908012510374
 30
0.0
 10
593.4464720858722
 20
41.85194573428019
 30
0.0
 10
593.3239514488008
 20
41.66524124434543
 30
0.0
 10
593.1586266984499
 20
41.41825838633597
 30
0.0
 10
593.0812311484743
 20
41.25199631963583
 30
0.0
 10
592.941615646558
 20
40.88715708924472
 30
0.0
 10
592.8019555105301
 20
40.52017542148403
 30
0.0
 10
592.6697492711836
 20
40.09311623915196
 30
0.0
 10
592.5775351960687
 20
39.7977276868239
 30
0.0
 10
592.5775351960687
 20
39.7977276868239
 30
0.0
 10
591.6382549459648
 20
36.81237511467916
 30
0.0
 10
591.6382549459648
 20
36.81237511467916
 30
0.0
 10
591.6382549459648
 20
36.81237511467916
 30
0.0
 10
591.0781861102724
 20
36.81237511467916
 30
0.0
 10
591.0781861102724
 20
36.81237511467916
 30
0.0
 10
591.0781861102724
 20
36.81237511467916
 30
0.0
 10
592.9921860953021
 20
42.91803149619498
 30
0.0
 10
592.9921860953021
 20
42.91803149619498
 30
0.0
  0
SPLINE
  5
17308
102
{ACAD_REACTORS
330
172F9
330
1730A
102
}
330
A
100
AcDbEntity
  8
TEMPLATE
100
AcDbSpline
210
0.0
220
0.0
230
1.0
 70
    11
 71
     3
 72
    32
 73
    28
 74
     0
 42
0.000000001
 43
0.0000000001
 40
0.0
 40
0.0
 40
0.0
 40
0.0
 40
1.0
 40
1.0
 40
1.0
 40
2.0
 40
2.0
 40
2.0
 40
3.0
 40
3.0
 40
3.0
 40
4.0
 40
4.0
 40
4.0
 40
5.0
 40
5.0
 40
5.0
 40
6.0
 40
6.0
 40
6.0
 40
7.0
 40
7.0
 40
7.0
 40
8.0
 40
8.0
 40
8.0
 40
9.0
 40
9.0
 40
9.0
 40
9.0
 10
585.394880012287
 20
42.5961972325865
 30
0.0
 10
585.0701222143513
 20
42.17612328876155
 30
0.0
 10
584.8200372855671
 20
41.79807236125814
 30
0.0
 10
584.4151612568324
 20
40.60984535222244
 30
0.0
 10
584.0429350809274
 20
39.52296009417805
 30
0.0
 10
583.8060618492556
 20
38.73222216836346
 30
0.0
 10
583.7702876085951
 20
37.76919657074652
 30
0.0
 10
583.7430608003568
 20
37.0525512706291
 30
0.0
 10
584.1794485120689
 20
36.81237511467916
 30
0.0
 10
584.8192785056652
 20
36.81237511467916
 30
0.0
 10
585.0950280487724
 20
36.81237511467916
 30
0.0
 10
585.7908738527602
 20
36.82991632064248
 30
0.0
 10
586.2864017626947
 20
37.44247487188884
 30
0.0
 10
586.6332980801157
 20
37.87283697849896
 30
0.0
 10
586.9530122234106
 20
38.3189549265978
 30
0.0
 10
587.3816335996579
 20
39.78237355234214
 30
0.0
 10
587.7383047875777
 20
41.00579455858404
 30
0.0
 10
587.985265328531
 20
41.79651016734281
 30
0.0
 10
587.9670099767781
 20
42.24671213667737
 30
0.0
 10
587.9670099767781
 20
42.24671213667737
 30
0.0
 10
587.9670099767781
 20
42.24671213667737
 30
0.0
 10
587.9670099767781
 20
42.24671213667737
 30
0.0
 10
587.8506934812557
 20
42.9977703370432
 30
0.0
 10
587.305398536591
 20
43.1564669217822
 30
0.0
 10
586.9938524357677
 20
43.1564669217822
 30
0.0
 10
586.6869929166902
 20
43.1564669217822
 30
0.0
 10
585.8647433078983
 20
43.20955919784658
 30
0.0
 10
585.394880012287
 20
42.5961972325865
 30
0.0
  0
SPLINE
  5
17309
102
{ACAD_REACTORS
330
172F9
330
1730A
102
}
330
A
100
AcDbEntity
  8
TEMPLATE
100
AcDbSpline
210
0.0
220
0.0
230
1.0
 70
    11
 71
     3
 72
    29
 73
    25
 74
     0
 42
0.000000001
 43
0.0000000001
 40
0.0
 40
0.0
 40
0.0
 40
0.0
 40
1.0
 40
1.0
 40
1.0
 40
2.0
 40
2.0
 40
2.0
 40
3.0
 40
3.0
 40
3.0
 40
4.0
 40
4.0
 40
4.0
 40
5.0
 40
5.0
 40
5.0
 40
6.0
 40
6.0
 40
6.0
 40
7.0
 40
7.0
 40
7.0
 40
8.0
 40
8.0
 40
8.0
 40
8.0
 10
584.3513791109762
 20
37.94925057801331
 30
0.0
 10
584.3490135030473
 20
38.37439049353518
 30
0.0
 10
584.4832282774277
 20
39.12973356864027
 30
0.0
 10
584.82704484113
 20
40.1403837636178
 30
0.0
 10
585.2953459428262
 20
41.50888795047954
 30
0.0
 10
585.5761837746858
 20
42.00908012510374
 30
0.0
 10
585.821939194619
 20
42.25255920533161
 30
0.0
 10
586.1809759904676
 20
42.60708795588196
 30
0.0
 10
586.6636492761844
 20
42.62476306418078
 30
0.0
 10
586.8060320930364
 20
42.60708795588196
 30
0.0
 10
587.0086709609071
 20
42.58276236491495
 30
0.0
 10
587.2949095203024
 20
42.45013210150578
 30
0.0
 10
587.3120043851471
 20
42.00363476345613
 30
0.0
 10
587.325662423378
 20
41.621499814717
 30
0.0
 10
587.2155500694051
 20
40.90583646506057
 30
0.0
 10
586.8301345134438
 20
39.78237355234214
 30
0.0
 10
586.3859358321553
 20
38.47687041437903
 30
0.0
 10
586.1191131114214
 20
37.96366739614584
 30
0.0
 10
585.9052264473606
 20
37.74000586158636
 30
0.0
 10
585.5022696854361
 20
37.32071301471897
 30
0.0
 10
585.0701222143513
 20
37.36097298362186
 30
0.0
 10
585.006340068495
 20
37.36097298362186
 30
0.0
 10
584.923499156872
 20
37.36097298362186
 30
0.0
 10
584.3525395978846
 20
37.45086608491963
 30
0.0
 10
584.3513791109762
 20
37.94925057801331
 30
0.0
  0
MTEXT
  5
18E2C
330
A
100
AcDbEntity
  8
TEMPLATE
390
1D
100
AcDbMText
 10
396.6262779720206
 20
95.31933853030637
 30
0.0
 40
7.0
 41
0.0
 46
7.0
 71
     1
 72
     1
  1
{APM74-0205}
  7
ＭＳ ゴシック
 73
     1
 44
0.7828267384257843
1001
ACAD
1000
ACAD_MTEXT_DEFINED_HEIGHT_BEGIN
1070
    46
1040
7.0
1000
ACAD_MTEXT_DEFINED_HEIGHT_END
  0
MTEXT
  5
18E2D
330
A
100
AcDbEntity
  8
TEMPLATE
390
1D
100
AcDbMText
 10
38.80060865940152
 20
95.9359426796496
 30
0.0
 40
7.0
 41
0.0
 46
7.889333500062524
 71
     1
 72
     1
  1
{シェルフ -PERFORMA DESIGN,Elle-}
  7
ＭＳ ゴシック
 73
     1
 44
0.7828267384257843
1001
ACAD
1000
ACAD_MTEXT_DEFINED_HEIGHT_BEGIN
1070
    46
1040
7.889333500062524
1000
ACAD_MTEXT_DEFINED_HEIGHT_END
  0
MTEXT
  5
18E2E
330
A
100
AcDbEntity
  8
TEMPLATE
390
1D
100
AcDbMText
 10
37.57685132030073
 20
68.61086039698307
 30
0.0
 40
7.0
 41
0.0
 46
15.81214830561461
 71
     1
 72
     1
  1
{\pxsm1;固定ビス付属、棚板:アクリル\P耐荷重:3kgf}
  7
ＭＳ ゴシック
 73
     1
 44
0.9331787841240657
1001
ACAD
1000
ACAD_MTEXT_DEFINED_HEIGHT_BEGIN
1070
    46
1040
15.81214830561461
1000
ACAD_MTEXT_DEFINED_HEIGHT_END
  0
SPLINE
  5
4BCB7
330
A
100
AcDbEntity
  8
MODEL
100
AcDbSpline
210
0.0
220
0.0
230
1.0
 70
     8
 71
     3
 72
     8
 73
     4
 74
     0
 42
0.000000001
 43
0.0000000001
 40
0.0
 40
0.0
 40
0.0
 40
0.0
 40
1.0
 40
1.0
 40
1.0
 40
1.0
 10
367.107374839817
 20
502.8562024708917
 30
0.0
 10
367.107374839817
 20
503.1249200960128
 30
0.0
 10
366.889300151738
 20
503.3433392938675
 30
0.0
 10
366.6205825266169
 20
503.3433392938675
 30
0.0
  0
SPLINE
  5
4BCB8
330
A
100
AcDbEntity
  8
MODEL
100
AcDbSpline
210
0.0
220
0.0
230
1.0
 70
     8
 71
     3
 72
     8
 73
     4
 74
     0
 42
0.000000001
 43
0.0000000001
 40
0.0
 40
0.0
 40
0.0
 40
0.0
 40
1.0
 40
1.0
 40
1.0
 40
1.0
 10
366.6205825266169
 20
496.3580590798241
 30
0.0
 10
366.889300151738
 20
496.3580590798241
 30
0.0
 10
367.107374839817
 20
496.5757892581275
 30
0.0
 10
367.107374839817
 20
496.8451959028002
 30
0.0
  0
SPLINE
  5
4BCB9
330
A
100
AcDbEntity
  8
MODEL
100
AcDbSpline
210
0.0
220
0.0
230
1.0
 70
     8
 71
     3
 72
     8
 73
     4
 74
     0
 42
0.000000001
 43
0.0000000001
 40
0.0
 40
0.0
 40
0.0
 40
0.0
 40
1.0
 40
1.0
 40
1.0
 40
1.0
 10
367.107374839817
 20
558.863156722075
 30
0.0
 10
367.107374839817
 20
559.1322188569718
 30
0.0
 10
366.889300151738
 20
559.3502935450506
 30
0.0
 10
366.6205825266169
 20
559.3502935450506
 30
0.0
  0
SPLINE
  5
4BCBA
330
A
100
AcDbEntity
  8
MODEL
100
AcDbSpline
210
0.0
220
0.0
230
1.0
 70
     8
 71
     3
 72
     8
 73
     4
 74
     0
 42
0.000000001
 43
0.0000000001
 40
0.0
 40
0.0
 40
0.0
 40
0.0
 40
1.0
 40
1.0
 40
1.0
 40
1.0
 10
366.6205825266169
 20
552.4073880334306
 30
0.0
 10
366.889300151738
 20
552.4073880334306
 30
0.0
 10
367.107374839817
 20
552.6254627215094
 30
0.0
 10
367.107374839817
 20
552.8941803466305
 30
0.0
  0
SPLINE
  5
4BCBB
330
A
100
AcDbEntity
  8
MODEL
100
AcDbSpline
210
0.0
220
0.0
230
1.0
 70
     8
 71
     3
 72
     8
 73
     4
 74
     0
 42
0.000000001
 43
0.0000000001
 40
0.0
 40
0.0
 40
0.0
 40
0.0
 40
1.0
 40
1.0
 40
1.0
 40
1.0
 10
91.05134698457101
 20
496.8451959028002
 30
0.0
 10
91.05134698457101
 20
496.5757892581275
 30
0.0
 10
91.26942167264981
 20
496.3580590798241
 30
0.0
 10
91.53813929777091
 20
496.3580590798241
 30
0.0
  0
SPLINE
  5
4BCBC
330
A
100
AcDbEntity
  8
MODEL
100
AcDbSpline
210
0.0
220
0.0
230
1.0
 70
     8
 71
     3
 72
     8
 73
     4
 74
     0
 42
0.000000001
 43
0.0000000001
 40
0.0
 40
0.0
 40
0.0
 40
0.0
 40
1.0
 40
1.0
 40
1.0
 40
1.0
 10
91.53813929777091
 20
503.3433392938675
 30
0.0
 10
91.26942167264981
 20
503.3433392938675
 30
0.0
 10
91.05134698457101
 20
503.1249200960128
 30
0.0
 10
91.05134698457101
 20
502.8562024708917
 30
0.0
  0
SPLINE
  5
4BCBD
330
A
100
AcDbEntity
  8
MODEL
100
AcDbSpline
210
0.0
220
0.0
230
1.0
 70
     8
 71
     3
 72
     8
 73
     4
 74
     0
 42
0.000000001
 43
0.0000000001
 40
0.0
 40
0.0
 40
0.0
 40
0.0
 40
1.0
 40
1.0
 40
1.0
 40
1.0
 10
91.05134698457101
 20
552.8941803466305
 30
0.0
 10
91.05134698457101
 20
552.6254627215094
 30
0.0
 10
91.26942167264981
 20
552.4073880334306
 30
0.0
 10
91.53813929777091
 20
552.4073880334306
 30
0.0
  0
SPLINE
  5
4BCBE
330
A
100
AcDbEntity
  8
MODEL
100
AcDbSpline
210
0.0
220
0.0
230
1.0
 70
     8
 71
     3
 72
     8
 73
     4
 74
     0
 42
0.000000001
 43
0.0000000001
 40
0.0
 40
0.0
 40
0.0
 40
0.0
 40
1.0
 40
1.0
 40
1.0
 40
1.0
 10
91.53813929777091
 20
559.3502935450506
 30
0.0
 10
91.26942167264981
 20
559.3502935450506
 30
0.0
 10
91.05134698457101
 20
559.1322188569718
 30
0.0
 10
91.05134698457101
 20
558.863156722075
 30
0.0
  0
SPLINE
  5
4BCBF
102
{ACAD_REACTORS
330
4BDA7
102
}
330
A
100
AcDbEntity
  8
MODEL
100
AcDbSpline
210
0.0
220
0.0
230
1.0
 70
    11
 71
     3
 72
    29
 73
    25
 74
     0
 42
0.000000001
 43
0.0000000001
 40
0.0
 40
0.0
 40
0.0
 40
0.0
 40
1.0
 40
1.0
 40
1.0
 40
2.0
 40
2.0
 40
2.0
 40
3.0
 40
3.0
 40
3.0
 40
4.0
 40
4.0
 40
4.0
 40
5.0
 40
5.0
 40
5.0
 40
6.0
 40
6.0
 40
6.0
 40
7.0
 40
7.0
 40
7.0
 40
8.0
 40
8.0
 40
8.0
 40
8.0
 10
468.4128800778605
 20
389.7362838304399
 30
0.0
 10
468.4128800778605
 20
389.7362838304399
 30
0.0
 10
555.4505188545562
 20
389.7362838304399
 30
0.0
 10
555.4505188545562
 20
389.7362838304399
 30
0.0
 10
555.4505188545562
 20
389.7362838304399
 30
0.0
 10
555.4505188545562
 20
359.6795284411029
 30
0.0
 10
555.4505188545562
 20
359.6795284411029
 30
0.0
 10
555.4505188545562
 20
359.6795284411029
 30
0.0
 10
555.4505188545562
 20
389.7362838304399
 30
0.0
 10
555.4505188545562
 20
389.7362838304399
 30
0.0
 10
555.4505188545562
 20
389.7362838304399
 30
0.0
 10
561.4615254226477
 20
389.7362838304399
 30
0.0
 10
561.4615254226477
 20
389.7362838304399
 30
0.0
 10
561.4615254226477
 20
389.7362838304399
 30
0.0
 10
561.4615254226477
 20
359.6795284411029
 30
0.0
 10
561.4615254226477
 20
359.6795284411029
 30
0.0
 10
561.4615254226477
 20
359.6795284411029
 30
0.0
 10
555.4505188545562
 20
359.6795284411029
 30
0.0
 10
555.4505188545562
 20
359.6795284411029
 30
0.0
 10
555.4505188545562
 20
359.6795284411029
 30
0.0
 10
468.4128800778605
 20
359.6795284411029
 30
0.0
 10
468.4128800778605
 20
359.6795284411029
 30
0.0
 10
468.4128800778605
 20
359.6795284411029
 30
0.0
 10
468.4128800778605
 20
389.7362838304399
 30
0.0
 10
468.4128800778605
 20
389.7362838304399
 30
0.0
  0
LINE
  5
4BCC4
330
A
100
AcDbEntity
  8
MODEL
100
AcDbLine
 10
79.02864482883611
 20
390.7525876690386
 30
0.0
 11
79.02864482883611
 21
360.6958322797016
 31
0.0
  0
LINE
  5
4BCC5
102
{ACAD_REACTORS
330
4BDD7
102
}
330
A
100
AcDbEntity
  8
MODEL
100
AcDbLine
 10
79.02864482883611
 20
360.6958322797016
 30
0.0
 11
379.0877022931283
 21
360.6958322797016
 31
0.0
  0
LINE
  5
4BCC6
102
{ACAD_REACTORS
330
4BDD7
102
}
330
A
100
AcDbEntity
  8
MODEL
100
AcDbLine
 10
379.0877022931283
 20
360.6958322797016
 30
0.0
 11
379.0877022931283
 21
390.7525876690386
 31
0.0
  0
LINE
  5
4BCC7
330
A
100
AcDbEntity
  8
MODEL
100
AcDbLine
 10
379.0877022931283
 20
390.7525876690386
 30
0.0
 11
79.02864482883611
 21
390.7525876690386
 31
0.0
  0
LINE
  5
4BCCC
330
A
100
AcDbEntity
  8
MODEL
100
AcDbLine
 10
92.02493161097081
 20
485.3516607626884
 30
0.0
 11
366.0914155109939
 21
485.3516607626884
 31
0.0
  0
LINE
  5
4BCCD
330
A
100
AcDbEntity
  8
MODEL
100
AcDbLine
 10
366.0914155109939
 20
485.3516607626884
 30
0.0
 11
366.0914155109939
 21
570.3566918621868
 31
0.0
  0
LINE
  5
4BCCE
330
A
100
AcDbEntity
  8
MODEL
100
AcDbLine
 10
366.0914155109939
 20
570.3566918621868
 30
0.0
 11
92.02493161097081
 21
570.3566918621868
 31
0.0
  0
LINE
  5
4BCCF
330
A
100
AcDbEntity
  8
MODEL
100
AcDbLine
 10
92.02493161097081
 20
570.3566918621868
 30
0.0
 11
92.02493161097081
 21
485.3516607626884
 31
0.0
  0
LINE
  5
4BCD0
330
A
100
AcDbEntity
  8
MODEL
100
AcDbLine
 10
79.0286448288362
 20
478.3243503559981
 30
0.0
 11
79.0286448288362
 21
484.3353569240898
 31
0.0
  0
LINE
  5
4BCD1
102
{ACAD_REACTORS
330
4BEF6
102
}
330
A
100
AcDbEntity
  8
MODEL
100
AcDbLine
 10
79.0286448288362
 20
478.3243503559981
 30
0.0
 11
379.0877022931285
 21
478.3243503559981
 31
0.0
  0
LINE
  5
4BCD2
102
{ACAD_REACTORS
330
4BDB6
102
}
330
A
100
AcDbEntity
  8
MODEL
100
AcDbLine
 10
379.0877022931285
 20
478.3243503559981
 30
0.0
 11
379.0877022931285
 21
484.3353569240898
 31
0.0
  0
LINE
  5
4BCD3
330
A
100
AcDbEntity
  8
MODEL
100
AcDbLine
 10
379.0877022931285
 20
484.3353569240898
 30
0.0
 11
79.0286448288362
 21
484.3353569240898
 31
0.0
  0
LINE
  5
4BCD4
330
A
100
AcDbEntity
  8
MODEL
100
AcDbLine
 10
366.5992229205175
 20
503.3433392938675
 30
0.0
 11
366.5992229205175
 21
503.2585898890217
 31
0.0
  0
LINE
  5
4BCD5
330
A
100
AcDbEntity
  8
MODEL
100
AcDbLine
 10
366.5992229205175
 20
503.2585898890217
 30
0.0
 11
366.5992229205175
 21
503.004341674484
 31
0.0
  0
LINE
  5
4BCD6
330
A
100
AcDbEntity
  8
MODEL
100
AcDbLine
 10
366.5992229205175
 20
503.004341674484
 30
0.0
 11
366.5992229205175
 21
502.5812836698064
 31
0.0
  0
LINE
  5
4BCD7
330
A
100
AcDbEntity
  8
MODEL
100
AcDbLine
 10
366.5992229205175
 20
502.5812836698064
 30
0.0
 11
366.5992229205175
 21
502.030757048084
 31
0.0
  0
LINE
  5
4BCD8
330
A
100
AcDbEntity
  8
MODEL
100
AcDbLine
 10
366.5992229205175
 20
502.030757048084
 30
0.0
 11
366.5992229205175
 21
501.3534508288687
 31
0.0
  0
LINE
  5
4BCD9
330
A
100
AcDbEntity
  8
MODEL
100
AcDbLine
 10
366.5992229205175
 20
501.3534508288687
 30
0.0
 11
366.5992229205175
 21
500.6341144170064
 31
0.0
  0
LINE
  5
4BCDA
330
A
100
AcDbEntity
  8
MODEL
100
AcDbLine
 10
366.5992229205175
 20
500.6341144170064
 30
0.0
 11
366.5992229205175
 21
499.8293395807465
 31
0.0
  0
LINE
  5
4BCDB
330
A
100
AcDbEntity
  8
MODEL
100
AcDbLine
 10
366.5992229205175
 20
499.8293395807465
 30
0.0
 11
366.5992229205175
 21
499.0672839566854
 31
0.0
  0
LINE
  5
4BCDC
330
A
100
AcDbEntity
  8
MODEL
100
AcDbLine
 10
366.5992229205175
 20
499.0672839566854
 30
0.0
 11
366.5992229205175
 21
498.3052283326241
 31
0.0
  0
LINE
  5
4BCDD
330
A
100
AcDbEntity
  8
MODEL
100
AcDbLine
 10
366.5992229205175
 20
498.3052283326241
 30
0.0
 11
366.5992229205175
 21
497.6706413256076
 31
0.0
  0
LINE
  5
4BCDE
330
A
100
AcDbEntity
  8
MODEL
100
AcDbLine
 10
366.5992229205175
 20
497.6706413256076
 30
0.0
 11
366.5992229205175
 21
497.1201147038854
 31
0.0
  0
LINE
  5
4BCDF
330
A
100
AcDbEntity
  8
MODEL
100
AcDbLine
 10
366.5992229205175
 20
497.1201147038854
 30
0.0
 11
366.5992229205175
 21
496.6970566992076
 31
0.0
  0
LINE
  5
4BCE0
330
A
100
AcDbEntity
  8
MODEL
100
AcDbLine
 10
366.5992229205175
 20
496.6970566992076
 30
0.0
 11
366.5992229205175
 21
496.4428084846703
 31
0.0
  0
LINE
  5
4BCE1
330
A
100
AcDbEntity
  8
MODEL
100
AcDbLine
 10
366.5992229205175
 20
496.4428084846703
 30
0.0
 11
366.5992229205175
 21
496.3160288871772
 31
0.0
  0
LINE
  5
4BCE2
330
A
100
AcDbEntity
  8
MODEL
100
AcDbLine
 10
366.5992229205175
 20
496.3160288871772
 30
0.0
 11
366.0914155109939
 21
496.3160288871772
 31
0.0
  0
LINE
  5
4BCE3
330
A
100
AcDbEntity
  8
MODEL
100
AcDbLine
 10
366.5992229205175
 20
503.3433392938675
 30
0.0
 11
366.0914155109939
 21
503.3433392938675
 31
0.0
  0
LINE
  5
4BCE4
330
A
100
AcDbEntity
  8
MODEL
100
AcDbLine
 10
366.5992229205175
 20
559.3502935450506
 30
0.0
 11
366.5992229205175
 21
559.2655441402048
 31
0.0
  0
LINE
  5
4BCE5
330
A
100
AcDbEntity
  8
MODEL
100
AcDbLine
 10
366.5992229205175
 20
559.2655441402048
 30
0.0
 11
366.5992229205175
 21
559.011640435443
 31
0.0
  0
LINE
  5
4BCE6
330
A
100
AcDbEntity
  8
MODEL
100
AcDbLine
 10
366.5992229205175
 20
559.011640435443
 30
0.0
 11
366.5992229205175
 21
558.5882379209895
 31
0.0
  0
LINE
  5
4BCE7
330
A
100
AcDbEntity
  8
MODEL
100
AcDbLine
 10
366.5992229205175
 20
558.5882379209895
 30
0.0
 11
366.5992229205175
 21
558.0377112992671
 31
0.0
  0
LINE
  5
4BCE8
330
A
100
AcDbEntity
  8
MODEL
100
AcDbLine
 10
366.5992229205175
 20
558.0377112992671
 30
0.0
 11
366.5992229205175
 21
557.360405080052
 31
0.0
  0
LINE
  5
4BCE9
330
A
100
AcDbEntity
  8
MODEL
100
AcDbLine
 10
366.5992229205175
 20
557.360405080052
 30
0.0
 11
366.5992229205175
 21
556.6407241584138
 31
0.0
  0
LINE
  5
4BCEA
330
A
100
AcDbEntity
  8
MODEL
100
AcDbLine
 10
366.5992229205175
 20
556.6407241584138
 30
0.0
 11
366.5992229205175
 21
555.8786685343528
 31
0.0
  0
LINE
  5
4BCEB
330
A
100
AcDbEntity
  8
MODEL
100
AcDbLine
 10
366.5992229205175
 20
555.8786685343528
 30
0.0
 11
366.5992229205175
 21
555.0745827176443
 31
0.0
  0
LINE
  5
4BCEC
330
A
100
AcDbEntity
  8
MODEL
100
AcDbLine
 10
366.5992229205175
 20
555.0745827176443
 30
0.0
 11
366.5992229205175
 21
554.3549017960063
 31
0.0
  0
LINE
  5
4BCED
330
A
100
AcDbEntity
  8
MODEL
100
AcDbLine
 10
366.5992229205175
 20
554.3549017960063
 30
0.0
 11
366.5992229205175
 21
553.677595576791
 31
0.0
  0
LINE
  5
4BCEE
330
A
100
AcDbEntity
  8
MODEL
100
AcDbLine
 10
366.5992229205175
 20
553.677595576791
 30
0.0
 11
366.5992229205175
 21
553.1270689550688
 31
0.0
  0
LINE
  5
4BCEF
330
A
100
AcDbEntity
  8
MODEL
100
AcDbLine
 10
366.5992229205175
 20
553.1270689550688
 30
0.0
 11
366.5992229205175
 21
552.703666440615
 31
0.0
  0
LINE
  5
4BCF0
330
A
100
AcDbEntity
  8
MODEL
100
AcDbLine
 10
366.5992229205175
 20
552.703666440615
 30
0.0
 11
366.5992229205175
 21
552.4497627358533
 31
0.0
  0
LINE
  5
4BCF1
330
A
100
AcDbEntity
  8
MODEL
100
AcDbLine
 10
366.5992229205175
 20
552.4497627358533
 30
0.0
 11
366.5992229205175
 21
552.3650133310075
 31
0.0
  0
LINE
  5
4BCF2
330
A
100
AcDbEntity
  8
MODEL
100
AcDbLine
 10
366.5992229205175
 20
552.3650133310075
 30
0.0
 11
366.0914155109939
 21
552.3650133310075
 31
0.0
  0
LINE
  5
4BCF3
330
A
100
AcDbEntity
  8
MODEL
100
AcDbLine
 10
366.5992229205175
 20
559.3502935450506
 30
0.0
 11
366.0914155109939
 21
559.3502935450506
 31
0.0
  0
LINE
  5
4BCF4
330
A
100
AcDbEntity
  8
MODEL
100
AcDbLine
 10
91.5171242014474
 20
496.3160288871772
 30
0.0
 11
91.5171242014474
 21
496.4428084846703
 31
0.0
  0
LINE
  5
4BCF5
330
A
100
AcDbEntity
  8
MODEL
100
AcDbLine
 10
91.5171242014474
 20
496.4428084846703
 30
0.0
 11
91.5171242014474
 21
496.6970566992076
 31
0.0
  0
LINE
  5
4BCF6
330
A
100
AcDbEntity
  8
MODEL
100
AcDbLine
 10
91.5171242014474
 20
496.6970566992076
 30
0.0
 11
91.5171242014474
 21
497.1201147038854
 31
0.0
  0
LINE
  5
4BCF7
330
A
100
AcDbEntity
  8
MODEL
100
AcDbLine
 10
91.5171242014474
 20
497.1201147038854
 30
0.0
 11
91.5171242014474
 21
497.6706413256076
 31
0.0
  0
LINE
  5
4BCF8
330
A
100
AcDbEntity
  8
MODEL
100
AcDbLine
 10
91.5171242014474
 20
497.6706413256076
 30
0.0
 11
91.5171242014474
 21
498.3052283326241
 31
0.0
  0
LINE
  5
4BCF9
330
A
100
AcDbEntity
  8
MODEL
100
AcDbLine
 10
91.5171242014474
 20
498.3052283326241
 30
0.0
 11
91.5171242014474
 21
499.0672839566854
 31
0.0
  0
LINE
  5
4BCFA
330
A
100
AcDbEntity
  8
MODEL
100
AcDbLine
 10
91.5171242014474
 20
499.0672839566854
 30
0.0
 11
91.5171242014474
 21
499.8293395807465
 31
0.0
  0
LINE
  5
4BCFB
330
A
100
AcDbEntity
  8
MODEL
100
AcDbLine
 10
91.5171242014474
 20
499.8293395807465
 30
0.0
 11
91.5171242014474
 21
500.6341144170064
 31
0.0
  0
LINE
  5
4BCFC
330
A
100
AcDbEntity
  8
MODEL
100
AcDbLine
 10
91.5171242014474
 20
500.6341144170064
 30
0.0
 11
91.5171242014474
 21
501.3534508288687
 31
0.0
  0
LINE
  5
4BCFD
330
A
100
AcDbEntity
  8
MODEL
100
AcDbLine
 10
91.5171242014474
 20
501.3534508288687
 30
0.0
 11
91.5171242014474
 21
502.030757048084
 31
0.0
  0
LINE
  5
4BCFE
330
A
100
AcDbEntity
  8
MODEL
100
AcDbLine
 10
91.5171242014474
 20
502.030757048084
 30
0.0
 11
91.5171242014474
 21
502.5812836698064
 31
0.0
  0
LINE
  5
4BCFF
330
A
100
AcDbEntity
  8
MODEL
100
AcDbLine
 10
91.5171242014474
 20
502.5812836698064
 30
0.0
 11
91.5171242014474
 21
503.004341674484
 31
0.0
  0
LINE
  5
4BD00
330
A
100
AcDbEntity
  8
MODEL
100
AcDbLine
 10
91.5171242014474
 20
503.004341674484
 30
0.0
 11
91.5171242014474
 21
503.2585898890217
 31
0.0
  0
LINE
  5
4BD01
330
A
100
AcDbEntity
  8
MODEL
100
AcDbLine
 10
91.5171242014474
 20
503.2585898890217
 30
0.0
 11
91.5171242014474
 21
503.3433392938675
 31
0.0
  0
LINE
  5
4BD02
330
A
100
AcDbEntity
  8
MODEL
100
AcDbLine
 10
91.5171242014474
 20
503.3433392938675
 30
0.0
 11
92.02493161097081
 21
503.3433392938675
 31
0.0
  0
LINE
  5
4BD03
330
A
100
AcDbEntity
  8
MODEL
100
AcDbLine
 10
91.5171242014474
 20
496.3160288871772
 30
0.0
 11
92.02493161097081
 21
496.3160288871772
 31
0.0
  0
LINE
  5
4BD04
330
A
100
AcDbEntity
  8
MODEL
100
AcDbLine
 10
91.5171242014474
 20
552.3650133310075
 30
0.0
 11
91.5171242014474
 21
552.4497627358533
 31
0.0
  0
LINE
  5
4BD05
330
A
100
AcDbEntity
  8
MODEL
100
AcDbLine
 10
91.5171242014474
 20
552.4497627358533
 30
0.0
 11
91.5171242014474
 21
552.703666440615
 31
0.0
  0
LINE
  5
4BD06
330
A
100
AcDbEntity
  8
MODEL
100
AcDbLine
 10
91.5171242014474
 20
552.703666440615
 30
0.0
 11
91.5171242014474
 21
553.1270689550688
 31
0.0
  0
LINE
  5
4BD07
330
A
100
AcDbEntity
  8
MODEL
100
AcDbLine
 10
91.5171242014474
 20
553.1270689550688
 30
0.0
 11
91.5171242014474
 21
553.677595576791
 31
0.0
  0
LINE
  5
4BD08
330
A
100
AcDbEntity
  8
MODEL
100
AcDbLine
 10
91.5171242014474
 20
553.677595576791
 30
0.0
 11
91.5171242014474
 21
554.3549017960063
 31
0.0
  0
LINE
  5
4BD09
330
A
100
AcDbEntity
  8
MODEL
100
AcDbLine
 10
91.5171242014474
 20
554.3549017960063
 30
0.0
 11
91.5171242014474
 21
555.0745827176443
 31
0.0
  0
LINE
  5
4BD0A
330
A
100
AcDbEntity
  8
MODEL
100
AcDbLine
 10
91.5171242014474
 20
555.0745827176443
 30
0.0
 11
91.5171242014474
 21
555.8786685343528
 31
0.0
  0
LINE
  5
4BD0B
330
A
100
AcDbEntity
  8
MODEL
100
AcDbLine
 10
91.5171242014474
 20
555.8786685343528
 30
0.0
 11
91.5171242014474
 21
556.6407241584138
 31
0.0
  0
LINE
  5
4BD0C
330
A
100
AcDbEntity
  8
MODEL
100
AcDbLine
 10
91.5171242014474
 20
556.6407241584138
 30
0.0
 11
91.5171242014474
 21
557.360405080052
 31
0.0
  0
LINE
  5
4BD0D
330
A
100
AcDbEntity
  8
MODEL
100
AcDbLine
 10
91.5171242014474
 20
557.360405080052
 30
0.0
 11
91.5171242014474
 21
558.0377112992671
 31
0.0
  0
LINE
  5
4BD0E
330
A
100
AcDbEntity
  8
MODEL
100
AcDbLine
 10
91.5171242014474
 20
558.0377112992671
 30
0.0
 11
91.5171242014474
 21
558.5882379209895
 31
0.0
  0
LINE
  5
4BD0F
330
A
100
AcDbEntity
  8
MODEL
100
AcDbLine
 10
91.5171242014474
 20
558.5882379209895
 30
0.0
 11
91.5171242014474
 21
559.011640435443
 31
0.0
  0
LINE
  5
4BD10
330
A
100
AcDbEntity
  8
MODEL
100
AcDbLine
 10
91.5171242014474
 20
559.011640435443
 30
0.0
 11
91.5171242014474
 21
559.2655441402048
 31
0.0
  0
LINE
  5
4BD11
330
A
100
AcDbEntity
  8
MODEL
100
AcDbLine
 10
91.5171242014474
 20
559.2655441402048
 30
0.0
 11
91.5171242014474
 21
559.3502935450506
 31
0.0
  0
LINE
  5
4BD12
330
A
100
AcDbEntity
  8
MODEL
100
AcDbLine
 10
91.5171242014474
 20
559.3502935450506
 30
0.0
 11
92.02493161097081
 21
559.3502935450506
 31
0.0
  0
LINE
  5
4BD13
330
A
100
AcDbEntity
  8
MODEL
100
AcDbLine
 10
91.5171242014474
 20
552.3650133310075
 30
0.0
 11
92.02493161097081
 21
552.3650133310075
 31
0.0
  0
LINE
  5
4BD14
330
A
100
AcDbEntity
  8
MODEL
100
AcDbLine
 10
91.05134698457101
 20
484.3353569240898
 30
0.0
 11
79.0286448288362
 21
484.3353569240898
 31
0.0
  0
LINE
  5
4BD15
102
{ACAD_REACTORS
330
4BF05
330
4BF17
102
}
330
A
100
AcDbEntity
  8
MODEL
100
AcDbLine
 10
91.05134698457101
 20
484.3353569240898
 30
0.0
 11
91.05134698457101
 21
571.3729957007854
 31
0.0
  0
LINE
  5
4BD16
330
A
100
AcDbEntity
  8
MODEL
100
AcDbLine
 10
91.05134698457101
 20
571.3729957007854
 30
0.0
 11
79.0286448288362
 21
571.3729957007854
 31
0.0
  0
LINE
  5
4BD17
102
{ACAD_REACTORS
330
4BEF6
330
4BF05
102
}
330
A
100
AcDbEntity
  8
MODEL
100
AcDbLine
 10
79.0286448288362
 20
571.3729957007854
 30
0.0
 11
79.0286448288362
 21
484.3353569240898
 31
0.0
  0
LINE
  5
4BD18
330
A
100
AcDbEntity
  8
MODEL
100
AcDbLine
 10
379.0877022931285
 20
484.3353569240898
 30
0.0
 11
367.0650001373937
 21
484.3353569240898
 31
0.0
  0
LINE
  5
4BD19
102
{ACAD_REACTORS
330
4BDB6
330
4BDE6
102
}
330
A
100
AcDbEntity
  8
MODEL
100
AcDbLine
 10
379.0877022931285
 20
484.3353569240898
 30
0.0
 11
379.0877022931285
 21
571.3729957007854
 31
0.0
  0
LINE
  5
4BD1A
102
{ACAD_REACTORS
330
4BDE6
102
}
330
A
100
AcDbEntity
  8
MODEL
100
AcDbLine
 10
379.0877022931285
 20
571.3729957007854
 30
0.0
 11
367.0650001373937
 21
571.3729957007854
 31
0.0
  0
LINE
  5
4BD1B
102
{ACAD_REACTORS
330
4BF17
102
}
330
A
100
AcDbEntity
  8
MODEL
100
AcDbLine
 10
367.0650001373937
 20
571.3729957007854
 30
0.0
 11
367.0650001373937
 21
484.3353569240898
 31
0.0
  0
DIMENSION
  5
4BD87
330
A
100
AcDbEntity
  8
DIM
100
AcDbDimension
  2
*D79
 10
373.0763512152611
 20
660.0259036678424
 30
0.0
 11
229.0581735609825
 21
660.0259036678424
 31
0.0
 70
   160
 71
     5
 42
288.0363553085575
 73
     0
 74
     0
 75
     0
  3
tfrom線あり
100
AcDbAlignedDimension
 13
85.03999590670361
 23
616.3729957007854
 33
0.0
 14
373.0763512152611
 24
620.8081375137996
 34
0.0
100
AcDbRotatedDimension
  0
DIMENSION
  5
4BDA5
102
{ACAD_REACTORS
330
4BDA7
102
}
102
{ACAD_XDICTIONARY
360
4BDA6
102
}
330
A
100
AcDbEntity
  8
DIM
100
AcDbDimension
  2
*D81
 10
591.7063648855636
 20
359.6795284411029
 30
0.0
 11
581.7048643228526
 21
374.7079061357714
 31
0.0
 70
    32
 71
     5
 42
30.05675538933701
 73
     0
 74
     0
 75
     0
  3
tfrom線あり
100
AcDbAlignedDimension
 13
561.4615254226477
 23
389.7362838304399
 33
0.0
 14
561.3338956291144
 24
359.6795284411029
 34
0.0
 50
90.0
100
AcDbRotatedDimension
  0
DIMENSION
  5
4BDB4
102
{ACAD_REACTORS
330
4BDB6
102
}
102
{ACAD_XDICTIONARY
360
4BDB5
102
}
330
A
100
AcDbEntity
  8
DIM
100
AcDbDimension
  2
*D82
 10
412.3137766741044
 20
478.3243503559981
 30
0.0
 11
412.3137766741044
 21
463.0380751062473
 31
0.0
 70
   160
 71
     5
 42
6.011006568091716
 73
     0
 74
     1
 75
     1
  3
tfrom線あり
100
AcDbAlignedDimension
 13
379.0877022931285
 23
484.3353569240898
 33
0.0
 14
379.0877022931285
 24
478.3243503559981
 34
0.0
 50
90.0
100
AcDbRotatedDimension
  0
DIMENSION
  5
4BDD5
102
{ACAD_REACTORS
330
4BDD7
102
}
102
{ACAD_XDICTIONARY
360
4BDD6
102
}
330
A
100
AcDbEntity
  8
DIM
100
AcDbDimension
  2
*D84
 10
379.0877022931283
 20
294.6666996845602
 30
0.0
 11
229.0581735609822
 21
304.6682002472713
 31
0.0
 70
    32
 71
     5
 42
300.0590574642922
 73
     0
 74
     0
 75
     0
  3
tfrom線あり
100
AcDbAlignedDimension
 13
79.02864482883611
 23
360.6958322797016
 33
0.0
 14
379.0877022931283
 24
360.6958322797016
 34
0.0
100
AcDbRotatedDimension
  0
DIMENSION
  5
4BDE4
102
{ACAD_REACTORS
330
4BDE6
102
}
102
{ACAD_XDICTIONARY
360
4BDE5
102
}
330
A
100
AcDbEntity
  8
DIM
100
AcDbDimension
  2
*D85
 10
412.3137766741044
 20
484.3353569240898
 30
0.0
 11
402.3122761113934
 21
527.8541763124376
 31
0.0
 70
    32
 71
     5
 42
87.03763877669559
 73
     0
 74
     0
 75
     0
  3
tfrom線あり
100
AcDbAlignedDimension
 13
379.0877022931285
 23
571.3729957007854
 33
0.0
 14
379.0877022931285
 24
484.3353569240898
 34
0.0
 50
90.0
100
AcDbRotatedDimension
  0
LINE
  5
4BE8F
330
A
100
AcDbEntity
  8
HIDDEN
 48
0.025
100
AcDbLine
 10
423.4128800778603
 20
383.73628383044
 30
0.0
 11
426.9081932829705
 21
382.2362838304399
 31
0.0
  0
LINE
  5
4BE90
102
{ACAD_REACTORS
330
4BED3
330
4BED6
102
}
330
A
100
AcDbEntity
  8
HIDDEN
 48
0.025
100
AcDbLine
 10
423.4128800778603
 20
383.73628383044
 30
0.0
 11
426.9081932829705
 21
385.2362838304399
 31
0.0
  0
LINE
  5
4BE91
330
A
100
AcDbEntity
  8
HIDDEN
 48
0.025
100
AcDbLine
 10
468.4128800778604
 20
382.2362838304399
 30
0.0
 11
426.9081932829705
 21
382.2362838304399
 31
0.0
  0
LINE
  5
4BE92
330
A
100
AcDbEntity
  8
HIDDEN
 48
0.025
100
AcDbLine
 10
426.9081932829705
 20
385.2362838304399
 30
0.0
 11
468.4128800778604
 21
385.2362838304399
 31
0.0
  0
LINE
  5
4BE93
330
A
100
AcDbEntity
  8
HIDDEN
 48
0.025
100
AcDbLine
 10
426.8016815552237
 20
385.7065195961677
 30
0.0
 11
428.9243352042745
 21
381.7038012865287
 31
0.0
  0
LINE
  5
4BE94
330
A
100
AcDbEntity
  8
HIDDEN
 48
0.025
100
AcDbLine
 10
428.3178627331168
 20
385.7065195961677
 30
0.0
 11
430.4405163821676
 21
381.7038012865287
 31
0.0
  0
LINE
  5
4BE95
330
A
100
AcDbEntity
  8
HIDDEN
 48
0.025
100
AcDbLine
 10
429.8340439110103
 20
385.7065195961673
 30
0.0
 11
431.9566975600612
 21
381.7038012865287
 31
0.0
  0
LINE
  5
4BE96
330
A
100
AcDbEntity
  8
HIDDEN
 48
0.025
100
AcDbLine
 10
431.3502250889038
 20
385.7065195961673
 30
0.0
 11
433.4728787379545
 21
381.7038012865287
 31
0.0
  0
LINE
  5
4BE97
330
A
100
AcDbEntity
  8
HIDDEN
 48
0.025
100
AcDbLine
 10
432.8057590196814
 20
385.7065195961673
 30
0.0
 11
434.9284126687322
 21
381.7038012865287
 31
0.0
  0
LINE
  5
4BE98
330
A
100
AcDbEntity
  8
HIDDEN
 48
0.025
100
AcDbLine
 10
434.3219401975749
 20
385.7065195961673
 30
0.0
 11
436.4445938466256
 21
381.7038012865287
 31
0.0
  0
LINE
  5
4BE99
330
A
100
AcDbEntity
  8
HIDDEN
 48
0.025
100
AcDbLine
 10
435.8381213754682
 20
385.706519596167
 30
0.0
 11
437.9607750245191
 21
381.7038012865285
 31
0.0
  0
LINE
  5
4BE9A
330
A
100
AcDbEntity
  8
HIDDEN
 48
0.025
100
AcDbLine
 10
437.3543025533617
 20
385.706519596167
 30
0.0
 11
439.4769562024125
 21
381.7038012865285
 31
0.0
  0
LINE
  5
4BE9B
330
A
100
AcDbEntity
  8
HIDDEN
 48
0.025
100
AcDbLine
 10
438.9917782254867
 20
385.7065195961677
 30
0.0
 11
441.1144318745372
 21
381.7038012865287
 31
0.0
  0
LINE
  5
4BE9C
330
A
100
AcDbEntity
  8
HIDDEN
 48
0.025
100
AcDbLine
 10
440.5079594033798
 20
385.7065195961677
 30
0.0
 11
442.6306130524307
 21
381.7038012865287
 31
0.0
  0
LINE
  5
4BE9D
330
A
100
AcDbEntity
  8
HIDDEN
 48
0.025
100
AcDbLine
 10
442.0241405812736
 20
385.7065195961673
 30
0.0
 11
444.1467942303243
 21
381.7038012865287
 31
0.0
  0
LINE
  5
4BE9E
330
A
100
AcDbEntity
  8
HIDDEN
 48
0.025
100
AcDbLine
 10
443.5403217591665
 20
385.7065195961673
 30
0.0
 11
445.6629754082173
 21
381.7038012865287
 31
0.0
  0
LINE
  5
4BE9F
330
A
100
AcDbEntity
  8
HIDDEN
 48
0.025
100
AcDbLine
 10
444.9958556899447
 20
385.7065195961673
 30
0.0
 11
447.1185093389954
 21
381.7038012865287
 31
0.0
  0
LINE
  5
4BEA0
330
A
100
AcDbEntity
  8
HIDDEN
 48
0.025
100
AcDbLine
 10
446.5120368678377
 20
385.7065195961673
 30
0.0
 11
448.6346905168884
 21
381.7038012865287
 31
0.0
  0
LINE
  5
4BEA1
330
A
100
AcDbEntity
  8
HIDDEN
 48
0.025
100
AcDbLine
 10
448.0282180457314
 20
385.706519596167
 30
0.0
 11
450.1508716947822
 21
381.7038012865285
 31
0.0
  0
LINE
  5
4BEA2
330
A
100
AcDbEntity
  8
HIDDEN
 48
0.025
100
AcDbLine
 10
449.5443992236247
 20
385.706519596167
 30
0.0
 11
451.6670528726755
 21
381.7038012865285
 31
0.0
  0
LINE
  5
4BEA3
330
A
100
AcDbEntity
  8
HIDDEN
 48
0.025
100
AcDbLine
 10
450.9392859072867
 20
385.7065195961677
 30
0.0
 11
453.0619395563376
 21
381.7038012865287
 31
0.0
  0
LINE
  5
4BEA4
330
A
100
AcDbEntity
  8
HIDDEN
 48
0.025
100
AcDbLine
 10
452.4554670851801
 20
385.7065195961677
 30
0.0
 11
454.5781207342309
 21
381.7038012865287
 31
0.0
  0
LINE
  5
4BEA5
330
A
100
AcDbEntity
  8
HIDDEN
 48
0.025
100
AcDbLine
 10
453.9716482630738
 20
385.7065195961677
 30
0.0
 11
456.0943019121247
 21
381.7038012865287
 31
0.0
  0
LINE
  5
4BEA6
330
A
100
AcDbEntity
  8
HIDDEN
 48
0.025
100
AcDbLine
 10
455.4878294409667
 20
385.7065195961677
 30
0.0
 11
457.6104830900177
 21
381.7038012865287
 31
0.0
  0
LINE
  5
4BEA7
330
A
100
AcDbEntity
  8
HIDDEN
 48
0.025
100
AcDbLine
 10
456.9433633717449
 20
385.7065195961677
 30
0.0
 11
459.0660170207958
 21
381.7038012865287
 31
0.0
  0
LINE
  5
4BEA8
330
A
100
AcDbEntity
  8
HIDDEN
 48
0.025
100
AcDbLine
 10
458.4595445496381
 20
385.7065195961677
 30
0.0
 11
460.5821981986888
 21
381.7038012865287
 31
0.0
  0
LINE
  5
4BEA9
330
A
100
AcDbEntity
  8
HIDDEN
 48
0.025
100
AcDbLine
 10
459.9757257275318
 20
385.7065195961673
 30
0.0
 11
462.0983793765824
 21
381.7038012865287
 31
0.0
  0
LINE
  5
4BEAA
330
A
100
AcDbEntity
  8
HIDDEN
 48
0.025
100
AcDbLine
 10
461.4919069054248
 20
385.7065195961673
 30
0.0
 11
463.6145605544757
 21
381.7038012865287
 31
0.0
  0
LINE
  5
4BEAB
330
A
100
AcDbEntity
  8
HIDDEN
 48
0.025
100
AcDbLine
 10
463.1293825775501
 20
385.7065195961677
 30
0.0
 11
465.2520362266009
 21
381.7038012865287
 31
0.0
  0
LINE
  5
4BEAC
330
A
100
AcDbEntity
  8
HIDDEN
 48
0.025
100
AcDbLine
 10
464.6455637554432
 20
385.7065195961677
 30
0.0
 11
466.7682174044942
 21
381.7038012865287
 31
0.0
  0
LINE
  5
4BEAD
330
A
100
AcDbEntity
  8
HIDDEN
 48
0.025
100
AcDbLine
 10
466.1617449333369
 20
385.7065195961677
 30
0.0
 11
468.2843985823878
 21
381.7038012865287
 31
0.0
  0
LINE
  5
4BEAE
330
A
100
AcDbEntity
  8
HIDDEN
 48
0.025
100
AcDbLine
 10
467.6779261112303
 20
385.7065195961677
 30
0.0
 11
468.4128800778604
 21
384.3206064019507
 31
0.0
  0
LINE
  5
4BEAF
330
A
100
AcDbEntity
  8
0
100
AcDbLine
 10
468.4128800778604
 20
382.2362838304399
 30
0.0
 11
468.4128800778604
 21
385.2362838304399
 31
0.0
  0
LINE
  5
4BEB0
330
A
100
AcDbEntity
  8
HIDDEN
 48
0.025
100
AcDbLine
 10
423.4128800778606
 20
365.721903143526
 30
0.0
 11
426.9081932829707
 21
364.2219031435259
 31
0.0
  0
LINE
  5
4BEB1
102
{ACAD_REACTORS
330
4BED3
102
}
330
A
100
AcDbEntity
  8
HIDDEN
 48
0.025
100
AcDbLine
 10
423.4128800778606
 20
365.721903143526
 30
0.0
 11
426.9081932829707
 21
367.2219031435259
 31
0.0
  0
LINE
  5
4BEB2
330
A
100
AcDbEntity
  8
HIDDEN
 48
0.025
100
AcDbLine
 10
468.4128800778606
 20
364.2219031435259
 30
0.0
 11
426.9081932829707
 21
364.2219031435259
 31
0.0
  0
LINE
  5
4BEB3
330
A
100
AcDbEntity
  8
HIDDEN
 48
0.025
100
AcDbLine
 10
426.9081932829707
 20
367.2219031435259
 30
0.0
 11
468.4128800778606
 21
367.2219031435259
 31
0.0
  0
LINE
  5
4BEB4
330
A
100
AcDbEntity
  8
HIDDEN
 48
0.025
100
AcDbLine
 10
426.8016815552239
 20
367.6921389092537
 30
0.0
 11
428.9243352042747
 21
363.6894205996147
 31
0.0
  0
LINE
  5
4BEB5
330
A
100
AcDbEntity
  8
HIDDEN
 48
0.025
100
AcDbLine
 10
428.3178627331171
 20
367.6921389092537
 30
0.0
 11
430.4405163821679
 21
363.6894205996147
 31
0.0
  0
LINE
  5
4BEB6
330
A
100
AcDbEntity
  8
HIDDEN
 48
0.025
100
AcDbLine
 10
429.8340439110106
 20
367.6921389092532
 30
0.0
 11
431.9566975600615
 21
363.6894205996147
 31
0.0
  0
LINE
  5
4BEB7
330
A
100
AcDbEntity
  8
HIDDEN
 48
0.025
100
AcDbLine
 10
431.350225088904
 20
367.6921389092532
 30
0.0
 11
433.4728787379547
 21
363.6894205996147
 31
0.0
  0
LINE
  5
4BEB8
330
A
100
AcDbEntity
  8
HIDDEN
 48
0.025
100
AcDbLine
 10
432.8057590196817
 20
367.6921389092532
 30
0.0
 11
434.9284126687324
 21
363.6894205996147
 31
0.0
  0
LINE
  5
4BEB9
330
A
100
AcDbEntity
  8
HIDDEN
 48
0.025
100
AcDbLine
 10
434.3219401975751
 20
367.6921389092532
 30
0.0
 11
436.4445938466258
 21
363.6894205996147
 31
0.0
  0
LINE
  5
4BEBA
330
A
100
AcDbEntity
  8
HIDDEN
 48
0.025
100
AcDbLine
 10
435.8381213754684
 20
367.692138909253
 30
0.0
 11
437.9607750245193
 21
363.6894205996144
 31
0.0
  0
LINE
  5
4BEBB
330
A
100
AcDbEntity
  8
HIDDEN
 48
0.025
100
AcDbLine
 10
437.3543025533619
 20
367.692138909253
 30
0.0
 11
439.4769562024127
 21
363.6894205996144
 31
0.0
  0
LINE
  5
4BEBC
330
A
100
AcDbEntity
  8
HIDDEN
 48
0.025
100
AcDbLine
 10
438.9917782254869
 20
367.6921389092537
 30
0.0
 11
441.1144318745374
 21
363.6894205996147
 31
0.0
  0
LINE
  5
4BEBD
330
A
100
AcDbEntity
  8
HIDDEN
 48
0.025
100
AcDbLine
 10
440.50795940338
 20
367.6921389092537
 30
0.0
 11
442.6306130524309
 21
363.6894205996147
 31
0.0
  0
LINE
  5
4BEBE
330
A
100
AcDbEntity
  8
HIDDEN
 48
0.025
100
AcDbLine
 10
442.0241405812739
 20
367.6921389092532
 30
0.0
 11
444.1467942303245
 21
363.6894205996147
 31
0.0
  0
LINE
  5
4BEBF
330
A
100
AcDbEntity
  8
HIDDEN
 48
0.025
100
AcDbLine
 10
443.5403217591668
 20
367.6921389092532
 30
0.0
 11
445.6629754082176
 21
363.6894205996147
 31
0.0
  0
LINE
  5
4BEC0
330
A
100
AcDbEntity
  8
HIDDEN
 48
0.025
100
AcDbLine
 10
444.995855689945
 20
367.6921389092532
 30
0.0
 11
447.1185093389956
 21
363.6894205996147
 31
0.0
  0
LINE
  5
4BEC1
330
A
100
AcDbEntity
  8
HIDDEN
 48
0.025
100
AcDbLine
 10
446.5120368678379
 20
367.6921389092532
 30
0.0
 11
448.6346905168887
 21
363.6894205996147
 31
0.0
  0
LINE
  5
4BEC2
330
A
100
AcDbEntity
  8
HIDDEN
 48
0.025
100
AcDbLine
 10
448.0282180457316
 20
367.692138909253
 30
0.0
 11
450.1508716947824
 21
363.6894205996144
 31
0.0
  0
LINE
  5
4BEC3
330
A
100
AcDbEntity
  8
HIDDEN
 48
0.025
100
AcDbLine
 10
449.544399223625
 20
367.692138909253
 30
0.0
 11
451.6670528726758
 21
363.6894205996144
 31
0.0
  0
LINE
  5
4BEC4
330
A
100
AcDbEntity
  8
HIDDEN
 48
0.025
100
AcDbLine
 10
450.9392859072869
 20
367.6921389092537
 30
0.0
 11
453.0619395563378
 21
363.6894205996147
 31
0.0
  0
LINE
  5
4BEC5
330
A
100
AcDbEntity
  8
HIDDEN
 48
0.025
100
AcDbLine
 10
452.4554670851803
 20
367.6921389092537
 30
0.0
 11
454.5781207342311
 21
363.6894205996147
 31
0.0
  0
LINE
  5
4BEC6
330
A
100
AcDbEntity
  8
HIDDEN
 48
0.025
100
AcDbLine
 10
453.971648263074
 20
367.6921389092537
 30
0.0
 11
456.0943019121249
 21
363.6894205996147
 31
0.0
  0
LINE
  5
4BEC7
330
A
100
AcDbEntity
  8
HIDDEN
 48
0.025
100
AcDbLine
 10
455.4878294409669
 20
367.6921389092537
 30
0.0
 11
457.610483090018
 21
363.6894205996147
 31
0.0
  0
LINE
  5
4BEC8
330
A
100
AcDbEntity
  8
HIDDEN
 48
0.025
100
AcDbLine
 10
456.9433633717451
 20
367.6921389092537
 30
0.0
 11
459.066017020796
 21
363.6894205996147
 31
0.0
  0
LINE
  5
4BEC9
330
A
100
AcDbEntity
  8
HIDDEN
 48
0.025
100
AcDbLine
 10
458.4595445496383
 20
367.6921389092537
 30
0.0
 11
460.5821981986891
 21
363.6894205996147
 31
0.0
  0
LINE
  5
4BECA
330
A
100
AcDbEntity
  8
HIDDEN
 48
0.025
100
AcDbLine
 10
459.975725727532
 20
367.6921389092532
 30
0.0
 11
462.0983793765827
 21
363.6894205996147
 31
0.0
  0
LINE
  5
4BECB
330
A
100
AcDbEntity
  8
HIDDEN
 48
0.025
100
AcDbLine
 10
461.491906905425
 20
367.6921389092532
 30
0.0
 11
463.6145605544759
 21
363.6894205996147
 31
0.0
  0
LINE
  5
4BECC
330
A
100
AcDbEntity
  8
HIDDEN
 48
0.025
100
AcDbLine
 10
463.1293825775504
 20
367.6921389092537
 30
0.0
 11
465.2520362266011
 21
363.6894205996147
 31
0.0
  0
LINE
  5
4BECD
330
A
100
AcDbEntity
  8
HIDDEN
 48
0.025
100
AcDbLine
 10
464.6455637554434
 20
367.6921389092537
 30
0.0
 11
466.7682174044945
 21
363.6894205996147
 31
0.0
  0
LINE
  5
4BECE
330
A
100
AcDbEntity
  8
HIDDEN
 48
0.025
100
AcDbLine
 10
466.1617449333372
 20
367.6921389092537
 30
0.0
 11
468.2843985823881
 21
363.6894205996147
 31
0.0
  0
LINE
  5
4BECF
330
A
100
AcDbEntity
  8
HIDDEN
 48
0.025
100
AcDbLine
 10
467.6779261112305
 20
367.6921389092537
 30
0.0
 11
468.4128800778606
 21
366.3062257150367
 31
0.0
  0
LINE
  5
4BED0
330
A
100
AcDbEntity
  8
0
100
AcDbLine
 10
468.4128800778606
 20
364.2219031435259
 30
0.0
 11
468.4128800778606
 21
367.2219031435259
 31
0.0
  0
DIMENSION
  5
4BED1
102
{ACAD_REACTORS
330
4BED3
102
}
102
{ACAD_XDICTIONARY
360
4BED2
102
}
330
A
100
AcDbEntity
  8
DIM
100
AcDbDimension
  2
*D88
 10
403.675260040406
 20
365.721903143526
 30
0.0
 11
403.675260040406
 21
374.7290934869831
 31
0.0
 70
   160
 71
     5
 42
18.01438068691402
 73
     0
 74
     0
 75
     0
  3
tfrom線あり
100
AcDbAlignedDimension
 13
423.4128800778603
 23
383.73628383044
 33
0.0
 14
423.4128800778606
 24
365.721903143526
 34
0.0
 50
90.0
100
AcDbRotatedDimension
1001
ACAD
1000
DSTYLE
1002
{
1070
   172
1070
     1
1002
}
  0
DIMENSION
  5
4BED4
102
{ACAD_REACTORS
330
4BED6
102
}
102
{ACAD_XDICTIONARY
360
4BED5
102
}
330
A
100
AcDbEntity
  8
DIM
100
AcDbDimension
  2
*D89
 10
403.675260040406
 20
383.73628383044
 30
0.0
 11
403.675260040406
 21
403.7667327487843
 31
0.0
 70
   160
 71
     5
 42
5.999999999999889
 73
     0
 74
     1
 75
     1
  3
tfrom線あり
100
AcDbAlignedDimension
 13
468.4128800778605
 23
389.7362838304399
 33
0.0
 14
423.4128800778603
 24
383.73628383044
 34
0.0
 50
90.0
100
AcDbRotatedDimension
1001
ACAD
1000
DSTYLE
1002
{
1070
   172
1070
     1
1002
}
  0
DIMENSION
  5
4BEF4
102
{ACAD_REACTORS
330
4BEF6
102
}
102
{ACAD_XDICTIONARY
360
4BEF5
102
}
330
A
100
AcDbEntity
  8
DIM
100
AcDbDimension
  2
*D90
 10
50.2095918881927
 20
478.3243503559981
 30
0.0
 11
40.20809132548166
 21
524.8486730283918
 31
0.0
 70
    32
 71
     5
 42
93.0486453447873
 73
     0
 74
     0
 75
     0
  3
tfrom線あり
100
AcDbAlignedDimension
 13
79.0286448288362
 23
571.3729957007854
 33
0.0
 14
79.0286448288362
 24
478.3243503559981
 34
0.0
 50
90.0
100
AcDbRotatedDimension
  0
DIMENSION
  5
4BF03
102
{ACAD_REACTORS
330
4BF05
102
}
102
{ACAD_XDICTIONARY
360
4BF04
102
}
330
A
100
AcDbEntity
  8
DIM
100
AcDbDimension
  2
*D91
 10
91.05134698457101
 20
529.775260104687
 30
0.0
 11
110.0205050917009
 21
529.775260104687
 31
0.0
 70
   160
 71
     5
 42
12.02270215573481
 73
     0
 74
     0
 75
     0
  3
tfrom線あり
100
AcDbAlignedDimension
 13
79.0286448288362
 23
519.8794055479519
 33
0.0
 14
91.05134698457101
 24
519.8794055479519
 34
0.0
100
AcDbRotatedDimension
1001
ACAD
1000
DSTYLE
1002
{
1070
   172
1070
     1
1070
    76
1070
     1
1070
    75
1070
     1
1002
}
  0
DIMENSION
  5
4BF15
102
{ACAD_REACTORS
330
4BF17
102
}
102
{ACAD_XDICTIONARY
360
4BF16
102
}
330
A
100
AcDbEntity
  8
DIM
100
AcDbDimension
  2
*D92
 10
367.0650001373937
 20
439.7458240540207
 30
0.0
 11
229.0581735609824
 21
449.7473246167317
 31
0.0
 70
    32
 71
     5
 42
276.0136531528227
 73
     0
 74
     0
 75
     0
  3
tfrom線あり
100
AcDbAlignedDimension
 13
91.05134698457101
 23
484.3353569240898
 33
0.0
 14
367.0650001373937
 24
484.3353569240898
 34
0.0
100
AcDbRotatedDimension
  0
LINE
  5
4BFEB
330
A
100
AcDbEntity
  8
HIDDEN
 48
0.025
100
AcDbLine
 10
373.0763512152611
 20
616.3729957007854
 30
0.0
 11
371.5763512152611
 21
612.8776824956753
 31
0.0
  0
LINE
  5
4BFEC
330
A
100
AcDbEntity
  8
HIDDEN
 48
0.025
100
AcDbLine
 10
373.0763512152611
 20
616.3729957007854
 30
0.0
 11
374.5763512152611
 21
612.8776824956753
 31
0.0
  0
LINE
  5
4BFED
330
A
100
AcDbEntity
  8
HIDDEN
 48
0.025
100
AcDbLine
 10
371.5763512152611
 20
571.3729957007854
 30
0.0
 11
371.5763512152611
 21
612.8776824956753
 31
0.0
  0
LINE
  5
4BFEE
330
A
100
AcDbEntity
  8
HIDDEN
 48
0.025
100
AcDbLine
 10
374.5763512152611
 20
612.8776824956753
 30
0.0
 11
374.5763512152611
 21
571.3729957007854
 31
0.0
  0
LINE
  5
4BFEF
330
A
100
AcDbEntity
  8
HIDDEN
 48
0.025
100
AcDbLine
 10
375.0465869809888
 20
612.984194223422
 30
0.0
 11
371.0438686713499
 21
610.8615405743712
 31
0.0
  0
LINE
  5
4BFF0
330
A
100
AcDbEntity
  8
HIDDEN
 48
0.025
100
AcDbLine
 10
375.0465869809888
 20
611.4680130455289
 30
0.0
 11
371.0438686713499
 21
609.3453593964781
 31
0.0
  0
LINE
  5
4BFF1
330
A
100
AcDbEntity
  8
HIDDEN
 48
0.025
100
AcDbLine
 10
375.0465869809883
 20
609.9518318676354
 30
0.0
 11
371.0438686713499
 21
607.8291782185845
 31
0.0
  0
LINE
  5
4BFF2
330
A
100
AcDbEntity
  8
HIDDEN
 48
0.025
100
AcDbLine
 10
375.0465869809883
 20
608.435650689742
 30
0.0
 11
371.0438686713499
 21
606.3129970406912
 31
0.0
  0
LINE
  5
4BFF3
330
A
100
AcDbEntity
  8
HIDDEN
 48
0.025
100
AcDbLine
 10
375.0465869809883
 20
606.9801167589643
 30
0.0
 11
371.0438686713499
 21
604.8574631099136
 31
0.0
  0
LINE
  5
4BFF4
330
A
100
AcDbEntity
  8
HIDDEN
 48
0.025
100
AcDbLine
 10
375.0465869809883
 20
605.4639355810709
 30
0.0
 11
371.0438686713499
 21
603.3412819320201
 31
0.0
  0
LINE
  5
4BFF5
330
A
100
AcDbEntity
  8
HIDDEN
 48
0.025
100
AcDbLine
 10
375.0465869809881
 20
603.9477544031777
 30
0.0
 11
371.0438686713495
 21
601.8251007541267
 31
0.0
  0
LINE
  5
4BFF6
330
A
100
AcDbEntity
  8
HIDDEN
 48
0.025
100
AcDbLine
 10
375.0465869809881
 20
602.4315732252842
 30
0.0
 11
371.0438686713495
 21
600.3089195762334
 31
0.0
  0
LINE
  5
4BFF7
330
A
100
AcDbEntity
  8
HIDDEN
 48
0.025
100
AcDbLine
 10
375.0465869809888
 20
600.7940975531592
 30
0.0
 11
371.0438686713499
 21
598.6714439041086
 31
0.0
  0
LINE
  5
4BFF8
330
A
100
AcDbEntity
  8
HIDDEN
 48
0.025
100
AcDbLine
 10
375.0465869809888
 20
599.2779163752659
 30
0.0
 11
371.0438686713499
 21
597.1552627262151
 31
0.0
  0
LINE
  5
4BFF9
330
A
100
AcDbEntity
  8
HIDDEN
 48
0.025
100
AcDbLine
 10
375.0465869809883
 20
597.7617351973721
 30
0.0
 11
371.0438686713499
 21
595.6390815483215
 31
0.0
  0
LINE
  5
4BFFA
330
A
100
AcDbEntity
  8
HIDDEN
 48
0.025
100
AcDbLine
 10
375.0465869809883
 20
596.2455540194792
 30
0.0
 11
371.0438686713499
 21
594.1229003704284
 31
0.0
  0
LINE
  5
4BFFB
330
A
100
AcDbEntity
  8
HIDDEN
 48
0.025
100
AcDbLine
 10
375.0465869809883
 20
594.790020088701
 30
0.0
 11
371.0438686713499
 21
592.6673664396504
 31
0.0
  0
LINE
  5
4BFFC
330
A
100
AcDbEntity
  8
HIDDEN
 48
0.025
100
AcDbLine
 10
375.0465869809883
 20
593.2738389108081
 30
0.0
 11
371.0438686713499
 21
591.1511852617573
 31
0.0
  0
LINE
  5
4BFFD
330
A
100
AcDbEntity
  8
HIDDEN
 48
0.025
100
AcDbLine
 10
375.0465869809881
 20
591.7576577329144
 30
0.0
 11
371.0438686713495
 21
589.6350040838636
 31
0.0
  0
LINE
  5
4BFFE
330
A
100
AcDbEntity
  8
HIDDEN
 48
0.025
100
AcDbLine
 10
375.0465869809881
 20
590.241476555021
 30
0.0
 11
371.0438686713495
 21
588.1188229059702
 31
0.0
  0
LINE
  5
4BFFF
330
A
100
AcDbEntity
  8
HIDDEN
 48
0.025
100
AcDbLine
 10
375.0465869809888
 20
588.8465898713591
 30
0.0
 11
371.0438686713499
 21
586.7239362223082
 31
0.0
  0
LINE
  5
4C000
330
A
100
AcDbEntity
  8
HIDDEN
 48
0.025
100
AcDbLine
 10
375.0465869809888
 20
587.3304086934656
 30
0.0
 11
371.0438686713499
 21
585.2077550444149
 31
0.0
  0
LINE
  5
4C001
330
A
100
AcDbEntity
  8
HIDDEN
 48
0.025
100
AcDbLine
 10
375.0465869809888
 20
585.814227515572
 30
0.0
 11
371.0438686713499
 21
583.6915738665211
 31
0.0
  0
LINE
  5
4C002
330
A
100
AcDbEntity
  8
HIDDEN
 48
0.025
100
AcDbLine
 10
375.0465869809888
 20
584.2980463376791
 30
0.0
 11
371.0438686713499
 21
582.175392688628
 31
0.0
  0
LINE
  5
4C003
330
A
100
AcDbEntity
  8
HIDDEN
 48
0.025
100
AcDbLine
 10
375.0465869809888
 20
582.8425124069009
 30
0.0
 11
371.0438686713499
 21
580.71985875785
 31
0.0
  0
LINE
  5
4C004
330
A
100
AcDbEntity
  8
HIDDEN
 48
0.025
100
AcDbLine
 10
375.0465869809888
 20
581.3263312290078
 30
0.0
 11
371.0438686713499
 21
579.2036775799569
 31
0.0
  0
LINE
  5
4C005
330
A
100
AcDbEntity
  8
HIDDEN
 48
0.025
100
AcDbLine
 10
375.0465869809883
 20
579.8101500511141
 30
0.0
 11
371.0438686713499
 21
577.6874964020633
 31
0.0
  0
LINE
  5
4C006
330
A
100
AcDbEntity
  8
HIDDEN
 48
0.025
100
AcDbLine
 10
375.0465869809883
 20
578.293968873221
 30
0.0
 11
371.0438686713499
 21
576.1713152241701
 31
0.0
  0
LINE
  5
4C007
330
A
100
AcDbEntity
  8
HIDDEN
 48
0.025
100
AcDbLine
 10
375.0465869809888
 20
576.6564932010956
 30
0.0
 11
371.0438686713499
 21
574.5338395520449
 31
0.0
  0
LINE
  5
4C008
330
A
100
AcDbEntity
  8
HIDDEN
 48
0.025
100
AcDbLine
 10
375.0465869809888
 20
575.1403120232026
 30
0.0
 11
371.0438686713499
 21
573.0176583741516
 31
0.0
  0
LINE
  5
4C009
330
A
100
AcDbEntity
  8
HIDDEN
 48
0.025
100
AcDbLine
 10
375.0465869809888
 20
573.6241308453089
 30
0.0
 11
371.0438686713499
 21
571.5014771962578
 31
0.0
  0
LINE
  5
4C00A
330
A
100
AcDbEntity
  8
HIDDEN
 48
0.025
100
AcDbLine
 10
375.0465869809888
 20
572.1079496674156
 30
0.0
 11
373.6606737867718
 21
571.3729957007854
 31
0.0
  0
LINE
  5
4C00B
330
A
100
AcDbEntity
  8
0
100
AcDbLine
 10
371.5763512152611
 20
571.3729957007854
 30
0.0
 11
374.5763512152611
 21
571.3729957007854
 31
0.0
  0
LINE
  5
4C00C
330
A
100
AcDbEntity
  8
HIDDEN
 48
0.025
100
AcDbLine
 10
85.03999590670361
 20
616.3729957007854
 30
0.0
 11
83.53999590670361
 21
612.8776824956753
 31
0.0
  0
LINE
  5
4C00D
330
A
100
AcDbEntity
  8
HIDDEN
 48
0.025
100
AcDbLine
 10
85.03999590670361
 20
616.3729957007854
 30
0.0
 11
86.53999590670361
 21
612.8776824956753
 31
0.0
  0
LINE
  5
4C00E
330
A
100
AcDbEntity
  8
HIDDEN
 48
0.025
100
AcDbLine
 10
83.53999590670361
 20
571.3729957007854
 30
0.0
 11
83.53999590670361
 21
612.8776824956753
 31
0.0
  0
LINE
  5
4C00F
330
A
100
AcDbEntity
  8
HIDDEN
 48
0.025
100
AcDbLine
 10
86.53999590670361
 20
612.8776824956753
 30
0.0
 11
86.53999590670361
 21
571.3729957007854
 31
0.0
  0
LINE
  5
4C010
330
A
100
AcDbEntity
  8
HIDDEN
 48
0.025
100
AcDbLine
 10
87.0102316724313
 20
612.984194223422
 30
0.0
 11
83.0075133627924
 21
610.8615405743712
 31
0.0
  0
LINE
  5
4C011
330
A
100
AcDbEntity
  8
HIDDEN
 48
0.025
100
AcDbLine
 10
87.0102316724313
 20
611.4680130455289
 30
0.0
 11
83.0075133627924
 21
609.3453593964781
 31
0.0
  0
LINE
  5
4C012
330
A
100
AcDbEntity
  8
HIDDEN
 48
0.025
100
AcDbLine
 10
87.01023167243085
 20
609.9518318676354
 30
0.0
 11
83.0075133627924
 21
607.8291782185845
 31
0.0
  0
LINE
  5
4C013
330
A
100
AcDbEntity
  8
HIDDEN
 48
0.025
100
AcDbLine
 10
87.01023167243085
 20
608.435650689742
 30
0.0
 11
83.0075133627924
 21
606.3129970406912
 31
0.0
  0
LINE
  5
4C014
330
A
100
AcDbEntity
  8
HIDDEN
 48
0.025
100
AcDbLine
 10
87.01023167243085
 20
606.9801167589643
 30
0.0
 11
83.0075133627924
 21
604.8574631099136
 31
0.0
  0
LINE
  5
4C015
330
A
100
AcDbEntity
  8
HIDDEN
 48
0.025
100
AcDbLine
 10
87.01023167243085
 20
605.4639355810709
 30
0.0
 11
83.0075133627924
 21
603.3412819320201
 31
0.0
  0
LINE
  5
4C016
330
A
100
AcDbEntity
  8
HIDDEN
 48
0.025
100
AcDbLine
 10
87.01023167243062
 20
603.9477544031777
 30
0.0
 11
83.00751336279205
 21
601.8251007541267
 31
0.0
  0
LINE
  5
4C017
330
A
100
AcDbEntity
  8
HIDDEN
 48
0.025
100
AcDbLine
 10
87.01023167243062
 20
602.4315732252842
 30
0.0
 11
83.00751336279205
 21
600.3089195762334
 31
0.0
  0
LINE
  5
4C018
330
A
100
AcDbEntity
  8
HIDDEN
 48
0.025
100
AcDbLine
 10
87.0102316724313
 20
600.7940975531592
 30
0.0
 11
83.0075133627924
 21
598.6714439041086
 31
0.0
  0
LINE
  5
4C019
330
A
100
AcDbEntity
  8
HIDDEN
 48
0.025
100
AcDbLine
 10
87.0102316724313
 20
599.2779163752659
 30
0.0
 11
83.0075133627924
 21
597.1552627262151
 31
0.0
  0
LINE
  5
4C01A
330
A
100
AcDbEntity
  8
HIDDEN
 48
0.025
100
AcDbLine
 10
87.01023167243085
 20
597.7617351973721
 30
0.0
 11
83.0075133627924
 21
595.6390815483215
 31
0.0
  0
LINE
  5
4C01B
330
A
100
AcDbEntity
  8
HIDDEN
 48
0.025
100
AcDbLine
 10
87.01023167243085
 20
596.2455540194792
 30
0.0
 11
83.0075133627924
 21
594.1229003704284
 31
0.0
  0
LINE
  5
4C01C
330
A
100
AcDbEntity
  8
HIDDEN
 48
0.025
100
AcDbLine
 10
87.01023167243085
 20
594.790020088701
 30
0.0
 11
83.0075133627924
 21
592.6673664396504
 31
0.0
  0
LINE
  5
4C01D
330
A
100
AcDbEntity
  8
HIDDEN
 48
0.025
100
AcDbLine
 10
87.01023167243085
 20
593.2738389108081
 30
0.0
 11
83.0075133627924
 21
591.1511852617573
 31
0.0
  0
LINE
  5
4C01E
330
A
100
AcDbEntity
  8
HIDDEN
 48
0.025
100
AcDbLine
 10
87.01023167243062
 20
591.7576577329144
 30
0.0
 11
83.00751336279205
 21
589.6350040838636
 31
0.0
  0
LINE
  5
4C01F
330
A
100
AcDbEntity
  8
HIDDEN
 48
0.025
100
AcDbLine
 10
87.01023167243062
 20
590.241476555021
 30
0.0
 11
83.00751336279205
 21
588.1188229059702
 31
0.0
  0
LINE
  5
4C020
330
A
100
AcDbEntity
  8
HIDDEN
 48
0.025
100
AcDbLine
 10
87.0102316724313
 20
588.8465898713591
 30
0.0
 11
83.0075133627924
 21
586.7239362223082
 31
0.0
  0
LINE
  5
4C021
330
A
100
AcDbEntity
  8
HIDDEN
 48
0.025
100
AcDbLine
 10
87.0102316724313
 20
587.3304086934656
 30
0.0
 11
83.0075133627924
 21
585.2077550444149
 31
0.0
  0
LINE
  5
4C022
330
A
100
AcDbEntity
  8
HIDDEN
 48
0.025
100
AcDbLine
 10
87.0102316724313
 20
585.814227515572
 30
0.0
 11
83.0075133627924
 21
583.6915738665211
 31
0.0
  0
LINE
  5
4C023
330
A
100
AcDbEntity
  8
HIDDEN
 48
0.025
100
AcDbLine
 10
87.0102316724313
 20
584.2980463376791
 30
0.0
 11
83.0075133627924
 21
582.175392688628
 31
0.0
  0
LINE
  5
4C024
330
A
100
AcDbEntity
  8
HIDDEN
 48
0.025
100
AcDbLine
 10
87.0102316724313
 20
582.8425124069009
 30
0.0
 11
83.0075133627924
 21
580.71985875785
 31
0.0
  0
LINE
  5
4C025
330
A
100
AcDbEntity
  8
HIDDEN
 48
0.025
100
AcDbLine
 10
87.0102316724313
 20
581.3263312290078
 30
0.0
 11
83.0075133627924
 21
579.2036775799569
 31
0.0
  0
LINE
  5
4C026
330
A
100
AcDbEntity
  8
HIDDEN
 48
0.025
100
AcDbLine
 10
87.01023167243085
 20
579.8101500511141
 30
0.0
 11
83.0075133627924
 21
577.6874964020633
 31
0.0
  0
LINE
  5
4C027
330
A
100
AcDbEntity
  8
HIDDEN
 48
0.025
100
AcDbLine
 10
87.01023167243085
 20
578.293968873221
 30
0.0
 11
83.0075133627924
 21
576.1713152241701
 31
0.0
  0
LINE
  5
4C028
330
A
100
AcDbEntity
  8
HIDDEN
 48
0.025
100
AcDbLine
 10
87.0102316724313
 20
576.6564932010956
 30
0.0
 11
83.0075133627924
 21
574.5338395520449
 31
0.0
  0
LINE
  5
4C029
330
A
100
AcDbEntity
  8
HIDDEN
 48
0.025
100
AcDbLine
 10
87.0102316724313
 20
575.1403120232026
 30
0.0
 11
83.0075133627924
 21
573.0176583741516
 31
0.0
  0
LINE
  5
4C02A
330
A
100
AcDbEntity
  8
HIDDEN
 48
0.025
100
AcDbLine
 10
87.0102316724313
 20
573.6241308453089
 30
0.0
 11
83.0075133627924
 21
571.5014771962578
 31
0.0
  0
LINE
  5
4C02B
330
A
100
AcDbEntity
  8
HIDDEN
 48
0.025
100
AcDbLine
 10
87.0102316724313
 20
572.1079496674156
 30
0.0
 11
85.62431847821432
 21
571.3729957007854
 31
0.0
  0
LINE
  5
4C02C
330
A
100
AcDbEntity
  8
0
100
AcDbLine
 10
83.53999590670361
 20
571.3729957007854
 30
0.0
 11
86.53999590670361
 21
571.3729957007854
 31
0.0
  0
MTEXT
  5
4C060
330
A
100
AcDbEntity
  8
TEMPLATE
390
1D
100
AcDbMText
 10
396.5678704237097
 20
165.6427342563946
 30
0.0
 40
7.0
 41
0.0
 46
56.87558864901229
 71
     1
 72
     1
  1
{APM74-0205-001 クローム\PAPM74-0205-011 ブラッシュドニッケル\PAPM74-0205-013 エイジドアイアン\PAPM74-0205-017 ブラッシュドゴールド\PAPM74-0205-025 マットブラック\PAPM74-0205-028 PVDコッパー}
  7
ＭＳ ゴシック
 73
     1
 44
0.7828267384257843
1001
ACAD
1000
ACAD_MTEXT_DEFINED_HEIGHT_BEGIN
1070
    46
1040
56.87558864901229
1000
ACAD_MTEXT_DEFINED_HEIGHT_END
  0
VIEWPORT
  5
349
330
B
100
AcDbEntity
 67
     1
  8
0
100
AcDbViewport
 10
202.5
 20
128.5
 30
0.0
 40
486.0
 41
308.4
 68
     1
 69
     1
 12
202.5
 22
128.5
 13
0.0
 23
0.0
 14
0.5
 24
0.5
 15
0.0
 25
0.0
 16
0.0
 26
0.0
 36
1.0
 17
0.0
 27
0.0
 37
0.0
 42
50.0
 43
0.0
 44
0.0
 45
308.4
 50
0.0
 51
0.0
 72
   100
 90
   557152
  1

281
     0
 71
     1
 74
     0
110
0.0
120
0.0
130
0.0
111
1.0
121
0.0
131
0.0
112
0.0
122
1.0
132
0.0
 79
     0
146
0.0
170
     0
 61
     5
348
26C
292
     1
282
     1
141
0.0
142
0.0
 63
   256
  0
VIEWPORT
  5
34A
330
B
100
AcDbEntity
 67
     1
  8
0
100
AcDbViewport
 10
202.5
 20
128.5
 30
0.0
 40
324.0
 41
205.6
 68
     2
 69
     2
 12
986.6781359294573
 22
1427.077061889956
 13
0.0
 23
0.0
 14
0.5
 24
0.5
 15
0.0
 25
0.0
 16
0.0
 26
0.0
 36
1.0
 17
0.0
 27
0.0
 37
0.0
 42
50.0
 43
0.0
 44
0.0
 45
2890.021615685494
 50
0.0
 51
0.0
 72
   100
 90
   557152
  1

281
     0
 71
     1
 74
     0
110
0.0
120
0.0
130
0.0
111
1.0
121
0.0
131
0.0
112
0.0
122
1.0
132
0.0
 79
     0
146
0.0
170
     0
 61
     5
348
26C
292
     1
282
     1
141
0.0
142
0.0
 63
   256
  0
ENDSEC
  0
SECTION
  2
OBJECTS
  0
DICTIONARY
  5
19
330
0
100
AcDbDictionary
281
     1
  3
ACAD_COLOR
350
674
  3
ACAD_DETAILVIEWSTYLE
350
BBF
  3
ACAD_FIELDLIST
350
36B0
  3
ACAD_GROUP
350
1A
  3
ACAD_IMAGE_VARS
350
27B
  3
ACAD_LAYOUT
350
1E
  3
ACAD_MATERIAL
350
263
  3
ACAD_MLEADERSTYLE
350
336
  3
ACAD_MLINESTYLE
350
1B
  3
ACAD_PLOTSETTINGS
350
22
  3
ACAD_PLOTSTYLENAME
350
1F
  3
ACAD_SCALELIST
350
241
  3
ACAD_SECTIONVIEWSTYLE
350
BC0
  3
ACAD_TABLESTYLE
350
278
  3
ACAD_VISUALSTYLE
350
267
  3
ACDB_RECOMPOSE_DATA
350
4C06C
  3
AcDbVariableDictionary
350
330
  3
APPDATA
350
27A
  3
CENTERLINE
350
366B
  3
DimOffsetDictionary
350
E38
  0
SUN
  5
904
330
15
100
AcDbSun
 90
        1
290
     0
 63
     7
421
 16777215
 40
1.0
291
     1
 91
  2455826
 92
 54000000
292
     0
 70
     2
 71
   256
280
     1
  0
DICTIONARY
  5
2E1
330
2
100
AcDbDictionary
280
     1
281
     1
  3
ACAD_LAYERSTATES
360
2E2
  3
ACLYDICTIONARY
360
DDE
  0
DICTIONARY
  5
17562
330
17561
100
AcDbDictionary
280
     1
281
     1
  3
ADSK_XREC_LAYER_RECONCILED
360
17563
  0
DICTIONARY
  5
1733E
330
A
100
AcDbDictionary
280
     1
281
     1
  3
ACAD_SORTENTS
360
1733F
  0
DICTIONARY
  5
18B47
330
18B46
100
AcDbDictionary
280
     1
281
     1
  3
ACAD_SORTENTS
360
18B48
  0
DICTIONARY
  5
36AE
330
36AC
100
AcDbDictionary
280
     1
281
     1
  3
ACAD_FIELD
360
4BBD6
  0
DICTIONARY
  5
4BDA6
330
4BDA5
100
AcDbDictionary
280
     1
281
     1
  3
ACAD_DIMASSOC
360
4BDA7
  0
DICTIONARY
  5
4BDB5
330
4BDB4
100
AcDbDictionary
280
     1
281
     1
  3
ACAD_DIMASSOC
360
4BDB6
  0
DICTIONARY
  5
4BDD6
330
4BDD5
100
AcDbDictionary
280
     1
281
     1
  3
ACAD_DIMASSOC
360
4BDD7
  0
DICTIONARY
  5
4BDE5
330
4BDE4
100
AcDbDictionary
280
     1
281
     1
  3
ACAD_DIMASSOC
360
4BDE6
  0
DICTIONARY
  5
4BED2
330
4BED1
100
AcDbDictionary
280
     1
281
     1
  3
ACAD_DIMASSOC
360
4BED3
  0
DICTIONARY
  5
4BED5
330
4BED4
100
AcDbDictionary
280
     1
281
     1
  3
ACAD_DIMASSOC
360
4BED6
  0
DICTIONARY
  5
4BEF5
330
4BEF4
100
AcDbDictionary
280
     1
281
     1
  3
ACAD_DIMASSOC
360
4BEF6
  0
DICTIONARY
  5
4BF04
330
4BF03
100
AcDbDictionary
280
     1
281
     1
  3
ACAD_DIMASSOC
360
4BF05
  0
DICTIONARY
  5
4BF16
330
4BF15
100
AcDbDictionary
280
     1
281
     1
  3
ACAD_DIMASSOC
360
4BF17
  0
DICTIONARY
  5
674
102
{ACAD_REACTORS
330
19
102
}
330
19
100
AcDbDictionary
281
     1
  0
DICTIONARY
  5
BBF
102
{ACAD_REACTORS
330
19
102
}
330
19
100
AcDbDictionary
281
     1
  0
FIELDLIST
  5
36B0
102
{ACAD_REACTORS
330
19
102
}
330
19
100
AcDbIdSet
 90
        2
330
36B1
330
36AD
100
AcDbFieldList
  0
DICTIONARY
  5
1A
102
{ACAD_REACTORS
330
19
102
}
330
19
100
AcDbDictionary
281
     1
  3
*A1
350
1730A
  0
RASTERVARIABLES
  5
27B
102
{ACAD_REACTORS
330
19
102
}
330
19
100
AcDbRasterVariables
 90
        0
 70
     1
 71
     1
 72
     1
  0
DICTIONARY
  5
1E
102
{ACAD_REACTORS
330
19
102
}
330
19
100
AcDbDictionary
281
     1
  3
Layout1
350
21
  3
Model
350
20
  0
DICTIONARY
  5
263
102
{ACAD_REACTORS
330
19
102
}
330
19
100
AcDbDictionary
281
     1
  3
ByBlock
350
265
  3
ByLayer
350
264
  3
Global
350
266
  0
DICTIONARY
  5
336
102
{ACAD_REACTORS
330
19
102
}
330
19
100
AcDbDictionary
281
     1
  3
Standard
350
D59
  0
DICTIONARY
  5
1B
102
{ACAD_REACTORS
330
19
102
}
330
19
100
AcDbDictionary
281
     1
  3
Standard
350
1C
  0
DICTIONARY
  5
22
102
{ACAD_REACTORS
330
19
102
}
330
19
100
AcDbDictionary
281
     1
  0
ACDBDICTIONARYWDFLT
  5
1F
102
{ACAD_REACTORS
330
19
102
}
330
19
100
AcDbDictionary
281
     1
  3
Normal
350
1D
100
AcDbDictionaryWithDefault
340
1D
  0
DICTIONARY
  5
241
102
{ACAD_REACTORS
330
19
102
}
330
19
100
AcDbDictionary
281
     1
  3
A0
350
242
  3
A1
350
243
  3
A2
350
244
  3
A3
350
245
  3
A4
350
246
  3
A5
350
247
  3
A6
350
248
  3
A7
350
249
  3
A8
350
24A
  3
A9
350
24B
  3
B0
350
24C
  3
B1
350
24D
  3
B2
350
24E
  3
B3
350
24F
  3
B4
350
250
  3
B5
350
251
  3
B6
350
252
  3
B7
350
253
  3
B8
350
254
  3
B9
350
255
  3
C0
350
256
  3
C1
350
257
  3
C2
350
258
  3
C3
350
259
  3
C4
350
25A
  3
C5
350
25B
  3
C6
350
25C
  3
C7
350
25D
  3
C8
350
25E
  3
C9
350
25F
  3
D0
350
260
  3
D1
350
261
  3
D2
350
262
  0
DICTIONARY
  5
BC0
102
{ACAD_REACTORS
330
19
102
}
330
19
100
AcDbDictionary
281
     1
  0
DICTIONARY
  5
278
102
{ACAD_REACTORS
330
19
102
}
330
19
100
AcDbDictionary
281
     1
  3
Standard
350
279
  0
DICTIONARY
  5
267
102
{ACAD_REACTORS
330
19
102
}
330
19
100
AcDbDictionary
281
     1
  3
*A1
350
3666
  3
2dWireframe
350
26C
  3
3D Hidden
350
26E
  3
3dWireframe
350
26D
  3
Basic
350
26F
  3
Brighten
350
273
  3
ColorChange
350
277
  3
Conceptual
350
271
  3
Dim
350
272
  3
EdgeColorOff
350
8FE
  3
Facepattern
350
276
  3
Flat
350
268
  3
FlatWithEdges
350
269
  3
Gouraud
350
26A
  3
GouraudWithEdges
350
26B
  3
Hidden
350
8FB
  3
JitterOff
350
8FC
  3
Linepattern
350
275
  3
OverhangOff
350
8FD
  3
Realistic
350
270
  3
Shaded
350
903
  3
Shaded with edges
350
902
  3
Shades of Gray
350
8FF
  3
Sketchy
350
900
  3
Thicken
350
274
  3
Wireframe
350
8FA
  3
X-Ray
350
901
  0
XRECORD
  5
4C06C
102
{ACAD_REACTORS
330
19
102
}
330
19
100
AcDbXrecord
280
     1
 90
        1
330
279
  0
DICTIONARY
  5
330
102
{ACAD_REACTORS
330
19
102
}
330
19
100
AcDbDictionary
281
     1
  3
CANNOSCALE
350
331
  3
CMLEADERSTYLE
350
D5E
  3
CTABLESTYLE
350
335
  3
HPTRANSPARENCY
350
D52
  3
XCLIPFRAME
350
896
  0
DICTIONARY
  5
27A
102
{ACAD_REACTORS
330
19
102
}
330
19
100
AcDbDictionary
281
     1
  0
DICTIONARY
  5
366B
102
{ACAD_REACTORS
330
19
102
}
330
19
100
AcDbDictionary
281
     1
  3
CLEXTENSION
350
36AB
  0
DICTIONARY
  5
E38
102
{ACAD_REACTORS
330
19
102
}
330
19
100
AcDbDictionary
281
     1
  3
DIMRAILANGLE
350
36A9
  3
DIMRAILFIRSTOFFSET
350
36A7
  3
DIMRAILOFFSET
350
36A8
  3
DIMRAILSENABLED
350
36AA
  0
DICTIONARY
  5
2E2
102
{ACAD_REACTORS
330
2E1
102
}
330
2E1
100
AcDbDictionary
281
     1
  0
DICTIONARY
  5
DDE
102
{ACAD_REACTORS
330
2E1
102
}
330
2E1
100
AcDbDictionary
281
     1
1001
ACAD
1000
<All
  0
XRECORD
  5
17563
102
{ACAD_REACTORS
330
17562
102
}
330
17562
100
AcDbXrecord
280
     1
290
     1
  0
SORTENTSTABLE
  5
1733F
102
{ACAD_REACTORS
330
1733E
102
}
330
1733E
100
AcDbSortentsTable
330
A
331
172F9
  5
172B7
331
172FA
  5
172F8
331
17305
  5
172F9
331
17306
  5
172FA
331
17307
  5
17305
331
17308
  5
17306
331
17309
  5
17307
  0
SORTENTSTABLE
  5
18B48
102
{ACAD_REACTORS
330
18B47
102
}
330
18B47
100
AcDbSortentsTable
330
18B46
  0
DICTIONARY
  5
4BBD6
102
{ACAD_REACTORS
330
36AE
102
}
330
36AE
100
AcDbDictionary
280
     1
281
     1
  3
TEXT
360
36AD
  0
DIMASSOC
  5
4BDA7
102
{ACAD_REACTORS
330
4BDA6
102
}
330
4BDA6
100
AcDbDimAssoc
330
4BDA5
 90
        2
 70
     0
 71
     1
  1
AcDbOsnapPointRef
 72
    10
331
4BCBF
 73
     0
 91
        0
 40
5.086669351244706
 10
0.0
 20
0.0
 30
0.0
 75
     0
  0
DIMASSOC
  5
4BDB6
102
{ACAD_REACTORS
330
4BDB5
102
}
330
4BDB5
100
AcDbDimAssoc
330
4BDB4
 90
        3
 70
     0
 71
     1
  1
AcDbOsnapPointRef
 72
    13
331
4BD19
 73
     0
 91
        0
 40
0.0
 10
0.0
 20
0.0
 30
0.0
 75
     0
  1
AcDbOsnapPointRef
 72
    13
331
4BCD2
 73
     0
 91
        0
 40
0.0
 10
0.0
 20
0.0
 30
0.0
 75
     0
  0
DIMASSOC
  5
4BDD7
102
{ACAD_REACTORS
330
4BDD6
102
}
330
4BDD6
100
AcDbDimAssoc
330
4BDD5
 90
        3
 70
     0
 71
     1
  1
AcDbOsnapPointRef
 72
    13
331
4BCC5
 73
     0
 91
        0
 40
0.0
 10
0.0
 20
0.0
 30
0.0
 75
     0
  1
AcDbOsnapPointRef
 72
    13
331
4BCC6
 73
     0
 91
        0
 40
0.0
 10
0.0
 20
0.0
 30
0.0
 75
     0
  0
DIMASSOC
  5
4BDE6
102
{ACAD_REACTORS
330
4BDE5
102
}
330
4BDE5
100
AcDbDimAssoc
330
4BDE4
 90
        3
 70
     0
 71
     1
  1
AcDbOsnapPointRef
 72
    13
331
4BD1A
 73
     0
 91
        0
 40
0.0
 10
0.0
 20
0.0
 30
0.0
 75
     0
  1
AcDbOsnapPointRef
 72
    13
331
4BD19
 73
     0
 91
        0
 40
0.0
 10
0.0
 20
0.0
 30
0.0
 75
     0
  0
DIMASSOC
  5
4BED3
102
{ACAD_REACTORS
330
4BED2
102
}
330
4BED2
100
AcDbDimAssoc
330
4BED1
 90
        3
 70
     0
 71
     1
  1
AcDbOsnapPointRef
 72
    13
331
4BE90
 73
     0
 91
        0
 40
0.0
 10
0.0
 20
0.0
 30
0.0
 75
     0
  1
AcDbOsnapPointRef
 72
    13
331
4BEB1
 73
     0
 91
        0
 40
0.0
 10
0.0
 20
0.0
 30
0.0
 75
     0
  0
DIMASSOC
  5
4BED6
102
{ACAD_REACTORS
330
4BED5
102
}
330
4BED5
100
AcDbDimAssoc
330
4BED4
 90
        2
 70
     0
 71
     1
  1
AcDbOsnapPointRef
 72
    13
331
4BE90
 73
     0
 91
        0
 40
0.0
 10
0.0
 20
0.0
 30
0.0
 75
     0
  0
DIMASSOC
  5
4BEF6
102
{ACAD_REACTORS
330
4BEF5
102
}
330
4BEF5
100
AcDbDimAssoc
330
4BEF4
 90
        3
 70
     0
 71
     1
  1
AcDbOsnapPointRef
 72
    13
331
4BD17
 73
     0
 91
        0
 40
0.0
 10
0.0
 20
0.0
 30
0.0
 75
     0
  1
AcDbOsnapPointRef
 72
    13
331
4BCD1
 73
     0
 91
        0
 40
0.0
 10
0.0
 20
0.0
 30
0.0
 75
     0
  0
DIMASSOC
  5
4BF05
102
{ACAD_REACTORS
330
4BF04
102
}
330
4BF04
100
AcDbDimAssoc
330
4BF03
 90
        3
 70
     0
 71
     1
  1
AcDbOsnapPointRef
 72
    10
331
4BD17
 73
     0
 91
        0
 40
0.5916243923499096
 10
0.0
 20
0.0
 30
0.0
 75
     0
  1
AcDbOsnapPointRef
 72
     8
331
4BD15
 73
     0
 91
        0
 40
0.4083756076500903
 10
0.0
 20
0.0
 30
0.0
 75
     1
  1
AcDbOsnapPointRef
 72
    10
331
4BD17
 73
     0
 91
        0
 40
0.5916243923499096
 10
0.0
 20
0.0
 30
0.0
 75
     0
  0
DIMASSOC
  5
4BF17
102
{ACAD_REACTORS
330
4BF16
102
}
330
4BF16
100
AcDbDimAssoc
330
4BF15
 90
        3
 70
     0
 71
     1
  1
AcDbOsnapPointRef
 72
    13
331
4BD15
 73
     0
 91
        0
 40
0.0
 10
0.0
 20
0.0
 30
0.0
 75
     0
  1
AcDbOsnapPointRef
 72
     1
331
4BD1B
 73
     0
 91
        0
 40
0.0
 10
0.0
 20
0.0
 30
0.0
 75
     0
  0
GROUP
  5
1730A
102
{ACAD_REACTORS
330
1A
102
}
330
1A
100
AcDbGroup
300

 70
     1
 71
     1
340
172F9
340
172FA
340
17305
340
17306
340
17307
340
17308
340
17309
  0
LAYOUT
  5
21
102
{ACAD_REACTORS
330
1E
102
}
330
1E
100
AcDbPlotSettings
  1

  2
none_device
  4
ISO_A3_(420.00_x_297.00_MM)
  6

 40
7.5
 41
20.0
 42
7.5
 43
20.0
 44
420.0
 45
297.0
 46
0.0
 47
0.0
 48
0.0
 49
0.0
140
0.0
141
0.0
142
1.0
143
1.0
 70
     0
 72
     1
 73
     0
 74
     0
  7

 75
     0
 76
     0
 77
     2
 78
   300
147
1.0
148
0.0
149
0.0
100
AcDbLayout
  1
Layout1
 70
     0
 71
     0
 10
-7.5
 20
-20.0
 11
412.5
 21
277.0
 12
0.0
 22
0.0
 32
0.0
 14
0.0
 24
0.0
 34
0.0
 15
0.0
 25
0.0
 35
0.0
146
0.0
 13
0.0
 23
0.0
 33
0.0
 16
0.0
 26
0.0
 36
0.0
 17
0.0
 27
0.0
 37
0.0
 76
     0
330
B
331
349
  0
LAYOUT
  5
20
102
{ACAD_REACTORS
330
1E
102
}
330
1E
100
AcDbPlotSettings
  1

  2
Adobe PDF
  4
A4
  6

 40
0.0
 41
0.0400000000000205
 42
0.0600000000000023
 43
0.0
 44
210.0
 45
297.0
 46
0.0
 47
0.0
 48
0.0
 49
0.0
140
0.0
141
0.0
142
1.0
143
3.000857387825093
 70
  1712
 72
     1
 73
     0
 74
     1
  7
monochrome.ctb
 75
     0
 76
     0
 77
     4
 78
   300
147
0.3332380952380952
148
-91.02013567089784
149
73.59871453016581
100
AcDbLayout
  1
Model
 70
     0
 71
     1
 10
0.0
 20
0.0
 11
630.0
 21
891.0
 12
0.0
 22
0.0
 32
0.0
 14
0.0
 24
0.0
 34
-0.0000000000000071
 15
630.0
 25
891.0
 35
0.0000000000000071
146
0.0
 13
0.0
 23
0.0
 33
0.0
 16
0.0
 26
0.0
 36
0.0
 17
0.0
 27
0.0
 37
0.0
 76
     0
330
A
331
15
1001
PLOTTRANSPARENCY
1071
        0
  0
MATERIAL
  5
265
102
{ACAD_REACTORS
330
263
102
}
330
263
100
AcDbMaterial
  1
ByBlock
 72
     1
 94
      127
  0
MATERIAL
  5
264
102
{ACAD_REACTORS
330
263
102
}
330
263
100
AcDbMaterial
  1
ByLayer
 72
     1
 94
      127
  0
MATERIAL
  5
266
102
{ACAD_REACTORS
330
263
102
}
330
263
100
AcDbMaterial
  1
Global
 72
     1
 94
      127
  0
MLEADERSTYLE
  5
D59
102
{ACAD_REACTORS
330
336
102
}
330
336
100
AcDbMLeaderStyle
170
     2
171
     1
172
     0
 90
        2
 40
0.0
 41
0.0
173
     1
 91
-1056964608
340
11
 92
       -2
290
     1
 42
2.0
291
     1
 43
8.0
  3
Standard
341
0
 44
4.0
300

342
17
174
     1
178
     6
175
     1
176
     0
 93
-1056964608
 45
4.0
292
     0
297
     0
 46
4.0
343
0
 94
-1056964608
 47
1.0
 49
1.0
140
1.0
293
     1
141
0.0
294
     1
177
     0
142
1.0
295
     0
296
     0
143
3.75
1001
ACAD_MLEADERVER
1070
     2
  0
MLINESTYLE
  5
1C
102
{ACAD_REACTORS
330
1B
102
}
330
1B
100
AcDbMlineStyle
  2
Standard
 70
     0
  3

 62
     0
 51
90.0
 52
90.0
 71
     2
 49
0.5
 62
   256
  6
BYLAYER
 49
-0.5
 62
   256
  6
BYLAYER
  0
ACDBPLACEHOLDER
  5
1D
102
{ACAD_REACTORS
330
1F
102
}
330
1F
  0
SCALE
  5
242
102
{ACAD_REACTORS
330
241
102
}
330
241
100
AcDbScale
 70
     0
300
1:1
140
1.0
141
1.0
290
     1
  0
SCALE
  5
243
102
{ACAD_REACTORS
330
241
102
}
330
241
100
AcDbScale
 70
     0
300
1:2
140
1.0
141
2.0
290
     0
  0
SCALE
  5
244
102
{ACAD_REACTORS
330
241
102
}
330
241
100
AcDbScale
 70
     0
300
1:4
140
1.0
141
4.0
290
     0
  0
SCALE
  5
245
102
{ACAD_REACTORS
330
241
102
}
330
241
100
AcDbScale
 70
     0
300
1:5
140
1.0
141
5.0
290
     0
  0
SCALE
  5
246
102
{ACAD_REACTORS
330
241
102
}
330
241
100
AcDbScale
 70
     0
300
1:8
140
1.0
141
8.0
290
     0
  0
SCALE
  5
247
102
{ACAD_REACTORS
330
241
102
}
330
241
100
AcDbScale
 70
     0
300
1:10
140
1.0
141
10.0
290
     0
  0
SCALE
  5
248
102
{ACAD_REACTORS
330
241
102
}
330
241
100
AcDbScale
 70
     0
300
1:16
140
1.0
141
16.0
290
     0
  0
SCALE
  5
249
102
{ACAD_REACTORS
330
241
102
}
330
241
100
AcDbScale
 70
     0
300
1:20
140
1.0
141
20.0
290
     0
  0
SCALE
  5
24A
102
{ACAD_REACTORS
330
241
102
}
330
241
100
AcDbScale
 70
     0
300
1:30
140
1.0
141
30.0
290
     0
  0
SCALE
  5
24B
102
{ACAD_REACTORS
330
241
102
}
330
241
100
AcDbScale
 70
     0
300
1:40
140
1.0
141
40.0
290
     0
  0
SCALE
  5
24C
102
{ACAD_REACTORS
330
241
102
}
330
241
100
AcDbScale
 70
     0
300
1:50
140
1.0
141
50.0
290
     0
  0
SCALE
  5
24D
102
{ACAD_REACTORS
330
241
102
}
330
241
100
AcDbScale
 70
     0
300
1:100
140
1.0
141
100.0
290
     0
  0
SCALE
  5
24E
102
{ACAD_REACTORS
330
241
102
}
330
241
100
AcDbScale
 70
     0
300
2:1
140
2.0
141
1.0
290
     0
  0
SCALE
  5
24F
102
{ACAD_REACTORS
330
241
102
}
330
241
100
AcDbScale
 70
     0
300
4:1
140
4.0
141
1.0
290
     0
  0
SCALE
  5
250
102
{ACAD_REACTORS
330
241
102
}
330
241
100
AcDbScale
 70
     0
300
8:1
140
8.0
141
1.0
290
     0
  0
SCALE
  5
251
102
{ACAD_REACTORS
330
241
102
}
330
241
100
AcDbScale
 70
     0
300
10:1
140
10.0
141
1.0
290
     0
  0
SCALE
  5
252
102
{ACAD_REACTORS
330
241
102
}
330
241
100
AcDbScale
 70
     0
300
100:1
140
100.0
141
1.0
290
     0
  0
SCALE
  5
253
102
{ACAD_REACTORS
330
241
102
}
330
241
100
AcDbScale
 70
     0
300
1/128" = 1'-0"
140
0.0078125
141
12.0
290
     0
  0
SCALE
  5
254
102
{ACAD_REACTORS
330
241
102
}
330
241
100
AcDbScale
 70
     0
300
1/64" = 1'-0"
140
0.015625
141
12.0
290
     0
  0
SCALE
  5
255
102
{ACAD_REACTORS
330
241
102
}
330
241
100
AcDbScale
 70
     0
300
1/32" = 1'-0"
140
0.03125
141
12.0
290
     0
  0
SCALE
  5
256
102
{ACAD_REACTORS
330
241
102
}
330
241
100
AcDbScale
 70
     0
300
1/16" = 1'-0"
140
0.0625
141
12.0
290
     0
  0
SCALE
  5
257
102
{ACAD_REACTORS
330
241
102
}
330
241
100
AcDbScale
 70
     0
300
3/32" = 1'-0"
140
0.09375
141
12.0
290
     0
  0
SCALE
  5
258
102
{ACAD_REACTORS
330
241
102
}
330
241
100
AcDbScale
 70
     0
300
1/8" = 1'-0"
140
0.125
141
12.0
290
     0
  0
SCALE
  5
259
102
{ACAD_REACTORS
330
241
102
}
330
241
100
AcDbScale
 70
     0
300
3/16" = 1'-0"
140
0.1875
141
12.0
290
     0
  0
SCALE
  5
25A
102
{ACAD_REACTORS
330
241
102
}
330
241
100
AcDbScale
 70
     0
300
1/4" = 1'-0"
140
0.25
141
12.0
290
     0
  0
SCALE
  5
25B
102
{ACAD_REACTORS
330
241
102
}
330
241
100
AcDbScale
 70
     0
300
3/8" = 1'-0"
140
0.375
141
12.0
290
     0
  0
SCALE
  5
25C
102
{ACAD_REACTORS
330
241
102
}
330
241
100
AcDbScale
 70
     0
300
1/2" = 1'-0"
140
0.5
141
12.0
290
     0
  0
SCALE
  5
25D
102
{ACAD_REACTORS
330
241
102
}
330
241
100
AcDbScale
 70
     0
300
3/4" = 1'-0"
140
0.75
141
12.0
290
     0
  0
SCALE
  5
25E
102
{ACAD_REACTORS
330
241
102
}
330
241
100
AcDbScale
 70
     0
300
1" = 1'-0"
140
1.0
141
12.0
290
     0
  0
SCALE
  5
25F
102
{ACAD_REACTORS
330
241
102
}
330
241
100
AcDbScale
 70
     0
300
1-1/2" = 1'-0"
140
1.5
141
12.0
290
     0
  0
SCALE
  5
260
102
{ACAD_REACTORS
330
241
102
}
330
241
100
AcDbScale
 70
     0
300
3" = 1'-0"
140
3.0
141
12.0
290
     0
  0
SCALE
  5
261
102
{ACAD_REACTORS
330
241
102
}
330
241
100
AcDbScale
 70
     0
300
6" = 1'-0"
140
6.0
141
12.0
290
     0
  0
SCALE
  5
262
102
{ACAD_REACTORS
330
241
102
}
330
241
100
AcDbScale
 70
     0
300
1'-0" = 1'-0"
140
12.0
141
12.0
290
     0
  0
TABLESTYLE
  5
279
102
{ACAD_REACTORS
330
278
102
}
102
{ACAD_XDICTIONARY
360
4C06A
102
}
330
278
100
AcDbTableStyle
  3
Standard
 70
     0
 71
     0
 40
0.06
 41
0.06
280
     0
281
     0
  7
Standard
140
4.5
170
     2
 62
     0
 63
   257
283
     0
 90
        4
 91
        0
  1

274
    -2
284
     1
 64
     0
275
    -2
285
     1
 65
     0
276
    -2
286
     1
 66
     0
277
    -2
287
     1
 67
     0
278
    -2
288
     1
 68
     0
279
    -2
289
     1
 69
     0
  7
Standard
140
6.0
170
     5
 62
     0
 63
   257
283
     0
 90
        4
 91
        0
  1

274
    -2
284
     1
 64
     0
275
    -2
285
     1
 65
     0
276
    -2
286
     1
 66
     0
277
    -2
287
     1
 67
     0
278
    -2
288
     1
 68
     0
279
    -2
289
     1
 69
     0
  7
Standard
140
4.5
170
     5
 62
     0
 63
   257
283
     0
 90
        4
 91
        0
  1

274
    -2
284
     1
 64
     0
275
    -2
285
     1
 65
     0
276
    -2
286
     1
 66
     0
277
    -2
287
     1
 67
     0
278
    -2
288
     1
 68
     0
279
    -2
289
     1
 69
     0
  0
VISUALSTYLE
  5
3666
102
{ACAD_REACTORS
330
267
102
}
330
267
100
AcDbVisualStyle
  2
*
 70
    10
 71
     0
 72
     2
 73
     0
 90
        0
 40
-0.6
 41
-30.0
 62
     5
 63
     7
421
 16777215
 74
     1
 91
        4
 64
     7
 65
   257
 75
     1
175
     1
 42
1.0
 92
        8
 66
     7
 43
1.0
 76
     1
 77
     6
 78
     2
 67
     7
 79
     5
170
     0
171
     0
290
     0
174
     0
 93
        1
 44
0.0
173
     0
291
     0
 45
0.0
  0
VISUALSTYLE
  5
26C
102
{ACAD_REACTORS
330
267
102
}
330
267
100
AcDbVisualStyle
  2
2dWireframe
 70
     4
 71
     0
 72
     2
 73
     0
 90
        0
 40
-0.6
 41
-30.0
 62
     5
 63
     7
421
 16777215
 74
     1
 91
        4
 64
     7
 65
   257
 75
     1
175
     1
 42
1.0
 92
        0
 66
   257
 43
1.0
 76
     1
 77
     6
 78
     2
 67
     7
 79
     5
170
     0
171
     0
290
     0
174
     0
 93
        1
 44
0.0
173
     0
291
     0
 45
0.0
  0
VISUALSTYLE
  5
26E
102
{ACAD_REACTORS
330
267
102
}
330
267
100
AcDbVisualStyle
  2
3D Hidden
 70
     6
 71
     1
 72
     2
 73
     2
 90
        0
 40
-0.6
 41
-30.0
 62
     5
 63
     7
421
 16777215
 74
     2
 91
        2
 64
     7
 65
   257
 75
     2
175
     1
 42
40.0
 92
        0
 66
   257
 43
1.0
 76
     1
 77
     6
 78
     2
 67
     7
 79
     3
170
     0
171
     0
290
     0
174
     0
 93
        1
 44
0.0
173
     0
291
     0
 45
0.0
  0
VISUALSTYLE
  5
26D
102
{ACAD_REACTORS
330
267
102
}
330
267
100
AcDbVisualStyle
  2
3dWireframe
 70
     5
 71
     0
 72
     2
 73
     0
 90
        0
 40
-0.6
 41
-30.0
 62
     5
 63
     7
421
 16777215
 74
     1
 91
        4
 64
     7
 65
   257
 75
     1
175
     1
 42
1.0
 92
        0
 66
   257
 43
1.0
 76
     1
 77
     6
 78
     2
 67
     7
 79
     5
170
     0
171
     0
290
     0
174
     0
 93
        1
 44
0.0
173
     0
291
     0
 45
0.0
  0
VISUALSTYLE
  5
26F
102
{ACAD_REACTORS
330
267
102
}
330
267
100
AcDbVisualStyle
  2
Basic
 70
     7
 71
     1
 72
     0
 73
     1
 90
        0
 40
-0.6
 41
-30.0
 62
     5
 63
     7
421
 16777215
 74
     0
 91
        4
 64
     7
 65
   257
 75
     1
175
     1
 42
1.0
 92
        8
 66
     7
 43
1.0
 76
     1
 77
     6
 78
     2
 67
     7
 79
     5
170
     0
171
     0
290
     0
174
     0
 93
        1
 44
0.0
173
     0
291
     1
 45
0.0
  0
VISUALSTYLE
  5
273
102
{ACAD_REACTORS
330
267
102
}
330
267
100
AcDbVisualStyle
  2
Brighten
 70
    12
 71
     2
 72
     2
 73
     0
 90
        0
 40
-0.6
 41
-30.0
 62
     5
 63
     7
421
 16777215
 74
     1
 91
        4
 64
     7
 65
   257
 75
     1
175
     1
 42
1.0
 92
        8
 66
     7
 43
1.0
 76
     1
 77
     6
 78
     2
 67
     7
 79
     5
170
     0
171
     0
290
     0
174
     0
 93
        1
 44
50.0
173
     0
291
     1
 45
0.0
  0
VISUALSTYLE
  5
277
102
{ACAD_REACTORS
330
267
102
}
330
267
100
AcDbVisualStyle
  2
ColorChange
 70
    16
 71
     2
 72
     2
 73
     3
 90
        0
 40
-0.6
 41
-30.0
 62
     5
 63
     8
421
  8421504
 74
     1
 91
        4
 64
     7
 65
   257
 75
     1
175
     1
 42
1.0
 92
        8
 66
     8
424
  8421504
 43
1.0
 76
     1
 77
     6
 78
     2
 67
     7
 79
     5
170
     0
171
     0
290
     0
174
     0
 93
        1
 44
0.0
173
     0
291
     1
 45
0.0
  0
VISUALSTYLE
  5
271
102
{ACAD_REACTORS
330
267
102
}
330
267
100
AcDbVisualStyle
  2
Conceptual
 70
     9
 71
     3
 72
     2
 73
     0
 90
        0
 40
-0.6
 41
-30.0
 62
     5
 63
     7
421
 16777215
 74
     2
 91
        2
 64
     7
 65
   257
 75
     1
175
     1
 42
40.0
 92
        8
 66
     7
 43
1.0
 76
     1
 77
     6
 78
     2
 67
     7
 79
     3
170
     0
171
     0
290
     0
174
     0
 93
        1
 44
0.0
173
     0
291
     0
 45
0.0
  0
VISUALSTYLE
  5
272
102
{ACAD_REACTORS
330
267
102
}
330
267
100
AcDbVisualStyle
  2
Dim
 70
    11
 71
     2
 72
     2
 73
     0
 90
        0
 40
-0.6
 41
-30.0
 62
     5
 63
     7
421
 16777215
 74
     1
 91
        4
 64
     7
 65
   257
 75
     1
175
     1
 42
1.0
 92
        8
 66
     7
 43
1.0
 76
     1
 77
     6
 78
     2
 67
     7
 79
     5
170
     0
171
     0
290
     0
174
     0
 93
        1
 44
-50.0
173
     0
291
     1
 45
0.0
  0
VISUALSTYLE
  5
8FE
102
{ACAD_REACTORS
330
267
102
}
330
267
100
AcDbVisualStyle
  2
EdgeColorOff
 70
    22
 71
     2
 72
     2
 73
     0
 90
        0
 40
0.6
 41
30.0
 62
     5
 63
     7
421
 16777215
 74
     1
 91
        4
 64
     7
 65
   257
 75
     1
175
     1
 42
1.0
 92
        8
 66
     7
 43
1.0
 76
     1
 77
     6
 78
     2
 67
     7
 79
     5
170
     0
171
     0
290
     0
174
     0
 93
        1
 44
0.0
173
     0
291
     1
 45
0.0
  0
VISUALSTYLE
  5
276
102
{ACAD_REACTORS
330
267
102
}
330
267
100
AcDbVisualStyle
  2
Facepattern
 70
    15
 71
     2
 72
     2
 73
     0
 90
        0
 40
-0.6
 41
-30.0
 62
     5
 63
     7
421
 16777215
 74
     1
 91
        4
 64
     7
 65
   257
 75
     1
175
     1
 42
1.0
 92
        8
 66
     7
 43
1.0
 76
     1
 77
     6
 78
     2
 67
     7
 79
     5
170
     0
171
     0
290
     0
174
     0
 93
        1
 44
0.0
173
     0
291
     1
 45
0.0
  0
VISUALSTYLE
  5
268
102
{ACAD_REACTORS
330
267
102
}
330
267
100
AcDbVisualStyle
  2
Flat
 70
     0
 71
     2
 72
     1
 73
     1
 90
        2
 40
-0.6
 41
30.0
 62
     5
 63
     7
421
 16777215
 74
     0
 91
        4
 64
     7
 65
   257
 75
     1
175
     1
 42
1.0
 92
        8
 66
     7
 43
1.0
 76
     1
 77
     6
 78
     2
 67
     7
 79
     5
170
     0
171
     0
290
     0
174
     0
 93
       13
 44
0.0
173
     0
291
     1
 45
0.0
  0
VISUALSTYLE
  5
269
102
{ACAD_REACTORS
330
267
102
}
330
267
100
AcDbVisualStyle
  2
FlatWithEdges
 70
     1
 71
     2
 72
     1
 73
     1
 90
        2
 40
-0.6
 41
30.0
 62
     5
 63
     7
421
 16777215
 74
     1
 91
        4
 64
     7
 65
   257
 75
     1
175
     1
 42
1.0
 92
        0
 66
   257
 43
1.0
 76
     1
 77
     6
 78
     2
 67
     7
 79
     5
170
     0
171
     0
290
     0
174
     0
 93
       13
 44
0.0
173
     0
291
     1
 45
0.0
  0
VISUALSTYLE
  5
26A
102
{ACAD_REACTORS
330
267
102
}
330
267
100
AcDbVisualStyle
  2
Gouraud
 70
     2
 71
     2
 72
     2
 73
     1
 90
        2
 40
-0.6
 41
30.0
 62
     5
 63
     7
421
 16777215
 74
     0
 91
        4
 64
     7
 65
   257
 75
     1
175
     1
 42
1.0
 92
        0
 66
     7
 43
1.0
 76
     1
 77
     6
 78
     2
 67
     7
 79
     5
170
     0
171
     0
290
     0
174
     0
 93
       13
 44
0.0
173
     0
291
     1
 45
0.0
  0
VISUALSTYLE
  5
26B
102
{ACAD_REACTORS
330
267
102
}
330
267
100
AcDbVisualStyle
  2
GouraudWithEdges
 70
     3
 71
     2
 72
     2
 73
     1
 90
        2
 40
-0.6
 41
30.0
 62
     5
 63
     7
421
 16777215
 74
     1
 91
        4
 64
     7
 65
   257
 75
     1
175
     1
 42
1.0
 92
        0
 66
   257
 43
1.0
 76
     1
 77
     6
 78
     2
 67
     7
 79
     5
170
     0
171
     0
290
     0
174
     0
 93
       13
 44
0.0
173
     0
291
     1
 45
0.0
  0
VISUALSTYLE
  5
8FB
102
{ACAD_REACTORS
330
267
102
}
330
267
100
AcDbVisualStyle
  2
Hidden
 70
     6
 71
     1
 72
     2
 73
     2
 90
        0
 40
0.6
 41
30.0
 62
     5
 63
     7
421
 16777215
 74
     2
 91
        2
 64
     7
 65
   257
 75
     2
175
     1
 42
40.0
 92
        0
 66
   257
 43
1.0
 76
     1
 77
     6
 78
     2
 67
     7
 79
     3
170
     0
171
     0
290
     0
174
     0
 93
        1
 44
0.0
173
     0
291
     0
 45
0.0
  0
VISUALSTYLE
  5
8FC
102
{ACAD_REACTORS
330
267
102
}
330
267
100
AcDbVisualStyle
  2
JitterOff
 70
    20
 71
     2
 72
     2
 73
     0
 90
        0
 40
0.6
 41
30.0
 62
     5
 63
     7
421
 16777215
 74
     1
 91
        4
 64
     7
 65
   257
 75
     1
175
     1
 42
1.0
 92
       10
 66
     7
 43
1.0
 76
     1
 77
     6
 78
     2
 67
     7
 79
     5
170
     0
171
     0
290
     0
174
     0
 93
        1
 44
0.0
173
     0
291
     1
 45
0.0
  0
VISUALSTYLE
  5
275
102
{ACAD_REACTORS
330
267
102
}
330
267
100
AcDbVisualStyle
  2
Linepattern
 70
    14
 71
     2
 72
     2
 73
     0
 90
        0
 40
-0.6
 41
-30.0
 62
     5
 63
     7
421
 16777215
 74
     1
 91
        4
 64
     7
 65
   257
 75
     7
175
     7
 42
1.0
 92
        8
 66
     7
 43
1.0
 76
     1
 77
     6
 78
     2
 67
     7
 79
     5
170
     0
171
     0
290
     0
174
     0
 93
        1
 44
0.0
173
     0
291
     1
 45
0.0
  0
VISUALSTYLE
  5
8FD
102
{ACAD_REACTORS
330
267
102
}
330
267
100
AcDbVisualStyle
  2
OverhangOff
 70
    21
 71
     2
 72
     2
 73
     0
 90
        0
 40
0.6
 41
30.0
 62
     5
 63
     7
421
 16777215
 74
     1
 91
        4
 64
     7
 65
   257
 75
     1
175
     1
 42
1.0
 92
        9
 66
     7
 43
1.0
 76
     1
 77
     6
 78
     2
 67
     7
 79
     5
170
     0
171
     0
290
     0
174
     0
 93
        1
 44
0.0
173
     0
291
     1
 45
0.0
  0
VISUALSTYLE
  5
270
102
{ACAD_REACTORS
330
267
102
}
330
267
100
AcDbVisualStyle
  2
Realistic
 70
     8
 71
     2
 72
     2
 73
     0
 90
        0
 40
-0.6
 41
-30.0
 62
     5
 63
     7
421
 16777215
 74
     1
 91
        0
 64
     7
 65
   257
 75
     1
175
     1
 42
1.0
 92
        8
 66
     8
424
  7895160
 43
1.0
 76
     1
 77
     6
 78
     2
 67
     7
 79
     5
170
     0
171
     0
290
     0
174
     0
 93
       13
 44
0.0
173
     0
291
     0
 45
0.0
  0
VISUALSTYLE
  5
903
102
{ACAD_REACTORS
330
267
102
}
330
267
100
AcDbVisualStyle
  2
Shaded
 70
    27
 71
     2
 72
     2
 73
     1
 90
        2
 40
0.6
 41
30.0
 62
     5
 63
     7
421
 16777215
 74
     0
 91
        4
 64
     7
 65
   257
 75
     1
175
     1
 42
1.0
 92
        8
 66
   257
 43
1.0
 76
     1
 77
     6
 78
     2
 67
     8
425
  7895160
 79
     3
170
     0
171
     0
290
     0
174
     0
 93
        5
 44
0.0
173
     0
291
     0
 45
0.0
  0
VISUALSTYLE
  5
902
102
{ACAD_REACTORS
330
267
102
}
330
267
100
AcDbVisualStyle
  2
Shaded with edges
 70
    26
 71
     2
 72
     2
 73
     1
 90
        2
 40
0.6
 41
30.0
 62
     5
 63
     7
421
 16777215
 74
     1
 91
       10
 64
     7
 65
   257
 75
     2
175
     1
 42
1.0
 92
        8
 66
   257
 43
1.0
 76
     1
 77
     6
 78
     2
 67
     7
 79
     3
170
     0
171
     0
290
     0
174
     0
 93
        5
 44
0.0
173
     0
291
     0
 45
0.0
  0
VISUALSTYLE
  5
8FF
102
{ACAD_REACTORS
330
267
102
}
330
267
100
AcDbVisualStyle
  2
Shades of Gray
 70
    23
 71
     2
 72
     2
 73
     3
 90
        0
 40
0.6
 41
30.0
 62
     5
 63
     7
421
 16777215
 74
     2
 91
        2
 64
     7
 65
     7
 75
     1
175
     1
 42
40.0
 92
        8
 66
     7
 43
1.0
 76
     1
 77
     6
 78
     2
 67
     7
 79
     3
170
     0
171
     0
290
     0
174
     0
 93
        1
 44
0.0
173
     0
291
     0
 45
0.0
  0
VISUALSTYLE
  5
900
102
{ACAD_REACTORS
330
267
102
}
330
267
100
AcDbVisualStyle
  2
Sketchy
 70
    24
 71
     1
 72
     2
 73
     2
 90
        0
 40
0.6
 41
30.0
 62
     5
 63
     7
421
 16777215
 74
     2
 91
        2
 64
     7
 65
     7
 75
     1
175
     1
 42
40.0
 92
       11
 66
     7
 43
1.0
 76
     1
 77
     6
 78
     2
 67
     7
 79
     6
170
     0
171
     0
290
     0
174
     0
 93
        1
 44
0.0
173
     0
291
     0
 45
0.0
  0
VISUALSTYLE
  5
274
102
{ACAD_REACTORS
330
267
102
}
330
267
100
AcDbVisualStyle
  2
Thicken
 70
    13
 71
     2
 72
     2
 73
     0
 90
        0
 40
-0.6
 41
-30.0
 62
     5
 63
     7
421
 16777215
 74
     1
 91
        4
 64
     7
 65
   257
 75
     1
175
     1
 42
1.0
 92
       12
 66
     7
 43
1.0
 76
     1
 77
     6
 78
     2
 67
     7
 79
     5
170
     0
171
     0
290
     0
174
     0
 93
        1
 44
0.0
173
     0
291
     1
 45
0.0
  0
VISUALSTYLE
  5
8FA
102
{ACAD_REACTORS
330
267
102
}
330
267
100
AcDbVisualStyle
  2
Wireframe
 70
     5
 71
     0
 72
     2
 73
     0
 90
        0
 40
0.6
 41
30.0
 62
     5
 63
     7
421
 16777215
 74
     1
 91
        4
 64
     7
 65
   257
 75
     1
175
     1
 42
1.0
 92
        0
 66
   257
 43
1.0
 76
     1
 77
     6
 78
     2
 67
     7
 79
     3
170
     0
171
     0
290
     0
174
     0
 93
        1
 44
0.0
173
     0
291
     0
 45
0.0
  0
VISUALSTYLE
  5
901
102
{ACAD_REACTORS
330
267
102
}
330
267
100
AcDbVisualStyle
  2
X-Ray
 70
    25
 71
     2
 72
     2
 73
     1
 90
        1
 40
0.5
 41
30.0
 62
     5
 63
     7
421
 16777215
 74
     1
 91
        0
 64
     7
 65
   257
 75
     1
175
     1
 42
1.0
 92
        8
 66
     7
 43
1.0
 76
     1
 77
     6
 78
     2
 67
     7
 79
     3
170
     0
171
     0
290
     0
174
     0
 93
       13
 44
0.0
173
     0
291
     0
 45
0.0
  0
DICTIONARYVAR
  5
331
102
{ACAD_REACTORS
330
330
102
}
330
330
100
DictionaryVariables
280
     0
  1
1:1
  0
DICTIONARYVAR
  5
D5E
102
{ACAD_REACTORS
330
330
102
}
330
330
100
DictionaryVariables
280
     0
  1
Standard
  0
DICTIONARYVAR
  5
335
102
{ACAD_REACTORS
330
330
102
}
330
330
100
DictionaryVariables
280
     0
  1
Standard
  0
DICTIONARYVAR
  5
D52
102
{ACAD_REACTORS
330
330
102
}
330
330
100
DictionaryVariables
280
     0
  1
ByLayer
  0
DICTIONARYVAR
  5
896
102
{ACAD_REACTORS
330
330
102
}
330
330
100
DictionaryVariables
280
     0
  1
0
  0
DICTIONARYVAR
  5
36AB
102
{ACAD_REACTORS
330
366B
102
}
330
366B
100
DictionaryVariables
280
     0
  1
0.250000
  0
DICTIONARYVAR
  5
36A9
102
{ACAD_REACTORS
330
E38
102
}
330
E38
100
DictionaryVariables
280
     0
  1
0.261799
  0
DICTIONARYVAR
  5
36A7
102
{ACAD_REACTORS
330
E38
102
}
330
E38
100
DictionaryVariables
280
     0
  1
0.400000
  0
DICTIONARYVAR
  5
36A8
102
{ACAD_REACTORS
330
E38
102
}
330
E38
100
DictionaryVariables
280
     0
  1
0.250000
  0
DICTIONARYVAR
  5
36AA
102
{ACAD_REACTORS
330
E38
102
}
330
E38
100
DictionaryVariables
280
     0
  1
1
  0
FIELD
  5
36AD
102
{ACAD_REACTORS
330
4BBD6
102
}
330
4BBD6
100
AcDbField
  1
_text
  2
{%<\_FldIdx 0>%M}
 90
        1
360
36B1
 97
        0
 91
       63
 92
        0
 94
       11
 95
        2
 96
        0
300

 93
        1
  6
ACFD_FIELDTEXT_CHECKSUM
 93
        2
 90
        2
140
4556.0
 94
        0
300

302

304
ACVALUE_END
  7
ACFD_FIELD_VALUE
 93
        6
 90
        4
  1
{20240909M}
 94
        0
300

302

304
ACVALUE_END
301
{20240909M}
 98
       11
  0
DICTIONARY
  5
4C06A
330
279
100
AcDbDictionary
280
     1
281
     1
  3
ACAD_ROUNDTRIP_2008_TABLESTYLE_CELLSTYLEMAP
360
4C06B
  0
FIELD
  5
36B1
330
36AD
100
AcDbField
  1
AcVar
  2
\AcVar Date \f "yyyyMMdd"
 90
        0
 97
        0
 91
       63
 92
        0
 94
        8
 95
       64
 96
        0
300
Variable not supported
 93
        1
  6
Variable
 93
        2
 90
        4
  1
Date
 94
        0
300

302

304
ACVALUE_END
  7
ACFD_FIELD_VALUE
 93
        6
 90
        8
 92
       16
310
E80709000000090000001E000D000000
 94
        0
300
yyyyMMdd
302

304
ACVALUE_END
301
20240909
 98
        8
  0
CELLSTYLEMAP
  5
4C06B
102
{ACAD_REACTORS
330
4C06A
102
}
330
4C06A
100
AcDbCellStyleMap
 90
        3
300
CELLSTYLE
  1
TABLEFORMAT_BEGIN
 90
        5
170
     1
 91
        0
 92
    32768
 62
   257
 93
        1
300
CONTENTFORMAT
  1
CONTENTFORMAT_BEGIN
 90
        0
 91
        0
 92
        4
 93
        0
300

 40
0.0
140
1.0
 94
        5
 62
     0
340
17
144
6.0
309
CONTENTFORMAT_END
171
     1
301
MARGIN
  1
CELLMARGIN_BEGIN
 40
0.06
 40
0.06
 40
0.06
 40
0.06
 40
0.18
 40
0.18
309
CELLMARGIN_END
 94
        6
 95
        1
302
GRIDFORMAT
  1
GRIDFORMAT_BEGIN
 90
        0
 91
        1
 62
     0
 92
       -2
340
0
 93
        0
 40
0.045
309
GRIDFORMAT_END
 95
        2
302
GRIDFORMAT
  1
GRIDFORMAT_BEGIN
 90
        0
 91
        1
 62
     0
 92
       -2
340
0
 93
        0
 40
0.045
309
GRIDFORMAT_END
 95
        4
302
GRIDFORMAT
  1
GRIDFORMAT_BEGIN
 90
        0
 91
        1
 62
     0
 92
       -2
340
0
 93
        0
 40
0.045
309
GRIDFORMAT_END
 95
        8
302
GRIDFORMAT
  1
GRIDFORMAT_BEGIN
 90
        0
 91
        1
 62
     0
 92
       -2
340
0
 93
        0
 40
0.045
309
GRIDFORMAT_END
 95
       16
302
GRIDFORMAT
  1
GRIDFORMAT_BEGIN
 90
        0
 91
        1
 62
     0
 92
       -2
340
0
 93
        0
 40
0.045
309
GRIDFORMAT_END
 95
       32
302
GRIDFORMAT
  1
GRIDFORMAT_BEGIN
 90
        0
 91
        1
 62
     0
 92
       -2
340
0
 93
        0
 40
0.045
309
GRIDFORMAT_END
309
TABLEFORMAT_END
  1
CELLSTYLE_BEGIN
 90
        1
 91
        1
300
_TITLE
309
CELLSTYLE_END
300
CELLSTYLE
  1
TABLEFORMAT_BEGIN
 90
        5
170
     1
 91
        0
 92
        0
 62
   257
 93
        1
300
CONTENTFORMAT
  1
CONTENTFORMAT_BEGIN
 90
        0
 91
        0
 92
        4
 93
        0
300

 40
0.0
140
1.0
 94
        5
 62
     0
340
17
144
4.5
309
CONTENTFORMAT_END
171
     1
301
MARGIN
  1
CELLMARGIN_BEGIN
 40
0.06
 40
0.06
 40
0.06
 40
0.06
 40
0.18
 40
0.18
309
CELLMARGIN_END
 94
        6
 95
        1
302
GRIDFORMAT
  1
GRIDFORMAT_BEGIN
 90
        0
 91
        1
 62
     0
 92
       -2
340
0
 93
        0
 40
0.045
309
GRIDFORMAT_END
 95
        2
302
GRIDFORMAT
  1
GRIDFORMAT_BEGIN
 90
        0
 91
        1
 62
     0
 92
       -2
340
0
 93
        0
 40
0.045
309
GRIDFORMAT_END
 95
        4
302
GRIDFORMAT
  1
GRIDFORMAT_BEGIN
 90
        0
 91
        1
 62
     0
 92
       -2
340
0
 93
        0
 40
0.045
309
GRIDFORMAT_END
 95
        8
302
GRIDFORMAT
  1
GRIDFORMAT_BEGIN
 90
        0
 91
        1
 62
     0
 92
       -2
340
0
 93
        0
 40
0.045
309
GRIDFORMAT_END
 95
       16
302
GRIDFORMAT
  1
GRIDFORMAT_BEGIN
 90
        0
 91
        1
 62
     0
 92
       -2
340
0
 93
        0
 40
0.045
309
GRIDFORMAT_END
 95
       32
302
GRIDFORMAT
  1
GRIDFORMAT_BEGIN
 90
        0
 91
        1
 62
     0
 92
       -2
340
0
 93
        0
 40
0.045
309
GRIDFORMAT_END
309
TABLEFORMAT_END
  1
CELLSTYLE_BEGIN
 90
        2
 91
        1
300
_HEADER
309
CELLSTYLE_END
300
CELLSTYLE
  1
TABLEFORMAT_BEGIN
 90
        5
170
     1
 91
        0
 92
        0
 62
   257
 93
        1
300
CONTENTFORMAT
  1
CONTENTFORMAT_BEGIN
 90
        0
 91
        0
 92
        4
 93
        0
300

 40
0.0
140
1.0
 94
        2
 62
     0
340
17
144
4.5
309
CONTENTFORMAT_END
171
     1
301
MARGIN
  1
CELLMARGIN_BEGIN
 40
0.06
 40
0.06
 40
0.06
 40
0.06
 40
0.18
 40
0.18
309
CELLMARGIN_END
 94
        6
 95
        1
302
GRIDFORMAT
  1
GRIDFORMAT_BEGIN
 90
        0
 91
        1
 62
     0
 92
       -2
340
0
 93
        0
 40
0.045
309
GRIDFORMAT_END
 95
        2
302
GRIDFORMAT
  1
GRIDFORMAT_BEGIN
 90
        0
 91
        1
 62
     0
 92
       -2
340
0
 93
        0
 40
0.045
309
GRIDFORMAT_END
 95
        4
302
GRIDFORMAT
  1
GRIDFORMAT_BEGIN
 90
        0
 91
        1
 62
     0
 92
       -2
340
0
 93
        0
 40
0.045
309
GRIDFORMAT_END
 95
        8
302
GRIDFORMAT
  1
GRIDFORMAT_BEGIN
 90
        0
 91
        1
 62
     0
 92
       -2
340
0
 93
        0
 40
0.045
309
GRIDFORMAT_END
 95
       16
302
GRIDFORMAT
  1
GRIDFORMAT_BEGIN
 90
        0
 91
        1
 62
     0
 92
       -2
340
0
 93
        0
 40
0.045
309
GRIDFORMAT_END
 95
       32
302
GRIDFORMAT
  1
GRIDFORMAT_BEGIN
 90
        0
 91
        1
 62
     0
 92
       -2
340
0
 93
        0
 40
0.045
309
GRIDFORMAT_END
309
TABLEFORMAT_END
  1
CELLSTYLE_BEGIN
 90
        3
 91
        2
300
_DATA
309
CELLSTYLE_END
  0
ENDSEC
  0
EOF
