  0
SECTION
  2
HEADER
  9
$ACADVER
  1
AC1021
  9
$ACADMAINTVER
 70
    25
  9
$DWGCODEPAGE
  3
ANSI_932
  9
$LASTSAVEDBY
  1
tform
  9
$INSBASE
 10
0.0
 20
0.0
 30
0.0
  9
$EXTMIN
 10
0.0
 20
0.0
 30
-0.0000000000000142
  9
$EXTMAX
 10
420.0000000000001
 20
594.0
 30
0.5
  9
$LIMMIN
 10
0.0
 20
0.0
  9
$LIMMAX
 10
420.0000000000001
 20
594.0
  9
$ORTHOMODE
 70
     0
  9
$REGENMODE
 70
     1
  9
$FILLMODE
 70
     1
  9
$QTEXTMODE
 70
     0
  9
$MIRRTEXT
 70
     1
  9
$LTSCALE
 40
2.0
  9
$ATTMODE
 70
     1
  9
$TEXTSIZE
 40
2.5
  9
$TRACEWID
 40
1.0
  9
$TEXTSTYLE
  7
ＭＳ ゴシック
  9
$CLAYER
  8
DIM
  9
$CELTYPE
  6
ByLayer
  9
$CECOLOR
 62
     2
  9
$CELTSCALE
 40
1.0
  9
$DISPSILH
 70
     0
  9
$DIMSCALE
 40
1.0
  9
$DIMASZ
 40
2.0
  9
$DIMEXO
 40
5.0
  9
$DIMDLI
 40
0.0
  9
$DIMRND
 40
0.0
  9
$DIMDLE
 40
0.0
  9
$DIMEXE
 40
0.0
  9
$DIMTP
 40
0.0
  9
$DIMTM
 40
0.0
  9
$DIMTXT
 40
5.0
  9
$DIMCEN
 40
0.0
  9
$DIMTSZ
 40
0.0
  9
$DIMTOL
 70
     0
  9
$DIMLIM
 70
     0
  9
$DIMTIH
 70
     0
  9
$DIMTOH
 70
     0
  9
$DIMSE1
 70
     0
  9
$DIMSE2
 70
     0
  9
$DIMTAD
 70
     1
  9
$DIMZIN
 70
    11
  9
$DIMBLK
  1
DOT
  9
$DIMASO
 70
     1
  9
$DIMSHO
 70
     1
  9
$DIMPOST
  1
<>
  9
$DIMAPOST
  1
[]
  9
$DIMALT
 70
     0
  9
$DIMALTD
 70
     1
  9
$DIMALTF
 40
1.0
  9
$DIMLFAC
 40
1.0
  9
$DIMTOFL
 70
     0
  9
$DIMTVP
 40
0.0
  9
$DIMTIX
 70
     1
  9
$DIMSOXD
 70
     0
  9
$DIMSAH
 70
     0
  9
$DIMBLK1
  1

  9
$DIMBLK2
  1

  9
$DIMSTYLE
  2
tfrom線あり
  9
$DIMCLRD
 70
     0
  9
$DIMCLRE
 70
     0
  9
$DIMCLRT
 70
     0
  9
$DIMTFAC
 40
1.0
  9
$DIMGAP
 40
2.0
  9
$DIMJUST
 70
     0
  9
$DIMSD1
 70
     0
  9
$DIMSD2
 70
     0
  9
$DIMTOLJ
 70
     1
  9
$DIMTZIN
 70
    11
  9
$DIMALTZ
 70
    11
  9
$DIMALTTZ
 70
    11
  9
$DIMUPT
 70
     0
  9
$DIMDEC
 70
     0
  9
$DIMTDEC
 70
     1
  9
$DIMALTU
 70
     2
  9
$DIMALTTD
 70
     2
  9
$DIMTXSTY
  7
ＭＳ ゴシック
  9
$DIMAUNIT
 70
     0
  9
$DIMADEC
 70
     2
  9
$DIMALTRND
 40
0.0
  9
$DIMAZIN
 70
     0
  9
$DIMDSEP
 70
    46
  9
$DIMATFIT
 70
     0
  9
$DIMFRAC
 70
     2
  9
$DIMLDRBLK
  1
DOT
  9
$DIMLUNIT
 70
     2
  9
$DIMLWD
 70
    -2
  9
$DIMLWE
 70
    -2
  9
$DIMTMOVE
 70
     0
  9
$DIMFXL
 40
1.0
  9
$DIMFXLON
 70
     0
  9
$DIMJOGANG
 40
0.7853981633974483
  9
$DIMTFILL
 70
     0
  9
$DIMTFILLCLR
 70
     0
  9
$DIMARCSYM
 70
     0
  9
$DIMLTYPE
  6

  9
$DIMLTEX1
  6

  9
$DIMLTEX2
  6

  9
$LUNITS
 70
     2
  9
$LUPREC
 70
     0
  9
$SKETCHINC
 40
0.1
  9
$FILLETRAD
 40
0.0
  9
$AUNITS
 70
     0
  9
$AUPREC
 70
     0
  9
$MENU
  1
acad
  9
$ELEVATION
 40
0.0
  9
$PELEVATION
 40
0.0
  9
$THICKNESS
 40
0.0
  9
$LIMCHECK
 70
     0
  9
$CHAMFERA
 40
0.0
  9
$CHAMFERB
 40
0.0
  9
$CHAMFERC
 40
0.0
  9
$CHAMFERD
 40
0.0
  9
$SKPOLY
 70
     0
  9
$TDCREATE
 40
2447893.375
  9
$TDUCREATE
 40
0.0
  9
$TDUPDATE
 40
2460635.50256809
  9
$TDUUPDATE
 40
2460635.12756809
  9
$TDINDWG
 40
0.2580645486
  9
$TDUSRTIMER
 40
0.0024707407
  9
$USRTIMER
 70
     1
  9
$ANGBASE
 50
0.0
  9
$ANGDIR
 70
     0
  9
$PDMODE
 70
     1
  9
$PDSIZE
 40
-2.0
  9
$PLINEWID
 40
0.0
  9
$SPLFRAME
 70
     0
  9
$SPLINETYPE
 70
     6
  9
$SPLINESEGS
 70
     8
  9
$HANDSEED
  5
7788
  9
$SURFTAB1
 70
     6
  9
$SURFTAB2
 70
     6
  9
$SURFTYPE
 70
     6
  9
$SURFU
 70
     6
  9
$SURFV
 70
     6
  9
$UCSBASE
  2

  9
$UCSNAME
  2

  9
$UCSORG
 10
0.0
 20
0.0
 30
0.0
  9
$UCSXDIR
 10
1.0
 20
0.0
 30
0.0
  9
$UCSYDIR
 10
0.0
 20
1.0
 30
0.0
  9
$UCSORTHOREF
  2

  9
$UCSORTHOVIEW
 70
     0
  9
$UCSORGTOP
 10
0.0
 20
0.0
 30
0.0
  9
$UCSORGBOTTOM
 10
0.0
 20
0.0
 30
0.0
  9
$UCSORGLEFT
 10
0.0
 20
0.0
 30
0.0
  9
$UCSORGRIGHT
 10
0.0
 20
0.0
 30
0.0
  9
$UCSORGFRONT
 10
0.0
 20
0.0
 30
0.0
  9
$UCSORGBACK
 10
0.0
 20
0.0
 30
0.0
  9
$PUCSBASE
  2

  9
$PUCSNAME
  2

  9
$PUCSORG
 10
0.0
 20
0.0
 30
0.0
  9
$PUCSXDIR
 10
1.0
 20
0.0
 30
0.0
  9
$PUCSYDIR
 10
0.0
 20
1.0
 30
0.0
  9
$PUCSORTHOREF
  2

  9
$PUCSORTHOVIEW
 70
     0
  9
$PUCSORGTOP
 10
0.0
 20
0.0
 30
0.0
  9
$PUCSORGBOTTOM
 10
0.0
 20
0.0
 30
0.0
  9
$PUCSORGLEFT
 10
0.0
 20
0.0
 30
0.0
  9
$PUCSORGRIGHT
 10
0.0
 20
0.0
 30
0.0
  9
$PUCSORGFRONT
 10
0.0
 20
0.0
 30
0.0
  9
$PUCSORGBACK
 10
0.0
 20
0.0
 30
0.0
  9
$USERI1
 70
     0
  9
$USERI2
 70
     0
  9
$USERI3
 70
     0
  9
$USERI4
 70
     0
  9
$USERI5
 70
     0
  9
$USERR1
 40
0.0
  9
$USERR2
 40
0.0
  9
$USERR3
 40
0.0
  9
$USERR4
 40
0.0
  9
$USERR5
 40
0.0
  9
$WORLDVIEW
 70
     1
  9
$SHADEDGE
 70
     3
  9
$SHADEDIF
 70
    70
  9
$TILEMODE
 70
     1
  9
$MAXACTVP
 70
    64
  9
$PINSBASE
 10
0.0
 20
0.0
 30
0.0
  9
$PLIMCHECK
 70
     0
  9
$PEXTMIN
 10
0.0
 20
0.0
 30
0.0
  9
$PEXTMAX
 10
0.0
 20
0.0
 30
0.0
  9
$PLIMMIN
 10
-7.5
 20
-20.0
  9
$PLIMMAX
 10
412.5
 20
277.0
  9
$UNITMODE
 70
     0
  9
$VISRETAIN
 70
     0
  9
$PLINEGEN
 70
     1
  9
$PSLTSCALE
 70
     0
  9
$TREEDEPTH
 70
  3020
  9
$CMLSTYLE
  2
Standard
  9
$CMLJUST
 70
     0
  9
$CMLSCALE
 40
1.0
  9
$PROXYGRAPHICS
 70
     0
  9
$MEASUREMENT
 70
     1
  9
$CELWEIGHT
370
    -1
  9
$ENDCAPS
280
     0
  9
$JOINSTYLE
280
     0
  9
$LWDISPLAY
290
     1
  9
$INSUNITS
 70
     4
  9
$HYPERLINKBASE
  1

  9
$STYLESHEET
  1

  9
$XEDIT
290
     1
  9
$CEPSNTYPE
380
     0
  9
$PSTYLEMODE
290
     1
  9
$FINGERPRINTGUID
  2

  9
$VERSIONGUID
  2

  9
$EXTNAMES
290
     1
  9
$PSVPSCALE
 40
0.0
  9
$OLESTARTUP
290
     0
  9
$SORTENTS
280
   127
  9
$INDEXCTL
280
     0
  9
$HIDETEXT
280
     1
  9
$XCLIPFRAME
290
     0
  9
$HALOGAP
280
     0
  9
$OBSCOLOR
 70
   257
  9
$OBSLTYPE
280
     0
  9
$INTERSECTIONDISPLAY
280
     0
  9
$INTERSECTIONCOLOR
 70
   257
  9
$DIMASSOC
280
     2
  9
$PROJECTNAME
  1

  9
$CAMERADISPLAY
290
     0
  9
$LENSLENGTH
 40
50.0
  9
$CAMERAHEIGHT
 40
0.0
  9
$STEPSPERSEC
 40
2.0
  9
$STEPSIZE
 40
6.0
  9
$3DDWFPREC
 40
2.0
  9
$PSOLWIDTH
 40
0.25
  9
$PSOLHEIGHT
 40
4.0
  9
$LOFTANG1
 40
1.570796326794897
  9
$LOFTANG2
 40
1.570796326794897
  9
$LOFTMAG1
 40
0.0
  9
$LOFTMAG2
 40
0.0
  9
$LOFTPARAM
 70
     7
  9
$LOFTNORMALS
280
     1
  9
$LATITUDE
 40
37.795
  9
$LONGITUDE
 40
-122.394
  9
$NORTHDIRECTION
 40
0.0
  9
$TIMEZONE
 70
 -8000
  9
$LIGHTGLYPHDISPLAY
280
     1
  9
$TILEMODELIGHTSYNCH
280
     1
  9
$SOLIDHIST
280
     1
  9
$SHOWHIST
280
     1
  9
$DWFFRAME
280
     2
  9
$DGNFRAME
280
     2
  9
$REALWORLDSCALE
290
     1
  9
$INTERFERECOLOR
 62
   256
  9
$CSHADOW
280
     0
  9
$SHADOWPLANELOCATION
 40
0.0
  0
ENDSEC
  0
SECTION
  2
CLASSES
  0
CLASS
  1
LWPOLYLINE
  2
AcDbPolyline
  3
ObjectDBX Classes
 90
        0
 91
        1
280
     0
281
     1
  0
CLASS
  1
IMAGE
  2
AcDbRasterImage
  3
ISM
 90
      127
 91
        4
280
     0
281
     1
  0
CLASS
  1
OLE2FRAME
  2
AcDbOle2Frame
  3
ObjectDBX Classes
 90
        0
 91
        1
280
     0
281
     1
  0
CLASS
  1
HATCH
  2
AcDbHatch
  3
ObjectDBX Classes
 90
        0
 91
        1
280
     0
281
     1
  0
CLASS
  1
DICTIONARYVAR
  2
AcDbDictionaryVar
  3
ObjectDBX Classes
 90
        0
 91
        3
280
     0
281
     0
  0
CLASS
  1
RASTERVARIABLES
  2
AcDbRasterVariables
  3
ISM
 90
        0
 91
        3
280
     0
281
     0
  0
CLASS
  1
IMAGEDEF
  2
AcDbRasterImageDef
  3
ISM
 90
        0
 91
        3
280
     0
281
     0
  0
CLASS
  1
IMAGEDEF_REACTOR
  2
AcDbRasterImageDefReactor
  3
ISM
 90
        1
 91
        3
280
     0
281
     0
  0
CLASS
  1
IDBUFFER
  2
AcDbIdBuffer
  3
ObjectDBX Classes
 90
        0
 91
        3
280
     0
281
     0
  0
CLASS
  1
SPATIAL_FILTER
  2
AcDbSpatialFilter
  3
ObjectDBX Classes
 90
        0
 91
        3
280
     0
281
     0
  0
CLASS
  1
XRECORD
  2
AcDbXrecord
  3
ObjectDBX Classes
 90
        0
 91
        1
280
     0
281
     0
  0
CLASS
  1
SORTENTSTABLE
  2
AcDbSortentsTable
  3
ObjectDBX Classes
 90
        0
 91
        3
280
     0
281
     0
  0
CLASS
  1
LAYER_INDEX
  2
AcDbLayerIndex
  3
ObjectDBX Classes
 90
        0
 91
        3
280
     0
281
     0
  0
CLASS
  1
SPATIAL_INDEX
  2
AcDbSpatialIndex
  3
AutoCAD 2000
 90
        0
 91
        3
280
     0
281
     0
  0
CLASS
  1
OBJECT_PTR
  2
CAseDLPNTableRecord
  3
ASE-LPNTableRecord
 90
        1
 91
        3
280
     0
281
     0
  0
CLASS
  1
LAYOUT
  2
AcDbLayout
  3
ObjectDBX Classes
 90
        0
 91
        1
280
     0
281
     0
  0
CLASS
  1
PLOTSETTINGS
  2
AcDbPlotSettings
  3
ObjectDBX Classes
 90
        0
 91
        3
280
     0
281
     0
  0
CLASS
  1
ACDBDICTIONARYWDFLT
  2
AcDbDictionaryWithDefault
  3
ObjectDBX Classes
 90
        0
 91
        3
280
     0
281
     0
  0
CLASS
  1
ACDBPLACEHOLDER
  2
AcDbPlaceHolder
  3
ObjectDBX Classes
 90
        0
 91
        1
280
     0
281
     0
  0
CLASS
  1
SCALE
  2
AcDbScale
  3
ObjectDBX Classes
 90
     1153
 91
        3
280
     0
281
     0
  0
CLASS
  1
MATERIAL
  2
AcDbMaterial
  3
ObjectDBX Classes
 90
     1153
 91
        3
280
     0
281
     0
  0
CLASS
  1
VISUALSTYLE
  2
AcDbVisualStyle
  3
ObjectDBX Classes
 90
     4095
 91
        3
280
     0
281
     0
  0
CLASS
  1
TABLESTYLE
  2
AcDbTableStyle
  3
ObjectDBX Classes
 90
     4095
 91
        3
280
     0
281
     0
  0
CLASS
  1
DIMASSOC
  2
AcDbDimAssoc
  3
"AcDbDimAssoc|Product Desc:     AcDim ARX App For Dimension|Company:          Autodesk, Inc.|WEB Address:      www.autodesk.com"
 90
        0
 91
        3
280
     0
281
     0
  0
CLASS
  1
CELLSTYLEMAP
  2
AcDbCellStyleMap
  3
ObjectDBX Classes
 90
     1152
 91
        3
280
     0
281
     0
  0
CLASS
  1
SUN
  2
AcDbSun
  3
SCENEOE
 90
     1153
 91
        3
280
     0
281
     0
  0
CLASS
  1
MLEADERSTYLE
  2
AcDbMLeaderStyle
  3
ACDB_MLEADERSTYLE_CLASS
 90
     4095
 91
        3
280
     0
281
     0
  0
ENDSEC
  0
SECTION
  2
TABLES
  0
TABLE
  2
VPORT
  5
7
330
0
100
AcDbSymbolTable
 70
     1
  0
VPORT
  5
15
330
7
100
AcDbSymbolTableRecord
100
AcDbViewportTableRecord
  2
*ACTIVE
 70
     0
 10
0.0
 20
0.0
 11
1.0
 21
1.0
 12
301.0201356708973
 22
223.401285469834
 13
0.0
 23
0.0
 14
1.0
 24
1.0
 15
0.0
 25
0.0
 16
0.0
 26
0.0
 36
1.0
 17
-91.02013567089722
 27
73.59871453016603
 37
-46.86809886248109
 40
605.88
 41
2.136546184738956
 42
50.0
 43
0.0
 44
0.0
 50
0.0
 51
0.0
 71
    16
 72
  2000
 73
     1
 74
     1
 75
     0
 76
     0
 77
     0
 78
     0
281
     0
 65
     1
110
0.0
120
0.0
130
0.0
111
1.0
121
0.0
131
0.0
112
0.0
122
1.0
132
0.0
 79
     0
146
0.0
348
26C
 60
     3
 61
     5
292
     1
282
     1
141
0.0
142
0.0
 63
   256
361
904
  0
ENDTAB
  0
TABLE
  2
LTYPE
  5
4
330
0
100
AcDbSymbolTable
 70
     6
  0
LTYPE
  5
11
330
4
100
AcDbSymbolTableRecord
100
AcDbLinetypeTableRecord
  2
ByBlock
 70
     0
  3

 72
    65
 73
     0
 40
0.0
  0
LTYPE
  5
12
330
4
100
AcDbSymbolTableRecord
100
AcDbLinetypeTableRecord
  2
ByLayer
 70
     0
  3

 72
    65
 73
     0
 40
0.0
  0
LTYPE
  5
13
330
4
100
AcDbSymbolTableRecord
100
AcDbLinetypeTableRecord
  2
Continuous
 70
     0
  3
Solid line
 72
    65
 73
     0
 40
0.0
  0
LTYPE
  5
16E4
330
4
100
AcDbSymbolTableRecord
100
AcDbLinetypeTableRecord
  2
CENTER
 70
     0
  3
 Center _____  _  _____  _  _____  _  _____  _ 
 72
    65
 73
     4
 40
50.8
 49
31.75
 74
     0
 49
-6.35
 74
     0
 49
6.35
 74
     0
 49
-6.35
 74
     0
  0
LTYPE
  5
1AB3
330
4
100
AcDbSymbolTableRecord
100
AcDbLinetypeTableRecord
  2
BORDER
 70
     0
  3
Border __  __  . __  __  . __  __  . __  __  . 
 72
    65
 73
     6
 40
44.45
 49
12.7
 74
     0
 49
-6.35
 74
     0
 49
12.7
 74
     0
 49
-6.35
 74
     0
 49
0.0
 74
     0
 49
-6.35
 74
     0
  0
LTYPE
  5
1EC6
330
4
100
AcDbSymbolTableRecord
100
AcDbLinetypeTableRecord
  2
HIDDEN2
 70
     0
  3
Hidden (.5x) _ _ _ _ _ _ _ _ _ _ _ _ _ _ _ _ _ 
 72
    65
 73
     2
 40
4.7625
 49
3.175
 74
     4
 75
     0
340
0
 46
0.0
 50
0.0
 44
0.0
 45
0.0
 49
-1.5875
 74
     4
 75
     0
340
0
 46
0.0
 50
0.0
 44
0.0
 45
0.0
  0
LTYPE
  5
1EC7
330
4
100
AcDbSymbolTableRecord
100
AcDbLinetypeTableRecord
  2
CENTER2
 70
     0
  3
Center (.5x) ___ _ ___ _ ___ _ ___ _ ___ _ ___
 72
    65
 73
     4
 40
28.575
 49
19.05
 74
     4
 75
     0
340
0
 46
0.0
 50
0.0
 44
0.0
 45
0.0
 49
-3.175
 74
     4
 75
     0
340
0
 46
0.0
 50
0.0
 44
0.0
 45
0.0
 49
3.175
 74
     4
 75
     0
340
0
 46
0.0
 50
0.0
 44
0.0
 45
0.0
 49
-3.175
 74
     4
 75
     0
340
0
 46
0.0
 50
0.0
 44
0.0
 45
0.0
  0
LTYPE
  5
71E9
330
4
100
AcDbSymbolTableRecord
100
AcDbLinetypeTableRecord
  2
HIDDEN
 70
     0
  3
Hidden _ _ _ _ _ _ _ _ _ _ _ _ _ _ _ _ _ _ _ _ 
 72
    65
 73
     2
 40
9.524999999999999
 49
6.35
 74
     0
 49
-3.175
 74
     0
  0
ENDTAB
  0
TABLE
  2
LAYER
  5
2
102
{ACAD_XDICTIONARY
360
2E1
102
}
330
0
100
AcDbSymbolTable
 70
     8
  0
LAYER
  5
14
330
2
100
AcDbSymbolTableRecord
100
AcDbLayerTableRecord
  2
0
 70
     0
 62
     7
  6
Continuous
370
    -3
390
1D
347
266
  0
LAYER
  5
4B
330
2
100
AcDbSymbolTableRecord
100
AcDbLayerTableRecord
  2
TEMPLATE
 70
     0
 62
     7
  6
Continuous
370
    20
390
1D
347
266
  0
LAYER
  5
4C
330
2
100
AcDbSymbolTableRecord
100
AcDbLayerTableRecord
  2
DIM
 70
     0
 62
     7
  6
Continuous
370
    13
390
1D
347
266
  0
LAYER
  5
4D
330
2
100
AcDbSymbolTableRecord
100
AcDbLayerTableRecord
  2
MODEL
 70
     0
 62
     7
  6
Continuous
370
    20
390
1D
347
266
  0
LAYER
  5
667
330
2
100
AcDbSymbolTableRecord
100
AcDbLayerTableRecord
  2
LOGO
 70
     0
 62
     7
  6
Continuous
370
    -3
390
1D
347
266
  0
LAYER
  5
DDE
330
2
100
AcDbSymbolTableRecord
100
AcDbLayerTableRecord
  2
Defpoints
 70
     0
 62
     7
  6
Continuous
290
     0
370
    -3
390
1D
347
266
  0
LAYER
  5
E72
330
2
100
AcDbSymbolTableRecord
100
AcDbLayerTableRecord
  2
Standard
 70
     0
 62
     7
  6
Continuous
370
    -3
390
1D
347
266
  0
LAYER
  5
19F1
330
2
100
AcDbSymbolTableRecord
100
AcDbLayerTableRecord
  2
PRINT
 70
     0
 62
     4
  6
Continuous
290
     0
370
    20
390
1D
347
266
1001
AcAecLayerStandard
1000

1000

  0
ENDTAB
  0
TABLE
  2
STYLE
  5
3
330
0
100
AcDbSymbolTable
 70
     2
  0
STYLE
  5
17
330
3
100
AcDbSymbolTableRecord
100
AcDbTextStyleTableRecord
  2
Standard
 70
     0
 40
0.0
 41
1.0
 50
0.0
 71
     0
 42
2.5
  3
txt
  4
BIGFONT.SHX
  0
STYLE
  5
39
330
3
100
AcDbSymbolTableRecord
100
AcDbTextStyleTableRecord
  2
ＭＳ ゴシック
 70
     0
 40
0.0
 41
1.0
 50
0.0
 71
     0
 42
2.5
  3
msgothic.ttc
  4
ＭＳ ゴシック
1001
ACAD
1000
ＭＳ ゴシック
1071
        0
  0
ENDTAB
  0
TABLE
  2
VIEW
  5
5
330
0
100
AcDbSymbolTable
 70
     0
  0
ENDTAB
  0
TABLE
  2
UCS
  5
6
330
0
100
AcDbSymbolTable
 70
     0
  0
ENDTAB
  0
TABLE
  2
APPID
  5
8
330
0
100
AcDbSymbolTable
 70
     4
  0
APPID
  5
16
330
8
100
AcDbSymbolTableRecord
100
AcDbRegAppTableRecord
  2
ACAD
 70
     0
  0
APPID
  5
7AC
330
8
100
AcDbSymbolTableRecord
100
AcDbRegAppTableRecord
  2
AcAecLayerStandard
 70
     0
  0
APPID
  5
1AAF
330
8
100
AcDbSymbolTableRecord
100
AcDbRegAppTableRecord
  2
ACAD_MLEADERVER
 70
     0
  0
APPID
  5
7784
330
8
100
AcDbSymbolTableRecord
100
AcDbRegAppTableRecord
  2
PLOTTRANSPARENCY
 70
     0
  0
ENDTAB
  0
TABLE
  2
DIMSTYLE
  5
9
330
0
100
AcDbSymbolTable
 70
     3
100
AcDbDimStyleTable
  0
DIMSTYLE
105
18
330
9
100
AcDbSymbolTableRecord
100
AcDbDimStyleTableRecord
  2
Standard
 70
     0
178
     0
340
17
  0
DIMSTYLE
105
57
102
{ACAD_REACTORS
330
6D51
330
6D60
330
70F2
102
}
330
9
100
AcDbSymbolTableRecord
100
AcDbDimStyleTableRecord
  2
tfrom線あり
 70
     0
  3
<>
  4
[]
 41
2.0
 42
5.0
 43
0.0
 44
0.0
 73
     0
 74
     0
 77
     1
 78
    11
140
5.0
141
0.0
143
1.0
147
2.0
171
     1
174
     1
178
     0
179
     2
271
     0
272
     1
276
     2
284
    11
285
    11
286
    11
289
     0
340
39
341
4E
342
4E
  0
DIMSTYLE
105
68D8
330
9
100
AcDbSymbolTableRecord
100
AcDbDimStyleTableRecord
  2
ISO-25
 70
     0
 41
2.5
 42
0.625
 43
3.75
 44
1.25
 73
     0
 74
     0
 77
     1
 78
     8
140
2.5
141
2.5
143
0.03937007874016
147
0.625
171
     3
172
     1
178
     0
271
     2
272
     2
274
     3
278
    44
283
     0
284
     8
340
17
  0
ENDTAB
  0
TABLE
  2
BLOCK_RECORD
  5
1
330
0
100
AcDbSymbolTable
 70
    23
  0
BLOCK_RECORD
  5
A
330
1
100
AcDbSymbolTableRecord
100
AcDbBlockTableRecord
  2
*MODEL_SPACE
340
20
 70
     0
280
     1
281
     0
  0
BLOCK_RECORD
  5
B
330
1
100
AcDbSymbolTableRecord
100
AcDbBlockTableRecord
  2
*PAPER_SPACE
340
21
 70
     0
280
     1
281
     0
  0
BLOCK_RECORD
  5
4E
330
1
100
AcDbSymbolTableRecord
100
AcDbBlockTableRecord
  2
_DOT
340
0
102
{BLKREFS
331
175B
331
175C
331
176A
331
176B
331
1786
331
1787
331
17A6
331
17A7
331
17C3
331
17C4
331
5294
331
5295
331
52A2
331
52A3
331
52E3
331
52E4
331
5364
331
5365
331
6D40
331
6D41
331
6D5A
331
6D5B
331
6D67
331
6D68
331
6D75
331
6D76
331
70A2
331
70A3
331
70D9
331
70DA
331
70E6
331
70E7
331
70FB
331
70FC
102
}
 70
     0
280
     1
281
     0
  0
BLOCK_RECORD
  5
68A
330
1
100
AcDbSymbolTableRecord
100
AcDbBlockTableRecord
  2
名称未設定-1
340
0
102
{BLKREFS
331
6B5
102
}
 70
     1
280
     1
281
     0
  0
BLOCK_RECORD
  5
68D
330
1
100
AcDbSymbolTableRecord
100
AcDbBlockTableRecord
  2
block 2
340
0
102
{BLKREFS
331
68C
102
}
 70
     0
280
     1
281
     0
  0
BLOCK_RECORD
  5
690
330
1
100
AcDbSymbolTableRecord
100
AcDbBlockTableRecord
  2
block 3
340
0
102
{BLKREFS
331
68F
102
}
 70
     0
280
     1
281
     0
  0
BLOCK_RECORD
  5
693
330
1
100
AcDbSymbolTableRecord
100
AcDbBlockTableRecord
  2
block 4
340
0
102
{BLKREFS
331
692
102
}
 70
     0
280
     1
281
     0
  0
BLOCK_RECORD
  5
6A2
330
1
100
AcDbSymbolTableRecord
100
AcDbBlockTableRecord
  2
block 5
340
0
102
{BLKREFS
331
6A1
102
}
 70
     0
280
     1
281
     0
  0
BLOCK_RECORD
  5
1755
330
1
100
AcDbSymbolTableRecord
100
AcDbBlockTableRecord
  2
*D6
340
0
 70
     0
280
     1
281
     0
  0
BLOCK_RECORD
  5
1764
330
1
100
AcDbSymbolTableRecord
100
AcDbBlockTableRecord
  2
*D7
340
0
 70
     0
280
     1
281
     0
  0
BLOCK_RECORD
  5
1780
330
1
100
AcDbSymbolTableRecord
100
AcDbBlockTableRecord
  2
*D8
340
0
 70
     0
280
     1
281
     0
  0
BLOCK_RECORD
  5
17A0
330
1
100
AcDbSymbolTableRecord
100
AcDbBlockTableRecord
  2
*D9
340
0
 70
     0
280
     1
281
     0
  0
BLOCK_RECORD
  5
17BC
330
1
100
AcDbSymbolTableRecord
100
AcDbBlockTableRecord
  2
*D10
340
0
 70
     0
280
     1
281
     0
  0
BLOCK_RECORD
  5
528E
330
1
100
AcDbSymbolTableRecord
100
AcDbBlockTableRecord
  2
*D11
340
0
 70
     0
280
     1
281
     0
  0
BLOCK_RECORD
  5
529C
330
1
100
AcDbSymbolTableRecord
100
AcDbBlockTableRecord
  2
*D12
340
0
 70
     0
280
     1
281
     0
  0
BLOCK_RECORD
  5
52DD
330
1
100
AcDbSymbolTableRecord
100
AcDbBlockTableRecord
  2
*D13
340
0
 70
     0
280
     1
281
     0
  0
BLOCK_RECORD
  5
535E
330
1
100
AcDbSymbolTableRecord
100
AcDbBlockTableRecord
  2
*D14
340
0
 70
     0
280
     1
281
     0
  0
BLOCK_RECORD
  5
6D39
330
1
100
AcDbSymbolTableRecord
100
AcDbBlockTableRecord
  2
*D15
340
0
 70
     0
280
     1
281
     0
  0
BLOCK_RECORD
  5
6D54
330
1
100
AcDbSymbolTableRecord
100
AcDbBlockTableRecord
  2
*D16
340
0
 70
     0
280
     1
281
     0
  0
BLOCK_RECORD
  5
6D61
330
1
100
AcDbSymbolTableRecord
100
AcDbBlockTableRecord
  2
*D17
340
0
 70
     0
280
     1
281
     0
  0
BLOCK_RECORD
  5
6D6F
330
1
100
AcDbSymbolTableRecord
100
AcDbBlockTableRecord
  2
*D18
340
0
 70
     0
280
     1
281
     0
  0
BLOCK_RECORD
  5
709C
330
1
100
AcDbSymbolTableRecord
100
AcDbBlockTableRecord
  2
*D19
340
0
 70
     0
280
     1
281
     0
  0
BLOCK_RECORD
  5
70D3
330
1
100
AcDbSymbolTableRecord
100
AcDbBlockTableRecord
  2
*D20
340
0
 70
     0
280
     1
281
     0
  0
BLOCK_RECORD
  5
70E0
330
1
100
AcDbSymbolTableRecord
100
AcDbBlockTableRecord
  2
*D21
340
0
 70
     0
280
     1
281
     0
  0
BLOCK_RECORD
  5
70F5
330
1
100
AcDbSymbolTableRecord
100
AcDbBlockTableRecord
  2
*D22
340
0
 70
     0
280
     1
281
     0
  0
ENDTAB
  0
ENDSEC
  0
SECTION
  2
BLOCKS
  0
BLOCK
  5
D
330
A
100
AcDbEntity
  8
0
390
1D
100
AcDbBlockBegin
  2
*MODEL_SPACE
 70
     0
 10
0.0
 20
0.0
 30
0.0
  3
*MODEL_SPACE
  1
*MODEL_SPACE
  0
ENDBLK
  5
E
330
A
100
AcDbEntity
  8
0
390
1D
100
AcDbBlockEnd
  0
BLOCK
  5
F
330
B
100
AcDbEntity
 67
     1
  8
0
390
1D
100
AcDbBlockBegin
  2
*PAPER_SPACE
 70
     0
 10
0.0
 20
0.0
 30
0.0
  3
*PAPER_SPACE
  1
*PAPER_SPACE
  0
ENDBLK
  5
10
330
B
100
AcDbEntity
 67
     1
  8
0
390
1D
100
AcDbBlockEnd
  0
BLOCK
  5
7766
330
4E
100
AcDbEntity
  8
0
390
1D
100
AcDbBlockBegin
  2
_DOT
 70
     0
 10
0.0
 20
0.0
 30
0.0
  3
_DOT
  1
_DOT
  0
POLYLINE
  5
7768
330
4E
100
AcDbEntity
  8
0
  6
ByBlock
 62
     0
370
    -2
390
1D
100
AcDb2dPolyline
 66
     1
 10
0.0
 20
0.0
 30
0.0
 70
     1
 40
0.5
 41
0.5
  0
VERTEX
  5
7769
330
7768
100
AcDbEntity
  8
0
  6
ByBlock
 62
     0
370
    -2
390
1D
100
AcDbVertex
100
AcDb2dVertex
 10
-0.25
 20
0.0
 30
0.0
 42
1.0
  0
VERTEX
  5
776A
330
7768
100
AcDbEntity
  8
0
  6
ByBlock
 62
     0
370
    -2
390
1D
100
AcDbVertex
100
AcDb2dVertex
 10
0.25
 20
0.0
 30
0.0
 42
1.0
  0
SEQEND
  5
776B
330
7768
100
AcDbEntity
  8
0
390
1D
  0
LINE
  5
776C
330
4E
100
AcDbEntity
  8
0
  6
ByBlock
 62
     0
370
    -2
390
1D
100
AcDbLine
 10
-0.5
 20
0.0
 30
0.0
 11
-1.0
 21
0.0
 31
0.0
  0
ENDBLK
  5
776D
330
4E
100
AcDbEntity
  8
0
390
1D
100
AcDbBlockEnd
  0
BLOCK
  5
68B
330
68A
100
AcDbEntity
  8
0
100
AcDbBlockBegin
  2
名称未設定-1
 70
     0
 10
0.0
 20
0.0
 30
0.0
  3
名称未設定-1
  1
名称未設定-1
  0
INSERT
  5
68F
330
68A
100
AcDbEntity
  8
LOGO
100
AcDbBlockReference
  2
block 3
 10
0.0
 20
0.0
 30
0.0
  0
ENDBLK
  5
6B1
330
68A
100
AcDbEntity
  8
0
100
AcDbBlockEnd
  0
BLOCK
  5
68E
330
68D
100
AcDbEntity
  8
0
100
AcDbBlockBegin
  2
block 2
 70
     0
 10
0.0
 20
0.0
 30
0.0
  3
block 2
  1
block 2
  0
ENDBLK
  5
6B0
330
68D
100
AcDbEntity
  8
0
100
AcDbBlockEnd
  0
BLOCK
  5
691
330
690
100
AcDbEntity
  8
0
100
AcDbBlockBegin
  2
block 3
 70
     0
 10
0.0
 20
0.0
 30
0.0
  3
block 3
  1
block 3
  0
INSERT
  5
692
330
690
100
AcDbEntity
  8
LOGO
100
AcDbBlockReference
  2
block 4
 10
0.0
 20
0.0
 30
0.0
  0
INSERT
  5
6A1
330
690
100
AcDbEntity
  8
LOGO
100
AcDbBlockReference
  2
block 5
 10
0.0
 20
0.0
 30
0.0
  0
ENDBLK
  5
6AF
330
690
100
AcDbEntity
  8
0
100
AcDbBlockEnd
  0
BLOCK
  5
694
330
693
100
AcDbEntity
  8
0
100
AcDbBlockBegin
  2
block 4
 70
     0
 10
0.0
 20
0.0
 30
0.0
  3
block 4
  1
block 4
  0
POLYLINE
  5
695
330
693
100
AcDbEntity
  8
LOGO
370
     0
100
AcDb2dPolyline
 66
     1
 10
0.0
 20
0.0
 30
0.0
  0
VERTEX
  5
696
330
695
100
AcDbEntity
  8
LOGO
370
     0
100
AcDbVertex
100
AcDb2dVertex
 10
83.79545727667795
 20
167.6444858234922
 30
0.0
  0
VERTEX
  5
697
330
695
100
AcDbEntity
  8
LOGO
370
     0
100
AcDbVertex
100
AcDb2dVertex
 10
83.79545727667795
 20
159.7968976406313
 30
0.0
  0
VERTEX
  5
698
330
695
100
AcDbEntity
  8
LOGO
370
     0
100
AcDbVertex
100
AcDb2dVertex
 10
71.3631329975216
 20
159.7968976406313
 30
0.0
  0
VERTEX
  5
699
330
695
100
AcDbEntity
  8
LOGO
370
     0
100
AcDbVertex
100
AcDb2dVertex
 10
71.3631329975216
 20
127.8027915271048
 30
0.0
  0
VERTEX
  5
69A
330
695
100
AcDbEntity
  8
LOGO
370
     0
100
AcDbVertex
100
AcDb2dVertex
 10
60.43011526263018
 20
127.8027915271048
 30
0.0
  0
VERTEX
  5
69B
330
695
100
AcDbEntity
  8
LOGO
370
     0
100
AcDbVertex
100
AcDb2dVertex
 10
60.43011526263018
 20
159.7968976406313
 30
0.0
  0
VERTEX
  5
69C
330
695
100
AcDbEntity
  8
LOGO
370
     0
100
AcDbVertex
100
AcDb2dVertex
 10
48.21793273020759
 20
159.7968976406313
 30
0.0
  0
VERTEX
  5
69D
330
695
100
AcDbEntity
  8
LOGO
370
     0
100
AcDbVertex
100
AcDb2dVertex
 10
48.21793273020759
 20
167.6444858234922
 30
0.0
  0
VERTEX
  5
69E
330
695
100
AcDbEntity
  8
LOGO
370
     0
100
AcDbVertex
100
AcDb2dVertex
 10
83.79545727667795
 20
167.6444858234922
 30
0.0
  0
SEQEND
  5
69F
330
695
100
AcDbEntity
  8
LOGO
370
     0
  0
HATCH
  5
6A0
330
693
100
AcDbEntity
  8
LOGO
 62
   250
420
  2234388
100
AcDbHatch
 10
0.0
 20
0.0
 30
0.0
210
0.0
220
0.0
230
1.0
  2
SOLID
 70
     1
 71
     0
 91
        1
 92
        1
 93
        8
 72
     1
 10
83.79545727667795
 20
167.6444858234922
 11
83.79545727667795
 21
159.7968976406313
 72
     1
 10
83.79545727667795
 20
159.7968976406313
 11
71.3631329975216
 21
159.7968976406313
 72
     1
 10
71.3631329975216
 20
159.7968976406313
 11
71.3631329975216
 21
127.8027915271048
 72
     1
 10
71.3631329975216
 20
127.8027915271048
 11
60.43011526263018
 21
127.8027915271048
 72
     1
 10
60.43011526263018
 20
127.8027915271048
 11
60.43011526263018
 21
159.7968976406313
 72
     1
 10
60.43011526263018
 20
159.7968976406313
 11
48.21793273020759
 21
159.7968976406313
 72
     1
 10
48.21793273020759
 20
159.7968976406313
 11
48.21793273020759
 21
167.6444858234922
 72
     1
 10
48.21793273020759
 20
167.6444858234922
 11
83.79545727667795
 21
167.6444858234922
 97
        0
 75
     2
 76
     1
 98
        0
  0
ENDBLK
  5
6AE
330
693
100
AcDbEntity
  8
0
100
AcDbBlockEnd
  0
BLOCK
  5
6A3
330
6A2
100
AcDbEntity
  8
0
100
AcDbBlockBegin
  2
block 5
 70
     0
 10
0.0
 20
0.0
 30
0.0
  3
block 5
  1
block 5
  0
SPLINE
  5
6A4
330
6A2
100
AcDbEntity
  8
LOGO
370
     0
100
AcDbSpline
210
0.0
220
0.0
230
1.0
 70
    11
 71
     3
 72
    56
 73
    52
 74
     0
 42
0.000000001
 43
0.0000000001
 40
0.0
 40
0.0
 40
0.0
 40
0.0
 40
1.0
 40
1.0
 40
1.0
 40
2.0
 40
2.0
 40
2.0
 40
3.0
 40
3.0
 40
3.0
 40
4.0
 40
4.0
 40
4.0
 40
5.0
 40
5.0
 40
5.0
 40
6.0
 40
6.0
 40
6.0
 40
7.0
 40
7.0
 40
7.0
 40
8.0
 40
8.0
 40
8.0
 40
9.0
 40
9.0
 40
9.0
 40
10.0
 40
10.0
 40
10.0
 40
11.0
 40
11.0
 40
11.0
 40
12.0
 40
12.0
 40
12.0
 40
13.0
 40
13.0
 40
13.0
 40
14.0
 40
14.0
 40
14.0
 40
15.0
 40
15.0
 40
15.0
 40
16.0
 40
16.0
 40
16.0
 40
17.0
 40
17.0
 40
17.0
 40
17.0
 10
100.4504378777679
 20
166.69157178364
 30
0.0
 10
101.9848844191641
 20
167.1313385124438
 30
0.0
 10
103.9637485713373
 20
166.7649523658846
 30
0.0
 10
103.9637485713373
 20
166.7649523658846
 30
0.0
 10
103.9637485713373
 20
166.7649523658846
 30
0.0
 10
103.0132460999156
 20
163.911205638077
 30
0.0
 10
103.0132460999156
 20
163.911205638077
 30
0.0
 10
103.0132460999156
 20
163.911205638077
 30
0.0
 10
101.0674548862189
 20
164.3601018759394
 30
0.0
 10
99.57090442016032
 20
163.1805004036133
 30
0.0
 10
98.40508333886608
 20
162.258247733807
 30
0.0
 10
97.65301849830304
 20
159.804132345923
 30
0.0
 10
97.3598406791005
 20
158.8699940888517
 30
0.0
 10
97.3598406791005
 20
158.8699940888517
 30
0.0
 10
96.07137411762282
 20
154.9119212747295
 30
0.0
 10
96.07137411762282
 20
154.9119212747295
 30
0.0
 10
96.07137411762282
 20
154.9119212747295
 30
0.0
 10
100.3012651448482
 20
154.9119212747295
 30
0.0
 10
100.3012651448482
 20
154.9119212747295
 30
0.0
 10
100.3012651448482
 20
154.9119212747295
 30
0.0
 10
99.64152892419852
 20
152.4199098115079
 30
0.0
 10
99.64152892419852
 20
152.4199098115079
 30
0.0
 10
99.64152892419852
 20
152.4199098115079
 30
0.0
 10
95.38097652692731
 20
152.4199098115079
 30
0.0
 10
95.38097652692731
 20
152.4199098115079
 30
0.0
 10
95.38097652692731
 20
152.4199098115079
 30
0.0
 10
87.75353009080013
 20
127.8027915271048
 30
0.0
 10
87.75353009080013
 20
127.8027915271048
 30
0.0
 10
87.75353009080013
 20
127.8027915271048
 30
0.0
 10
85.36538832498108
 20
127.8027915271048
 30
0.0
 10
85.36538832498108
 20
127.8027915271048
 30
0.0
 10
85.36538832498108
 20
127.8027915271048
 30
0.0
 10
93.00006946639998
 20
152.4199098115079
 30
0.0
 10
93.00006946639998
 20
152.4199098115079
 30
0.0
 10
93.00006946639998
 20
152.4199098115079
 30
0.0
 10
89.85297266450198
 20
152.4199098115079
 30
0.0
 10
89.85297266450198
 20
152.4199098115079
 30
0.0
 10
89.85297266450198
 20
152.4199098115079
 30
0.0
 10
90.51270888515164
 20
154.9119212747295
 30
0.0
 10
90.51270888515164
 20
154.9119212747295
 30
0.0
 10
90.51270888515164
 20
154.9119212747295
 30
0.0
 10
93.6904670570955
 20
154.9119212747295
 30
0.0
 10
93.6904670570955
 20
154.9119212747295
 30
0.0
 10
93.6904670570955
 20
154.9119212747295
 30
0.0
 10
94.81598049462158
 20
158.3616699146644
 30
0.0
 10
94.81598049462158
 20
158.3616699146644
 30
0.0
 10
95.7237637538445
 20
161.2605474231013
 30
0.0
 10
96.4968436907311
 20
162.8139420021662
 30
0.0
 10
97.15657991138076
 20
163.9844139654337
 30
0.0
 10
97.81183750494507
 20
165.1523021053827
 30
0.0
 10
99.1047826935081
 20
166.3084769129547
 30
0.0
 10
100.4504378777679
 20
166.69157178364
 30
0.0
  0
HATCH
  5
6A5
330
6A2
100
AcDbEntity
  8
LOGO
 62
   250
420
  2234388
100
AcDbHatch
 10
0.0
 20
0.0
 30
0.0
210
0.0
220
0.0
230
1.0
  2
SOLID
 70
     1
 71
     0
 91
        1
 92
        1
 93
        1
 72
     4
 94
        3
 73
     0
 74
     1
 95
       56
 96
       52
 40
0.0
 40
0.0
 40
0.0
 40
0.0
 40
1.0
 40
1.0
 40
1.0
 40
2.0
 40
2.0
 40
2.0
 40
3.0
 40
3.0
 40
3.0
 40
4.0
 40
4.0
 40
4.0
 40
5.0
 40
5.0
 40
5.0
 40
6.0
 40
6.0
 40
6.0
 40
7.0
 40
7.0
 40
7.0
 40
8.0
 40
8.0
 40
8.0
 40
9.0
 40
9.0
 40
9.0
 40
10.0
 40
10.0
 40
10.0
 40
11.0
 40
11.0
 40
11.0
 40
12.0
 40
12.0
 40
12.0
 40
13.0
 40
13.0
 40
13.0
 40
14.0
 40
14.0
 40
14.0
 40
15.0
 40
15.0
 40
15.0
 40
16.0
 40
16.0
 40
16.0
 40
17.0
 40
17.0
 40
17.0
 40
17.0
 10
100.4504378777679
 20
166.69157178364
 10
101.9848844191641
 20
167.1313385124438
 10
103.9637485713373
 20
166.7649523658846
 10
103.9637485713373
 20
166.7649523658846
 10
103.9637485713373
 20
166.7649523658846
 10
103.0132460999156
 20
163.911205638077
 10
103.0132460999156
 20
163.911205638077
 10
103.0132460999156
 20
163.911205638077
 10
101.0674548862189
 20
164.3601018759394
 10
99.57090442016032
 20
163.1805004036133
 10
98.40508333886608
 20
162.258247733807
 10
97.65301849830304
 20
159.804132345923
 10
97.3598406791005
 20
158.8699940888517
 10
97.3598406791005
 20
158.8699940888517
 10
96.07137411762282
 20
154.9119212747295
 10
96.07137411762282
 20
154.9119212747295
 10
96.07137411762282
 20
154.9119212747295
 10
100.3012651448482
 20
154.9119212747295
 10
100.3012651448482
 20
154.9119212747295
 10
100.3012651448482
 20
154.9119212747295
 10
99.64152892419852
 20
152.4199098115079
 10
99.64152892419852
 20
152.4199098115079
 10
99.64152892419852
 20
152.4199098115079
 10
95.38097652692731
 20
152.4199098115079
 10
95.38097652692731
 20
152.4199098115079
 10
95.38097652692731
 20
152.4199098115079
 10
87.75353009080013
 20
127.8027915271048
 10
87.75353009080013
 20
127.8027915271048
 10
87.75353009080013
 20
127.8027915271048
 10
85.36538832498108
 20
127.8027915271048
 10
85.36538832498108
 20
127.8027915271048
 10
85.36538832498108
 20
127.8027915271048
 10
93.00006946639998
 20
152.4199098115079
 10
93.00006946639998
 20
152.4199098115079
 10
93.00006946639998
 20
152.4199098115079
 10
89.85297266450198
 20
152.4199098115079
 10
89.85297266450198
 20
152.4199098115079
 10
89.85297266450198
 20
152.4199098115079
 10
90.51270888515164
 20
154.9119212747295
 10
90.51270888515164
 20
154.9119212747295
 10
90.51270888515164
 20
154.9119212747295
 10
93.6904670570955
 20
154.9119212747295
 10
93.6904670570955
 20
154.9119212747295
 10
93.6904670570955
 20
154.9119212747295
 10
94.81598049462158
 20
158.3616699146644
 10
94.81598049462158
 20
158.3616699146644
 10
95.7237637538445
 20
161.2605474231013
 10
96.4968436907311
 20
162.8139420021662
 10
97.15657991138076
 20
163.9844139654337
 10
97.81183750494507
 20
165.1523021053827
 10
99.1047826935081
 20
166.3084769129547
 10
100.4504378777679
 20
166.69157178364
 97
        0
 75
     2
 76
     1
 98
        0
  0
SPLINE
  5
6A6
330
6A2
100
AcDbEntity
  8
LOGO
370
     0
100
AcDbSpline
210
0.0
220
0.0
230
1.0
 70
    11
 71
     3
 72
    38
 73
    34
 74
     0
 42
0.000000001
 43
0.0000000001
 40
0.0
 40
0.0
 40
0.0
 40
0.0
 40
1.0
 40
1.0
 40
1.0
 40
2.0
 40
2.0
 40
2.0
 40
3.0
 40
3.0
 40
3.0
 40
4.0
 40
4.0
 40
4.0
 40
5.0
 40
5.0
 40
5.0
 40
6.0
 40
6.0
 40
6.0
 40
7.0
 40
7.0
 40
7.0
 40
8.0
 40
8.0
 40
8.0
 40
9.0
 40
9.0
 40
9.0
 40
10.0
 40
10.0
 40
10.0
 40
11.0
 40
11.0
 40
11.0
 40
11.0
 10
126.377554584636
 20
154.8151140277308
 30
0.0
 10
126.377554584636
 20
154.8151140277308
 30
0.0
 10
128.8311532078563
 20
154.8151140277308
 30
0.0
 10
128.8311532078563
 20
154.8151140277308
 30
0.0
 10
128.8311532078563
 20
154.8151140277308
 30
0.0
 10
127.7345785914971
 20
151.3062819612468
 30
0.0
 10
127.7345785914971
 20
151.3062819612468
 30
0.0
 10
128.571392836906
 20
152.2922689395754
 30
0.0
 10
129.8860421413442
 20
153.604506675583
 30
0.0
 10
131.0163787157314
 20
154.2664822097754
 30
0.0
 10
132.7044766171327
 20
155.2500576196734
 30
0.0
 10
133.6642808525008
 20
155.3847609420097
 30
0.0
 10
134.7284715499351
 20
155.3565111403944
 30
0.0
 10
134.7284715499351
 20
155.3565111403944
 30
0.0
 10
133.6877075172549
 20
152.0345756272799
 30
0.0
 10
133.6877075172549
 20
152.0345756272799
 30
0.0
 10
133.011434827367
 20
152.3184516825359
 30
0.0
 10
130.930940291334
 20
151.7768823149844
 30
0.0
 10
129.739280976855
 20
150.9162968950455
 30
0.0
 10
128.66613302525
 20
150.1454562717016
 30
0.0
 10
127.9192358313239
 20
149.4857200510519
 30
0.0
 10
127.0393578639405
 20
147.8282835196966
 30
0.0
 10
126.164647543194
 20
146.1699857139017
 30
0.0
 10
125.4742499524985
 20
143.5262176944419
 30
0.0
 10
124.2822461282437
 20
139.6959580071401
 30
0.0
 10
124.2822461282437
 20
139.6959580071401
 30
0.0
 10
120.5753209406769
 20
127.8027915271048
 30
0.0
 10
120.5753209406769
 20
127.8027915271048
 30
0.0
 10
120.5753209406769
 20
127.8027915271048
 30
0.0
 10
118.1964809388044
 20
127.8027915271048
 30
0.0
 10
118.1964809388044
 20
127.8027915271048
 30
0.0
 10
118.1964809388044
 20
127.8027915271048
 30
0.0
 10
126.377554584636
 20
154.8151140277308
 30
0.0
 10
126.377554584636
 20
154.8151140277308
 30
0.0
  0
HATCH
  5
6A7
330
6A2
100
AcDbEntity
  8
LOGO
 62
   250
420
  2234388
100
AcDbHatch
 10
0.0
 20
0.0
 30
0.0
210
0.0
220
0.0
230
1.0
  2
SOLID
 70
     1
 71
     0
 91
        1
 92
        1
 93
        1
 72
     4
 94
        3
 73
     0
 74
     1
 95
       38
 96
       34
 40
0.0
 40
0.0
 40
0.0
 40
0.0
 40
1.0
 40
1.0
 40
1.0
 40
2.0
 40
2.0
 40
2.0
 40
3.0
 40
3.0
 40
3.0
 40
4.0
 40
4.0
 40
4.0
 40
5.0
 40
5.0
 40
5.0
 40
6.0
 40
6.0
 40
6.0
 40
7.0
 40
7.0
 40
7.0
 40
8.0
 40
8.0
 40
8.0
 40
9.0
 40
9.0
 40
9.0
 40
10.0
 40
10.0
 40
10.0
 40
11.0
 40
11.0
 40
11.0
 40
11.0
 10
126.377554584636
 20
154.8151140277308
 10
126.377554584636
 20
154.8151140277308
 10
128.8311532078563
 20
154.8151140277308
 10
128.8311532078563
 20
154.8151140277308
 10
128.8311532078563
 20
154.8151140277308
 10
127.7345785914971
 20
151.3062819612468
 10
127.7345785914971
 20
151.3062819612468
 10
128.571392836906
 20
152.2922689395754
 10
129.8860421413442
 20
153.604506675583
 10
131.0163787157314
 20
154.2664822097754
 10
132.7044766171327
 20
155.2500576196734
 10
133.6642808525008
 20
155.3847609420097
 10
134.7284715499351
 20
155.3565111403944
 10
134.7284715499351
 20
155.3565111403944
 10
133.6877075172549
 20
152.0345756272799
 10
133.6877075172549
 20
152.0345756272799
 10
133.011434827367
 20
152.3184516825359
 10
130.930940291334
 20
151.7768823149844
 10
129.739280976855
 20
150.9162968950455
 10
128.66613302525
 20
150.1454562717016
 10
127.9192358313239
 20
149.4857200510519
 10
127.0393578639405
 20
147.8282835196966
 10
126.164647543194
 20
146.1699857139017
 10
125.4742499524985
 20
143.5262176944419
 10
124.2822461282437
 20
139.6959580071401
 10
124.2822461282437
 20
139.6959580071401
 10
120.5753209406769
 20
127.8027915271048
 10
120.5753209406769
 20
127.8027915271048
 10
120.5753209406769
 20
127.8027915271048
 10
118.1964809388044
 20
127.8027915271048
 10
118.1964809388044
 20
127.8027915271048
 10
118.1964809388044
 20
127.8027915271048
 10
126.377554584636
 20
154.8151140277308
 10
126.377554584636
 20
154.8151140277308
 97
        0
 75
     2
 76
     1
 98
        0
  0
SPLINE
  5
6A8
330
6A2
100
AcDbEntity
  8
LOGO
370
     0
100
AcDbSpline
210
0.0
220
0.0
230
1.0
 70
    11
 71
     3
 72
   104
 73
   100
 74
     0
 42
0.000000001
 43
0.0000000001
 40
0.0
 40
0.0
 40
0.0
 40
0.0
 40
1.0
 40
1.0
 40
1.0
 40
2.0
 40
2.0
 40
2.0
 40
3.0
 40
3.0
 40
3.0
 40
4.0
 40
4.0
 40
4.0
 40
5.0
 40
5.0
 40
5.0
 40
6.0
 40
6.0
 40
6.0
 40
7.0
 40
7.0
 40
7.0
 40
8.0
 40
8.0
 40
8.0
 40
9.0
 40
9.0
 40
9.0
 40
10.0
 40
10.0
 40
10.0
 40
11.0
 40
11.0
 40
11.0
 40
12.0
 40
12.0
 40
12.0
 40
13.0
 40
13.0
 40
13.0
 40
14.0
 40
14.0
 40
14.0
 40
15.0
 40
15.0
 40
15.0
 40
16.0
 40
16.0
 40
16.0
 40
17.0
 40
17.0
 40
17.0
 40
18.0
 40
18.0
 40
18.0
 40
19.0
 40
19.0
 40
19.0
 40
20.0
 40
20.0
 40
20.0
 40
21.0
 40
21.0
 40
21.0
 40
22.0
 40
22.0
 40
22.0
 40
23.0
 40
23.0
 40
23.0
 40
24.0
 40
24.0
 40
24.0
 40
25.0
 40
25.0
 40
25.0
 40
26.0
 40
26.0
 40
26.0
 40
27.0
 40
27.0
 40
27.0
 40
28.0
 40
28.0
 40
28.0
 40
29.0
 40
29.0
 40
29.0
 40
30.0
 40
30.0
 40
30.0
 40
31.0
 40
31.0
 40
31.0
 40
32.0
 40
32.0
 40
32.0
 40
33.0
 40
33.0
 40
33.0
 40
33.0
 10
139.8926730891197
 20
154.8294111834263
 30
0.0
 10
139.8926730891197
 20
154.8294111834263
 30
0.0
 10
142.0344903652445
 20
154.8294111834263
 30
0.0
 10
142.0344903652445
 20
154.8294111834263
 30
0.0
 10
142.0344903652445
 20
154.8294111834263
 30
0.0
 10
140.9516961399171
 20
151.3157559800812
 30
0.0
 10
140.9516961399171
 20
151.3157559800812
 30
0.0
 10
141.8928968473923
 20
152.7887075264977
 30
0.0
 10
142.7341897198865
 20
153.4484437471474
 30
0.0
 10
143.8552245303272
 20
154.2926649527359
 30
0.0
 10
144.9803934580775
 20
155.1296514530327
 30
0.0
 10
146.3139908001845
 20
155.3044901642492
 30
0.0
 10
147.241066606852
 20
155.3044901642492
 30
0.0
 10
148.3855280820469
 20
155.3044901642492
 30
0.0
 10
149.4969166187653
 20
155.0752189084569
 30
0.0
 10
150.0784491203092
 20
153.8172414621372
 30
0.0
 10
150.5228667310863
 20
152.833838307127
 30
0.0
 10
150.5414702589793
 20
152.7201500811143
 30
0.0
 10
150.4140016419347
 20
150.7765981809602
 30
0.0
 10
151.5818897818837
 20
152.7699317437168
 30
0.0
 10
152.4424752018226
 20
153.6256940267945
 30
0.0
 10
153.9038856707499
 20
154.4507949398263
 30
0.0
 10
155.4455669174378
 20
155.3044901642492
 30
0.0
 10
156.339225275853
 20
155.3659851592288
 30
0.0
 10
157.3748216618963
 20
155.2147453676543
 30
0.0
 10
158.911679771723
 20
154.9877134254046
 30
0.0
 10
159.8859534176746
 20
154.4390816074493
 30
0.0
 10
160.3965169054045
 20
152.7816450760939
 30
0.0
 10
160.9070803931344
 20
151.1219692311958
 30
0.0
 10
160.6328506116007
 20
150.2303779314354
 30
0.0
 10
159.9992971339115
 20
147.597634224801
 30
0.0
 10
159.7105979417943
 20
146.4014962832367
 30
0.0
 10
159.2947746424084
 20
144.9400858143094
 30
0.0
 10
158.7463150793409
 20
143.2092687007094
 30
0.0
 10
158.7463150793409
 20
143.2092687007094
 30
0.0
 10
153.9038856707499
 20
127.8027915271048
 30
0.0
 10
153.9038856707499
 20
127.8027915271048
 30
0.0
 10
153.9038856707499
 20
127.8027915271048
 30
0.0
 10
151.3882752878863
 20
127.8027915271048
 30
0.0
 10
151.3882752878863
 20
127.8027915271048
 30
0.0
 10
151.3882752878863
 20
127.8027915271048
 30
0.0
 10
155.6250565106276
 20
141.2751908193897
 30
0.0
 10
155.6250565106276
 20
141.2751908193897
 30
0.0
 10
156.5094131050963
 20
144.0936252951782
 30
0.0
 10
157.109893644309
 20
146.1506931664571
 30
0.0
 10
157.4220195011804
 20
147.4415712963654
 30
0.0
 10
157.8095929989511
 20
149.0530157726519
 30
0.0
 10
157.9656559273867
 20
149.5826995529385
 30
0.0
 10
157.7816877071116
 20
150.7529992613181
 30
0.0
 10
157.6111553680925
 20
151.8430281919372
 30
0.0
 10
157.0582171779396
 20
152.5547853887321
 30
0.0
 10
156.1170164704645
 20
152.5547853887321
 30
0.0
 10
155.1096698860365
 20
152.5547853887321
 30
0.0
 10
154.2962823053817
 20
152.4412694176073
 30
0.0
 10
153.156643967048
 20
151.2945686288697
 30
0.0
 10
152.0170056287143
 20
150.1476955852443
 30
0.0
 10
151.076149431015
 20
148.7930831468137
 30
0.0
 10
150.3337308641742
 20
147.2290087646991
 30
0.0
 10
149.5957909244188
 20
145.6683794803425
 30
0.0
 10
148.8530278478023
 20
143.6822806228776
 30
0.0
 10
148.0964843801539
 20
141.2751908193897
 30
0.0
 10
148.0964843801539
 20
141.2751908193897
 30
0.0
 10
143.8552245303272
 20
127.8027915271048
 30
0.0
 10
143.8552245303272
 20
127.8027915271048
 30
0.0
 10
143.8552245303272
 20
127.8027915271048
 30
0.0
 10
141.486030802177
 20
127.8027915271048
 30
0.0
 10
141.486030802177
 20
127.8027915271048
 30
0.0
 10
141.486030802177
 20
127.8027915271048
 30
0.0
 10
146.3329388378533
 20
143.2092687007094
 30
0.0
 10
146.3329388378533
 20
143.2092687007094
 30
0.0
 10
146.8483254624444
 20
144.8408669988801
 30
0.0
 10
147.2314203331297
 20
146.1837661049335
 30
0.0
 10
147.4867020769946
 20
147.224185627838
 30
0.0
 10
147.9169947869641
 20
149.0197705792876
 30
0.0
 10
148.0306830129768
 20
150.2400242051577
 30
0.0
 10
147.709255392159
 20
151.3157559800812
 30
0.0
 10
147.3874832615654
 20
152.3916600098926
 30
0.0
 10
146.8245542879144
 20
152.6683013598569
 30
0.0
 10
145.8840425999909
 20
152.6683013598569
 30
0.0
 10
145.0989048209514
 20
152.6683013598569
 30
0.0
 10
144.3282364524954
 20
152.3275811915945
 30
0.0
 10
143.4531816219731
 20
151.6538923250251
 30
0.0
 10
142.34627171234
 20
150.8074318058939
 30
0.0
 10
141.901854101563
 20
150.1097995099067
 30
0.0
 10
141.3578731655808
 20
149.289521733736
 30
0.0
 10
140.6299240093235
 20
148.192602607601
 30
0.0
 10
140.2850697237515
 20
147.455696197173
 30
0.0
 10
139.6652966370942
 20
145.8385673095858
 30
0.0
 10
139.0506911970739
 20
144.2214384219986
 30
0.0
 10
138.463991048893
 20
142.3252566160164
 30
0.0
 10
138.0571250036777
 20
141.0154304484394
 30
0.0
 10
138.0571250036777
 20
141.0154304484394
 30
0.0
 10
133.9009590684727
 20
127.8027915271048
 30
0.0
 10
133.9009590684727
 20
127.8027915271048
 30
0.0
 10
133.9009590684727
 20
127.8027915271048
 30
0.0
 10
131.4180771143097
 20
127.8027915271048
 30
0.0
 10
131.4180771143097
 20
127.8027915271048
 30
0.0
 10
131.4180771143097
 20
127.8027915271048
 30
0.0
 10
139.8926730891197
 20
154.8294111834263
 30
0.0
 10
139.8926730891197
 20
154.8294111834263
 30
0.0
  0
HATCH
  5
6A9
330
6A2
100
AcDbEntity
  8
LOGO
 62
   250
420
  2234388
100
AcDbHatch
 10
0.0
 20
0.0
 30
0.0
210
0.0
220
0.0
230
1.0
  2
SOLID
 70
     1
 71
     0
 91
        1
 92
        1
 93
        1
 72
     4
 94
        3
 73
     0
 74
     1
 95
      104
 96
      100
 40
0.0
 40
0.0
 40
0.0
 40
0.0
 40
1.0
 40
1.0
 40
1.0
 40
2.0
 40
2.0
 40
2.0
 40
3.0
 40
3.0
 40
3.0
 40
4.0
 40
4.0
 40
4.0
 40
5.0
 40
5.0
 40
5.0
 40
6.0
 40
6.0
 40
6.0
 40
7.0
 40
7.0
 40
7.0
 40
8.0
 40
8.0
 40
8.0
 40
9.0
 40
9.0
 40
9.0
 40
10.0
 40
10.0
 40
10.0
 40
11.0
 40
11.0
 40
11.0
 40
12.0
 40
12.0
 40
12.0
 40
13.0
 40
13.0
 40
13.0
 40
14.0
 40
14.0
 40
14.0
 40
15.0
 40
15.0
 40
15.0
 40
16.0
 40
16.0
 40
16.0
 40
17.0
 40
17.0
 40
17.0
 40
18.0
 40
18.0
 40
18.0
 40
19.0
 40
19.0
 40
19.0
 40
20.0
 40
20.0
 40
20.0
 40
21.0
 40
21.0
 40
21.0
 40
22.0
 40
22.0
 40
22.0
 40
23.0
 40
23.0
 40
23.0
 40
24.0
 40
24.0
 40
24.0
 40
25.0
 40
25.0
 40
25.0
 40
26.0
 40
26.0
 40
26.0
 40
27.0
 40
27.0
 40
27.0
 40
28.0
 40
28.0
 40
28.0
 40
29.0
 40
29.0
 40
29.0
 40
30.0
 40
30.0
 40
30.0
 40
31.0
 40
31.0
 40
31.0
 40
32.0
 40
32.0
 40
32.0
 40
33.0
 40
33.0
 40
33.0
 40
33.0
 10
139.8926730891197
 20
154.8294111834263
 10
139.8926730891197
 20
154.8294111834263
 10
142.0344903652445
 20
154.8294111834263
 10
142.0344903652445
 20
154.8294111834263
 10
142.0344903652445
 20
154.8294111834263
 10
140.9516961399171
 20
151.3157559800812
 10
140.9516961399171
 20
151.3157559800812
 10
141.8928968473923
 20
152.7887075264977
 10
142.7341897198865
 20
153.4484437471474
 10
143.8552245303272
 20
154.2926649527359
 10
144.9803934580775
 20
155.1296514530327
 10
146.3139908001845
 20
155.3044901642492
 10
147.241066606852
 20
155.3044901642492
 10
148.3855280820469
 20
155.3044901642492
 10
149.4969166187653
 20
155.0752189084569
 10
150.0784491203092
 20
153.8172414621372
 10
150.5228667310863
 20
152.833838307127
 10
150.5414702589793
 20
152.7201500811143
 10
150.4140016419347
 20
150.7765981809602
 10
151.5818897818837
 20
152.7699317437168
 10
152.4424752018226
 20
153.6256940267945
 10
153.9038856707499
 20
154.4507949398263
 10
155.4455669174378
 20
155.3044901642492
 10
156.339225275853
 20
155.3659851592288
 10
157.3748216618963
 20
155.2147453676543
 10
158.911679771723
 20
154.9877134254046
 10
159.8859534176746
 20
154.4390816074493
 10
160.3965169054045
 20
152.7816450760939
 10
160.9070803931344
 20
151.1219692311958
 10
160.6328506116007
 20
150.2303779314354
 10
159.9992971339115
 20
147.597634224801
 10
159.7105979417943
 20
146.4014962832367
 10
159.2947746424084
 20
144.9400858143094
 10
158.7463150793409
 20
143.2092687007094
 10
158.7463150793409
 20
143.2092687007094
 10
153.9038856707499
 20
127.8027915271048
 10
153.9038856707499
 20
127.8027915271048
 10
153.9038856707499
 20
127.8027915271048
 10
151.3882752878863
 20
127.8027915271048
 10
151.3882752878863
 20
127.8027915271048
 10
151.3882752878863
 20
127.8027915271048
 10
155.6250565106276
 20
141.2751908193897
 10
155.6250565106276
 20
141.2751908193897
 10
156.5094131050963
 20
144.0936252951782
 10
157.109893644309
 20
146.1506931664571
 10
157.4220195011804
 20
147.4415712963654
 10
157.8095929989511
 20
149.0530157726519
 10
157.9656559273867
 20
149.5826995529385
 10
157.7816877071116
 20
150.7529992613181
 10
157.6111553680925
 20
151.8430281919372
 10
157.0582171779396
 20
152.5547853887321
 10
156.1170164704645
 20
152.5547853887321
 10
155.1096698860365
 20
152.5547853887321
 10
154.2962823053817
 20
152.4412694176073
 10
153.156643967048
 20
151.2945686288697
 10
152.0170056287143
 20
150.1476955852443
 10
151.076149431015
 20
148.7930831468137
 10
150.3337308641742
 20
147.2290087646991
 10
149.5957909244188
 20
145.6683794803425
 10
148.8530278478023
 20
143.6822806228776
 10
148.0964843801539
 20
141.2751908193897
 10
148.0964843801539
 20
141.2751908193897
 10
143.8552245303272
 20
127.8027915271048
 10
143.8552245303272
 20
127.8027915271048
 10
143.8552245303272
 20
127.8027915271048
 10
141.486030802177
 20
127.8027915271048
 10
141.486030802177
 20
127.8027915271048
 10
141.486030802177
 20
127.8027915271048
 10
146.3329388378533
 20
143.2092687007094
 10
146.3329388378533
 20
143.2092687007094
 10
146.8483254624444
 20
144.8408669988801
 10
147.2314203331297
 20
146.1837661049335
 10
147.4867020769946
 20
147.224185627838
 10
147.9169947869641
 20
149.0197705792876
 10
148.0306830129768
 20
150.2400242051577
 10
147.709255392159
 20
151.3157559800812
 10
147.3874832615654
 20
152.3916600098926
 10
146.8245542879144
 20
152.6683013598569
 10
145.8840425999909
 20
152.6683013598569
 10
145.0989048209514
 20
152.6683013598569
 10
144.3282364524954
 20
152.3275811915945
 10
143.4531816219731
 20
151.6538923250251
 10
142.34627171234
 20
150.8074318058939
 10
141.901854101563
 20
150.1097995099067
 10
141.3578731655808
 20
149.289521733736
 10
140.6299240093235
 20
148.192602607601
 10
140.2850697237515
 20
147.455696197173
 10
139.6652966370942
 20
145.8385673095858
 10
139.0506911970739
 20
144.2214384219986
 10
138.463991048893
 20
142.3252566160164
 10
138.0571250036777
 20
141.0154304484394
 10
138.0571250036777
 20
141.0154304484394
 10
133.9009590684727
 20
127.8027915271048
 10
133.9009590684727
 20
127.8027915271048
 10
133.9009590684727
 20
127.8027915271048
 10
131.4180771143097
 20
127.8027915271048
 10
131.4180771143097
 20
127.8027915271048
 10
131.4180771143097
 20
127.8027915271048
 10
139.8926730891197
 20
154.8294111834263
 10
139.8926730891197
 20
154.8294111834263
 97
        0
 75
     2
 76
     1
 98
        0
  0
SPLINE
  5
6AA
330
6A2
100
AcDbEntity
  8
LOGO
370
     0
100
AcDbSpline
210
0.0
220
0.0
230
1.0
 70
    11
 71
     3
 72
    29
 73
    25
 74
     0
 42
0.000000001
 43
0.0000000001
 40
0.0
 40
0.0
 40
0.0
 40
0.0
 40
1.0
 40
1.0
 40
1.0
 40
2.0
 40
2.0
 40
2.0
 40
3.0
 40
3.0
 40
3.0
 40
4.0
 40
4.0
 40
4.0
 40
5.0
 40
5.0
 40
5.0
 40
6.0
 40
6.0
 40
6.0
 40
7.0
 40
7.0
 40
7.0
 40
8.0
 40
8.0
 40
8.0
 40
8.0
 10
101.6420971922469
 20
132.8388354296931
 30
0.0
 10
101.630039350094
 20
134.7164137077823
 30
0.0
 10
102.2236296937908
 20
138.0598810818841
 30
0.0
 10
103.7487744712405
 20
142.5378191476827
 30
0.0
 10
105.819967243327
 20
148.5896501242061
 30
0.0
 10
107.0602024361932
 20
150.8074318058939
 30
0.0
 10
108.1522984254671
 20
151.8833358357054
 30
0.0
 10
109.741177511439
 20
153.4532668840085
 30
0.0
 10
111.8740375333931
 20
153.5290590346837
 30
0.0
 10
112.5075910110823
 20
153.4532668840085
 30
0.0
 10
113.4012493694975
 20
153.3490526768302
 30
0.0
 10
114.6683563248758
 20
152.7580461564518
 30
0.0
 10
114.7493161221879
 20
150.7838328862519
 30
0.0
 10
114.8106388622796
 20
149.0909118479895
 30
0.0
 10
114.3186789024427
 20
145.9191825971221
 30
0.0
 10
112.6164561002338
 20
140.9489400617108
 30
0.0
 10
110.6444821435766
 20
135.1746117095912
 30
0.0
 10
109.4669477299053
 20
132.8960240524753
 30
0.0
 10
108.5212683953448
 20
131.9072809959403
 30
0.0
 10
106.7346406980658
 20
130.0538184021569
 30
0.0
 10
104.8222669326213
 20
130.2336525051225
 30
0.0
 10
104.5408024457958
 20
130.2336525051225
 30
0.0
 10
104.1721769856939
 20
130.2336525051225
 30
0.0
 10
101.6465758193322
 20
130.6305277668397
 30
0.0
 10
101.6420971922469
 20
132.8388354296931
 30
0.0
  0
SPLINE
  5
6AB
330
6A2
100
AcDbEntity
  8
LOGO
370
     0
100
AcDbSpline
210
0.0
220
0.0
230
1.0
 70
    11
 71
     3
 72
    32
 73
    28
 74
     0
 42
0.000000001
 43
0.0000000001
 40
0.0
 40
0.0
 40
0.0
 40
0.0
 40
1.0
 40
1.0
 40
1.0
 40
2.0
 40
2.0
 40
2.0
 40
3.0
 40
3.0
 40
3.0
 40
4.0
 40
4.0
 40
4.0
 40
5.0
 40
5.0
 40
5.0
 40
6.0
 40
6.0
 40
6.0
 40
7.0
 40
7.0
 40
7.0
 40
8.0
 40
8.0
 40
8.0
 40
9.0
 40
9.0
 40
9.0
 40
9.0
 10
106.2595617172429
 20
153.4105476718098
 30
0.0
 10
104.8222669326213
 20
151.5474388043041
 30
0.0
 10
103.7177685914188
 20
149.8758773721411
 30
0.0
 10
101.9232171692965
 20
144.6141795664062
 30
0.0
 10
100.2754269116635
 20
139.7999999594306
 30
0.0
 10
99.22777268346732
 20
136.3052927937542
 30
0.0
 10
99.06964269637689
 20
132.039572749846
 30
0.0
 10
98.94665270641765
 20
128.8673267343149
 30
0.0
 10
100.8807305877373
 20
127.8027915271048
 30
0.0
 10
103.7129454545577
 20
127.8027915271048
 30
0.0
 10
104.9352661390825
 20
127.8027915271048
 30
0.0
 10
108.0151835347002
 20
127.8827177950895
 30
0.0
 10
110.2045431598849
 20
130.5926316915021
 30
0.0
 10
111.7417457794874
 20
132.4984597712065
 30
0.0
 10
113.155269389579
 20
134.475256864725
 30
0.0
 10
115.0562743324223
 20
140.9489400617108
 30
0.0
 10
116.6361961642235
 20
146.3680788349845
 30
0.0
 10
117.7282921534974
 20
149.8639917848761
 30
0.0
 10
117.6480213757369
 20
151.8595646611754
 30
0.0
 10
117.6480213757369
 20
151.8595646611754
 30
0.0
 10
117.6480213757369
 20
151.8595646611754
 30
0.0
 10
117.6480213757369
 20
151.8595646611754
 30
0.0
 10
117.13229024137
 20
155.18150017429
 30
0.0
 10
114.7162431837115
 20
155.886194920681
 30
0.0
 10
113.3351034925446
 20
155.886194920681
 30
0.0
 10
111.9829026225447
 20
155.886194920681
 30
0.0
 10
108.3414342923792
 20
156.1251124501957
 30
0.0
 10
106.2595617172429
 20
153.4105476718098
 30
0.0
  0
HATCH
  5
6AC
330
6A2
100
AcDbEntity
  8
LOGO
 62
   250
420
  2234388
100
AcDbHatch
 10
0.0
 20
0.0
 30
0.0
210
0.0
220
0.0
230
1.0
  2
SOLID
 70
     1
 71
     0
 91
        2
 92
        1
 93
        1
 72
     4
 94
        3
 73
     0
 74
     1
 95
       29
 96
       25
 40
0.0
 40
0.0
 40
0.0
 40
0.0
 40
1.0
 40
1.0
 40
1.0
 40
2.0
 40
2.0
 40
2.0
 40
3.0
 40
3.0
 40
3.0
 40
4.0
 40
4.0
 40
4.0
 40
5.0
 40
5.0
 40
5.0
 40
6.0
 40
6.0
 40
6.0
 40
7.0
 40
7.0
 40
7.0
 40
8.0
 40
8.0
 40
8.0
 40
8.0
 10
101.6420971922469
 20
132.8388354296931
 10
101.630039350094
 20
134.7164137077823
 10
102.2236296937908
 20
138.0598810818841
 10
103.7487744712405
 20
142.5378191476827
 10
105.819967243327
 20
148.5896501242061
 10
107.0602024361932
 20
150.8074318058939
 10
108.1522984254671
 20
151.8833358357054
 10
109.741177511439
 20
153.4532668840085
 10
111.8740375333931
 20
153.5290590346837
 10
112.5075910110823
 20
153.4532668840085
 10
113.4012493694975
 20
153.3490526768302
 10
114.6683563248758
 20
152.7580461564518
 10
114.7493161221879
 20
150.7838328862519
 10
114.8106388622796
 20
149.0909118479895
 10
114.3186789024427
 20
145.9191825971221
 10
112.6164561002338
 20
140.9489400617108
 10
110.6444821435766
 20
135.1746117095912
 10
109.4669477299053
 20
132.8960240524753
 10
108.5212683953448
 20
131.9072809959403
 10
106.7346406980658
 20
130.0538184021569
 10
104.8222669326213
 20
130.2336525051225
 10
104.5408024457958
 20
130.2336525051225
 10
104.1721769856939
 20
130.2336525051225
 10
101.6465758193322
 20
130.6305277668397
 10
101.6420971922469
 20
132.8388354296931
 97
        0
 92
        1
 93
        1
 72
     4
 94
        3
 73
     0
 74
     1
 95
       32
 96
       28
 40
0.0
 40
0.0
 40
0.0
 40
0.0
 40
1.0
 40
1.0
 40
1.0
 40
2.0
 40
2.0
 40
2.0
 40
3.0
 40
3.0
 40
3.0
 40
4.0
 40
4.0
 40
4.0
 40
5.0
 40
5.0
 40
5.0
 40
6.0
 40
6.0
 40
6.0
 40
7.0
 40
7.0
 40
7.0
 40
8.0
 40
8.0
 40
8.0
 40
9.0
 40
9.0
 40
9.0
 40
9.0
 10
106.2595617172429
 20
153.4105476718098
 10
104.8222669326213
 20
151.5474388043041
 10
103.7177685914188
 20
149.8758773721411
 10
101.9232171692965
 20
144.6141795664062
 10
100.2754269116635
 20
139.7999999594306
 10
99.22777268346732
 20
136.3052927937542
 10
99.06964269637689
 20
132.039572749846
 10
98.94665270641765
 20
128.8673267343149
 10
100.8807305877373
 20
127.8027915271048
 10
103.7129454545577
 20
127.8027915271048
 10
104.9352661390825
 20
127.8027915271048
 10
108.0151835347002
 20
127.8827177950895
 10
110.2045431598849
 20
130.5926316915021
 10
111.7417457794874
 20
132.4984597712065
 10
113.155269389579
 20
134.475256864725
 10
115.0562743324223
 20
140.9489400617108
 10
116.6361961642235
 20
146.3680788349845
 10
117.7282921534974
 20
149.8639917848761
 10
117.6480213757369
 20
151.8595646611754
 10
117.6480213757369
 20
151.8595646611754
 10
117.6480213757369
 20
151.8595646611754
 10
117.6480213757369
 20
151.8595646611754
 10
117.13229024137
 20
155.18150017429
 10
114.7162431837115
 20
155.886194920681
 10
113.3351034925446
 20
155.886194920681
 10
111.9829026225447
 20
155.886194920681
 10
108.3414342923792
 20
156.1251124501957
 10
106.2595617172429
 20
153.4105476718098
 97
        0
 75
     2
 76
     1
 98
        0
  0
ENDBLK
  5
6AD
330
6A2
100
AcDbEntity
  8
0
100
AcDbBlockEnd
  0
BLOCK
  5
1756
330
1755
100
AcDbEntity
  8
0
100
AcDbBlockBegin
  2
*D6
 70
     1
 10
0.0
 20
0.0
 30
0.0
  3
*D6
  1
*D47
  0
LINE
  5
1758
330
1755
100
AcDbEntity
  8
DIM
 62
     0
370
    -2
100
AcDbLine
 10
-295.5188489193064
 20
775.2981836049703
 30
0.0
 11
-295.5188489193064
 21
815.6652411493675
 31
0.0
  0
LINE
  5
1759
330
1755
100
AcDbEntity
  8
DIM
 62
     0
370
    -2
100
AcDbLine
 10
-205.4284433023048
 20
706.1451893518793
 30
0.0
 11
-205.4284433023048
 21
815.6652411493675
 31
0.0
  0
LINE
  5
175A
330
1755
100
AcDbEntity
  8
DIM
 62
     0
370
    -2
100
AcDbLine
 10
-293.5188489193064
 20
815.6652411493675
 30
0.0
 11
-207.4284433023048
 21
815.6652411493675
 31
0.0
  0
INSERT
  5
175B
330
1755
100
AcDbEntity
  8
DIM
 62
     0
370
    -2
100
AcDbBlockReference
  2
_DOT
 10
-295.5188489193064
 20
815.6652411493675
 30
0.0
 41
2.0
 42
2.0
 43
2.0
 50
180.0
  0
INSERT
  5
175C
330
1755
100
AcDbEntity
  8
DIM
 62
     0
370
    -2
100
AcDbBlockReference
  2
_DOT
 10
-205.4284433023048
 20
815.6652411493675
 30
0.0
 41
2.0
 42
2.0
 43
2.0
  0
MTEXT
  5
175D
330
1755
100
AcDbEntity
  8
DIM
 62
     0
100
AcDbMText
 10
-250.4736461108056
 20
831.6652411493675
 30
0.0
 40
12.0
 41
0.0
 46
0.0
 71
     5
 72
     1
  1
\A1;90
  7
ＭＳ ゴシック
 73
     1
 44
1.0
  0
POINT
  5
175E
330
1755
100
AcDbEntity
  8
Defpoints
 62
     0
100
AcDbPoint
 10
-295.5188489193064
 20
770.2981836049703
 30
0.0
  0
POINT
  5
175F
330
1755
100
AcDbEntity
  8
Defpoints
 62
     0
100
AcDbPoint
 10
-205.4284433023048
 20
701.1451893518793
 30
0.0
  0
POINT
  5
1760
330
1755
100
AcDbEntity
  8
Defpoints
 62
     0
100
AcDbPoint
 10
-205.4284433023048
 20
815.6652411493675
 30
0.0
  0
ENDBLK
  5
1757
330
1755
100
AcDbEntity
  8
0
100
AcDbBlockEnd
  0
BLOCK
  5
1765
330
1764
100
AcDbEntity
  8
0
100
AcDbBlockBegin
  2
*D7
 70
     1
 10
0.0
 20
0.0
 30
0.0
  3
*D7
  1
*D48
  0
LINE
  5
1767
330
1764
100
AcDbEntity
  8
DIM
 62
     0
370
    -2
100
AcDbLine
 10
-200.4284433023048
 20
671.8525143521373
 30
0.0
 11
-150.0688743412373
 21
671.8525143521373
 31
0.0
  0
LINE
  5
1768
330
1764
100
AcDbEntity
  8
DIM
 62
     0
370
    -2
100
AcDbLine
 10
-233.0005079817896
 20
584.7930199689371
 30
0.0
 11
-150.0688743412373
 21
584.7930199689371
 31
0.0
  0
LINE
  5
1769
330
1764
100
AcDbEntity
  8
DIM
 62
     0
370
    -2
100
AcDbLine
 10
-150.0688743412373
 20
669.8525143521373
 30
0.0
 11
-150.0688743412373
 21
586.7930199689371
 31
0.0
  0
INSERT
  5
176A
330
1764
100
AcDbEntity
  8
DIM
 62
     0
370
    -2
100
AcDbBlockReference
  2
_DOT
 10
-150.0688743412373
 20
671.8525143521373
 30
0.0
 41
2.0
 42
2.0
 43
2.0
 50
90.0
  0
INSERT
  5
176B
330
1764
100
AcDbEntity
  8
DIM
 62
     0
370
    -2
100
AcDbBlockReference
  2
_DOT
 10
-150.0688743412373
 20
584.7930199689371
 30
0.0
 41
2.0
 42
2.0
 43
2.0
 50
270.0
  0
MTEXT
  5
176C
330
1764
100
AcDbEntity
  8
DIM
 62
     0
100
AcDbMText
 10
-166.0688743412373
 20
628.3227671605372
 30
0.0
 40
12.0
 41
0.0
 46
0.0
 71
     5
 72
     1
  1
\A1;87
  7
ＭＳ ゴシック
 11
0.0
 21
1.0
 31
0.0
 73
     1
 44
1.0
  0
POINT
  5
176D
330
1764
100
AcDbEntity
  8
Defpoints
 62
     0
100
AcDbPoint
 10
-205.4284433023048
 20
671.8525143521373
 30
0.0
  0
POINT
  5
176E
330
1764
100
AcDbEntity
  8
Defpoints
 62
     0
100
AcDbPoint
 10
-238.0005079817896
 20
584.7930199689371
 30
0.0
  0
POINT
  5
176F
330
1764
100
AcDbEntity
  8
Defpoints
 62
     0
100
AcDbPoint
 10
-150.0688743412373
 20
584.7930199689371
 30
0.0
  0
ENDBLK
  5
1766
330
1764
100
AcDbEntity
  8
0
100
AcDbBlockEnd
  0
BLOCK
  5
1781
330
1780
100
AcDbEntity
  8
0
100
AcDbBlockBegin
  2
*D8
 70
     1
 10
0.0
 20
0.0
 30
0.0
  3
*D8
  1
*D50
  0
LINE
  5
1783
330
1780
100
AcDbEntity
  8
DIM
 62
     0
370
    -2
100
AcDbLine
 10
-329.1967209567216
 20
584.7930199689371
 30
0.0
 11
-425.0716077610881
 21
584.7930199689371
 31
0.0
  0
LINE
  5
1784
330
1780
100
AcDbEntity
  8
DIM
 62
     0
370
    -2
100
AcDbLine
 10
-258.6313006938241
 20
766.9407353208452
 30
0.0
 11
-425.0716077610881
 21
766.9407353208452
 31
0.0
  0
LINE
  5
1785
330
1780
100
AcDbEntity
  8
DIM
 62
     0
370
    -2
100
AcDbLine
 10
-425.0716077610881
 20
586.7930199689371
 30
0.0
 11
-425.0716077610881
 21
764.9407353208452
 31
0.0
  0
INSERT
  5
1786
330
1780
100
AcDbEntity
  8
DIM
 62
     0
370
    -2
100
AcDbBlockReference
  2
_DOT
 10
-425.0716077610881
 20
584.7930199689371
 30
0.0
 41
2.0
 42
2.0
 43
2.0
 50
270.0
  0
INSERT
  5
1787
330
1780
100
AcDbEntity
  8
DIM
 62
     0
370
    -2
100
AcDbBlockReference
  2
_DOT
 10
-425.0716077610881
 20
766.9407353208452
 30
0.0
 41
2.0
 42
2.0
 43
2.0
 50
90.0
  0
MTEXT
  5
1788
330
1780
100
AcDbEntity
  8
DIM
 62
     0
100
AcDbMText
 10
-441.0716077610881
 20
675.8668776448911
 30
0.0
 40
12.0
 41
0.0
 46
0.0
 71
     5
 72
     1
  1
\A1;182
  7
ＭＳ ゴシック
 11
0.0
 21
1.0
 31
0.0
 73
     1
 44
1.0
  0
POINT
  5
1789
330
1780
100
AcDbEntity
  8
Defpoints
 62
     0
100
AcDbPoint
 10
-324.1967209567216
 20
584.7930199689371
 30
0.0
  0
POINT
  5
178A
330
1780
100
AcDbEntity
  8
Defpoints
 62
     0
100
AcDbPoint
 10
-253.6313006938241
 20
766.9407353208452
 30
0.0
  0
POINT
  5
178B
330
1780
100
AcDbEntity
  8
Defpoints
 62
     0
100
AcDbPoint
 10
-425.0716077610881
 20
766.9407353208452
 30
0.0
  0
ENDBLK
  5
1782
330
1780
100
AcDbEntity
  8
0
100
AcDbBlockEnd
  0
BLOCK
  5
17A1
330
17A0
100
AcDbEntity
  8
0
100
AcDbBlockBegin
  2
*D9
 70
     1
 10
0.0
 20
0.0
 30
0.0
  3
*D9
  1
*D52
  0
LINE
  5
17A3
330
17A0
100
AcDbEntity
  8
DIM
 62
     0
370
    -2
100
AcDbLine
 10
-329.1967209567216
 20
584.7930199689371
 30
0.0
 11
-425.0716077610881
 21
584.7930199689371
 31
0.0
  0
LINE
  5
17A4
330
17A0
100
AcDbEntity
  8
DIM
 62
     0
370
    -2
100
AcDbLine
 10
-322.3302740070764
 20
253.4654709517774
 30
0.0
 11
-425.0716077610881
 21
253.4654709517774
 31
0.0
  0
LINE
  5
17A5
330
17A0
100
AcDbEntity
  8
DIM
 62
     0
370
    -2
100
AcDbLine
 10
-425.0716077610881
 20
582.7930199689371
 30
0.0
 11
-425.0716077610881
 21
255.4654709517774
 31
0.0
  0
INSERT
  5
17A6
330
17A0
100
AcDbEntity
  8
DIM
 62
     0
370
    -2
100
AcDbBlockReference
  2
_DOT
 10
-425.0716077610881
 20
584.7930199689371
 30
0.0
 41
2.0
 42
2.0
 43
2.0
 50
90.0
  0
INSERT
  5
17A7
330
17A0
100
AcDbEntity
  8
DIM
 62
     0
370
    -2
100
AcDbBlockReference
  2
_DOT
 10
-425.0716077610881
 20
253.4654709517774
 30
0.0
 41
2.0
 42
2.0
 43
2.0
 50
270.0
  0
MTEXT
  5
17A8
330
17A0
100
AcDbEntity
  8
DIM
 62
     0
100
AcDbMText
 10
-441.0716077610881
 20
419.1292454603572
 30
0.0
 40
12.0
 41
0.0
 46
0.0
 71
     5
 72
     1
  1
\A1;445
  7
ＭＳ ゴシック
 11
0.0
 21
1.0
 31
0.0
 73
     1
 44
1.0
  0
POINT
  5
17A9
330
17A0
100
AcDbEntity
  8
Defpoints
 62
     0
100
AcDbPoint
 10
-324.1967209567216
 20
584.7930199689371
 30
0.0
  0
POINT
  5
17AA
330
17A0
100
AcDbEntity
  8
Defpoints
 62
     0
100
AcDbPoint
 10
-317.3302740070764
 20
253.4654709517774
 30
0.0
  0
POINT
  5
17AB
330
17A0
100
AcDbEntity
  8
Defpoints
 62
     0
100
AcDbPoint
 10
-425.0716077610881
 20
253.4654709517774
 30
0.0
  0
ENDBLK
  5
17A2
330
17A0
100
AcDbEntity
  8
0
100
AcDbBlockEnd
  0
BLOCK
  5
17BD
330
17BC
100
AcDbEntity
  8
0
100
AcDbBlockBegin
  2
*D10
 70
     1
 10
0.0
 20
0.0
 30
0.0
  3
*D10
  1
*D54
  0
LINE
  5
17BF
330
17BC
100
AcDbEntity
  8
DIM
 62
     0
370
    -2
100
AcDbLine
 10
-266.9479771814878
 20
584.7930199689371
 30
0.0
 11
-238.0005079817896
 21
584.7930199689371
 31
0.0
  0
LINE
  5
17C0
330
17BC
100
AcDbEntity
  8
DIM
 62
     0
370
    -2
100
AcDbLine
 10
-263.1570615189634
 20
554.8854335595191
 30
0.0
 11
-238.0005079817896
 21
554.8854335595191
 31
0.0
  0
LINE
  5
17C1
330
17BC
100
AcDbEntity
  8
DIM
 62
     0
370
    -2
100
AcDbLine
 10
-238.0005079817896
 20
554.8854335595191
 30
0.0
 11
-238.0005079817896
 21
473.1374335595191
 31
0.0
  0
LINE
  5
17C2
330
17BC
100
AcDbEntity
  8
DIM
 62
     0
370
    -2
100
AcDbLine
 10
-238.0005079817896
 20
582.7930199689371
 30
0.0
 11
-238.0005079817896
 21
556.8854335595191
 31
0.0
  0
INSERT
  5
17C3
330
17BC
100
AcDbEntity
  8
DIM
 62
     0
370
    -2
100
AcDbBlockReference
  2
_DOT
 10
-238.0005079817896
 20
584.7930199689371
 30
0.0
 41
2.0
 42
2.0
 43
2.0
 50
90.0
  0
INSERT
  5
17C4
330
17BC
100
AcDbEntity
  8
DIM
 62
     0
370
    -2
100
AcDbBlockReference
  2
_DOT
 10
-238.0005079817896
 20
554.8854335595191
 30
0.0
 41
2.0
 42
2.0
 43
2.0
 50
270.0
  0
MTEXT
  5
17C5
330
17BC
100
AcDbEntity
  8
DIM
 62
     0
100
AcDbMText
 10
-254.0005079817896
 20
510.0114335595191
 30
0.0
 40
12.0
 41
0.0
 46
0.0
 71
     5
 72
     1
  1
\A1;max. 30
  7
ＭＳ ゴシック
 11
0.0
 21
1.0
 31
0.0
 73
     1
 44
1.0
  0
POINT
  5
17C6
330
17BC
100
AcDbEntity
  8
Defpoints
 62
     0
100
AcDbPoint
 10
-271.9479771814878
 20
584.7930199689371
 30
0.0
  0
POINT
  5
17C7
330
17BC
100
AcDbEntity
  8
Defpoints
 62
     0
100
AcDbPoint
 10
-268.1570615189634
 20
554.8854335595191
 30
0.0
  0
POINT
  5
17CA
330
17BC
100
AcDbEntity
  8
Defpoints
 62
     0
100
AcDbPoint
 10
-238.0005079817896
 20
554.8854335595191
 30
0.0
  0
ENDBLK
  5
17BE
330
17BC
100
AcDbEntity
  8
0
100
AcDbBlockEnd
  0
BLOCK
  5
528F
330
528E
100
AcDbEntity
  8
0
100
AcDbBlockBegin
  2
*D11
 70
     1
 10
0.0
 20
0.0
 30
0.0
  3
*D11
  1
*D180
  0
LINE
  5
5291
330
528E
100
AcDbEntity
  8
DIM
  6
Continuous
 62
     0
370
    -2
100
AcDbLine
 10
-207.5753895233053
 20
977.2721363221665
 30
0.0
 11
-163.6424299452556
 21
977.2721363221665
 31
0.0
  0
LINE
  5
5292
330
528E
100
AcDbEntity
  8
DIM
  6
Continuous
 62
     0
370
    -2
100
AcDbLine
 10
-239.0090207202426
 20
1044.68174079606
 30
0.0
 11
-210.7694720948707
 21
1078.336351635498
 31
0.0
  0
ARC
  5
5293
330
528E
100
AcDbEntity
  8
DIM
  6
Continuous
 62
     0
370
    -2
100
AcDbCircle
 10
-295.5723490689053
 20
977.2721363221665
 30
0.0
 40
131.9299191236497
100
AcDbArc
 50
0.8685873309782567
 51
49.13143556460852
  0
INSERT
  5
5294
330
528E
100
AcDbEntity
  8
DIM
 62
     0
370
    -2
100
AcDbBlockReference
  2
_DOT
 10
-163.6424299452556
 20
977.2721363221665
 30
0.0
 41
2.0
 42
2.0
 43
2.0
 50
270.4342936654891
  0
INSERT
  5
5295
330
528E
100
AcDbEntity
  8
DIM
 62
     0
370
    -2
100
AcDbBlockReference
  2
_DOT
 10
-210.7694720948707
 20
1078.336351635498
 30
0.0
 41
2.0
 42
2.0
 43
2.0
 50
139.5657292300976
  0
MTEXT
  5
5296
330
528E
100
AcDbEntity
  8
DIM
 62
     0
100
AcDbMText
 10
-161.3119993050034
 20
1039.878798261901
 30
0.0
 40
12.0
 41
0.0
 46
0.0
 71
     5
 72
     1
  1
\A1;\A1;50%%d
  7
ＭＳ ゴシック
 11
0.4226184428214646
 21
-0.9063077025972804
 31
0.0
 73
     1
 44
1.0
  0
POINT
  5
5297
330
528E
100
AcDbEntity
  8
Defpoints
 62
     0
100
AcDbPoint
 10
-185.3465289936827
 20
1049.768840721176
 30
0.0
  0
POINT
  5
5298
330
528E
100
AcDbEntity
  8
Defpoints
 62
     0
100
AcDbPoint
 10
-295.5723490689053
 20
977.2721363221665
 30
0.0
  0
POINT
  5
5299
330
528E
100
AcDbEntity
  8
Defpoints
 62
     0
100
AcDbPoint
 10
-295.5723490689053
 20
977.2721363221665
 30
0.0
  0
POINT
  5
529A
330
528E
100
AcDbEntity
  8
Defpoints
 62
     0
100
AcDbPoint
 10
-242.2229572381053
 20
1040.851517296165
 30
0.0
  0
POINT
  5
529B
330
528E
100
AcDbEntity
  8
Defpoints
 62
     0
100
AcDbPoint
 10
-212.5753895233053
 20
977.2721363221665
 30
0.0
  0
ENDBLK
  5
5290
330
528E
100
AcDbEntity
  8
0
100
AcDbBlockEnd
  0
BLOCK
  5
529D
330
529C
100
AcDbEntity
  8
0
100
AcDbBlockBegin
  2
*D12
 70
     1
 10
0.0
 20
0.0
 30
0.0
  3
*D12
  1
*D181
  0
LINE
  5
529F
330
529C
100
AcDbEntity
  8
DIM
  6
Continuous
 62
     0
370
    -2
100
AcDbLine
 10
-239.0090207202426
 20
909.8625318482716
 30
0.0
 11
-210.7884466621311
 21
876.2305340358844
 31
0.0
  0
LINE
  5
52A0
330
529C
100
AcDbEntity
  8
DIM
  6
Continuous
 62
     0
370
    -2
100
AcDbLine
 10
-207.5753895233053
 20
977.2721363221665
 30
0.0
 11
-163.6719491457033
 21
977.2721363221665
 31
0.0
  0
ARC
  5
52A1
330
529C
100
AcDbEntity
  8
DIM
  6
Continuous
 62
     0
370
    -2
100
AcDbCircle
 10
-295.5723490689053
 20
977.2721363221665
 30
0.0
 40
131.900399923202
100
AcDbArc
 50
310.8687588282413
 51
359.1312182761714
  0
INSERT
  5
52A2
330
529C
100
AcDbEntity
  8
DIM
 62
     0
370
    -2
100
AcDbBlockReference
  2
_DOT
 10
-210.7884466621311
 20
876.2305340358844
 30
0.0
 41
2.0
 42
2.0
 43
2.0
 50
220.434367966327
  0
INSERT
  5
52A3
330
529C
100
AcDbEntity
  8
DIM
 62
     0
370
    -2
100
AcDbBlockReference
  2
_DOT
 10
-163.6719491457033
 20
977.2721363221665
 30
0.0
 41
2.0
 42
2.0
 43
2.0
 50
89.56560913808569
  0
MTEXT
  5
52A4
330
529C
100
AcDbEntity
  8
DIM
 62
     0
100
AcDbMText
 10
-190.7212485019999
 20
928.3792396571181
 30
0.0
 40
12.0
 41
0.0
 46
0.0
 71
     5
 72
     1
  1
\A1;\A1;50%%d
  7
ＭＳ ゴシック
 11
0.4226184428224356
 21
0.9063077025968275
 31
0.0
 73
     1
 44
1.0
  0
POINT
  5
52A5
330
529C
100
AcDbEntity
  8
Defpoints
 62
     0
100
AcDbPoint
 10
-185.3711919215385
 20
904.7916529953976
 30
0.0
  0
POINT
  5
52A6
330
529C
100
AcDbEntity
  8
Defpoints
 62
     0
100
AcDbPoint
 10
-295.5723490689053
 20
977.2721363221665
 30
0.0
  0
POINT
  5
52A7
330
529C
100
AcDbEntity
  8
Defpoints
 62
     0
100
AcDbPoint
 10
-295.5723490689053
 20
977.2721363221665
 30
0.0
  0
POINT
  5
52A8
330
529C
100
AcDbEntity
  8
Defpoints
 62
     0
100
AcDbPoint
 10
-242.2229572381053
 20
913.6927553481667
 30
0.0
  0
POINT
  5
52A9
330
529C
100
AcDbEntity
  8
Defpoints
 62
     0
100
AcDbPoint
 10
-212.5753895233053
 20
977.2721363221665
 30
0.0
  0
ENDBLK
  5
529E
330
529C
100
AcDbEntity
  8
0
100
AcDbBlockEnd
  0
BLOCK
  5
52DE
330
52DD
100
AcDbEntity
  8
0
100
AcDbBlockBegin
  2
*D13
 70
     1
 10
0.0
 20
0.0
 30
0.0
  3
*D13
  1
*D186
  0
LINE
  5
52E0
330
52DD
100
AcDbEntity
  8
DIM
  6
Continuous
 62
     0
370
    -2
100
AcDbLine
 10
-205.4284433023048
 20
665.739013240537
 30
0.0
 11
-205.4284433023048
 21
644.9255475526911
 31
0.0
  0
LINE
  5
52E1
330
52DD
100
AcDbEntity
  8
DIM
  6
Continuous
 62
     0
370
    -2
100
AcDbLine
 10
-203.4848498383751
 20
666.20790906948
 30
0.0
 11
-196.6618804203525
 21
646.3925670573126
 31
0.0
  0
ARC
  5
52E2
330
52DD
100
AcDbEntity
  8
DIM
  6
Continuous
 62
     0
370
    -2
100
AcDbCircle
 10
-205.4284433023048
 20
671.8525143521373
 30
0.0
 40
26.9269667994462
100
AcDbArc
 50
274.256621879935
 51
284.7433781109
  0
INSERT
  5
52E3
330
52DD
100
AcDbEntity
  8
DIM
 62
     0
370
    -2
100
AcDbBlockReference
  2
_DOT
 10
-205.4284433023048
 20
644.9255475526911
 30
0.0
 41
2.0
 42
2.0
 43
2.0
 50
182.1283109399675
  0
INSERT
  5
52E4
330
52DD
100
AcDbEntity
  8
DIM
 62
     0
370
    -2
100
AcDbBlockReference
  2
_DOT
 10
-196.6618804203525
 20
646.3925670573126
 30
0.0
 41
2.0
 42
2.0
 43
2.0
 50
16.87168905086749
  0
MTEXT
  5
52E5
330
52DD
100
AcDbEntity
  8
DIM
 62
     0
100
AcDbMText
 10
-195.1420403270876
 20
629.9599396104486
 30
0.0
 40
12.0
 41
0.0
 46
0.0
 71
     5
 72
     1
  1
\A1;\A1;19%%d
  7
ＭＳ ゴシック
 11
0.9711525369054564
 21
0.238459116122861
 31
0.0
 73
     1
 44
1.0
  0
POINT
  5
52E6
330
52DD
100
AcDbEntity
  8
Defpoints
 62
     0
100
AcDbPoint
 10
-202.4580607833727
 20
645.0898842738043
 30
0.0
  0
POINT
  5
52E7
330
52DD
100
AcDbEntity
  8
Defpoints
 62
     0
100
AcDbPoint
 10
-205.4284433023048
 20
671.8525143521373
 30
0.0
  0
POINT
  5
52E8
330
52DD
100
AcDbEntity
  8
Defpoints
 62
     0
100
AcDbPoint
 10
-205.4284433023048
 20
671.8525143521373
 30
0.0
  0
POINT
  5
52E9
330
52DD
100
AcDbEntity
  8
Defpoints
 62
     0
100
AcDbPoint
 10
-205.4284433023048
 20
670.739013240537
 30
0.0
  0
POINT
  5
52EA
330
52DD
100
AcDbEntity
  8
Defpoints
 62
     0
100
AcDbPoint
 10
-205.1126906099047
 20
670.935501947737
 30
0.0
  0
ENDBLK
  5
52DF
330
52DD
100
AcDbEntity
  8
0
100
AcDbBlockEnd
  0
BLOCK
  5
535F
330
535E
100
AcDbEntity
  8
0
100
AcDbBlockBegin
  2
*D14
 70
     1
 10
0.0
 20
0.0
 30
0.0
  3
*D14
  1
*D195
  0
LINE
  5
5361
330
535E
100
AcDbEntity
  8
DIM
 62
     0
370
    -2
100
AcDbLine
 10
-665.2773563670436
 20
584.7930199689371
 30
0.0
 11
-617.0190628856021
 21
584.7930199689371
 31
0.0
  0
LINE
  5
5362
330
535E
100
AcDbEntity
  8
DIM
 62
     0
370
    -2
100
AcDbLine
 10
-665.2773563670436
 20
731.7930199689371
 30
0.0
 11
-617.0190628856021
 21
731.7930199689371
 31
0.0
  0
LINE
  5
5363
330
535E
100
AcDbEntity
  8
DIM
 62
     0
370
    -2
100
AcDbLine
 10
-617.0190628856021
 20
586.7930199689371
 30
0.0
 11
-617.0190628856021
 21
729.7930199689371
 31
0.0
  0
INSERT
  5
5364
330
535E
100
AcDbEntity
  8
DIM
 62
     0
370
    -2
100
AcDbBlockReference
  2
_DOT
 10
-617.0190628856021
 20
584.7930199689371
 30
0.0
 41
2.0
 42
2.0
 43
2.0
 50
270.0
  0
INSERT
  5
5365
330
535E
100
AcDbEntity
  8
DIM
 62
     0
370
    -2
100
AcDbBlockReference
  2
_DOT
 10
-617.0190628856021
 20
731.7930199689371
 30
0.0
 41
2.0
 42
2.0
 43
2.0
 50
90.0
  0
MTEXT
  5
5366
330
535E
100
AcDbEntity
  8
DIM
 62
     0
100
AcDbMText
 10
-633.0190628856021
 20
658.2930199689371
 30
0.0
 40
12.0
 41
0.0
 46
0.0
 71
     5
 72
     1
  1
\A1;147
  7
ＭＳ ゴシック
 11
0.0
 21
1.0
 31
0.0
 73
     1
 44
1.0
  0
POINT
  5
5367
330
535E
100
AcDbEntity
  8
Defpoints
 62
     0
100
AcDbPoint
 10
-670.2773563670436
 20
584.7930199689371
 30
0.0
  0
POINT
  5
5368
330
535E
100
AcDbEntity
  8
Defpoints
 62
     0
100
AcDbPoint
 10
-670.2773563670436
 20
731.7930199689371
 30
0.0
  0
POINT
  5
5369
330
535E
100
AcDbEntity
  8
Defpoints
 62
     0
100
AcDbPoint
 10
-617.0190628856021
 20
731.7930199689371
 30
0.0
  0
ENDBLK
  5
5360
330
535E
100
AcDbEntity
  8
0
100
AcDbBlockEnd
  0
BLOCK
  5
6D3A
330
6D39
100
AcDbEntity
  8
0
100
AcDbBlockBegin
  2
*D15
 70
     1
 10
0.0
 20
0.0
 30
0.0
  3
*D15
  1
*D16
  0
LINE
  5
6D3C
330
6D39
100
AcDbEntity
  8
DIM
 62
     0
370
    -2
100
AcDbLine
 10
562.9716035188872
 20
759.0014491832753
 30
0.0
 11
555.7692641093848
 21
759.0014491832753
 31
0.0
  0
LINE
  5
6D3D
330
6D39
100
AcDbEntity
  8
DIM
 62
     0
370
    -2
100
AcDbLine
 10
562.9716035188872
 20
739.0014496303102
 30
0.0
 11
555.7692641093848
 21
739.0014496303102
 31
0.0
  0
LINE
  5
6D3E
330
6D39
100
AcDbEntity
  8
DIM
 62
     0
370
    -2
100
AcDbLine
 10
555.7692641093848
 20
761.0014491832753
 30
0.0
 11
555.7692641093848
 21
763.0014491832753
 31
0.0
  0
LINE
  5
6D3F
330
6D39
100
AcDbEntity
  8
DIM
 62
     0
370
    -2
100
AcDbLine
 10
555.7692641093848
 20
737.0014496303102
 30
0.0
 11
555.7692641093848
 21
735.0014496303102
 31
0.0
  0
INSERT
  5
6D40
330
6D39
100
AcDbEntity
  8
DIM
 62
     0
370
    -2
100
AcDbBlockReference
  2
_DOT
 10
555.7692641093848
 20
759.0014491832753
 30
0.0
 41
2.0
 42
2.0
 43
2.0
 50
270.0
  0
INSERT
  5
6D41
330
6D39
100
AcDbEntity
  8
DIM
 62
     0
370
    -2
100
AcDbBlockReference
  2
_DOT
 10
555.7692641093848
 20
739.0014496303102
 30
0.0
 41
2.0
 42
2.0
 43
2.0
 50
90.0
  0
MTEXT
  5
6D42
330
6D39
100
AcDbEntity
  8
DIM
 62
     0
100
AcDbMText
 10
539.7692641093848
 20
749.0014494067927
 30
0.0
 40
12.0
 41
0.0
 46
0.0
 71
     5
 72
     1
  1
\A1;20
  7
ＭＳ ゴシック
 11
0.0
 21
1.0
 31
0.0
 73
     1
 44
1.0
  0
POINT
  5
6D43
330
6D39
100
AcDbEntity
  8
Defpoints
 62
     0
100
AcDbPoint
 10
567.9716035188872
 20
759.0014491832753
 30
0.0
  0
POINT
  5
6D44
330
6D39
100
AcDbEntity
  8
Defpoints
 62
     0
100
AcDbPoint
 10
567.9716035188872
 20
739.0014496303102
 30
0.0
  0
POINT
  5
6D45
330
6D39
100
AcDbEntity
  8
Defpoints
 62
     0
100
AcDbPoint
 10
555.7692641093848
 20
739.0014496303102
 30
0.0
  0
ENDBLK
  5
6D3B
330
6D39
100
AcDbEntity
  8
0
100
AcDbBlockEnd
  0
BLOCK
  5
6D55
330
6D54
100
AcDbEntity
  8
0
100
AcDbBlockBegin
  2
*D16
 70
     1
 10
0.0
 20
0.0
 30
0.0
  3
*D16
  1
*D17
  0
LINE
  5
6D57
330
6D54
100
AcDbEntity
  8
DIM
 62
     0
370
    -2
100
AcDbLine
 10
324.3997064207914
 20
201.0631141560085
 30
0.0
 11
324.3997064207914
 21
158.7052588436239
 31
0.0
  0
LINE
  5
6D58
330
6D54
100
AcDbEntity
  8
DIM
 62
     0
370
    -2
100
AcDbLine
 10
250.7063862656477
 20
176.5123190826287
 30
0.0
 11
250.7063862656477
 21
158.7052588436239
 31
0.0
  0
LINE
  5
6D59
330
6D54
100
AcDbEntity
  8
DIM
 62
     0
370
    -2
100
AcDbLine
 10
322.3997064207914
 20
158.7052588436239
 30
0.0
 11
252.7063862656477
 21
158.7052588436239
 31
0.0
  0
INSERT
  5
6D5A
330
6D54
100
AcDbEntity
  8
DIM
 62
     0
370
    -2
100
AcDbBlockReference
  2
_DOT
 10
324.3997064207914
 20
158.7052588436239
 30
0.0
 41
2.0
 42
2.0
 43
2.0
  0
INSERT
  5
6D5B
330
6D54
100
AcDbEntity
  8
DIM
 62
     0
370
    -2
100
AcDbBlockReference
  2
_DOT
 10
250.7063862656477
 20
158.7052588436239
 30
0.0
 41
2.0
 42
2.0
 43
2.0
 50
180.0
  0
MTEXT
  5
6D5C
330
6D54
100
AcDbEntity
  8
DIM
 62
     0
100
AcDbMText
 10
287.5530463432195
 20
163.2052588436239
 30
0.0
 40
5.0
 41
0.0
 46
0.0
 71
     5
 72
     1
  1
\A1;74
  7
ＭＳ ゴシック
 73
     1
 44
1.0
  0
POINT
  5
6D5D
330
6D54
100
AcDbEntity
  8
Defpoints
 62
     0
100
AcDbPoint
 10
324.3997064207914
 20
206.0631141560085
 30
0.0
  0
POINT
  5
6D5E
330
6D54
100
AcDbEntity
  8
Defpoints
 62
     0
100
AcDbPoint
 10
250.7063862656477
 20
181.5123190826287
 30
0.0
  0
POINT
  5
6D5F
330
6D54
100
AcDbEntity
  8
Defpoints
 62
     0
100
AcDbPoint
 10
250.7063862656477
 20
158.7052588436239
 30
0.0
  0
ENDBLK
  5
6D56
330
6D54
100
AcDbEntity
  8
0
100
AcDbBlockEnd
  0
BLOCK
  5
6D62
330
6D61
100
AcDbEntity
  8
0
100
AcDbBlockBegin
  2
*D17
 70
     1
 10
0.0
 20
0.0
 30
0.0
  3
*D17
  1
*D18
  0
LINE
  5
6D64
330
6D61
100
AcDbEntity
  8
DIM
 62
     0
370
    -2
100
AcDbLine
 10
250.7063862656477
 20
176.5123190826287
 30
0.0
 11
250.7063862656477
 21
158.7052588436239
 31
0.0
  0
LINE
  5
6D65
330
6D61
100
AcDbEntity
  8
DIM
 62
     0
370
    -2
100
AcDbLine
 10
230.7063862656477
 20
244.98572846222
 30
0.0
 11
230.7063862656477
 21
158.7052588436239
 31
0.0
  0
LINE
  5
6D66
330
6D61
100
AcDbEntity
  8
DIM
 62
     0
370
    -2
100
AcDbLine
 10
248.7063862656477
 20
158.7052588436239
 30
0.0
 11
232.7063862656477
 21
158.7052588436239
 31
0.0
  0
INSERT
  5
6D67
330
6D61
100
AcDbEntity
  8
DIM
 62
     0
370
    -2
100
AcDbBlockReference
  2
_DOT
 10
250.7063862656477
 20
158.7052588436239
 30
0.0
 41
2.0
 42
2.0
 43
2.0
  0
INSERT
  5
6D68
330
6D61
100
AcDbEntity
  8
DIM
 62
     0
370
    -2
100
AcDbBlockReference
  2
_DOT
 10
230.7063862656477
 20
158.7052588436239
 30
0.0
 41
2.0
 42
2.0
 43
2.0
 50
180.0
  0
MTEXT
  5
6D69
330
6D61
100
AcDbEntity
  8
DIM
 62
     0
100
AcDbMText
 10
240.2063862656477
 20
163.2052588436239
 30
0.0
 40
5.0
 41
0.0
 46
0.0
 71
     5
 72
     1
  1
\A1;20
  7
ＭＳ ゴシック
 73
     1
 44
1.0
  0
POINT
  5
6D6A
330
6D61
100
AcDbEntity
  8
Defpoints
 62
     0
100
AcDbPoint
 10
250.7063862656477
 20
181.5123190826287
 30
0.0
  0
POINT
  5
6D6B
330
6D61
100
AcDbEntity
  8
Defpoints
 62
     0
100
AcDbPoint
 10
230.7063862656477
 20
249.98572846222
 30
0.0
  0
POINT
  5
6D6C
330
6D61
100
AcDbEntity
  8
Defpoints
 62
     0
100
AcDbPoint
 10
230.7063862656477
 20
158.7052588436239
 30
0.0
  0
ENDBLK
  5
6D63
330
6D61
100
AcDbEntity
  8
0
100
AcDbBlockEnd
  0
BLOCK
  5
6D70
330
6D6F
100
AcDbEntity
  8
0
100
AcDbBlockBegin
  2
*D18
 70
     1
 10
0.0
 20
0.0
 30
0.0
  3
*D18
  1
*D19
  0
LINE
  5
6D72
330
6D6F
100
AcDbEntity
  8
DIM
 62
     0
370
    -2
100
AcDbLine
 10
467.7564224872594
 20
556.3060297558618
 30
0.0
 11
467.7564224872594
 21
576.4934079428253
 31
0.0
  0
LINE
  5
6D73
330
6D6F
100
AcDbEntity
  8
DIM
 62
     0
370
    -2
100
AcDbLine
 10
447.7564224872594
 20
556.3060297558618
 30
0.0
 11
447.7564224872594
 21
576.4934079428253
 31
0.0
  0
LINE
  5
6D74
330
6D6F
100
AcDbEntity
  8
DIM
 62
     0
370
    -2
100
AcDbLine
 10
465.7564224872594
 20
576.4934079428253
 30
0.0
 11
449.7564224872594
 21
576.4934079428253
 31
0.0
  0
INSERT
  5
6D75
330
6D6F
100
AcDbEntity
  8
DIM
 62
     0
370
    -2
100
AcDbBlockReference
  2
_DOT
 10
467.7564224872594
 20
576.4934079428253
 30
0.0
 41
2.0
 42
2.0
 43
2.0
  0
INSERT
  5
6D76
330
6D6F
100
AcDbEntity
  8
DIM
 62
     0
370
    -2
100
AcDbBlockReference
  2
_DOT
 10
447.7564224872594
 20
576.4934079428253
 30
0.0
 41
2.0
 42
2.0
 43
2.0
 50
180.0
  0
MTEXT
  5
6D77
330
6D6F
100
AcDbEntity
  8
DIM
 62
     0
100
AcDbMText
 10
457.7564224872594
 20
592.4934079428253
 30
0.0
 40
12.0
 41
0.0
 46
0.0
 71
     5
 72
     1
  1
\A1;20
  7
ＭＳ ゴシック
 73
     1
 44
1.0
  0
POINT
  5
6D78
330
6D6F
100
AcDbEntity
  8
Defpoints
 62
     0
100
AcDbPoint
 10
467.7564224872594
 20
551.3060297558618
 30
0.0
  0
POINT
  5
6D79
330
6D6F
100
AcDbEntity
  8
Defpoints
 62
     0
100
AcDbPoint
 10
447.7564224872594
 20
551.3060297558618
 30
0.0
  0
POINT
  5
6D7A
330
6D6F
100
AcDbEntity
  8
Defpoints
 62
     0
100
AcDbPoint
 10
447.7564224872594
 20
576.4934079428253
 30
0.0
  0
ENDBLK
  5
6D71
330
6D6F
100
AcDbEntity
  8
0
100
AcDbBlockEnd
  0
BLOCK
  5
709D
330
709C
100
AcDbEntity
  8
0
100
AcDbBlockBegin
  2
*D19
 70
     1
 10
0.0
 20
0.0
 30
0.0
  3
*D19
  1
*D23
  0
LINE
  5
709F
330
709C
100
AcDbEntity
  8
DIM
 62
     0
370
    -2
100
AcDbLine
 10
328.92380611569
 20
528.5334565678319
 30
0.0
 11
328.92380611569
 21
567.5741791948802
 31
0.0
  0
LINE
  5
70A0
330
709C
100
AcDbEntity
  8
DIM
 62
     0
370
    -2
100
AcDbLine
 10
280.9238061156892
 20
528.5334565678319
 30
0.0
 11
280.9238061156892
 21
567.5741791948802
 31
0.0
  0
LINE
  5
70A1
330
709C
100
AcDbEntity
  8
DIM
 62
     0
370
    -2
100
AcDbLine
 10
326.92380611569
 20
567.5741791948802
 30
0.0
 11
282.9238061156892
 21
567.5741791948802
 31
0.0
  0
INSERT
  5
70A2
330
709C
100
AcDbEntity
  8
DIM
 62
     0
370
    -2
100
AcDbBlockReference
  2
_DOT
 10
328.92380611569
 20
567.5741791948802
 30
0.0
 41
2.0
 42
2.0
 43
2.0
  0
INSERT
  5
70A3
330
709C
100
AcDbEntity
  8
DIM
 62
     0
370
    -2
100
AcDbBlockReference
  2
_DOT
 10
280.9238061156892
 20
567.5741791948802
 30
0.0
 41
2.0
 42
2.0
 43
2.0
 50
180.0
  0
MTEXT
  5
70A4
330
709C
100
AcDbEntity
  8
DIM
 62
     0
100
AcDbMText
 10
304.9238061156896
 20
583.5741791948802
 30
0.0
 40
12.0
 41
0.0
 46
0.0
 71
     5
 72
     1
  1
\A1;48
  7
ＭＳ ゴシック
 73
     1
 44
1.0
  0
POINT
  5
70A5
330
709C
100
AcDbEntity
  8
Defpoints
 62
     0
100
AcDbPoint
 10
328.92380611569
 20
523.5334565678319
 30
0.0
  0
POINT
  5
70A6
330
709C
100
AcDbEntity
  8
Defpoints
 62
     0
100
AcDbPoint
 10
280.9238061156892
 20
523.5334565678319
 30
0.0
  0
POINT
  5
70A7
330
709C
100
AcDbEntity
  8
Defpoints
 62
     0
100
AcDbPoint
 10
280.9238061156892
 20
567.5741791948802
 30
0.0
  0
ENDBLK
  5
709E
330
709C
100
AcDbEntity
  8
0
100
AcDbBlockEnd
  0
BLOCK
  5
70D4
330
70D3
100
AcDbEntity
  8
0
100
AcDbBlockBegin
  2
*D20
 70
     1
 10
0.0
 20
0.0
 30
0.0
  3
*D20
  1
*D24
  0
LINE
  5
70D6
330
70D3
100
AcDbEntity
  8
DIM
 62
     0
370
    -2
100
AcDbLine
 10
309.9238061156896
 20
547.5334565678322
 30
0.0
 11
369.6526534180869
 21
547.5334565678322
 31
0.0
  0
LINE
  5
70D7
330
70D3
100
AcDbEntity
  8
DIM
 62
     0
370
    -2
100
AcDbLine
 10
310.2201393965472
 20
452.3947542348584
 30
0.0
 11
369.6526534180869
 21
452.3947542348584
 31
0.0
  0
LINE
  5
70D8
330
70D3
100
AcDbEntity
  8
DIM
 62
     0
370
    -2
100
AcDbLine
 10
369.6526534180869
 20
545.5334565678322
 30
0.0
 11
369.6526534180869
 21
454.3947542348584
 31
0.0
  0
INSERT
  5
70D9
330
70D3
100
AcDbEntity
  8
DIM
 62
     0
370
    -2
100
AcDbBlockReference
  2
_DOT
 10
369.6526534180869
 20
547.5334565678322
 30
0.0
 41
2.0
 42
2.0
 43
2.0
 50
90.0
  0
INSERT
  5
70DA
330
70D3
100
AcDbEntity
  8
DIM
 62
     0
370
    -2
100
AcDbBlockReference
  2
_DOT
 10
369.6526534180869
 20
452.3947542348584
 30
0.0
 41
2.0
 42
2.0
 43
2.0
 50
270.0
  0
MTEXT
  5
70DB
330
70D3
100
AcDbEntity
  8
DIM
 62
     0
100
AcDbMText
 10
353.6526534180869
 20
499.9641054013453
 30
0.0
 40
12.0
 41
0.0
 46
0.0
 71
     5
 72
     1
  1
\A1;95
  7
ＭＳ ゴシック
 11
0.0
 21
1.0
 31
0.0
 73
     1
 44
1.0
  0
POINT
  5
70DC
330
70D3
100
AcDbEntity
  8
Defpoints
 62
     0
100
AcDbPoint
 10
304.9238061156896
 20
547.5334565678322
 30
0.0
  0
POINT
  5
70DD
330
70D3
100
AcDbEntity
  8
Defpoints
 62
     0
100
AcDbPoint
 10
305.2201393965472
 20
452.3947542348584
 30
0.0
  0
POINT
  5
70DE
330
70D3
100
AcDbEntity
  8
Defpoints
 62
     0
100
AcDbPoint
 10
369.6526534180869
 20
452.3947542348584
 30
0.0
  0
ENDBLK
  5
70D5
330
70D3
100
AcDbEntity
  8
0
100
AcDbBlockEnd
  0
BLOCK
  5
70E1
330
70E0
100
AcDbEntity
  8
0
100
AcDbBlockBegin
  2
*D21
 70
     1
 10
0.0
 20
0.0
 30
0.0
  3
*D21
  1
*D25
  0
LINE
  5
70E3
330
70E0
100
AcDbEntity
  8
DIM
 62
     0
370
    -2
100
AcDbLine
 10
442.7564224872594
 20
523.5334565678319
 30
0.0
 11
365.5038358061061
 21
523.5334565678319
 31
0.0
  0
LINE
  5
70E4
330
70E0
100
AcDbEntity
  8
DIM
 62
     0
370
    -2
100
AcDbLine
 10
443.7564225347569
 20
398.3387659867494
 30
0.0
 11
365.5038358061061
 21
398.3387659867494
 31
0.0
  0
LINE
  5
70E5
330
70E0
100
AcDbEntity
  8
DIM
 62
     0
370
    -2
100
AcDbLine
 10
365.5038358061061
 20
521.5334565678319
 30
0.0
 11
365.5038358061061
 21
400.3387659867494
 31
0.0
  0
INSERT
  5
70E6
330
70E0
100
AcDbEntity
  8
DIM
 62
     0
370
    -2
100
AcDbBlockReference
  2
_DOT
 10
365.5038358061061
 20
523.5334565678319
 30
0.0
 41
2.0
 42
2.0
 43
2.0
 50
90.0
  0
INSERT
  5
70E7
330
70E0
100
AcDbEntity
  8
DIM
 62
     0
370
    -2
100
AcDbBlockReference
  2
_DOT
 10
365.5038358061061
 20
398.3387659867494
 30
0.0
 41
2.0
 42
2.0
 43
2.0
 50
270.0
  0
MTEXT
  5
70E8
330
70E0
100
AcDbEntity
  8
DIM
 62
     0
100
AcDbMText
 10
349.5038358061061
 20
460.9361112772906
 30
0.0
 40
12.0
 41
0.0
 46
0.0
 71
     5
 72
     1
  1
\A1;125
  7
ＭＳ ゴシック
 11
0.0
 21
1.0
 31
0.0
 73
     1
 44
1.0
  0
POINT
  5
70E9
330
70E0
100
AcDbEntity
  8
Defpoints
 62
     0
100
AcDbPoint
 10
447.7564224872594
 20
523.5334565678319
 30
0.0
  0
POINT
  5
70EA
330
70E0
100
AcDbEntity
  8
Defpoints
 62
     0
100
AcDbPoint
 10
448.7564225347569
 20
398.3387659867494
 30
0.0
  0
POINT
  5
70EB
330
70E0
100
AcDbEntity
  8
Defpoints
 62
     0
100
AcDbPoint
 10
365.5038358061061
 20
398.3387659867494
 30
0.0
  0
ENDBLK
  5
70E2
330
70E0
100
AcDbEntity
  8
0
100
AcDbBlockEnd
  0
BLOCK
  5
70F6
330
70F5
100
AcDbEntity
  8
0
100
AcDbBlockBegin
  2
*D22
 70
     1
 10
0.0
 20
0.0
 30
0.0
  3
*D22
  1
*D26
  0
LINE
  5
70F8
330
70F5
100
AcDbEntity
  8
DIM
 62
     0
370
    -2
100
AcDbLine
 10
339.1882053238313
 20
206.0631141560085
 30
0.0
 11
364.2724864140153
 21
206.0631141560085
 31
0.0
  0
LINE
  5
70F9
330
70F5
100
AcDbEntity
  8
DIM
 62
     0
370
    -2
100
AcDbLine
 10
315.8222198162533
 20
273.9857286708362
 30
0.0
 11
364.2724864140153
 21
273.9857286708362
 31
0.0
  0
LINE
  5
70FA
330
70F5
100
AcDbEntity
  8
DIM
 62
     0
370
    -2
100
AcDbLine
 10
364.2724864140153
 20
208.0631141560085
 30
0.0
 11
364.2724864140153
 21
271.9857286708362
 31
0.0
  0
INSERT
  5
70FB
330
70F5
100
AcDbEntity
  8
DIM
 62
     0
370
    -2
100
AcDbBlockReference
  2
_DOT
 10
364.2724864140153
 20
206.0631141560085
 30
0.0
 41
2.0
 42
2.0
 43
2.0
 50
270.0
  0
INSERT
  5
70FC
330
70F5
100
AcDbEntity
  8
DIM
 62
     0
370
    -2
100
AcDbBlockReference
  2
_DOT
 10
364.2724864140153
 20
273.9857286708362
 30
0.0
 41
2.0
 42
2.0
 43
2.0
 50
90.0
  0
MTEXT
  5
70FD
330
70F5
100
AcDbEntity
  8
DIM
 62
     0
100
AcDbMText
 10
359.7724864140153
 20
240.0244214134223
 30
0.0
 40
5.0
 41
0.0
 46
0.0
 71
     5
 72
     1
  1
\A1;68
  7
ＭＳ ゴシック
 11
0.0
 21
1.0
 31
0.0
 73
     1
 44
1.0
  0
POINT
  5
70FE
330
70F5
100
AcDbEntity
  8
Defpoints
 62
     0
100
AcDbPoint
 10
334.1882053238313
 20
206.0631141560085
 30
0.0
  0
POINT
  5
70FF
330
70F5
100
AcDbEntity
  8
Defpoints
 62
     0
100
AcDbPoint
 10
310.8222198162533
 20
273.9857286708362
 30
0.0
  0
POINT
  5
7100
330
70F5
100
AcDbEntity
  8
Defpoints
 62
     0
100
AcDbPoint
 10
364.2724864140153
 20
273.9857286708362
 30
0.0
  0
ENDBLK
  5
70F7
330
70F5
100
AcDbEntity
  8
0
100
AcDbBlockEnd
  0
ENDSEC
  0
SECTION
  2
ENTITIES
  0
MTEXT
  5
177
330
A
100
AcDbEntity
  8
MODEL
390
1D
100
AcDbMText
 10
15.84042890954615
 20
68.74635032628566
 30
0.0
 40
3.257682291666666
 41
0.0
 46
0.0
 71
     1
 72
     1
  1
品名
  7
ＭＳ ゴシック
 73
     1
 44
0.7828267384257843
  0
MTEXT
  5
178
330
A
100
AcDbEntity
  8
MODEL
390
1D
100
AcDbMText
 10
15.84042890954615
 20
51.74635032628559
 30
0.0
 40
3.257682291666666
 41
0.0
 46
0.0
 71
     1
 72
     1
  1
仕様
  7
ＭＳ ゴシック
 73
     1
 44
0.7828267384257843
  0
LINE
  5
179
330
A
100
AcDbEntity
  8
MODEL
390
1D
100
AcDbLine
 10
404.4404289094498
 20
53.42933470128569
 30
0.0
 11
14.44042890944975
 21
53.42933470128569
 31
0.0
  0
LWPOLYLINE
  5
17A
330
A
100
AcDbEntity
  8
MODEL
390
1D
100
AcDbPolyline
 90
        5
 70
   128
 43
0.0
 10
404.4404289094498
 20
579.4293347012855
 10
14.44042890944975
 20
579.4293347012855
 10
14.44042890944975
 20
19.42933470128565
 10
404.4404289094498
 20
19.42933470128565
 10
404.4404289094498
 20
579.4293347012855
  0
LINE
  5
17B
330
A
100
AcDbEntity
  8
MODEL
390
1D
100
AcDbLine
 10
404.4404289094498
 20
70.42933470128565
 30
0.0
 11
14.44042890944975
 21
70.42933470128565
 31
0.0
  0
LINE
  5
17C
330
A
100
AcDbEntity
  8
MODEL
390
1D
100
AcDbLine
 10
404.4404289095462
 20
36.42933470128564
 30
0.0
 11
253.840428909546
 21
36.42933470128564
 31
0.0
  0
MTEXT
  5
17D
330
A
100
AcDbEntity
  8
MODEL
390
1D
100
AcDbMText
 10
14.4404289095869
 20
17.05857028991423
 30
0.0
 40
4.343576388888888
 41
0.0
 46
4.343576388888888
 71
     1
 72
     1
  1
{241120M}
  7
ＭＳ ゴシック
 73
     1
 44
0.7828267384257843
1001
ACAD
1000
ACAD_MTEXT_DEFINED_HEIGHT_BEGIN
1070
    46
1040
4.343576388888888
1000
ACAD_MTEXT_DEFINED_HEIGHT_END
  0
MTEXT
  5
17E
330
A
100
AcDbEntity
  8
MODEL
390
1D
100
AcDbMText
 10
259.8147101599982
 20
30.44725580662403
 30
0.0
 40
4.8865234375
 41
0.0
 46
0.0
 71
     1
 72
     1
  1
大洋金物株式会社 ティーフォルム事業部
  7
ＭＳ ゴシック
 73
     1
 44
0.7828267384257843
  0
MTEXT
  5
180
330
A
100
AcDbEntity
  8
MODEL
390
1D
100
AcDbMText
 10
366.240428909598
 20
46.02985813878562
 30
0.0
 40
4.8865234375
 41
0.0
 46
4.8865234375
 71
     1
 72
     1
  1
{1:2}
  7
ＭＳ ゴシック
 73
     1
 44
0.7828267384257843
1001
ACAD
1000
ACAD_MTEXT_DEFINED_HEIGHT_BEGIN
1070
    46
1040
4.8865234375
1000
ACAD_MTEXT_DEFINED_HEIGHT_END
  0
MTEXT
  5
181
330
A
100
AcDbEntity
  8
MODEL
390
1D
100
AcDbMText
 10
355.6404289095979
 20
51.74635032628559
 30
0.0
 40
3.257682291666666
 41
0.0
 46
0.0
 71
     1
 72
     1
  1
縮尺
  7
ＭＳ ゴシック
 73
     1
 44
0.7828267384257843
  0
LINE
  5
182
330
A
100
AcDbEntity
  8
MODEL
390
1D
100
AcDbLine
 10
354.240428909598
 20
36.42933470128564
 30
0.0
 11
354.240428909598
 21
53.42933470128569
 31
0.0
  0
MTEXT
  5
183
330
A
100
AcDbEntity
  8
MODEL
390
1D
100
AcDbMText
 10
305.4404289095979
 20
51.74635032628559
 30
0.0
 40
3.257682291666666
 41
0.0
 46
0.0
 71
     1
 72
     1
  1
容量
  7
ＭＳ ゴシック
 73
     1
 44
0.7828267384257843
  0
LINE
  5
184
330
A
100
AcDbEntity
  8
MODEL
390
1D
100
AcDbLine
 10
304.0404289095979
 20
36.42933470128564
 30
0.0
 11
304.0404289095979
 21
53.42933470128569
 31
0.0
  0
MTEXT
  5
185
330
A
100
AcDbEntity
  8
MODEL
390
1D
100
AcDbMText
 10
255.240428909598
 20
68.74635032628566
 30
0.0
 40
3.257682291666666
 41
0.0
 46
0.0
 71
     1
 72
     1
  1
品番
  7
ＭＳ ゴシック
 73
     1
 44
0.7828267384257843
  0
MTEXT
  5
186
330
A
100
AcDbEntity
  8
MODEL
390
1D
100
AcDbMText
 10
255.240428909598
 20
51.74635032628559
 30
0.0
 40
3.257682291666666
 41
0.0
 46
0.0
 71
     1
 72
     1
  1
重量
  7
ＭＳ ゴシック
 73
     1
 44
0.7828267384257843
  0
MTEXT
  5
187
330
A
100
AcDbEntity
  8
MODEL
390
1D
100
AcDbMText
 10
265.840428909598
 20
63.02985813878565
 30
0.0
 40
4.8865234375
 41
0.0
 46
7.329785156250001
 71
     1
 72
     1
  1
{BRS73-0601}
  7
ＭＳ ゴシック
 73
     1
 44
0.7828267384257843
1001
ACAD
1000
ACAD_MTEXT_DEFINED_HEIGHT_BEGIN
1070
    46
1040
7.329785156250001
1000
ACAD_MTEXT_DEFINED_HEIGHT_END
  0
LINE
  5
188
330
A
100
AcDbEntity
  8
MODEL
390
1D
100
AcDbLine
 10
253.840428909598
 20
19.42933470128565
 30
0.0
 11
253.840428909598
 21
70.42933470128565
 31
0.0
  0
MTEXT
  5
189
330
A
100
AcDbEntity
  8
MODEL
390
1D
100
AcDbMText
 10
26.44042890954614
 20
63.02985813878565
 30
0.0
 40
4.8865234375
 41
0.0
 46
11.014223828125
 71
     1
 72
     1
  1
{単水栓　- CLOU,Kaldur -}
  7
ＭＳ ゴシック
 73
     1
 44
0.7828267384257843
1001
ACAD
1000
ACAD_MTEXT_DEFINED_HEIGHT_BEGIN
1070
    46
1040
11.014223828125
1000
ACAD_MTEXT_DEFINED_HEIGHT_END
  0
INSERT
  5
6B5
330
A
100
AcDbEntity
  8
MODEL
100
AcDbBlockReference
  2
名称未設定-1
 10
374.15014961769
 20
5.18935315133076
 30
0.0
 41
0.1524
 42
0.1524
 43
0.1524
  0
INSERT
  5
68C
330
A
100
AcDbEntity
  8
TEMPLATE
100
AcDbBlockReference
  2
block 2
 10
3677.09720708103
 20
33.49230605734548
 30
0.0
 41
1.524
 42
1.524
 43
1.524
  0
LWPOLYLINE
  5
19EF
330
A
100
AcDbEntity
  8
PRINT
  6
BORDER
 48
0.5
100
AcDbPolyline
 90
        4
 70
     1
 43
0.0
 39
0.5
 10
0.0
 20
0.0
 10
0.0
 20
594.0
 10
420.0000000000001
 20
594.0
 10
420.0000000000001
 20
0.0
  0
LINE
  5
6B19
330
A
100
AcDbEntity
  8
MODEL
  6
Continuous
100
AcDbLine
 10
118.9877083783228
 20
240.1886322097786
 30
0.0
 11
118.9877083783228
 21
250.9564329432257
 31
0.0
  0
LINE
  5
6B1A
330
A
100
AcDbEntity
  8
MODEL
  6
Continuous
100
AcDbLine
 10
98.9877088253576
 20
250.9564329432257
 30
0.0
 11
98.9877088253576
 21
240.1886322097786
 31
0.0
  0
LINE
  5
6B1B
330
A
100
AcDbEntity
  8
MODEL
  6
Continuous
100
AcDbLine
 10
98.9877088253576
 20
273.9857286708363
 30
0.0
 11
98.9877088253576
 21
250.9564329432257
 31
0.0
  0
LINE
  5
6B1C
330
A
100
AcDbEntity
  8
MODEL
  6
Continuous
100
AcDbLine
 10
118.9877083783228
 20
250.9564329432257
 30
0.0
 11
118.9877083783228
 21
273.9857286708363
 31
0.0
  0
LINE
  5
6B1D
330
A
100
AcDbEntity
  8
MODEL
  6
Continuous
100
AcDbLine
 10
102.4877084677297
 20
207.154326190234
 30
0.0
 11
102.4877084677297
 21
206.7355737583645
 31
0.0
  0
LINE
  5
6B1E
330
A
100
AcDbEntity
  8
MODEL
  6
Continuous
100
AcDbLine
 10
115.4877087359506
 20
206.7355737583645
 30
0.0
 11
115.4877087359506
 21
207.154326190234
 31
0.0
  0
LINE
  5
6B1F
330
A
100
AcDbEntity
  8
MODEL
  6
Continuous
100
AcDbLine
 10
98.9877088253576
 20
216.150995393277
 30
0.0
 11
98.9877088253576
 21
206.2657252447613
 31
0.0
  0
LINE
  5
6B20
330
A
100
AcDbEntity
  8
MODEL
  6
Continuous
100
AcDbLine
 10
98.9877088253576
 20
239.9067245917328
 30
0.0
 11
98.9877088253576
 21
229.5163795845517
 31
0.0
  0
LINE
  5
6B21
330
A
100
AcDbEntity
  8
MODEL
  6
Continuous
100
AcDbLine
 10
118.9877083783228
 20
206.2657252447613
 30
0.0
 11
118.9877083783228
 21
239.9067245917328
 31
0.0
  0
LINE
  5
6B22
330
A
100
AcDbEntity
  8
MODEL
  6
Continuous
100
AcDbLine
 10
89.98770921278779
 20
215.7163806753167
 30
0.0
 11
98.9877088253576
 21
215.7163806753167
 31
0.0
  0
LINE
  5
6B23
330
A
100
AcDbEntity
  8
MODEL
  6
Continuous
100
AcDbLine
 10
99.2769524713238
 20
229.5163795845517
 30
0.0
 11
89.98770921278779
 21
229.5163795845517
 31
0.0
  0
LWPOLYLINE
  5
6B24
330
A
100
AcDbEntity
  8
MODEL
  6
Continuous
100
AcDbPolyline
 90
       29
 70
   128
 43
0.0
 10
118.9792128537971
 20
240.0476784007557
 10
118.9877083783228
 20
240.1886322097786
 10
118.9175192524869
 20
240.5931503074177
 10
118.7079381455857
 20
240.991991062642
 10
118.3619052429873
 20
241.3795516388424
 10
117.8842792545635
 20
241.7503968374737
 10
117.2817657028516
 20
242.0993149774083
 10
116.5628209968287
 20
242.4214147524842
 10
115.7375388105591
 20
242.7121699349888
 10
114.8175033998865
 20
242.9675013320454
 10
113.8156308119375
 20
243.1838214890965
 10
112.7459844832498
 20
243.3580980198391
 10
111.6235803605247
 20
243.487879683257
 10
110.4641742098336
 20
243.5713485376843
 10
109.2840418826978
 20
243.6073311166771
 10
108.0997496286597
 20
243.5953226434001
 10
106.9279224869986
 20
243.5354926185616
 10
105.785010175519
 20
243.428679232479
 10
104.6870565300066
 20
243.2763819144972
 10
103.6494747062404
 20
243.0807408438929
 10
102.6868303564568
 20
242.8444996969708
 10
101.8126360398907
 20
242.5709777073868
 10
101.0391637941081
 20
242.2640100615033
 10
100.377272840329
 20
241.9279106454857
 10
99.83625265557347
 20
241.5673956768521
 10
99.4236991067607
 20
241.1875240998276
 10
99.14540315765927
 20
240.7936342554101
 10
99.0052717064697
 20
240.3912470238217
 10
98.9962043498833
 20
240.0476784007557
  0
ARC
  5
6B25
330
A
100
AcDbEntity
  8
MODEL
  6
Continuous
100
AcDbCircle
 10
108.9877086018403
 20
273.9857286708363
 30
0.0
 40
10.0
100
AcDbArc
 50
0.0
 51
180.0
  0
LINE
  5
6B26
330
A
100
AcDbEntity
  8
MODEL
  6
Continuous
100
AcDbLine
 10
103.6888701168079
 20
205.1555142300137
 30
0.0
 11
103.6888701168079
 21
204.2158246533879
 31
0.0
  0
ARC
  5
6B27
330
A
100
AcDbEntity
  8
MODEL
  6
Continuous
100
AcDbCircle
 10
108.1385576349227
 20
219.4936308083331
 30
0.0
 40
15.91260757754557
100
AcDbArc
 50
253.7617078082661
 51
263.9157112786319
  0
ARC
  5
6B28
330
A
100
AcDbEntity
  8
MODEL
  6
Continuous
100
AcDbCircle
 10
108.9811596932019
 20
227.2598589643137
 30
0.0
 40
22.79087592786319
100
AcDbArc
 50
264.4297223347152
 51
271.251469271537
  0
ARC
  5
6B29
330
A
100
AcDbEntity
  8
MODEL
  6
Continuous
100
AcDbCircle
 10
109.0949725186554
 20
224.6448217645599
 30
0.0
 40
21.11358331881537
100
AcDbArc
 50
271.0419847179438
 51
279.4452702555114
  0
LINE
  5
6B2A
330
A
100
AcDbEntity
  8
MODEL
  6
Continuous
100
AcDbLine
 10
112.5598259062696
 20
204.7571689383992
 30
0.0
 11
112.5598259062696
 21
203.8174793617734
 31
0.0
  0
ARC
  5
6B2B
330
A
100
AcDbEntity
  8
MODEL
  6
Continuous
100
AcDbCircle
 10
110.2177748245255
 20
218.8601479023479
 30
0.0
 40
14.29612601116411
100
AcDbArc
 50
279.4289353514475
 51
286.3075957675874
  0
ARC
  5
6B2C
330
A
100
AcDbEntity
  8
MODEL
  6
Continuous
100
AcDbCircle
 10
113.5122636719758
 20
208.7478635478044
 30
0.0
 40
4.538737975288139
100
AcDbArc
 50
288.8838673648577
 51
312.441911333434
  0
LINE
  5
6B2D
330
A
100
AcDbEntity
  8
MODEL
  6
Continuous
100
AcDbLine
 10
116.5751964112003
 20
206.3381448881634
 30
0.0
 11
116.5751964112003
 21
205.398447860957
 31
0.0
  0
LINE
  5
6B2E
330
A
100
AcDbEntity
  8
MODEL
  6
Continuous
100
AcDbLine
 10
116.5751964112003
 20
206.3381448881634
 30
0.0
 11
116.6572165933627
 21
206.4270973699101
 31
0.0
  0
LINE
  5
6B2F
330
A
100
AcDbEntity
  8
MODEL
  6
Continuous
100
AcDbLine
 10
116.9726131742078
 20
207.040481318713
 30
0.0
 11
116.9726131742078
 21
206.433735837222
 31
0.0
  0
ARC
  5
6B30
330
A
100
AcDbEntity
  8
MODEL
  6
Continuous
100
AcDbCircle
 10
115.273881726465
 20
205.9521617752295
 30
0.0
 40
1.765673273495638
100
AcDbArc
 50
15.82752424384427
 51
60.40382809684368
  0
LINE
  5
6B31
330
A
100
AcDbEntity
  8
MODEL
  6
Continuous
100
AcDbLine
 10
116.145919102915
 20
207.7026218669423
 30
0.0
 11
116.145919102915
 21
207.4874640004643
 31
0.0
  0
LINE
  5
6B32
330
A
100
AcDbEntity
  8
MODEL
  6
Continuous
100
AcDbLine
 10
114.2865470868725
 20
208.450704862357
 30
0.0
 11
114.2865470868725
 21
208.3156332867154
 31
0.0
  0
ARC
  5
6B33
330
A
100
AcDbEntity
  8
MODEL
  6
Continuous
100
AcDbCircle
 10
109.8368595687449
 20
193.0378271316847
 30
0.0
 40
15.91260757763248
100
AcDbArc
 50
73.76170780830951
 51
83.91571127861927
  0
LINE
  5
6B34
330
A
100
AcDbEntity
  8
MODEL
  6
Continuous
100
AcDbLine
 10
111.5234592256326
 20
208.9687660830029
 30
0.0
 11
111.5234592256326
 21
208.8607997195729
 31
0.0
  0
LINE
  5
6B35
330
A
100
AcDbEntity
  8
MODEL
  6
Continuous
100
AcDbLine
 10
108.4964928708229
 20
209.0995163218983
 30
0.0
 11
108.4964928708229
 21
208.9967281119832
 31
0.0
  0
ARC
  5
6B36
330
A
100
AcDbEntity
  8
MODEL
  6
Continuous
100
AcDbCircle
 10
108.8804446850487
 20
187.8866361752868
 30
0.0
 40
21.11358331907322
100
AcDbArc
 50
91.04198471799528
 51
99.44527025545939
  0
LINE
  5
6B37
330
A
100
AcDbEntity
  8
MODEL
  6
Continuous
100
AcDbLine
 10
105.4155912974108
 20
208.8281438248166
 30
0.0
 11
105.4155912974108
 21
208.7139785783299
 31
0.0
  0
LINE
  5
6B38
330
A
100
AcDbEntity
  8
MODEL
  6
Continuous
100
AcDbLine
 10
102.994186363854
 20
208.2295194761761
 30
0.0
 11
102.994186363854
 21
208.0780417220601
 31
0.0
  0
ARC
  5
6B39
330
A
100
AcDbEntity
  8
MODEL
  6
Continuous
100
AcDbCircle
 10
104.4632049801445
 20
203.7835076152684
 30
0.0
 40
4.538836733063328
100
AcDbArc
 50
108.884127330079
 51
132.4416513682683
  0
LINE
  5
6B3A
330
A
100
AcDbEntity
  8
MODEL
  6
Continuous
100
AcDbLine
 10
101.4002207924803
 20
207.4164674179562
 30
0.0
 11
101.4002207924803
 21
207.1330100791462
 31
0.0
  0
LINE
  5
6B3B
330
A
100
AcDbEntity
  8
MODEL
  6
Continuous
100
AcDbLine
 10
101.0028040294726
 20
207.0374191300877
 30
0.0
 11
101.0028040294726
 21
206.0977221028813
 31
0.0
  0
ARC
  5
6B3C
330
A
100
AcDbEntity
  8
MODEL
  6
Continuous
100
AcDbCircle
 10
102.7015354772144
 20
206.5792961648737
 30
0.0
 40
1.765673273494739
100
AcDbArc
 50
195.8275242438449
 51
240.4038280968682
  0
ARC
  5
6B3D
330
A
100
AcDbEntity
  8
MODEL
  6
Continuous
100
AcDbCircle
 10
106.2795823267358
 20
213.8542949005084
 30
0.0
 40
9.07637454648346
100
AcDbArc
 50
246.9390505769159
 51
253.4151657960047
  0
LINE
  5
6B3E
330
A
100
AcDbEntity
  8
MODEL
  6
Continuous
100
AcDbLine
 10
102.4877084677297
 20
206.7866698400982
 30
0.0
 11
102.2411412817616
 21
207.0368826882847
 31
0.0
  0
LWPOLYLINE
  5
6B3F
330
A
100
AcDbEntity
  8
MODEL
  6
Continuous
100
AcDbPolyline
 90
        3
 70
   128
 43
0.0
 10
115.6775439416248
 20
206.9704980151661
 10
115.626760318615
 20
206.9163993494519
 10
115.4877087359506
 20
206.7866698400982
  0
LINE
  5
6B40
330
A
100
AcDbEntity
  8
MODEL
  6
Continuous
100
AcDbLine
 10
102.0009168681878
 20
207.0584148662098
 30
0.0
 11
102.0009168681878
 21
206.118725289584
 31
0.0
  0
ARC
  5
6B41
330
A
100
AcDbEntity
  8
MODEL
  6
Continuous
100
AcDbCircle
 10
105.0286490603991
 20
204.0939828115631
 30
0.0
 40
3.97125366992369
100
AcDbArc
 50
108.8834413887837
 51
132.4423394075269
  0
LINE
  5
6B42
330
A
100
AcDbEntity
  8
MODEL
  6
Continuous
100
AcDbLine
 10
103.7433767018098
 20
208.4660381572255
 30
0.0
 11
103.7433767018098
 21
207.85149936843
 31
0.0
  0
ARC
  5
6B43
330
A
100
AcDbEntity
  8
MODEL
  6
Continuous
100
AcDbCircle
 10
108.8937153318426
 20
190.1853763636925
 30
0.0
 40
18.47302628289055
100
AcDbArc
 50
91.04163538213541
 51
99.44554034418559
  0
LINE
  5
6B44
330
A
100
AcDbEntity
  8
MODEL
  6
Continuous
100
AcDbLine
 10
108.5578948226481
 20
209.100686063052
 30
0.0
 11
108.5578948226481
 21
208.6553499596127
 31
0.0
  0
LINE
  5
6B45
330
A
100
AcDbEntity
  8
MODEL
  6
Continuous
100
AcDbLine
 10
111.2064905722815
 20
209.0011835591801
 30
0.0
 11
111.2064905722815
 21
208.536416341544
 31
0.0
  0
ARC
  5
6B46
330
A
100
AcDbEntity
  8
MODEL
  6
Continuous
100
AcDbCircle
 10
109.7306520827986
 20
194.6910712694323
 30
0.0
 40
13.92378107458329
100
AcDbArc
 50
73.761733864596
 51
83.91555671106326
  0
LINE
  5
6B47
330
A
100
AcDbEntity
  8
MODEL
  6
Continuous
100
AcDbLine
 10
115.2511425574501
 20
208.1283852951535
 30
0.0
 11
115.2511425574501
 21
207.3347494499692
 31
0.0
  0
ARC
  5
6B48
330
A
100
AcDbEntity
  8
MODEL
  6
Continuous
100
AcDbCircle
 10
114.4880925505855
 20
205.9913478058758
 30
0.0
 40
1.544983265388492
100
AcDbArc
 50
15.82761355937107
 51
60.40349354983849
  0
ARC
  5
6B49
330
A
100
AcDbEntity
  8
MODEL
  6
Continuous
100
AcDbCircle
 10
114.5733296290097
 20
207.4979601223283
 30
0.0
 40
1.488347306745333
100
AcDbArc
 50
315.0550245308388
 51
329.1870583599184
  0
LINE
  5
6B4A
330
A
100
AcDbEntity
  8
MODEL
  6
Continuous
100
AcDbLine
 10
115.626760318615
 20
206.4465508358487
 30
0.0
 11
115.626760318615
 21
205.5068612592228
 31
0.0
  0
ARC
  5
6B4B
330
A
100
AcDbEntity
  8
MODEL
  6
Continuous
100
AcDbCircle
 10
112.9467681432895
 20
208.4374751285256
 30
0.0
 40
3.97125366990714
100
AcDbArc
 50
288.8834413887408
 51
312.4423394075769
  0
LINE
  5
6B4C
330
A
100
AcDbEntity
  8
MODEL
  6
Continuous
100
AcDbLine
 10
114.2320405018707
 20
205.4221556084164
 30
0.0
 11
114.2320405018707
 21
204.6799585716733
 31
0.0
  0
LINE
  5
6B4D
330
A
100
AcDbEntity
  8
MODEL
  6
Continuous
100
AcDbLine
 10
112.1133114469427
 20
204.7863454120167
 30
0.0
 11
112.1133114469427
 21
204.1235045092114
 31
0.0
  0
ARC
  5
6B4E
330
A
100
AcDbEntity
  8
MODEL
  6
Continuous
100
AcDbCircle
 10
109.0815971108139
 20
222.3477719088412
 30
0.0
 40
18.4747182405875
100
AcDbArc
 50
271.0418649260748
 51
279.4449967389511
  0
LINE
  5
6B4F
330
A
100
AcDbEntity
  8
MODEL
  6
Continuous
100
AcDbLine
 10
109.4175223810322
 20
204.5173123972424
 30
0.0
 11
109.4175223810322
 21
203.8761079804905
 31
0.0
  0
LINE
  5
6B50
330
A
100
AcDbEntity
  8
MODEL
  6
Continuous
100
AcDbLine
 10
106.7689266313989
 20
204.6459764735707
 30
0.0
 11
106.7689266313989
 21
203.9950415985592
 31
0.0
  0
ARC
  5
6B51
330
A
100
AcDbEntity
  8
MODEL
  6
Continuous
100
AcDbCircle
 10
108.244765120871
 20
217.8403866706146
 30
0.0
 40
13.92378107452332
100
AcDbArc
 50
253.7617338645727
 51
263.915556711083
  0
LINE
  5
6B52
330
A
100
AcDbEntity
  8
MODEL
  6
Continuous
100
AcDbLine
 10
104.3512248692293
 20
205.177485992194
 30
0.0
 11
104.3512248692293
 21
204.4720650212773
 31
0.0
  0
LINE
  5
6B53
330
A
100
AcDbEntity
  8
MODEL
  6
Continuous
100
AcDbLine
 10
102.7242746462305
 20
206.1364055173405
 30
0.0
 11
102.7242746462305
 21
205.1967084901341
 31
0.0
  0
ARC
  5
6B54
330
A
100
AcDbEntity
  8
MODEL
  6
Continuous
100
AcDbCircle
 10
103.4873246530957
 20
206.5401101342274
 30
0.0
 40
1.544983265387717
100
AcDbArc
 50
195.8276135593749
 51
240.4034935498124
  0
LINE
  5
6B55
330
A
100
AcDbEntity
  8
MODEL
  6
Continuous
100
AcDbLine
 10
105.8621057567376
 20
208.4079459803113
 30
0.0
 11
105.4155912974108
 21
208.7139785783299
 31
0.0
  0
LINE
  5
6B56
330
A
100
AcDbEntity
  8
MODEL
  6
Continuous
100
AcDbLine
 10
108.4964928708229
 20
208.9967281119832
 30
0.0
 11
108.5578948226481
 21
208.6553499596127
 31
0.0
  0
LWPOLYLINE
  5
6B57
330
A
100
AcDbEntity
  8
MODEL
  6
Continuous
100
AcDbPolyline
 90
       12
 70
   128
 43
0.0
 10
106.927411190905
 20
204.6270743505963
 10
106.0517600530018
 20
204.7521472470768
 10
105.2386835475642
 20
204.9194872872838
 10
104.505511026569
 20
205.1255405442723
 10
103.8678684530038
 20
205.3659037249096
 10
103.3393470828612
 20
205.6354582803257
 10
102.9312103313585
 20
205.9284598128804
 10
102.6521572170037
 20
206.2386721866139
 10
102.5081351657588
 20
206.559464384795
 10
102.5022142824908
 20
206.8840191261776
 10
102.6345207614084
 20
207.205399920226
 10
102.7333224450428
 20
207.340925981284
  0
ARC
  5
6B58
330
A
100
AcDbEntity
  8
MODEL
  6
Continuous
100
AcDbCircle
 10
107.166630531078
 20
200.3951683322545
 30
0.0
 40
8.384490569676695
100
AcDbArc
 50
101.1206653355491
 51
114.097087463274
  0
ARC
  5
6B59
330
A
100
AcDbEntity
  8
MODEL
  6
Continuous
100
AcDbCircle
 10
108.9938086143408
 20
190.601808371716
 30
0.0
 40
18.35721057381107
100
AcDbArc
 50
83.07703394789516
 51
91.36068430677548
  0
LWPOLYLINE
  5
6B5A
330
A
100
AcDbEntity
  8
MODEL
  6
Continuous
100
AcDbPolyline
 90
       19
 70
   128
 43
0.0
 10
113.9323134233434
 20
208.1785947577961
 10
114.3862111752112
 20
207.9737708466061
 10
114.8557928648967
 20
207.6917365686902
 10
115.2003072460372
 20
207.3893249528416
 10
115.4124103744704
 20
207.0729807512768
 10
115.4875820760806
 20
206.749446739436
 10
115.4242204760391
 20
206.4256147043713
 10
115.2236755264181
 20
206.1083913342961
 10
114.8902219978352
 20
205.8045268552311
 10
114.4309668128569
 20
205.520518173457
 10
113.8556977060814
 20
205.2624002592572
 10
113.1766760048646
 20
205.0356790916928
 10
112.4083737635244
 20
204.8451900975712
 10
111.5671659612288
 20
204.6949863927372
 10
110.6709813724462
 20
204.5882791774281
 10
109.7389208411056
 20
204.5273408787259
 10
108.7908495504833
 20
204.5134604470738
 10
107.8469739553708
 20
204.546950806857
 10
106.927411190905
 20
204.6270743505963
  0
LWPOLYLINE
  5
6B5B
330
A
100
AcDbEntity
  8
MODEL
  6
Continuous
100
AcDbPolyline
 90
       16
 70
   128
 43
0.0
 10
107.0858955175807
 20
204.7892734901913
 10
106.2395156153668
 20
204.9113736050137
 10
105.4575508718568
 20
205.0762326018818
 10
104.7583301809806
 20
205.2799836294659
 10
104.1582422589143
 20
205.5178583161839
 10
103.6713533361632
 20
205.7842687265881
 10
103.3090749082345
 20
206.0729787247189
 10
103.0798992400247
 20
206.3772231833943
 10
102.9891972688217
 20
206.6898644464024
 10
103.0390956697244
 20
207.0035785930165
 10
103.228424235918
 20
207.3110044496068
 10
103.5527456809956
 20
207.6049522058972
 10
104.0044576187808
 20
207.8785151736744
 10
104.5729732399065
 20
208.1252933042058
 10
105.2449664824832
 20
208.3394974963673
 10
105.773806597777
 20
208.4684670465001
  0
ARC
  5
6B5C
330
A
100
AcDbEntity
  8
MODEL
  6
Continuous
100
AcDbCircle
 10
108.9956186845817
 20
191.953304350053
 30
0.0
 40
16.83473126416059
100
AcDbArc
 50
82.45365987920032
 51
91.30244308016296
  0
LWPOLYLINE
  5
6B5D
330
A
100
AcDbEntity
  8
MODEL
  6
Continuous
100
AcDbPolyline
 90
       19
 70
   128
 43
0.0
 10
113.4194182490188
 20
208.1189603106984
 10
113.5304603052515
 20
208.0761641757496
 10
114.0755480413516
 20
207.8232765691289
 10
114.5013813187558
 20
207.544900526286
 10
114.797978687771
 20
207.2475478546628
 10
114.958388291039
 20
206.9381997482785
 10
114.9788499136645
 20
206.624105622054
 10
114.8588843901831
 20
206.3126191990384
 10
114.601303849109
 20
206.0110420482167
 10
114.2121451233703
 20
205.726452221156
 10
113.7005300519246
 20
205.4655179874905
 10
113.0784503442425
 20
205.2343488233098
 10
112.3604872522134
 20
205.0383687512883
 10
111.5634690762688
 20
204.8821747796544
 10
110.706077332348
 20
204.7694176929005
 10
109.8084083317969
 20
204.7027424471386
 10
108.8915028852951
 20
204.6837211148747
 10
107.9768523599212
 20
204.7127858297833
 10
107.0858955175807
 20
204.7892734901913
  0
LINE
  5
6B5E
330
A
100
AcDbEntity
  8
MODEL
  6
Continuous
100
AcDbLine
 10
111.2064905722815
 20
208.536416341544
 30
0.0
 11
111.5234592256326
 21
208.8607997195729
 31
0.0
  0
LINE
  5
6B5F
330
A
100
AcDbEntity
  8
MODEL
  6
Continuous
100
AcDbLine
 10
114.2865470868725
 20
208.3156332867154
 30
0.0
 11
113.6241923344511
 21
208.059392918826
 31
0.0
  0
LINE
  5
6B60
330
A
100
AcDbEntity
  8
MODEL
  6
Continuous
100
AcDbLine
 10
103.2879525122423
 20
207.000464250327
 30
0.0
 11
103.2879525122423
 21
206.5643966691502
 31
0.0
  0
ARC
  5
6B61
330
A
100
AcDbEntity
  8
MODEL
  6
Continuous
100
AcDbCircle
 10
104.6549771144262
 20
207.88879609446
 30
0.0
 40
1.903362840011515
100
AcDbArc
 50
224.0926592944559
 51
231.6645353419627
  0
LINE
  5
6B62
330
A
100
AcDbEntity
  8
MODEL
  6
Continuous
100
AcDbLine
 10
103.4743883905191
 20
206.5066472189435
 30
0.0
 11
103.4743883905191
 21
206.3958123819836
 31
0.0
  0
LINE
  5
6B63
330
A
100
AcDbEntity
  8
MODEL
  6
Continuous
100
AcDbLine
 10
103.7066760731119
 20
206.576988150359
 30
0.0
 11
103.7066760731119
 21
206.2313706176289
 31
0.0
  0
ARC
  5
6B64
330
A
100
AcDbEntity
  8
MODEL
  6
Continuous
100
AcDbCircle
 10
105.567196984243
 20
209.1729845498855
 30
0.0
 40
3.480607789913632
100
AcDbArc
 50
237.6873411542254
 51
241.316292743942
  0
ARC
  5
6B65
330
A
100
AcDbEntity
  8
MODEL
  6
Continuous
100
AcDbCircle
 10
106.7684950105919
 20
211.7088680302301
 30
0.0
 40
6.288942918197336
100
AcDbArc
 50
246.4276201275212
 51
251.3285559977071
  0
ARC
  5
6B66
330
A
100
AcDbEntity
  8
MODEL
  6
Continuous
100
AcDbCircle
 10
107.8216939803521
 20
215.0468740286367
 30
0.0
 40
9.790531948614024
100
AcDbArc
 50
254.5847021778929
 51
256.4081418329167
  0
LINE
  5
6B67
330
A
100
AcDbEntity
  8
MODEL
  6
Continuous
100
AcDbLine
 10
105.5208798756081
 20
205.7559267179974
 30
0.0
 11
105.5208798756081
 21
205.5305317537793
 31
0.0
  0
LINE
  5
6B68
330
A
100
AcDbEntity
  8
MODEL
  6
Continuous
100
AcDbLine
 10
105.9699903966117
 20
205.8825120823391
 30
0.0
 11
105.9699903966117
 21
205.4317445056447
 31
0.0
  0
ARC
  5
6B69
330
A
100
AcDbEntity
  8
MODEL
  6
Continuous
100
AcDbCircle
 10
108.4570680239456
 20
217.952239621695
 30
0.0
 40
12.76512252488937
100
AcDbArc
 50
258.764983817558
 51
260.8931648854446
  0
ARC
  5
6B6A
330
A
100
AcDbEntity
  8
MODEL
  6
Continuous
100
AcDbCircle
 10
108.9643986700583
 20
222.0627668833865
 30
0.0
 40
16.90899683548812
100
AcDbArc
 50
265.9187609908281
 51
267.6838326532961
  0
LINE
  5
6B6B
330
A
100
AcDbEntity
  8
MODEL
  6
Continuous
100
AcDbLine
 10
108.2810429183025
 20
205.5639178054341
 30
0.0
 11
108.2810429183025
 21
205.1675841705807
 31
0.0
  0
LINE
  5
6B6C
330
A
100
AcDbEntity
  8
MODEL
  6
Continuous
100
AcDbLine
 10
108.8135701105654
 20
205.5574805037983
 30
0.0
 11
108.8135701105654
 21
205.1541656749257
 31
0.0
  0
ARC
  5
6B6D
330
A
100
AcDbEntity
  8
MODEL
  6
Continuous
100
AcDbCircle
 10
108.9877932906754
 20
222.7195491871468
 30
0.0
 40
17.56624751185905
100
AcDbArc
 50
269.4317274324026
 51
270.6653422686323
  0
ARC
  5
6B6E
330
A
100
AcDbEntity
  8
MODEL
  6
Continuous
100
AcDbCircle
 10
109.0291250356793
 20
221.7596028994637
 30
0.0
 40
16.60530869681103
100
AcDbArc
 50
272.7052252444422
 51
275.2702121500906
  0
ARC
  5
6B6F
330
A
100
AcDbEntity
  8
MODEL
  6
Continuous
100
AcDbCircle
 10
109.3010085107741
 20
219.2999250735981
 30
0.0
 40
14.13022736652257
100
AcDbArc
 50
277.5060788890996
 51
278.9335023212676
  0
LINE
  5
6B70
330
A
100
AcDbEntity
  8
MODEL
  6
Continuous
100
AcDbLine
 10
111.4952639003474
 20
205.7918757693776
 30
0.0
 11
111.4952639003474
 21
205.3411081926831
 31
0.0
  0
LINE
  5
6B71
330
A
100
AcDbEntity
  8
MODEL
  6
Continuous
100
AcDbLine
 10
111.9699555241692
 20
205.7376206414708
 30
0.0
 11
111.9699555241692
 21
205.4247409598836
 31
0.0
  0
ARC
  5
6B72
330
A
100
AcDbEntity
  8
MODEL
  6
Continuous
100
AcDbCircle
 10
109.798111778661
 20
216.5383277405296
 30
0.0
 40
11.32381191939674
100
AcDbArc
 50
281.0575220527079
 51
283.3630546389224
  0
LINE
  5
6B73
330
A
100
AcDbEntity
  8
MODEL
  6
Continuous
100
AcDbLine
 10
112.4152778906006
 20
205.7879940168866
 30
0.0
 11
112.4152778906006
 21
205.5211067693242
 31
0.0
  0
ARC
  5
6B74
330
A
100
AcDbEntity
  8
MODEL
  6
Continuous
100
AcDbCircle
 10
111.4440206082897
 20
211.129492999197
 30
0.0
 40
5.663070818550104
100
AcDbArc
 50
290.8618222101391
 51
294.5211861628405
  0
LINE
  5
6B75
330
A
100
AcDbEntity
  8
MODEL
  6
Continuous
100
AcDbLine
 10
113.7943631296236
 20
206.3404620187291
 30
0.0
 11
113.7943631296236
 21
205.9771866099843
 31
0.0
  0
ARC
  5
6B76
330
A
100
AcDbEntity
  8
MODEL
  6
Continuous
100
AcDbCircle
 10
113.4052528722038
 20
207.6806037896556
 30
0.0
 40
1.698567136542215
100
AcDbArc
 50
293.9439073179158
 51
335.2877284900325
  0
LINE
  5
6B77
330
A
100
AcDbEntity
  8
MODEL
  6
Continuous
100
AcDbLine
 10
104.2535011914749
 20
205.9447020785817
 30
0.0
 11
104.1678018194813
 21
206.0885131852635
 31
0.0
  0
LINE
  5
6B78
330
A
100
AcDbEntity
  8
MODEL
  6
Continuous
100
AcDbLine
 10
104.1678018194813
 20
206.0885131852635
 30
0.0
 11
103.8965955634792
 21
206.1195076005467
 31
0.0
  0
LINE
  5
6B79
330
A
100
AcDbEntity
  8
MODEL
  6
Continuous
100
AcDbLine
 10
103.7066760731119
 20
206.2313706176289
 30
0.0
 11
104.2470438664038
 21
206.1696053044804
 31
0.0
  0
LINE
  5
6B7A
330
A
100
AcDbEntity
  8
MODEL
  6
Continuous
100
AcDbLine
 10
104.2470438664038
 20
206.1696053044804
 30
0.0
 11
104.7873869796473
 21
206.3332275049695
 31
0.0
  0
LINE
  5
6B7B
330
A
100
AcDbEntity
  8
MODEL
  6
Continuous
100
AcDbLine
 10
104.7873869796473
 20
206.3332275049695
 30
0.0
 11
104.6432550323386
 21
206.5750882523068
 31
0.0
  0
LINE
  5
6B7C
330
A
100
AcDbEntity
  8
MODEL
  6
Continuous
100
AcDbLine
 10
104.6432550323386
 20
206.5750882523068
 30
0.0
 11
103.9587804374475
 21
206.6533267991551
 31
0.0
  0
LINE
  5
6B7D
330
A
100
AcDbEntity
  8
MODEL
  6
Continuous
100
AcDbLine
 10
103.9587804374475
 20
206.6533267991551
 30
0.0
 11
103.4184373242039
 21
206.4897045986661
 31
0.0
  0
LINE
  5
6B7E
330
A
100
AcDbEntity
  8
MODEL
  6
Continuous
100
AcDbLine
 10
103.4184373242039
 20
206.4897045986661
 30
0.0
 11
103.4743883905191
 21
206.3958123819836
 31
0.0
  0
LINE
  5
6B7F
330
A
100
AcDbEntity
  8
MODEL
  6
Continuous
100
AcDbLine
 10
103.2879525122423
 20
206.5643966691502
 30
0.0
 11
103.7930590358753
 21
206.7173421876439
 31
0.0
  0
LINE
  5
6B80
330
A
100
AcDbEntity
  8
MODEL
  6
Continuous
100
AcDbLine
 10
103.7930590358753
 20
206.7173421876439
 30
0.0
 11
103.6489270885665
 21
206.9592029349812
 31
0.0
  0
LINE
  5
6B81
330
A
100
AcDbEntity
  8
MODEL
  6
Continuous
100
AcDbLine
 10
103.6489270885665
 20
206.9592029349812
 30
0.0
 11
103.0488522050161
 21
207.0277929799565
 31
0.0
  0
LINE
  5
6B82
330
A
100
AcDbEntity
  8
MODEL
  6
Continuous
100
AcDbLine
 10
103.0901829038936
 20
207.1132213370808
 30
0.0
 11
103.7281696011502
 21
207.0403025047787
 31
0.0
  0
LINE
  5
6B83
330
A
100
AcDbEntity
  8
MODEL
  6
Continuous
100
AcDbLine
 10
103.7281696011502
 20
207.0403025047787
 30
0.0
 11
104.2685122487325
 21
207.2039172546872
 31
0.0
  0
LINE
  5
6B84
330
A
100
AcDbEntity
  8
MODEL
  6
Continuous
100
AcDbLine
 10
104.2685122487325
 20
207.2039172546872
 30
0.0
 11
104.1243803014238
 21
207.4457780020245
 31
0.0
  0
LINE
  5
6B85
330
A
100
AcDbEntity
  8
MODEL
  6
Continuous
100
AcDbLine
 10
104.1243803014238
 20
207.4457780020245
 30
0.0
 11
103.4472147260982
 21
207.523182083846
 31
0.0
  0
LINE
  5
6B86
330
A
100
AcDbEntity
  8
MODEL
  6
Continuous
100
AcDbLine
 10
104.3755463582653
 20
208.0481499927052
 30
0.0
 11
104.6790760268647
 21
208.0134526388653
 31
0.0
  0
LINE
  5
6B87
330
A
100
AcDbEntity
  8
MODEL
  6
Continuous
100
AcDbLine
 10
104.6790760268647
 20
208.0134526388653
 30
0.0
 11
105.2194186744471
 21
208.1770748393544
 31
0.0
  0
LINE
  5
6B88
330
A
100
AcDbEntity
  8
MODEL
  6
Continuous
100
AcDbLine
 10
105.2194186744471
 20
208.1770748393544
 30
0.0
 11
105.1400853579122
 21
208.3101943628796
 31
0.0
  0
LINE
  5
6B89
330
A
100
AcDbEntity
  8
MODEL
  6
Continuous
100
AcDbLine
 10
113.3698923771459
 20
208.1326842801579
 30
0.0
 11
113.1880302240331
 21
208.077617038966
 31
0.0
  0
LINE
  5
6B8A
330
A
100
AcDbEntity
  8
MODEL
  6
Continuous
100
AcDbLine
 10
113.1880302240331
 20
208.077617038966
 30
0.0
 11
113.3321621713418
 21
207.8357562916287
 31
0.0
  0
LINE
  5
6B8B
330
A
100
AcDbEntity
  8
MODEL
  6
Continuous
100
AcDbLine
 10
113.3321621713418
 20
207.8357562916287
 30
0.0
 11
114.0166367662329
 21
207.7575177447804
 31
0.0
  0
LINE
  5
6B8C
330
A
100
AcDbEntity
  8
MODEL
  6
Continuous
100
AcDbLine
 10
114.0166367662329
 20
207.7575177447804
 30
0.0
 11
114.1312103976685
 21
207.7922150986203
 31
0.0
  0
LINE
  5
6B8D
330
A
100
AcDbEntity
  8
MODEL
  6
Continuous
100
AcDbLine
 10
114.2580020499606
 20
207.7164054410466
 30
0.0
 11
114.1823581678051
 21
207.693494905711
 31
0.0
  0
LINE
  5
6B8E
330
A
100
AcDbEntity
  8
MODEL
  6
Continuous
100
AcDbLine
 10
114.1823581678051
 20
207.693494905711
 30
0.0
 11
114.3264901151139
 21
207.4516416089543
 31
0.0
  0
LINE
  5
6B8F
330
A
100
AcDbEntity
  8
MODEL
  6
Continuous
100
AcDbLine
 10
114.3264901151139
 20
207.4516416089543
 30
0.0
 11
114.6496185359735
 21
207.4147016303547
 31
0.0
  0
LINE
  5
6B90
330
A
100
AcDbEntity
  8
MODEL
  6
Continuous
100
AcDbLine
 10
114.7447023798901
 20
207.3136792080411
 30
0.0
 11
114.2472476025302
 21
207.3705420391568
 31
0.0
  0
LINE
  5
6B91
330
A
100
AcDbEntity
  8
MODEL
  6
Continuous
100
AcDbLine
 10
114.2472476025302
 20
207.3705420391568
 30
0.0
 11
113.7069049549479
 21
207.2069198386677
 31
0.0
  0
LINE
  5
6B92
330
A
100
AcDbEntity
  8
MODEL
  6
Continuous
100
AcDbLine
 10
113.7069049549479
 20
207.2069198386677
 30
0.0
 11
113.8510369022566
 21
206.965066541911
 31
0.0
  0
LINE
  5
6B93
330
A
100
AcDbEntity
  8
MODEL
  6
Continuous
100
AcDbLine
 10
113.8510369022566
 20
206.965066541911
 30
0.0
 11
114.5355114971477
 21
206.8868279950627
 31
0.0
  0
LINE
  5
6B94
330
A
100
AcDbEntity
  8
MODEL
  6
Continuous
100
AcDbLine
 10
114.5355114971477
 20
206.8868279950627
 30
0.0
 11
114.9347177964826
 21
207.0077062146672
 31
0.0
  0
LINE
  5
6B95
330
A
100
AcDbEntity
  8
MODEL
  6
Continuous
100
AcDbLine
 10
114.0946029012282
 20
206.1282098786839
 30
0.0
 11
113.9808157717068
 21
206.3191533582219
 31
0.0
  0
LINE
  5
6B96
330
A
100
AcDbEntity
  8
MODEL
  6
Continuous
100
AcDbLine
 10
113.9808157717068
 20
206.3191533582219
 30
0.0
 11
113.2963411768157
 21
206.3973919050702
 31
0.0
  0
LINE
  5
6B97
330
A
100
AcDbEntity
  8
MODEL
  6
Continuous
100
AcDbLine
 10
113.2963411768157
 20
206.3973919050702
 30
0.0
 11
112.7559985292335
 21
206.2337697045811
 31
0.0
  0
LINE
  5
6B98
330
A
100
AcDbEntity
  8
MODEL
  6
Continuous
100
AcDbLine
 10
112.7559985292335
 20
206.2337697045811
 30
0.0
 11
112.9001300108809
 21
205.9919089572438
 31
0.0
  0
LINE
  5
6B99
330
A
100
AcDbEntity
  8
MODEL
  6
Continuous
100
AcDbLine
 10
112.9001300108809
 20
205.9919089572438
 30
0.0
 11
113.5846050714332
 21
205.9136704103955
 31
0.0
  0
LINE
  5
6B9A
330
A
100
AcDbEntity
  8
MODEL
  6
Continuous
100
AcDbLine
 10
113.5846050714332
 20
205.9136704103955
 30
0.0
 11
113.7943631296236
 21
205.9771866099843
 31
0.0
  0
LINE
  5
6B9B
330
A
100
AcDbEntity
  8
MODEL
  6
Continuous
100
AcDbLine
 10
113.4607275274772
 20
205.8376819388875
 30
0.0
 11
112.8208879639584
 21
205.9108168380269
 31
0.0
  0
LINE
  5
6B9C
330
A
100
AcDbEntity
  8
MODEL
  6
Continuous
100
AcDbLine
 10
112.8208879639584
 20
205.9108168380269
 30
0.0
 11
112.2805450835455
 21
205.7471946375378
 31
0.0
  0
LINE
  5
6B9D
330
A
100
AcDbEntity
  8
MODEL
  6
Continuous
100
AcDbLine
 10
112.2805450835455
 20
205.7471946375378
 30
0.0
 11
112.4152778906006
 21
205.5211067693242
 31
0.0
  0
LINE
  5
6B9E
330
A
100
AcDbEntity
  8
MODEL
  6
Continuous
100
AcDbLine
 10
111.9699555241692
 20
205.4247409598836
 30
0.0
 11
112.1797133495289
 21
205.4882571594723
 31
0.0
  0
LINE
  5
6B9F
330
A
100
AcDbEntity
  8
MODEL
  6
Continuous
100
AcDbLine
 10
112.1797133495289
 20
205.4882571594723
 30
0.0
 11
112.0355816350508
 21
205.7301179068097
 31
0.0
  0
LINE
  5
6BA0
330
A
100
AcDbEntity
  8
MODEL
  6
Continuous
100
AcDbLine
 10
112.0355816350508
 20
205.7301179068097
 30
0.0
 11
111.3511070401597
 21
205.808356453658
 31
0.0
  0
LINE
  5
6BA1
330
A
100
AcDbEntity
  8
MODEL
  6
Continuous
100
AcDbLine
 10
111.3511070401597
 20
205.808356453658
 30
0.0
 11
110.8107640433316
 21
205.6447342531689
 31
0.0
  0
LINE
  5
6BA2
330
A
100
AcDbEntity
  8
MODEL
  6
Continuous
100
AcDbLine
 10
110.8107640433316
 20
205.6447342531689
 30
0.0
 11
110.954895874225
 21
205.4028735058316
 31
0.0
  0
LINE
  5
6BA3
330
A
100
AcDbEntity
  8
MODEL
  6
Continuous
100
AcDbLine
 10
110.954895874225
 20
205.4028735058316
 30
0.0
 11
111.4952639003474
 21
205.3411081926831
 31
0.0
  0
LINE
  5
6BA4
330
A
100
AcDbEntity
  8
MODEL
  6
Continuous
100
AcDbLine
 10
111.1468596176434
 20
205.2907795207509
 30
0.0
 11
110.8756537108872
 21
205.3217813866147
 31
0.0
  0
LINE
  5
6BA5
330
A
100
AcDbEntity
  8
MODEL
  6
Continuous
100
AcDbLine
 10
110.8756537108872
 20
205.3217813866147
 30
0.0
 11
110.5543708221245
 21
205.22449170518
 31
0.0
  0
LINE
  5
6BA6
330
A
100
AcDbEntity
  8
MODEL
  6
Continuous
100
AcDbLine
 10
109.8128548732218
 20
205.1727995769986
 30
0.0
 11
109.4058726124656
 21
205.2193210022458
 31
0.0
  0
LINE
  5
6BA7
330
A
100
AcDbEntity
  8
MODEL
  6
Continuous
100
AcDbLine
 10
109.4058726124656
 20
205.2193210022458
 30
0.0
 11
109.1917752313617
 21
205.1544860498913
 31
0.0
  0
LINE
  5
6BA8
330
A
100
AcDbEntity
  8
MODEL
  6
Continuous
100
AcDbLine
 10
108.8135701105654
 20
205.1541656749257
 30
0.0
 11
109.2401513273087
 21
205.2833363907345
 31
0.0
  0
LINE
  5
6BA9
330
A
100
AcDbEntity
  8
MODEL
  6
Continuous
100
AcDbLine
 10
109.2401513273087
 20
205.2833363907345
 30
0.0
 11
109.0960194964151
 21
205.5251971380719
 31
0.0
  0
LINE
  5
6BAA
330
A
100
AcDbEntity
  8
MODEL
  6
Continuous
100
AcDbLine
 10
109.0960194964151
 20
205.5251971380719
 30
0.0
 11
108.4115447851089
 21
205.6034356849202
 31
0.0
  0
LINE
  5
6BAB
330
A
100
AcDbEntity
  8
MODEL
  6
Continuous
100
AcDbLine
 10
108.4115447851089
 20
205.6034356849202
 30
0.0
 11
107.8712019629036
 21
205.4398134844311
 31
0.0
  0
LINE
  5
6BAC
330
A
100
AcDbEntity
  8
MODEL
  6
Continuous
100
AcDbLine
 10
107.8712019629036
 20
205.4398134844311
 30
0.0
 11
108.0153337355893
 21
205.1979527370938
 31
0.0
  0
LINE
  5
6BAD
330
A
100
AcDbEntity
  8
MODEL
  6
Continuous
100
AcDbLine
 10
108.0153337355893
 20
205.1979527370938
 30
0.0
 11
108.2810429183025
 21
205.1675841705807
 31
0.0
  0
LINE
  5
6BAE
330
A
100
AcDbEntity
  8
MODEL
  6
Continuous
100
AcDbLine
 10
107.7609712050486
 20
205.1966488854893
 30
0.0
 11
107.6262383979935
 21
205.422736753703
 31
0.0
  0
LINE
  5
6BAF
330
A
100
AcDbEntity
  8
MODEL
  6
Continuous
100
AcDbLine
 10
107.6262383979935
 20
205.422736753703
 30
0.0
 11
106.9417638031024
 21
205.5009753005513
 31
0.0
  0
LINE
  5
6BB0
330
A
100
AcDbEntity
  8
MODEL
  6
Continuous
100
AcDbLine
 10
106.9417638031024
 20
205.5009753005513
 30
0.0
 11
106.4366572794695
 21
205.348022331477
 31
0.0
  0
LINE
  5
6BB1
330
A
100
AcDbEntity
  8
MODEL
  6
Continuous
100
AcDbLine
 10
105.9699903966117
 20
205.4317445056447
 30
0.0
 11
106.2356995211174
 21
205.4013759391316
 31
0.0
  0
LINE
  5
6BB2
330
A
100
AcDbEntity
  8
MODEL
  6
Continuous
100
AcDbLine
 10
106.2356995211174
 20
205.4013759391316
 30
0.0
 11
106.7760424015302
 21
205.5649981396206
 31
0.0
  0
LINE
  5
6BB3
330
A
100
AcDbEntity
  8
MODEL
  6
Continuous
100
AcDbLine
 10
106.7760424015302
 20
205.5649981396206
 30
0.0
 11
106.6319106870522
 21
205.8068514363774
 31
0.0
  0
LINE
  5
6BB4
330
A
100
AcDbEntity
  8
MODEL
  6
Continuous
100
AcDbLine
 10
106.6319106870522
 20
205.8068514363774
 30
0.0
 11
105.9474358593304
 21
205.8850899832257
 31
0.0
  0
LINE
  5
6BB5
330
A
100
AcDbEntity
  8
MODEL
  6
Continuous
100
AcDbLine
 10
105.9474358593304
 20
205.8850899832257
 30
0.0
 11
105.4070929789174
 21
205.7214677827366
 31
0.0
  0
LINE
  5
6BB6
330
A
100
AcDbEntity
  8
MODEL
  6
Continuous
100
AcDbLine
 10
105.4070929789174
 20
205.7214677827366
 30
0.0
 11
105.5208798756081
 21
205.5305317537793
 31
0.0
  0
LINE
  5
6BB7
330
A
100
AcDbEntity
  8
MODEL
  6
Continuous
100
AcDbLine
 10
105.2192382306981
 20
205.6085616843709
 30
0.0
 11
105.1621295304227
 21
205.7043910520085
 31
0.0
  0
LINE
  5
6BB8
330
A
100
AcDbEntity
  8
MODEL
  6
Continuous
100
AcDbLine
 10
105.1621295304227
 20
205.7043910520085
 30
0.0
 11
104.755147386082
 21
205.7509124772557
 31
0.0
  0
LINE
  5
6BB9
330
A
100
AcDbEntity
  8
MODEL
  6
Continuous
100
AcDbLine
 10
108.0582703838316
 20
207.2665840880879
 30
0.0
 11
107.3737957307327
 21
207.3448226349362
 31
0.0
  0
LINE
  5
6BBA
330
A
100
AcDbEntity
  8
MODEL
  6
Continuous
100
AcDbLine
 10
107.3737957307327
 20
207.3448226349362
 30
0.0
 11
106.8334528503199
 21
207.1812004344471
 31
0.0
  0
LINE
  5
6BBB
330
A
100
AcDbEntity
  8
MODEL
  6
Continuous
100
AcDbLine
 10
106.8334528503199
 20
207.1812004344471
 30
0.0
 11
106.9775845647979
 21
206.9393396871098
 31
0.0
  0
LINE
  5
6BBC
330
A
100
AcDbEntity
  8
MODEL
  6
Continuous
100
AcDbLine
 10
106.9775845647979
 20
206.9393396871098
 30
0.0
 11
107.6620593925197
 21
206.8611011402615
 31
0.0
  0
LINE
  5
6BBD
330
A
100
AcDbEntity
  8
MODEL
  6
Continuous
100
AcDbLine
 10
107.6620593925197
 20
206.8611011402615
 30
0.0
 11
108.202402214725
 21
207.0247233407506
 31
0.0
  0
LINE
  5
6BBE
330
A
100
AcDbEntity
  8
MODEL
  6
Continuous
100
AcDbLine
 10
108.202402214725
 20
207.0247233407506
 30
0.0
 11
108.0582703838316
 21
207.2665840880879
 31
0.0
  0
LINE
  5
6BBF
330
A
100
AcDbEntity
  8
MODEL
  6
Continuous
100
AcDbLine
 10
107.0639426146824
 20
207.6506987707623
 30
0.0
 11
106.3794677869606
 21
207.7289373176106
 31
0.0
  0
LINE
  5
6BC0
330
A
100
AcDbEntity
  8
MODEL
  6
Continuous
100
AcDbLine
 10
106.3794677869606
 20
207.7289373176106
 30
0.0
 11
105.8391251393785
 21
207.5653151171216
 31
0.0
  0
LINE
  5
6BC1
330
A
100
AcDbEntity
  8
MODEL
  6
Continuous
100
AcDbLine
 10
105.8391251393785
 20
207.5653151171216
 30
0.0
 11
105.9832568538566
 21
207.3234543697842
 31
0.0
  0
LINE
  5
6BC2
330
A
100
AcDbEntity
  8
MODEL
  6
Continuous
100
AcDbLine
 10
105.9832568538566
 20
207.3234543697842
 30
0.0
 11
106.6677314487477
 21
207.2452158229359
 31
0.0
  0
LINE
  5
6BC3
330
A
100
AcDbEntity
  8
MODEL
  6
Continuous
100
AcDbLine
 10
106.6677314487477
 20
207.2452158229359
 30
0.0
 11
107.2080744455758
 21
207.408838023425
 31
0.0
  0
LINE
  5
6BC4
330
A
100
AcDbEntity
  8
MODEL
  6
Continuous
100
AcDbLine
 10
107.2080744455758
 20
207.408838023425
 30
0.0
 11
107.0639426146824
 21
207.6506987707623
 31
0.0
  0
LINE
  5
6BC5
330
A
100
AcDbEntity
  8
MODEL
  6
Continuous
100
AcDbLine
 10
105.594161458053
 20
207.5482383863934
 30
0.0
 11
104.909686863162
 21
207.6264769332417
 31
0.0
  0
LINE
  5
6BC6
330
A
100
AcDbEntity
  8
MODEL
  6
Continuous
100
AcDbLine
 10
104.909686863162
 20
207.6264769332417
 30
0.0
 11
104.3693437499185
 21
207.4628547327527
 31
0.0
  0
LINE
  5
6BC7
330
A
100
AcDbEntity
  8
MODEL
  6
Continuous
100
AcDbLine
 10
104.3693437499185
 20
207.4628547327527
 30
0.0
 11
104.5134756972272
 21
207.2209939854153
 31
0.0
  0
LINE
  5
6BC8
330
A
100
AcDbEntity
  8
MODEL
  6
Continuous
100
AcDbLine
 10
104.5134756972272
 20
207.2209939854153
 30
0.0
 11
105.1979505249489
 21
207.142755438567
 31
0.0
  0
LINE
  5
6BC9
330
A
100
AcDbEntity
  8
MODEL
  6
Continuous
100
AcDbLine
 10
105.1979505249489
 20
207.142755438567
 30
0.0
 11
105.7382934053619
 21
207.3063776390561
 31
0.0
  0
LINE
  5
6BCA
330
A
100
AcDbEntity
  8
MODEL
  6
Continuous
100
AcDbLine
 10
105.7382934053619
 20
207.3063776390561
 30
0.0
 11
105.594161458053
 21
207.5482383863934
 31
0.0
  0
LINE
  5
6BCB
330
A
100
AcDbEntity
  8
MODEL
  6
Continuous
100
AcDbLine
 10
104.5998335142811
 20
207.9323530690678
 30
0.0
 11
104.2099423033375
 21
207.9769224421986
 31
0.0
  0
LINE
  5
6BCC
330
A
100
AcDbEntity
  8
MODEL
  6
Continuous
100
AcDbLine
 10
103.5484052521366
 20
207.6017708079823
 30
0.0
 11
104.2036228140075
 21
207.526877571822
 31
0.0
  0
LINE
  5
6BCD
330
A
100
AcDbEntity
  8
MODEL
  6
Continuous
100
AcDbLine
 10
104.2036228140075
 20
207.526877571822
 30
0.0
 11
104.7439654615898
 21
207.6904997723111
 31
0.0
  0
LINE
  5
6BCE
330
A
100
AcDbEntity
  8
MODEL
  6
Continuous
100
AcDbLine
 10
104.7439654615898
 20
207.6904997723111
 30
0.0
 11
104.5998335142811
 21
207.9323530690678
 31
0.0
  0
LINE
  5
6BCF
330
A
100
AcDbEntity
  8
MODEL
  6
Continuous
100
AcDbLine
 10
110.5223793096099
 20
206.9849223392018
 30
0.0
 11
109.8379045983036
 21
207.0631608860501
 31
0.0
  0
LINE
  5
6BD0
330
A
100
AcDbEntity
  8
MODEL
  6
Continuous
100
AcDbLine
 10
109.8379045983036
 20
207.0631608860501
 30
0.0
 11
109.2975617178906
 21
206.8995461361416
 31
0.0
  0
LINE
  5
6BD1
330
A
100
AcDbEntity
  8
MODEL
  6
Continuous
100
AcDbLine
 10
109.2975617178906
 20
206.8995461361416
 30
0.0
 11
109.441693548784
 21
206.6576853888043
 31
0.0
  0
LINE
  5
6BD2
330
A
100
AcDbEntity
  8
MODEL
  6
Continuous
100
AcDbLine
 10
109.441693548784
 20
206.6576853888043
 30
0.0
 11
110.1261682600904
 21
206.579446841956
 31
0.0
  0
LINE
  5
6BD3
330
A
100
AcDbEntity
  8
MODEL
  6
Continuous
100
AcDbLine
 10
110.1261682600904
 20
206.579446841956
 30
0.0
 11
110.6665111405033
 21
206.743069042445
 31
0.0
  0
LINE
  5
6BD4
330
A
100
AcDbEntity
  8
MODEL
  6
Continuous
100
AcDbLine
 10
110.6665111405033
 20
206.743069042445
 30
0.0
 11
110.5223793096099
 21
206.9849223392018
 31
0.0
  0
LINE
  5
6BD5
330
A
100
AcDbEntity
  8
MODEL
  6
Continuous
100
AcDbLine
 10
111.9921603498239
 20
207.0873827235707
 30
0.0
 11
111.3076857549328
 21
207.165621270419
 31
0.0
  0
LINE
  5
6BD6
330
A
100
AcDbEntity
  8
MODEL
  6
Continuous
100
AcDbLine
 10
111.3076857549328
 20
207.165621270419
 30
0.0
 11
110.7673427581045
 21
207.0019990699299
 31
0.0
  0
LINE
  5
6BD7
330
A
100
AcDbEntity
  8
MODEL
  6
Continuous
100
AcDbLine
 10
110.7673427581045
 20
207.0019990699299
 30
0.0
 11
110.911474588998
 21
206.7601457731732
 31
0.0
  0
LINE
  5
6BD8
330
A
100
AcDbEntity
  8
MODEL
  6
Continuous
100
AcDbLine
 10
110.911474588998
 20
206.7601457731732
 30
0.0
 11
111.5959494167197
 21
206.6819072263249
 31
0.0
  0
LINE
  5
6BD9
330
A
100
AcDbEntity
  8
MODEL
  6
Continuous
100
AcDbLine
 10
111.5959494167197
 20
206.6819072263249
 30
0.0
 11
112.1362920643021
 21
206.8455294268139
 31
0.0
  0
LINE
  5
6BDA
330
A
100
AcDbEntity
  8
MODEL
  6
Continuous
100
AcDbLine
 10
112.1362920643021
 20
206.8455294268139
 30
0.0
 11
111.9921603498239
 21
207.0873827235707
 31
0.0
  0
LINE
  5
6BDB
330
A
100
AcDbEntity
  8
MODEL
  6
Continuous
100
AcDbLine
 10
112.9864882935961
 20
206.7032680408963
 30
0.0
 11
112.3020134658743
 21
206.7815065877446
 31
0.0
  0
LINE
  5
6BDC
330
A
100
AcDbEntity
  8
MODEL
  6
Continuous
100
AcDbLine
 10
112.3020134658743
 20
206.7815065877446
 30
0.0
 11
111.7616705854613
 21
206.6178843872555
 31
0.0
  0
LINE
  5
6BDD
330
A
100
AcDbEntity
  8
MODEL
  6
Continuous
100
AcDbLine
 10
111.7616705854613
 20
206.6178843872555
 30
0.0
 11
111.9058025327702
 21
206.3760236399182
 31
0.0
  0
LINE
  5
6BDE
330
A
100
AcDbEntity
  8
MODEL
  6
Continuous
100
AcDbLine
 10
111.9058025327702
 20
206.3760236399182
 30
0.0
 11
112.5902771276611
 21
206.2977925436505
 31
0.0
  0
LINE
  5
6BDF
330
A
100
AcDbEntity
  8
MODEL
  6
Continuous
100
AcDbLine
 10
112.5902771276611
 20
206.2977925436505
 30
0.0
 11
113.1306197752435
 21
206.4614072935589
 31
0.0
  0
LINE
  5
6BE0
330
A
100
AcDbEntity
  8
MODEL
  6
Continuous
100
AcDbLine
 10
113.1306197752435
 20
206.4614072935589
 30
0.0
 11
112.9864882935961
 21
206.7032680408963
 31
0.0
  0
LINE
  5
6BE1
330
A
100
AcDbEntity
  8
MODEL
  6
Continuous
100
AcDbLine
 10
114.4562694502253
 20
206.8057284252652
 30
0.0
 11
113.7717943896729
 21
206.8839669721135
 31
0.0
  0
LINE
  5
6BE2
330
A
100
AcDbEntity
  8
MODEL
  6
Continuous
100
AcDbLine
 10
113.7717943896729
 20
206.8839669721135
 30
0.0
 11
113.2314517420906
 21
206.7203447716244
 31
0.0
  0
LINE
  5
6BE3
330
A
100
AcDbEntity
  8
MODEL
  6
Continuous
100
AcDbLine
 10
113.2314517420906
 20
206.7203447716244
 30
0.0
 11
113.3755836893994
 21
206.4784840242871
 31
0.0
  0
LINE
  5
6BE4
330
A
100
AcDbEntity
  8
MODEL
  6
Continuous
100
AcDbLine
 10
113.3755836893994
 20
206.4784840242871
 30
0.0
 11
114.0600582842905
 21
206.4002454774388
 31
0.0
  0
LINE
  5
6BE5
330
A
100
AcDbEntity
  8
MODEL
  6
Continuous
100
AcDbLine
 10
114.0600582842905
 20
206.4002454774388
 30
0.0
 11
114.6004009318728
 21
206.5638676779278
 31
0.0
  0
LINE
  5
6BE6
330
A
100
AcDbEntity
  8
MODEL
  6
Continuous
100
AcDbLine
 10
114.6004009318728
 20
206.5638676779278
 30
0.0
 11
114.4562694502253
 21
206.8057284252652
 31
0.0
  0
LINE
  5
6BE7
330
A
100
AcDbEntity
  8
MODEL
  6
Continuous
100
AcDbLine
 10
110.0035046951104
 20
207.8556195395001
 30
0.0
 11
109.3190300420116
 21
207.9338580863484
 31
0.0
  0
LINE
  5
6BE8
330
A
100
AcDbEntity
  8
MODEL
  6
Continuous
100
AcDbLine
 10
109.3190300420116
 20
207.9338580863484
 30
0.0
 11
108.7786871761507
 21
207.7702358858593
 31
0.0
  0
LINE
  5
6BE9
330
A
100
AcDbEntity
  8
MODEL
  6
Continuous
100
AcDbLine
 10
108.7786871761507
 20
207.7702358858593
 30
0.0
 11
108.9228189924923
 21
207.528375138522
 31
0.0
  0
LINE
  5
6BEA
330
A
100
AcDbEntity
  8
MODEL
  6
Continuous
100
AcDbLine
 10
108.9228189924923
 20
207.528375138522
 30
0.0
 11
109.6072937037985
 21
207.4501365916737
 31
0.0
  0
LINE
  5
6BEB
330
A
100
AcDbEntity
  8
MODEL
  6
Continuous
100
AcDbLine
 10
109.6072937037985
 20
207.4501365916737
 30
0.0
 11
110.1476365260038
 21
207.6137587921628
 31
0.0
  0
LINE
  5
6BEC
330
A
100
AcDbEntity
  8
MODEL
  6
Continuous
100
AcDbLine
 10
110.1476365260038
 20
207.6137587921628
 30
0.0
 11
110.0035046951104
 21
207.8556195395001
 31
0.0
  0
LINE
  5
6BED
330
A
100
AcDbEntity
  8
MODEL
  6
Continuous
100
AcDbLine
 10
108.5337236548964
 20
207.7531591551312
 30
0.0
 11
107.84924894359
 21
207.8313977019795
 31
0.0
  0
LINE
  5
6BEE
330
A
100
AcDbEntity
  8
MODEL
  6
Continuous
100
AcDbLine
 10
107.84924894359
 20
207.8313977019795
 30
0.0
 11
107.308906063177
 21
207.6677755014905
 31
0.0
  0
LINE
  5
6BEF
330
A
100
AcDbEntity
  8
MODEL
  6
Continuous
100
AcDbLine
 10
107.308906063177
 20
207.6677755014905
 30
0.0
 11
107.4530378940705
 21
207.4259147541531
 31
0.0
  0
LINE
  5
6BF0
330
A
100
AcDbEntity
  8
MODEL
  6
Continuous
100
AcDbLine
 10
107.4530378940705
 20
207.4259147541531
 30
0.0
 11
108.137512605377
 21
207.3476762073048
 31
0.0
  0
LINE
  5
6BF1
330
A
100
AcDbEntity
  8
MODEL
  6
Continuous
100
AcDbLine
 10
108.137512605377
 20
207.3476762073048
 30
0.0
 11
108.6778554857898
 21
207.5112984077939
 31
0.0
  0
LINE
  5
6BF2
330
A
100
AcDbEntity
  8
MODEL
  6
Continuous
100
AcDbLine
 10
108.6778554857898
 20
207.5112984077939
 30
0.0
 11
108.5337236548964
 21
207.7531591551312
 31
0.0
  0
LINE
  5
6BF3
330
A
100
AcDbEntity
  8
MODEL
  6
Continuous
100
AcDbLine
 10
107.5393958275396
 20
208.1372738378056
 30
0.0
 11
106.8549212326485
 21
208.2155123846539
 31
0.0
  0
LINE
  5
6BF4
330
A
100
AcDbEntity
  8
MODEL
  6
Continuous
100
AcDbLine
 10
106.8549212326485
 20
208.2155123846539
 30
0.0
 11
106.3145783522356
 21
208.0518901841649
 31
0.0
  0
LINE
  5
6BF5
330
A
100
AcDbEntity
  8
MODEL
  6
Continuous
100
AcDbLine
 10
106.3145783522356
 20
208.0518901841649
 30
0.0
 11
106.4587100667137
 21
207.8100368874081
 31
0.0
  0
LINE
  5
6BF6
330
A
100
AcDbEntity
  8
MODEL
  6
Continuous
100
AcDbLine
 10
106.4587100667137
 20
207.8100368874081
 30
0.0
 11
107.1431847780201
 21
207.7317983405598
 31
0.0
  0
LINE
  5
6BF7
330
A
100
AcDbEntity
  8
MODEL
  6
Continuous
100
AcDbLine
 10
107.1431847780201
 20
207.7317983405598
 30
0.0
 11
107.6835276584331
 21
207.8954130904683
 31
0.0
  0
LINE
  5
6BF8
330
A
100
AcDbEntity
  8
MODEL
  6
Continuous
100
AcDbLine
 10
107.6835276584331
 20
207.8954130904683
 30
0.0
 11
107.5393958275396
 21
208.1372738378056
 31
0.0
  0
LINE
  5
6BF9
330
A
100
AcDbEntity
  8
MODEL
  6
Continuous
100
AcDbLine
 10
110.9978326388825
 20
207.4715048568257
 30
0.0
 11
110.3133578111607
 21
207.549743403674
 31
0.0
  0
LINE
  5
6BFA
330
A
100
AcDbEntity
  8
MODEL
  6
Continuous
100
AcDbLine
 10
110.3133578111607
 20
207.549743403674
 30
0.0
 11
109.7730149889554
 21
207.3861212031849
 31
0.0
  0
LINE
  5
6BFB
330
A
100
AcDbEntity
  8
MODEL
  6
Continuous
100
AcDbLine
 10
109.7730149889554
 20
207.3861212031849
 30
0.0
 11
109.917146819849
 21
207.1442604558476
 31
0.0
  0
LINE
  5
6BFC
330
A
100
AcDbEntity
  8
MODEL
  6
Continuous
100
AcDbLine
 10
109.917146819849
 20
207.1442604558476
 30
0.0
 11
110.6016214729477
 21
207.0660219089993
 31
0.0
  0
LINE
  5
6BFD
330
A
100
AcDbEntity
  8
MODEL
  6
Continuous
100
AcDbLine
 10
110.6016214729477
 20
207.0660219089993
 30
0.0
 11
111.1419643533606
 21
207.2296441094883
 31
0.0
  0
LINE
  5
6BFE
330
A
100
AcDbEntity
  8
MODEL
  6
Continuous
100
AcDbLine
 10
111.1419643533606
 20
207.2296441094883
 30
0.0
 11
110.9978326388825
 21
207.4715048568257
 31
0.0
  0
LINE
  5
6BFF
330
A
100
AcDbEntity
  8
MODEL
  6
Continuous
100
AcDbLine
 10
112.4676135626811
 20
207.5739652411946
 30
0.0
 11
111.78313896779
 21
207.6521963374623
 31
0.0
  0
LINE
  5
6C00
330
A
100
AcDbEntity
  8
MODEL
  6
Continuous
100
AcDbLine
 10
111.78313896779
 20
207.6521963374623
 30
0.0
 11
111.2427960873772
 21
207.4885815875538
 31
0.0
  0
LINE
  5
6C01
330
A
100
AcDbEntity
  8
MODEL
  6
Continuous
100
AcDbLine
 10
111.2427960873772
 20
207.4885815875538
 30
0.0
 11
111.3869278018552
 21
207.2467208402165
 31
0.0
  0
LINE
  5
6C02
330
A
100
AcDbEntity
  8
MODEL
  6
Continuous
100
AcDbLine
 10
111.3869278018552
 20
207.2467208402165
 30
0.0
 11
112.071402629577
 21
207.1684822933682
 31
0.0
  0
LINE
  5
6C03
330
A
100
AcDbEntity
  8
MODEL
  6
Continuous
100
AcDbLine
 10
112.071402629577
 20
207.1684822933682
 30
0.0
 11
112.6117455099899
 21
207.3321044938572
 31
0.0
  0
LINE
  5
6C04
330
A
100
AcDbEntity
  8
MODEL
  6
Continuous
100
AcDbLine
 10
112.6117455099899
 20
207.3321044938572
 30
0.0
 11
112.4676135626811
 21
207.5739652411946
 31
0.0
  0
LINE
  5
6C05
330
A
100
AcDbEntity
  8
MODEL
  6
Continuous
100
AcDbLine
 10
113.4619415064532
 20
207.1898431079396
 30
0.0
 11
112.7774666787316
 21
207.2680816547879
 31
0.0
  0
LINE
  5
6C06
330
A
100
AcDbEntity
  8
MODEL
  6
Continuous
100
AcDbLine
 10
112.7774666787316
 20
207.2680816547879
 30
0.0
 11
112.2371237983185
 21
207.1044594542988
 31
0.0
  0
LINE
  5
6C07
330
A
100
AcDbEntity
  8
MODEL
  6
Continuous
100
AcDbLine
 10
112.2371237983185
 20
207.1044594542988
 30
0.0
 11
112.3812557456273
 21
206.8626061575421
 31
0.0
  0
LINE
  5
6C08
330
A
100
AcDbEntity
  8
MODEL
  6
Continuous
100
AcDbLine
 10
112.3812557456273
 20
206.8626061575421
 30
0.0
 11
113.0657303405184
 21
206.7843676106938
 31
0.0
  0
LINE
  5
6C09
330
A
100
AcDbEntity
  8
MODEL
  6
Continuous
100
AcDbLine
 10
113.0657303405184
 20
206.7843676106938
 30
0.0
 11
113.606073453762
 21
206.9479898111828
 31
0.0
  0
LINE
  5
6C0A
330
A
100
AcDbEntity
  8
MODEL
  6
Continuous
100
AcDbLine
 10
113.606073453762
 20
206.9479898111828
 30
0.0
 11
113.4619415064532
 21
207.1898431079396
 31
0.0
  0
LINE
  5
6C0B
330
A
100
AcDbEntity
  8
MODEL
  6
Continuous
100
AcDbLine
 10
110.4789580243829
 20
208.3421946065434
 30
0.0
 11
109.7944833130766
 21
208.4204331533917
 31
0.0
  0
LINE
  5
6C0C
330
A
100
AcDbEntity
  8
MODEL
  6
Continuous
100
AcDbLine
 10
109.7944833130766
 20
208.4204331533917
 30
0.0
 11
109.2541404326636
 21
208.2568109529027
 31
0.0
  0
LINE
  5
6C0D
330
A
100
AcDbEntity
  8
MODEL
  6
Continuous
100
AcDbLine
 10
109.2541404326636
 20
208.2568109529027
 30
0.0
 11
109.3982722635571
 21
208.0149502055653
 31
0.0
  0
LINE
  5
6C0E
330
A
100
AcDbEntity
  8
MODEL
  6
Continuous
100
AcDbLine
 10
109.3982722635571
 20
208.0149502055653
 30
0.0
 11
110.0827469748636
 21
207.936711658717
 31
0.0
  0
LINE
  5
6C0F
330
A
100
AcDbEntity
  8
MODEL
  6
Continuous
100
AcDbLine
 10
110.0827469748636
 20
207.936711658717
 30
0.0
 11
110.6230898552764
 21
208.1003338592061
 31
0.0
  0
LINE
  5
6C10
330
A
100
AcDbEntity
  8
MODEL
  6
Continuous
100
AcDbLine
 10
110.6230898552764
 20
208.1003338592061
 30
0.0
 11
110.4789580243829
 21
208.3421946065434
 31
0.0
  0
LINE
  5
6C11
330
A
100
AcDbEntity
  8
MODEL
  6
Continuous
100
AcDbLine
 10
109.0091769223233
 20
208.2397342221745
 30
0.0
 11
108.3247022146549
 21
208.3179727690228
 31
0.0
  0
LINE
  5
6C12
330
A
100
AcDbEntity
  8
MODEL
  6
Continuous
100
AcDbLine
 10
108.3247022146549
 20
208.3179727690228
 30
0.0
 11
107.7843593924496
 21
208.1543505685338
 31
0.0
  0
LINE
  5
6C13
330
A
100
AcDbEntity
  8
MODEL
  6
Continuous
100
AcDbLine
 10
107.7843593924496
 20
208.1543505685338
 30
0.0
 11
107.9284912233432
 21
207.9124898211964
 31
0.0
  0
LINE
  5
6C14
330
A
100
AcDbEntity
  8
MODEL
  6
Continuous
100
AcDbLine
 10
107.9284912233432
 20
207.9124898211964
 30
0.0
 11
108.6129658764418
 21
207.8342512743481
 31
0.0
  0
LINE
  5
6C15
330
A
100
AcDbEntity
  8
MODEL
  6
Continuous
100
AcDbLine
 10
108.6129658764418
 20
207.8342512743481
 30
0.0
 11
109.1533087423029
 21
207.9978734748372
 31
0.0
  0
LINE
  5
6C16
330
A
100
AcDbEntity
  8
MODEL
  6
Continuous
100
AcDbLine
 10
109.1533087423029
 20
207.9978734748372
 30
0.0
 11
109.0091769223233
 21
208.2397342221745
 31
0.0
  0
LINE
  5
6C17
330
A
100
AcDbEntity
  8
MODEL
  6
Continuous
100
AcDbLine
 10
108.0148490986046
 20
208.6238489048489
 30
0.0
 11
107.9370278424773
 21
208.6327448980816
 31
0.0
  0
LINE
  5
6C18
330
A
100
AcDbEntity
  8
MODEL
  6
Continuous
100
AcDbLine
 10
106.7918711600085
 20
208.5390240447529
 30
0.0
 11
106.7900315650928
 21
208.5384652512082
 31
0.0
  0
LINE
  5
6C19
330
A
100
AcDbEntity
  8
MODEL
  6
Continuous
100
AcDbLine
 10
106.7900315650928
 20
208.5384652512082
 30
0.0
 11
106.9341632795711
 21
208.2966119544514
 31
0.0
  0
LINE
  5
6C1A
330
A
100
AcDbEntity
  8
MODEL
  6
Continuous
100
AcDbLine
 10
106.9341632795711
 20
208.2966119544514
 30
0.0
 11
107.6186381072927
 21
208.2183734076031
 31
0.0
  0
LINE
  5
6C1B
330
A
100
AcDbEntity
  8
MODEL
  6
Continuous
100
AcDbLine
 10
107.6186381072927
 20
208.2183734076031
 30
0.0
 11
108.158980929498
 21
208.3819956080922
 31
0.0
  0
LINE
  5
6C1C
330
A
100
AcDbEntity
  8
MODEL
  6
Continuous
100
AcDbLine
 10
108.158980929498
 20
208.3819956080922
 30
0.0
 11
108.0148490986046
 21
208.6238489048489
 31
0.0
  0
LINE
  5
6C1D
330
A
100
AcDbEntity
  8
MODEL
  6
Continuous
100
AcDbLine
 10
105.3595801607895
 20
208.3700150744923
 30
0.0
 11
105.4643823557723
 21
208.1941515700825
 31
0.0
  0
LINE
  5
6C1E
330
A
100
AcDbEntity
  8
MODEL
  6
Continuous
100
AcDbLine
 10
105.4643823557723
 20
208.1941515700825
 30
0.0
 11
106.1488569506634
 21
208.1159130232342
 31
0.0
  0
LINE
  5
6C1F
330
A
100
AcDbEntity
  8
MODEL
  6
Continuous
100
AcDbLine
 10
106.1488569506634
 20
208.1159130232342
 30
0.0
 11
106.6891998310763
 21
208.2795352237233
 31
0.0
  0
LINE
  5
6C20
330
A
100
AcDbEntity
  8
MODEL
  6
Continuous
100
AcDbLine
 10
106.6891998310763
 20
208.2795352237233
 30
0.0
 11
106.5517231148857
 21
208.5102275507458
 31
0.0
  0
LINE
  5
6C21
330
A
100
AcDbEntity
  8
MODEL
  6
Continuous
100
AcDbLine
 10
111.4732858517397
 20
207.958079923869
 30
0.0
 11
110.7888111404333
 21
208.0363184707173
 31
0.0
  0
LINE
  5
6C22
330
A
100
AcDbEntity
  8
MODEL
  6
Continuous
100
AcDbLine
 10
110.7888111404333
 20
208.0363184707173
 30
0.0
 11
110.2484682600205
 21
207.8726962702282
 31
0.0
  0
LINE
  5
6C23
330
A
100
AcDbEntity
  8
MODEL
  6
Continuous
100
AcDbLine
 10
110.2484682600205
 20
207.8726962702282
 30
0.0
 11
110.3926000909139
 21
207.6308355228909
 31
0.0
  0
LINE
  5
6C24
330
A
100
AcDbEntity
  8
MODEL
  6
Continuous
100
AcDbLine
 10
110.3926000909139
 20
207.6308355228909
 30
0.0
 11
111.077074685805
 21
207.5525969760426
 31
0.0
  0
LINE
  5
6C25
330
A
100
AcDbEntity
  8
MODEL
  6
Continuous
100
AcDbLine
 10
111.077074685805
 20
207.5525969760426
 30
0.0
 11
111.6174175662178
 21
207.7162191765317
 31
0.0
  0
LINE
  5
6C26
330
A
100
AcDbEntity
  8
MODEL
  6
Continuous
100
AcDbLine
 10
111.6174175662178
 20
207.7162191765317
 30
0.0
 11
111.4732858517397
 21
207.958079923869
 31
0.0
  0
LINE
  5
6C27
330
A
100
AcDbEntity
  8
MODEL
  6
Continuous
100
AcDbLine
 10
113.9373947193104
 20
207.6764181749829
 30
0.0
 11
113.2529201244194
 21
207.7546567218312
 31
0.0
  0
LINE
  5
6C28
330
A
100
AcDbEntity
  8
MODEL
  6
Continuous
100
AcDbLine
 10
113.2529201244194
 20
207.7546567218312
 30
0.0
 11
112.7125772440065
 21
207.5910419719227
 31
0.0
  0
LINE
  5
6C29
330
A
100
AcDbEntity
  8
MODEL
  6
Continuous
100
AcDbLine
 10
112.7125772440065
 20
207.5910419719227
 30
0.0
 11
112.8567089584846
 21
207.3491812245854
 31
0.0
  0
LINE
  5
6C2A
330
A
100
AcDbEntity
  8
MODEL
  6
Continuous
100
AcDbLine
 10
112.8567089584846
 20
207.3491812245854
 30
0.0
 11
113.5411835533756
 21
207.2709426777371
 31
0.0
  0
LINE
  5
6C2B
330
A
100
AcDbEntity
  8
MODEL
  6
Continuous
100
AcDbLine
 10
113.5411835533756
 20
207.2709426777371
 30
0.0
 11
114.0815266666192
 21
207.4345648782261
 31
0.0
  0
LINE
  5
6C2C
330
A
100
AcDbEntity
  8
MODEL
  6
Continuous
100
AcDbLine
 10
114.0815266666192
 20
207.4345648782261
 30
0.0
 11
113.9373947193104
 21
207.6764181749829
 31
0.0
  0
LINE
  5
6C2D
330
A
100
AcDbEntity
  8
MODEL
  6
Continuous
100
AcDbLine
 10
109.8117039913501
 20
208.7682486073979
 30
0.0
 11
109.7295937037286
 21
208.743386019946
 31
0.0
  0
LINE
  5
6C2E
330
A
100
AcDbEntity
  8
MODEL
  6
Continuous
100
AcDbLine
 10
109.7295937037286
 20
208.743386019946
 30
0.0
 11
109.873725534622
 21
208.5015327231892
 31
0.0
  0
LINE
  5
6C2F
330
A
100
AcDbEntity
  8
MODEL
  6
Continuous
100
AcDbLine
 10
109.873725534622
 20
208.5015327231892
 30
0.0
 11
110.5582001877207
 21
208.4232941763409
 31
0.0
  0
LINE
  5
6C30
330
A
100
AcDbEntity
  8
MODEL
  6
Continuous
100
AcDbLine
 10
110.5582001877207
 20
208.4232941763409
 30
0.0
 11
111.0985430681336
 21
208.5869089262494
 31
0.0
  0
LINE
  5
6C31
330
A
100
AcDbEntity
  8
MODEL
  6
Continuous
100
AcDbLine
 10
111.0985430681336
 20
208.5869089262494
 30
0.0
 11
111.053671713658
 21
208.6622044937619
 31
0.0
  0
LINE
  5
6C32
330
A
100
AcDbEntity
  8
MODEL
  6
Continuous
100
AcDbLine
 10
109.4846301970262
 20
208.7263092892178
 30
0.0
 11
108.9479953119606
 21
208.7876499192723
 31
0.0
  0
LINE
  5
6C33
330
A
100
AcDbEntity
  8
MODEL
  6
Continuous
100
AcDbLine
 10
108.7386571129042
 20
208.7859288351544
 30
0.0
 11
108.5578948226481
 21
208.7311894195088
 31
0.0
  0
LINE
  5
6C34
330
A
100
AcDbEntity
  8
MODEL
  6
Continuous
100
AcDbLine
 10
108.28209286809
 20
208.6476758615979
 30
0.0
 11
108.2598126053068
 21
208.6409256355771
 31
0.0
  0
LINE
  5
6C35
330
A
100
AcDbEntity
  8
MODEL
  6
Continuous
100
AcDbLine
 10
108.2598126053068
 20
208.6409256355771
 30
0.0
 11
108.4039444362003
 21
208.3990723388203
 31
0.0
  0
LINE
  5
6C36
330
A
100
AcDbEntity
  8
MODEL
  6
Continuous
100
AcDbLine
 10
108.4039444362003
 20
208.3990723388203
 30
0.0
 11
109.0884191329549
 21
208.320833791972
 31
0.0
  0
LINE
  5
6C37
330
A
100
AcDbEntity
  8
MODEL
  6
Continuous
100
AcDbLine
 10
109.0884191329549
 20
208.320833791972
 30
0.0
 11
109.6287620279196
 21
208.4844559924611
 31
0.0
  0
LINE
  5
6C38
330
A
100
AcDbEntity
  8
MODEL
  6
Continuous
100
AcDbLine
 10
109.6287620279196
 20
208.4844559924611
 30
0.0
 11
109.4846301970262
 21
208.7263092892178
 31
0.0
  0
LINE
  5
6C39
330
A
100
AcDbEntity
  8
MODEL
  6
Continuous
100
AcDbLine
 10
111.6917135917771
 20
208.474032630206
 30
0.0
 11
111.2642644697059
 21
208.5228935377606
 31
0.0
  0
LINE
  5
6C3A
330
A
100
AcDbEntity
  8
MODEL
  6
Continuous
100
AcDbLine
 10
111.2642644697059
 20
208.5228935377606
 30
0.0
 11
110.7239214728776
 21
208.3592713372716
 31
0.0
  0
LINE
  5
6C3B
330
A
100
AcDbEntity
  8
MODEL
  6
Continuous
100
AcDbLine
 10
110.7239214728776
 20
208.3592713372716
 30
0.0
 11
110.8680533037711
 21
208.1174105899342
 31
0.0
  0
LINE
  5
6C3C
330
A
100
AcDbEntity
  8
MODEL
  6
Continuous
100
AcDbLine
 10
110.8680533037711
 20
208.1174105899342
 30
0.0
 11
111.5525281314928
 21
208.0391720430859
 31
0.0
  0
LINE
  5
6C3D
330
A
100
AcDbEntity
  8
MODEL
  6
Continuous
100
AcDbLine
 10
111.5525281314928
 20
208.0391720430859
 30
0.0
 11
112.0928707790751
 21
208.202794243575
 31
0.0
  0
LINE
  5
6C3E
330
A
100
AcDbEntity
  8
MODEL
  6
Continuous
100
AcDbLine
 10
112.0928707790751
 20
208.202794243575
 30
0.0
 11
111.955015480258
 21
208.4341198699482
 31
0.0
  0
LINE
  5
6C3F
330
A
100
AcDbEntity
  8
MODEL
  6
Continuous
100
AcDbLine
 10
112.2388448824365
 20
208.3859816687115
 30
0.0
 11
112.3378344604005
 21
208.2198709743031
 31
0.0
  0
LINE
  5
6C40
330
A
100
AcDbEntity
  8
MODEL
  6
Continuous
100
AcDbLine
 10
112.3378344604005
 20
208.2198709743031
 30
0.0
 11
113.0223092881221
 21
208.1416324274548
 31
0.0
  0
LINE
  5
6C41
330
A
100
AcDbEntity
  8
MODEL
  6
Continuous
100
AcDbLine
 10
113.0223092881221
 20
208.1416324274548
 30
0.0
 11
113.1685874683042
 21
208.1859261291035
 31
0.0
  0
LINE
  5
6C42
330
A
100
AcDbEntity
  8
MODEL
  6
Continuous
100
AcDbLine
 10
109.0525982111883
 20
206.8824694054135
 30
0.0
 11
108.3681234998818
 21
206.9607005016812
 31
0.0
  0
LINE
  5
6C43
330
A
100
AcDbEntity
  8
MODEL
  6
Continuous
100
AcDbLine
 10
108.3681234998818
 20
206.9607005016812
 30
0.0
 11
107.8277806776766
 21
206.7970857517727
 31
0.0
  0
LINE
  5
6C44
330
A
100
AcDbEntity
  8
MODEL
  6
Continuous
100
AcDbLine
 10
107.8277806776766
 20
206.7970857517727
 30
0.0
 11
107.97191250857
 21
206.5552250044354
 31
0.0
  0
LINE
  5
6C45
330
A
100
AcDbEntity
  8
MODEL
  6
Continuous
100
AcDbLine
 10
107.97191250857
 20
206.5552250044354
 30
0.0
 11
108.6563871616687
 21
206.4769864575871
 31
0.0
  0
LINE
  5
6C46
330
A
100
AcDbEntity
  8
MODEL
  6
Continuous
100
AcDbLine
 10
108.6563871616687
 20
206.4769864575871
 30
0.0
 11
109.1967300275299
 21
206.6406086580761
 31
0.0
  0
LINE
  5
6C47
330
A
100
AcDbEntity
  8
MODEL
  6
Continuous
100
AcDbLine
 10
109.1967300275299
 20
206.6406086580761
 30
0.0
 11
109.0525982111883
 21
206.8824694054135
 31
0.0
  0
LINE
  5
6C48
330
A
100
AcDbEntity
  8
MODEL
  6
Continuous
100
AcDbLine
 10
107.5828171127665
 20
206.7800090210446
 30
0.0
 11
106.8983425178755
 21
206.8582475678929
 31
0.0
  0
LINE
  5
6C49
330
A
100
AcDbEntity
  8
MODEL
  6
Continuous
100
AcDbLine
 10
106.8983425178755
 20
206.8582475678929
 30
0.0
 11
106.3579996374626
 21
206.6946253674038
 31
0.0
  0
LINE
  5
6C4A
330
A
100
AcDbEntity
  8
MODEL
  6
Continuous
100
AcDbLine
 10
106.3579996374626
 20
206.6946253674038
 30
0.0
 11
106.5021313519407
 21
206.4527646200665
 31
0.0
  0
LINE
  5
6C4B
330
A
100
AcDbEntity
  8
MODEL
  6
Continuous
100
AcDbLine
 10
106.5021313519407
 20
206.4527646200665
 30
0.0
 11
107.1866060632471
 21
206.3745260732182
 31
0.0
  0
LINE
  5
6C4C
330
A
100
AcDbEntity
  8
MODEL
  6
Continuous
100
AcDbLine
 10
107.1866060632471
 20
206.3745260732182
 30
0.0
 11
107.72694894366
 21
206.5381482737073
 31
0.0
  0
LINE
  5
6C4D
330
A
100
AcDbEntity
  8
MODEL
  6
Continuous
100
AcDbLine
 10
107.72694894366
 20
206.5381482737073
 30
0.0
 11
107.5828171127665
 21
206.7800090210446
 31
0.0
  0
LINE
  5
6C4E
330
A
100
AcDbEntity
  8
MODEL
  6
Continuous
100
AcDbLine
 10
106.5884894018252
 20
207.164123703719
 30
0.0
 11
105.9040145741034
 21
207.2423622505673
 31
0.0
  0
LINE
  5
6C4F
330
A
100
AcDbEntity
  8
MODEL
  6
Continuous
100
AcDbLine
 10
105.9040145741034
 20
207.2423622505673
 30
0.0
 11
105.3636716936905
 21
207.0787400500783
 31
0.0
  0
LINE
  5
6C50
330
A
100
AcDbEntity
  8
MODEL
  6
Continuous
100
AcDbLine
 10
105.3636716936905
 20
207.0787400500783
 30
0.0
 11
105.5078036409993
 21
206.8368793027409
 31
0.0
  0
LINE
  5
6C51
330
A
100
AcDbEntity
  8
MODEL
  6
Continuous
100
AcDbLine
 10
105.5078036409993
 20
206.8368793027409
 30
0.0
 11
106.1922782358904
 21
206.7586407558926
 31
0.0
  0
LINE
  5
6C52
330
A
100
AcDbEntity
  8
MODEL
  6
Continuous
100
AcDbLine
 10
106.1922782358904
 20
206.7586407558926
 30
0.0
 11
106.7326211163032
 21
206.9222629563817
 31
0.0
  0
LINE
  5
6C53
330
A
100
AcDbEntity
  8
MODEL
  6
Continuous
100
AcDbLine
 10
106.7326211163032
 20
206.9222629563817
 30
0.0
 11
106.5884894018252
 21
207.164123703719
 31
0.0
  0
LINE
  5
6C54
330
A
100
AcDbEntity
  8
MODEL
  6
Continuous
100
AcDbLine
 10
105.1187082451958
 20
207.0616633193501
 30
0.0
 11
104.4342336503047
 21
207.1399018661984
 31
0.0
  0
LINE
  5
6C55
330
A
100
AcDbEntity
  8
MODEL
  6
Continuous
100
AcDbLine
 10
104.4342336503047
 20
207.1399018661984
 30
0.0
 11
103.8938905370612
 21
206.9762796657094
 31
0.0
  0
LINE
  5
6C56
330
A
100
AcDbEntity
  8
MODEL
  6
Continuous
100
AcDbLine
 10
103.8938905370612
 20
206.9762796657094
 30
0.0
 11
104.0380224843699
 21
206.734418918372
 31
0.0
  0
LINE
  5
6C57
330
A
100
AcDbEntity
  8
MODEL
  6
Continuous
100
AcDbLine
 10
104.0380224843699
 20
206.734418918372
 30
0.0
 11
104.722497079261
 21
206.6561803715237
 31
0.0
  0
LINE
  5
6C58
330
A
100
AcDbEntity
  8
MODEL
  6
Continuous
100
AcDbLine
 10
104.722497079261
 20
206.6561803715237
 30
0.0
 11
105.2628399596739
 21
206.8198025720128
 31
0.0
  0
LINE
  5
6C59
330
A
100
AcDbEntity
  8
MODEL
  6
Continuous
100
AcDbLine
 10
105.2628399596739
 20
206.8198025720128
 30
0.0
 11
105.1187082451958
 21
207.0616633193501
 31
0.0
  0
LINE
  5
6C5A
330
A
100
AcDbEntity
  8
MODEL
  6
Continuous
100
AcDbLine
 10
110.0469259803373
 20
206.4983472721585
 30
0.0
 11
109.3624513272386
 21
206.5765858190068
 31
0.0
  0
LINE
  5
6C5B
330
A
100
AcDbEntity
  8
MODEL
  6
Continuous
100
AcDbLine
 10
109.3624513272386
 20
206.5765858190068
 30
0.0
 11
108.8221084613775
 21
206.4129636185177
 31
0.0
  0
LINE
  5
6C5C
330
A
100
AcDbEntity
  8
MODEL
  6
Continuous
100
AcDbLine
 10
108.8221084613775
 20
206.4129636185177
 30
0.0
 11
108.9662402813571
 21
206.171110321761
 31
0.0
  0
LINE
  5
6C5D
330
A
100
AcDbEntity
  8
MODEL
  6
Continuous
100
AcDbLine
 10
108.9662402813571
 20
206.171110321761
 30
0.0
 11
109.6507149890256
 21
206.0928717749127
 31
0.0
  0
LINE
  5
6C5E
330
A
100
AcDbEntity
  8
MODEL
  6
Continuous
100
AcDbLine
 10
109.6507149890256
 20
206.0928717749127
 30
0.0
 11
110.1910578112308
 21
206.2564939754017
 31
0.0
  0
LINE
  5
6C5F
330
A
100
AcDbEntity
  8
MODEL
  6
Continuous
100
AcDbLine
 10
110.1910578112308
 20
206.2564939754017
 30
0.0
 11
110.0469259803373
 21
206.4983472721585
 31
0.0
  0
LINE
  5
6C60
330
A
100
AcDbEntity
  8
MODEL
  6
Continuous
100
AcDbLine
 10
111.5167071369666
 20
206.6008076565274
 30
0.0
 11
110.8322324256602
 21
206.6790462033757
 31
0.0
  0
LINE
  5
6C61
330
A
100
AcDbEntity
  8
MODEL
  6
Continuous
100
AcDbLine
 10
110.8322324256602
 20
206.6790462033757
 30
0.0
 11
110.2918895452473
 21
206.5154240028866
 31
0.0
  0
LINE
  5
6C62
330
A
100
AcDbEntity
  8
MODEL
  6
Continuous
100
AcDbLine
 10
110.2918895452473
 20
206.5154240028866
 30
0.0
 11
110.4360213761409
 21
206.2735707061299
 31
0.0
  0
LINE
  5
6C63
330
A
100
AcDbEntity
  8
MODEL
  6
Continuous
100
AcDbLine
 10
110.4360213761409
 20
206.2735707061299
 30
0.0
 11
111.1204959710318
 21
206.1953321592816
 31
0.0
  0
LINE
  5
6C64
330
A
100
AcDbEntity
  8
MODEL
  6
Continuous
100
AcDbLine
 10
111.1204959710318
 20
206.1953321592816
 30
0.0
 11
111.6608388514448
 21
206.35894690919
 31
0.0
  0
LINE
  5
6C65
330
A
100
AcDbEntity
  8
MODEL
  6
Continuous
100
AcDbLine
 10
111.6608388514448
 20
206.35894690919
 30
0.0
 11
111.5167071369666
 21
206.6008076565274
 31
0.0
  0
LINE
  5
6C66
330
A
100
AcDbEntity
  8
MODEL
  6
Continuous
100
AcDbLine
 10
112.5110348479081
 20
206.216692973853
 30
0.0
 11
111.826560253017
 21
206.2949315207013
 31
0.0
  0
LINE
  5
6C67
330
A
100
AcDbEntity
  8
MODEL
  6
Continuous
100
AcDbLine
 10
111.826560253017
 20
206.2949315207013
 30
0.0
 11
111.2862173726042
 21
206.1313093202122
 31
0.0
  0
LINE
  5
6C68
330
A
100
AcDbEntity
  8
MODEL
  6
Continuous
100
AcDbLine
 10
111.2862173726042
 20
206.1313093202122
 30
0.0
 11
111.4303490870822
 21
205.8894485728749
 31
0.0
  0
LINE
  5
6C69
330
A
100
AcDbEntity
  8
MODEL
  6
Continuous
100
AcDbLine
 10
111.4303490870822
 20
205.8894485728749
 30
0.0
 11
112.1148239148039
 21
205.8112100260266
 31
0.0
  0
LINE
  5
6C6A
330
A
100
AcDbEntity
  8
MODEL
  6
Continuous
100
AcDbLine
 10
112.1148239148039
 20
205.8112100260266
 30
0.0
 11
112.6551667952169
 21
205.9748322265156
 31
0.0
  0
LINE
  5
6C6B
330
A
100
AcDbEntity
  8
MODEL
  6
Continuous
100
AcDbLine
 10
112.6551667952169
 20
205.9748322265156
 30
0.0
 11
112.5110348479081
 21
206.216692973853
 31
0.0
  0
LINE
  5
6C6C
330
A
100
AcDbEntity
  8
MODEL
  6
Continuous
100
AcDbLine
 10
108.5771449401233
 20
206.3958868877896
 30
0.0
 11
107.892670228817
 21
206.4741254346379
 31
0.0
  0
LINE
  5
6C6D
330
A
100
AcDbEntity
  8
MODEL
  6
Continuous
100
AcDbLine
 10
107.892670228817
 20
206.4741254346379
 30
0.0
 11
107.352327348404
 21
206.3105032341488
 31
0.0
  0
LINE
  5
6C6E
330
A
100
AcDbEntity
  8
MODEL
  6
Continuous
100
AcDbLine
 10
107.352327348404
 20
206.3105032341488
 30
0.0
 11
107.4964591792974
 21
206.0686499373921
 31
0.0
  0
LINE
  5
6C6F
330
A
100
AcDbEntity
  8
MODEL
  6
Continuous
100
AcDbLine
 10
107.4964591792974
 20
206.0686499373921
 30
0.0
 11
108.1809338906038
 21
205.9904113905438
 31
0.0
  0
LINE
  5
6C70
330
A
100
AcDbEntity
  8
MODEL
  6
Continuous
100
AcDbLine
 10
108.1809338906038
 20
205.9904113905438
 30
0.0
 11
108.7212767710168
 21
206.1540335910328
 31
0.0
  0
LINE
  5
6C71
330
A
100
AcDbEntity
  8
MODEL
  6
Continuous
100
AcDbLine
 10
108.7212767710168
 20
206.1540335910328
 30
0.0
 11
108.5771449401233
 21
206.3958868877896
 31
0.0
  0
LINE
  5
6C72
330
A
100
AcDbEntity
  8
MODEL
  6
Continuous
100
AcDbLine
 10
107.1073638999093
 20
206.2934265034207
 30
0.0
 11
106.4228890721877
 21
206.371665050269
 31
0.0
  0
LINE
  5
6C73
330
A
100
AcDbEntity
  8
MODEL
  6
Continuous
100
AcDbLine
 10
106.4228890721877
 20
206.371665050269
 30
0.0
 11
105.8825464246053
 21
206.2080503003605
 31
0.0
  0
LINE
  5
6C74
330
A
100
AcDbEntity
  8
MODEL
  6
Continuous
100
AcDbLine
 10
105.8825464246053
 20
206.2080503003605
 30
0.0
 11
106.0266781390834
 21
205.9661895530232
 31
0.0
  0
LINE
  5
6C75
330
A
100
AcDbEntity
  8
MODEL
  6
Continuous
100
AcDbLine
 10
106.0266781390834
 20
205.9661895530232
 30
0.0
 11
106.7111527339745
 21
205.8879510061749
 31
0.0
  0
LINE
  5
6C76
330
A
100
AcDbEntity
  8
MODEL
  6
Continuous
100
AcDbLine
 10
106.7111527339745
 20
205.8879510061749
 30
0.0
 11
107.2514957308029
 21
206.0515732066639
 31
0.0
  0
LINE
  5
6C77
330
A
100
AcDbEntity
  8
MODEL
  6
Continuous
100
AcDbLine
 10
107.2514957308029
 20
206.0515732066639
 30
0.0
 11
107.1073638999093
 21
206.2934265034207
 31
0.0
  0
LINE
  5
6C78
330
A
100
AcDbEntity
  8
MODEL
  6
Continuous
100
AcDbLine
 10
106.1130359561372
 20
206.6775486366757
 30
0.0
 11
105.4285613612461
 21
206.755787183524
 31
0.0
  0
LINE
  5
6C79
330
A
100
AcDbEntity
  8
MODEL
  6
Continuous
100
AcDbLine
 10
105.4285613612461
 20
206.755787183524
 30
0.0
 11
104.8882184808333
 21
206.5921649830349
 31
0.0
  0
LINE
  5
6C7A
330
A
100
AcDbEntity
  8
MODEL
  6
Continuous
100
AcDbLine
 10
104.8882184808333
 20
206.5921649830349
 30
0.0
 11
105.032350428142
 21
206.3503042356976
 31
0.0
  0
LINE
  5
6C7B
330
A
100
AcDbEntity
  8
MODEL
  6
Continuous
100
AcDbLine
 10
105.032350428142
 20
206.3503042356976
 30
0.0
 11
105.7168250230331
 21
206.2720656888493
 31
0.0
  0
LINE
  5
6C7C
330
A
100
AcDbEntity
  8
MODEL
  6
Continuous
100
AcDbLine
 10
105.7168250230331
 20
206.2720656888493
 30
0.0
 11
106.257167903446
 21
206.4356878893384
 31
0.0
  0
LINE
  5
6C7D
330
A
100
AcDbEntity
  8
MODEL
  6
Continuous
100
AcDbLine
 10
106.257167903446
 20
206.4356878893384
 30
0.0
 11
106.1130359561372
 21
206.6775486366757
 31
0.0
  0
LINE
  5
6C7E
330
A
100
AcDbEntity
  8
MODEL
  6
Continuous
100
AcDbLine
 10
111.0412539241095
 20
206.1142325894841
 30
0.0
 11
110.3567790963877
 21
206.1924711363324
 31
0.0
  0
LINE
  5
6C7F
330
A
100
AcDbEntity
  8
MODEL
  6
Continuous
100
AcDbLine
 10
110.3567790963877
 20
206.1924711363324
 30
0.0
 11
109.8164362741824
 21
206.0288489358433
 31
0.0
  0
LINE
  5
6C80
330
A
100
AcDbEntity
  8
MODEL
  6
Continuous
100
AcDbLine
 10
109.8164362741824
 20
206.0288489358433
 30
0.0
 11
109.9605681050758
 21
205.786988188506
 31
0.0
  0
LINE
  5
6C81
330
A
100
AcDbEntity
  8
MODEL
  6
Continuous
100
AcDbLine
 10
109.9605681050758
 20
205.786988188506
 30
0.0
 11
110.6450427581747
 21
205.7087496416577
 31
0.0
  0
LINE
  5
6C82
330
A
100
AcDbEntity
  8
MODEL
  6
Continuous
100
AcDbLine
 10
110.6450427581747
 20
205.7087496416577
 30
0.0
 11
111.1853856385875
 21
205.8723718421467
 31
0.0
  0
LINE
  5
6C83
330
A
100
AcDbEntity
  8
MODEL
  6
Continuous
100
AcDbLine
 10
111.1853856385875
 20
205.8723718421467
 30
0.0
 11
111.0412539241095
 21
206.1142325894841
 31
0.0
  0
LINE
  5
6C84
330
A
100
AcDbEntity
  8
MODEL
  6
Continuous
100
AcDbLine
 10
108.1016916690584
 20
205.9093118207463
 30
0.0
 11
107.4172170159597
 21
205.9875503675946
 31
0.0
  0
LINE
  5
6C85
330
A
100
AcDbEntity
  8
MODEL
  6
Continuous
100
AcDbLine
 10
107.4172170159597
 20
205.9875503675946
 30
0.0
 11
106.8768741355467
 21
205.8239281671055
 31
0.0
  0
LINE
  5
6C86
330
A
100
AcDbEntity
  8
MODEL
  6
Continuous
100
AcDbLine
 10
106.8768741355467
 20
205.8239281671055
 30
0.0
 11
107.0210058500249
 21
205.5820748703488
 31
0.0
  0
LINE
  5
6C87
330
A
100
AcDbEntity
  8
MODEL
  6
Continuous
100
AcDbLine
 10
107.0210058500249
 20
205.5820748703488
 30
0.0
 11
107.7054806777466
 21
205.5038363235005
 31
0.0
  0
LINE
  5
6C88
330
A
100
AcDbEntity
  8
MODEL
  6
Continuous
100
AcDbLine
 10
107.7054806777466
 20
205.5038363235005
 30
0.0
 11
108.245823499952
 21
205.6674510734089
 31
0.0
  0
LINE
  5
6C89
330
A
100
AcDbEntity
  8
MODEL
  6
Continuous
100
AcDbLine
 10
108.245823499952
 20
205.6674510734089
 30
0.0
 11
108.1016916690584
 21
205.9093118207463
 31
0.0
  0
LINE
  5
6C8A
330
A
100
AcDbEntity
  8
MODEL
  6
Continuous
100
AcDbLine
 10
105.63758274328
 20
206.1909735696324
 30
0.0
 11
104.9531079155583
 21
206.2692046659001
 31
0.0
  0
LINE
  5
6C8B
330
A
100
AcDbEntity
  8
MODEL
  6
Continuous
100
AcDbLine
 10
104.9531079155583
 20
206.2692046659001
 30
0.0
 11
104.412765267976
 21
206.1055899159916
 31
0.0
  0
LINE
  5
6C8C
330
A
100
AcDbEntity
  8
MODEL
  6
Continuous
100
AcDbLine
 10
104.412765267976
 20
206.1055899159916
 30
0.0
 11
104.5568972152847
 21
205.8637291686543
 31
0.0
  0
LINE
  5
6C8D
330
A
100
AcDbEntity
  8
MODEL
  6
Continuous
100
AcDbLine
 10
104.5568972152847
 20
205.8637291686543
 30
0.0
 11
105.2413718101758
 21
205.785490621806
 31
0.0
  0
LINE
  5
6C8E
330
A
100
AcDbEntity
  8
MODEL
  6
Continuous
100
AcDbLine
 10
105.2413718101758
 20
205.785490621806
 30
0.0
 11
105.7817146905889
 21
205.949112822295
 31
0.0
  0
LINE
  5
6C8F
330
A
100
AcDbEntity
  8
MODEL
  6
Continuous
100
AcDbLine
 10
105.7817146905889
 20
205.949112822295
 30
0.0
 11
105.63758274328
 21
206.1909735696324
 31
0.0
  0
LINE
  5
6C90
330
A
100
AcDbEntity
  8
MODEL
  6
Continuous
100
AcDbLine
 10
110.5658005948369
 20
205.6276575224408
 30
0.0
 11
109.8813258835304
 21
205.7058960692891
 31
0.0
  0
LINE
  5
6C91
330
A
100
AcDbEntity
  8
MODEL
  6
Continuous
100
AcDbLine
 10
109.8813258835304
 20
205.7058960692891
 30
0.0
 11
109.3409830031176
 21
205.5422738688
 31
0.0
  0
LINE
  5
6C92
330
A
100
AcDbEntity
  8
MODEL
  6
Continuous
100
AcDbLine
 10
109.3409830031176
 20
205.5422738688
 30
0.0
 11
109.485114834011
 21
205.3004131214627
 31
0.0
  0
LINE
  5
6C93
330
A
100
AcDbEntity
  8
MODEL
  6
Continuous
100
AcDbLine
 10
109.485114834011
 20
205.3004131214627
 30
0.0
 11
110.1695895453173
 21
205.2221745746144
 31
0.0
  0
LINE
  5
6C94
330
A
100
AcDbEntity
  8
MODEL
  6
Continuous
100
AcDbLine
 10
110.1695895453173
 20
205.2221745746144
 30
0.0
 11
110.7099324257303
 21
205.3857967751034
 31
0.0
  0
LINE
  5
6C95
330
A
100
AcDbEntity
  8
MODEL
  6
Continuous
100
AcDbLine
 10
110.7099324257303
 20
205.3857967751034
 30
0.0
 11
110.5658005948369
 21
205.6276575224408
 31
0.0
  0
LINE
  5
6C96
330
A
100
AcDbEntity
  8
MODEL
  6
Continuous
100
AcDbLine
 10
102.3486568850656
 20
207.0245966808804
 30
0.0
 11
101.4002207924803
 21
207.1330100791462
 31
0.0
  0
LINE
  5
6C97
330
A
100
AcDbEntity
  8
MODEL
  6
Continuous
100
AcDbLine
 10
102.994186363854
 20
208.0780417220601
 30
0.0
 11
103.7433767018098
 21
207.85149936843
 31
0.0
  0
LINE
  5
6C98
330
A
100
AcDbEntity
  8
MODEL
  6
Continuous
100
AcDbLine
 10
109.873725534622
 20
208.7652013199338
 30
0.0
 11
109.873725534622
 21
208.5015327231892
 31
0.0
  0
LINE
  5
6C99
330
A
100
AcDbEntity
  8
MODEL
  6
Continuous
100
AcDbLine
 10
108.4039444362003
 20
208.6515278117665
 30
0.0
 11
108.4039444362003
 21
208.3990723388203
 31
0.0
  0
LINE
  5
6C9A
330
A
100
AcDbEntity
  8
MODEL
  6
Continuous
100
AcDbLine
 10
115.2511425574501
 20
207.3347494499692
 30
0.0
 11
116.145919102915
 21
207.4874640004643
 31
0.0
  0
LINE
  5
6C9B
330
A
100
AcDbEntity
  8
MODEL
  6
Continuous
100
AcDbLine
 10
116.9726131742078
 20
206.433735837222
 30
0.0
 11
115.9745003354925
 21
206.4127326505192
 31
0.0
  0
LINE
  5
6C9C
330
A
100
AcDbEntity
  8
MODEL
  6
Continuous
100
AcDbLine
 10
110.5582001877207
 20
208.7161541478642
 30
0.0
 11
110.5582001877207
 21
208.4232941763409
 31
0.0
  0
LINE
  5
6C9D
330
A
100
AcDbEntity
  8
MODEL
  6
Continuous
100
AcDbLine
 10
106.9341632795711
 20
208.5545287029751
 30
0.0
 11
106.9341632795711
 21
208.2966119544514
 31
0.0
  0
LINE
  5
6C9E
330
A
100
AcDbEntity
  8
MODEL
  6
Continuous
100
AcDbLine
 10
109.0884191329549
 20
208.7716013686665
 30
0.0
 11
109.0884191329549
 21
208.320833791972
 31
0.0
  0
LINE
  5
6C9F
330
A
100
AcDbEntity
  8
MODEL
  6
Continuous
100
AcDbLine
 10
112.3378344604005
 20
208.367876757861
 30
0.0
 11
112.3378344604005
 21
208.2198709743031
 31
0.0
  0
LINE
  5
6CA0
330
A
100
AcDbEntity
  8
MODEL
  6
Continuous
100
AcDbLine
 10
105.4643823557723
 20
208.3966136472233
 30
0.0
 11
105.4643823557723
 21
208.1941515700825
 31
0.0
  0
LINE
  5
6CA1
330
A
100
AcDbEntity
  8
MODEL
  6
Continuous
100
AcDbLine
 10
107.6186381072927
 20
208.6136341588505
 30
0.0
 11
107.6186381072927
 21
208.2183734076031
 31
0.0
  0
LINE
  5
6CA2
330
A
100
AcDbEntity
  8
MODEL
  6
Continuous
100
AcDbLine
 10
110.8680533037711
 20
208.4029168384083
 30
0.0
 11
110.8680533037711
 21
208.1174105899342
 31
0.0
  0
LINE
  5
6CA3
330
A
100
AcDbEntity
  8
MODEL
  6
Continuous
100
AcDbLine
 10
113.0223092881221
 20
208.2221881048687
 30
0.0
 11
113.0223092881221
 21
208.1416324274548
 31
0.0
  0
LINE
  5
6CA4
330
A
100
AcDbEntity
  8
MODEL
  6
Continuous
100
AcDbLine
 10
106.1488569506634
 20
208.4541470305928
 30
0.0
 11
106.1488569506634
 21
208.1159130232342
 31
0.0
  0
LINE
  5
6CA5
330
A
100
AcDbEntity
  8
MODEL
  6
Continuous
100
AcDbLine
 10
109.3982722635571
 20
208.3004564540394
 30
0.0
 11
109.3982722635571
 21
208.0149502055653
 31
0.0
  0
LINE
  5
6CA6
330
A
100
AcDbEntity
  8
MODEL
  6
Continuous
100
AcDbLine
 10
111.5525281314928
 20
208.4899396197804
 30
0.0
 11
111.5525281314928
 21
208.0391720430859
 31
0.0
  0
LINE
  5
6CA7
330
A
100
AcDbEntity
  8
MODEL
  6
Continuous
100
AcDbLine
 10
104.6790760268647
 20
208.1637159483441
 30
0.0
 11
104.6790760268647
 21
208.0134526388653
 31
0.0
  0
LINE
  5
6CA8
330
A
100
AcDbEntity
  8
MODEL
  6
Continuous
100
AcDbLine
 10
107.9284912233432
 20
208.1979960696705
 30
0.0
 11
107.9284912233432
 21
207.9124898211964
 31
0.0
  0
LINE
  5
6CA9
330
A
100
AcDbEntity
  8
MODEL
  6
Continuous
100
AcDbLine
 10
110.0827469748636
 20
208.3874866859921
 30
0.0
 11
110.0827469748636
 21
207.936711658717
 31
0.0
  0
LINE
  5
6CAA
330
A
100
AcDbEntity
  8
MODEL
  6
Continuous
100
AcDbLine
 10
113.3321621713418
 20
208.1212625401028
 30
0.0
 11
113.3321621713418
 21
207.8357562916287
 31
0.0
  0
LINE
  5
6CAB
330
A
100
AcDbEntity
  8
MODEL
  6
Continuous
100
AcDbLine
 10
101.0028040294726
 20
207.0374191300877
 30
0.0
 11
102.0009168681878
 21
207.0584148662098
 31
0.0
  0
LINE
  5
6CAC
330
A
100
AcDbEntity
  8
MODEL
  6
Continuous
100
AcDbLine
 10
106.4587100667137
 20
208.0955356853016
 30
0.0
 11
106.4587100667137
 21
207.8100368874081
 31
0.0
  0
LINE
  5
6CAD
330
A
100
AcDbEntity
  8
MODEL
  6
Continuous
100
AcDbLine
 10
108.6129658764418
 20
208.2850263016232
 30
0.0
 11
108.6129658764418
 21
207.8342512743481
 31
0.0
  0
LINE
  5
6CAE
330
A
100
AcDbEntity
  8
MODEL
  6
Continuous
100
AcDbLine
 10
114.0166367662329
 20
207.8548670308598
 30
0.0
 11
114.0166367662329
 21
207.7575177447804
 31
0.0
  0
LINE
  5
6CAF
330
A
100
AcDbEntity
  8
MODEL
  6
Continuous
100
AcDbLine
 10
107.1431847780201
 20
208.1825659172543
 30
0.0
 11
107.1431847780201
 21
207.7317983405598
 31
0.0
  0
LINE
  5
6CB0
330
A
100
AcDbEntity
  8
MODEL
  6
Continuous
100
AcDbLine
 10
110.3926000909139
 20
207.916341771365
 30
0.0
 11
110.3926000909139
 21
207.6308355228909
 31
0.0
  0
LINE
  5
6CB1
330
A
100
AcDbEntity
  8
MODEL
  6
Continuous
100
AcDbLine
 10
108.9228189924923
 20
207.8138813869961
 30
0.0
 11
108.9228189924923
 21
207.528375138522
 31
0.0
  0
LINE
  5
6CB2
330
A
100
AcDbEntity
  8
MODEL
  6
Continuous
100
AcDbLine
 10
111.077074685805
 20
208.0033645527371
 30
0.0
 11
111.077074685805
 21
207.5525969760426
 31
0.0
  0
LINE
  5
6CB3
330
A
100
AcDbEntity
  8
MODEL
  6
Continuous
100
AcDbLine
 10
104.2036228140075
 20
207.97406886983
 30
0.0
 11
104.2036228140075
 21
207.526877571822
 31
0.0
  0
LINE
  5
6CB4
330
A
100
AcDbEntity
  8
MODEL
  6
Continuous
100
AcDbLine
 10
114.3264901151139
 20
207.6720744864949
 30
0.0
 11
114.3264901151139
 21
207.4516416089543
 31
0.0
  0
LINE
  5
6CB5
330
A
100
AcDbEntity
  8
MODEL
  6
Continuous
100
AcDbLine
 10
107.4530378940705
 20
207.7114210026272
 30
0.0
 11
107.4530378940705
 21
207.4259147541531
 31
0.0
  0
LINE
  5
6CB6
330
A
100
AcDbEntity
  8
MODEL
  6
Continuous
100
AcDbLine
 10
109.6072937037985
 20
207.9009041683682
 30
0.0
 11
109.6072937037985
 21
207.4501365916737
 31
0.0
  0
LINE
  5
6CB7
330
A
100
AcDbEntity
  8
MODEL
  6
Continuous
100
AcDbLine
 10
112.8567089584846
 20
207.6346800224789
 30
0.0
 11
112.8567089584846
 21
207.3491812245854
 31
0.0
  0
LINE
  5
6CB8
330
A
100
AcDbEntity
  8
MODEL
  6
Continuous
100
AcDbLine
 10
105.9832568538566
 20
207.6089606182583
 30
0.0
 11
105.9832568538566
 21
207.3234543697842
 31
0.0
  0
LINE
  5
6CB9
330
A
100
AcDbEntity
  8
MODEL
  6
Continuous
100
AcDbLine
 10
108.137512605377
 20
207.7984437839993
 30
0.0
 11
108.137512605377
 21
207.3476762073048
 31
0.0
  0
LINE
  5
6CBA
330
A
100
AcDbEntity
  8
MODEL
  6
Continuous
100
AcDbLine
 10
111.3869278018552
 20
207.5322270886906
 30
0.0
 11
111.3869278018552
 21
207.2467208402165
 31
0.0
  0
LINE
  5
6CBB
330
A
100
AcDbEntity
  8
MODEL
  6
Continuous
100
AcDbLine
 10
115.626760318615
 20
206.4465508358487
 30
0.0
 11
116.5751964112003
 21
206.3381448881634
 31
0.0
  0
LINE
  5
6CBC
330
A
100
AcDbEntity
  8
MODEL
  6
Continuous
100
AcDbLine
 10
113.5411835533756
 20
207.7217102544316
 30
0.0
 11
113.5411835533756
 21
207.2709426777371
 31
0.0
  0
LINE
  5
6CBD
330
A
100
AcDbEntity
  8
MODEL
  6
Continuous
100
AcDbLine
 10
104.5134756972272
 20
207.5065002338894
 30
0.0
 11
104.5134756972272
 21
207.2209939854153
 31
0.0
  0
LINE
  5
6CBE
330
A
100
AcDbEntity
  8
MODEL
  6
Continuous
100
AcDbLine
 10
106.6677314487477
 20
207.695990850211
 30
0.0
 11
106.6677314487477
 21
207.2452158229359
 31
0.0
  0
LINE
  5
6CBF
330
A
100
AcDbEntity
  8
MODEL
  6
Continuous
100
AcDbLine
 10
109.917146819849
 20
207.4297667043217
 30
0.0
 11
109.917146819849
 21
207.1442604558476
 31
0.0
  0
LINE
  5
6CC0
330
A
100
AcDbEntity
  8
MODEL
  6
Continuous
100
AcDbLine
 10
112.071402629577
 20
207.6192498700627
 30
0.0
 11
112.071402629577
 21
207.1684822933682
 31
0.0
  0
LINE
  5
6CC1
330
A
100
AcDbEntity
  8
MODEL
  6
Continuous
100
AcDbLine
 10
105.1979505249489
 20
207.5935304658421
 30
0.0
 11
105.1979505249489
 21
207.142755438567
 31
0.0
  0
LINE
  5
6CC2
330
A
100
AcDbEntity
  8
MODEL
  6
Continuous
100
AcDbLine
 10
101.0028040294726
 20
206.0977221028813
 30
0.0
 11
102.0009168681878
 21
206.118725289584
 31
0.0
  0
LINE
  5
6CC3
330
A
100
AcDbEntity
  8
MODEL
  6
Continuous
100
AcDbLine
 10
102.7242746462305
 20
205.1967084901341
 30
0.0
 11
101.8294981007654
 21
205.043993939639
 31
0.0
  0
LINE
  5
6CC4
330
A
100
AcDbEntity
  8
MODEL
  6
Continuous
100
AcDbLine
 10
110.6016214729477
 20
207.5167894856938
 30
0.0
 11
110.6016214729477
 21
207.0660219089993
 31
0.0
  0
LINE
  5
6CC5
330
A
100
AcDbEntity
  8
MODEL
  6
Continuous
100
AcDbLine
 10
103.7281696011502
 20
207.4910700814732
 30
0.0
 11
103.7281696011502
 21
207.0403025047787
 31
0.0
  0
LINE
  5
6CC6
330
A
100
AcDbEntity
  8
MODEL
  6
Continuous
100
AcDbLine
 10
113.8510369022566
 20
207.2505653398045
 30
0.0
 11
113.8510369022566
 21
206.965066541911
 31
0.0
  0
LINE
  5
6CC7
330
A
100
AcDbEntity
  8
MODEL
  6
Continuous
100
AcDbLine
 10
106.9775845647979
 20
207.2248459355839
 30
0.0
 11
106.9775845647979
 21
206.9393396871098
 31
0.0
  0
LINE
  5
6CC8
330
A
100
AcDbEntity
  8
MODEL
  6
Continuous
100
AcDbLine
 10
112.3812557456273
 20
207.1481049554356
 30
0.0
 11
112.3812557456273
 21
206.8626061575421
 31
0.0
  0
LINE
  5
6CC9
330
A
100
AcDbEntity
  8
MODEL
  6
Continuous
100
AcDbLine
 10
105.5078036409993
 20
207.122385551215
 30
0.0
 11
105.5078036409993
 21
206.8368793027409
 31
0.0
  0
LINE
  5
6CCA
330
A
100
AcDbEntity
  8
MODEL
  6
Continuous
100
AcDbLine
 10
107.6620593925197
 20
207.311868716956
 30
0.0
 11
107.6620593925197
 21
206.8611011402615
 31
0.0
  0
LINE
  5
6CCB
330
A
100
AcDbEntity
  8
MODEL
  6
Continuous
100
AcDbLine
 10
114.5355114971477
 20
207.3375955717572
 30
0.0
 11
114.5355114971477
 21
206.8868279950627
 31
0.0
  0
LINE
  5
6CCC
330
A
100
AcDbEntity
  8
MODEL
  6
Continuous
100
AcDbLine
 10
110.911474588998
 20
207.0456445710667
 30
0.0
 11
110.911474588998
 21
206.7601457731732
 31
0.0
  0
LINE
  5
6CCD
330
A
100
AcDbEntity
  8
MODEL
  6
Continuous
100
AcDbLine
 10
113.0657303405184
 20
207.2351351873883
 30
0.0
 11
113.0657303405184
 21
206.7843676106938
 31
0.0
  0
LINE
  5
6CCE
330
A
100
AcDbEntity
  8
MODEL
  6
Continuous
100
AcDbLine
 10
104.0380224843699
 20
207.0199251668461
 30
0.0
 11
104.0380224843699
 21
206.734418918372
 31
0.0
  0
LINE
  5
6CCF
330
A
100
AcDbEntity
  8
MODEL
  6
Continuous
100
AcDbLine
 10
106.1922782358904
 20
207.2094083325871
 30
0.0
 11
106.1922782358904
 21
206.7586407558926
 31
0.0
  0
LINE
  5
6CD0
330
A
100
AcDbEntity
  8
MODEL
  6
Continuous
100
AcDbLine
 10
109.441693548784
 20
206.9431841866978
 30
0.0
 11
109.441693548784
 21
206.6576853888043
 31
0.0
  0
LINE
  5
6CD1
330
A
100
AcDbEntity
  8
MODEL
  6
Continuous
100
AcDbLine
 10
111.5959494167197
 20
207.1326748030194
 30
0.0
 11
111.5959494167197
 21
206.6819072263249
 31
0.0
  0
LINE
  5
6CD2
330
A
100
AcDbEntity
  8
MODEL
  6
Continuous
100
AcDbLine
 10
104.722497079261
 20
207.1069479482182
 30
0.0
 11
104.722497079261
 21
206.6561803715237
 31
0.0
  0
LINE
  5
6CD3
330
A
100
AcDbEntity
  8
MODEL
  6
Continuous
100
AcDbLine
 10
107.97191250857
 20
206.8407238023289
 30
0.0
 11
107.97191250857
 21
206.5552250044354
 31
0.0
  0
LINE
  5
6CD4
330
A
100
AcDbEntity
  8
MODEL
  6
Continuous
100
AcDbLine
 10
110.1261682600904
 20
207.0302144186505
 30
0.0
 11
110.1261682600904
 21
206.579446841956
 31
0.0
  0
LINE
  5
6CD5
330
A
100
AcDbEntity
  8
MODEL
  6
Continuous
100
AcDbLine
 10
113.3755836893994
 20
206.7639902727612
 30
0.0
 11
113.3755836893994
 21
206.4784840242871
 31
0.0
  0
LINE
  5
6CD6
330
A
100
AcDbEntity
  8
MODEL
  6
Continuous
100
AcDbLine
 10
106.5021313519407
 20
206.7382708685406
 30
0.0
 11
106.5021313519407
 21
206.4527646200665
 31
0.0
  0
LINE
  5
6CD7
330
A
100
AcDbEntity
  8
MODEL
  6
Continuous
100
AcDbLine
 10
108.6563871616687
 20
206.9277540342816
 30
0.0
 11
108.6563871616687
 21
206.4769864575871
 31
0.0
  0
LINE
  5
6CD8
330
A
100
AcDbEntity
  8
MODEL
  6
Continuous
100
AcDbLine
 10
115.626760318615
 20
205.5068612592228
 30
0.0
 11
116.5751964112003
 21
205.398447860957
 31
0.0
  0
LINE
  5
6CD9
330
A
100
AcDbEntity
  8
MODEL
  6
Continuous
100
AcDbLine
 10
114.9812308398265
 20
204.4534162180432
 30
0.0
 11
114.2320405018707
 21
204.6799585716733
 31
0.0
  0
LINE
  5
6CDA
330
A
100
AcDbEntity
  8
MODEL
  6
Continuous
100
AcDbLine
 10
111.9058025327702
 20
206.6615298883923
 30
0.0
 11
111.9058025327702
 21
206.3760236399182
 31
0.0
  0
LINE
  5
6CDB
330
A
100
AcDbEntity
  8
MODEL
  6
Continuous
100
AcDbLine
 10
114.0600582842905
 20
206.8510205047139
 30
0.0
 11
114.0600582842905
 21
206.4002454774388
 31
0.0
  0
LINE
  5
6CDC
330
A
100
AcDbEntity
  8
MODEL
  6
Continuous
100
AcDbLine
 10
105.032350428142
 20
206.6358104841717
 30
0.0
 11
105.032350428142
 21
206.3503042356976
 31
0.0
  0
LINE
  5
6CDD
330
A
100
AcDbEntity
  8
MODEL
  6
Continuous
100
AcDbLine
 10
107.1866060632471
 20
206.8252936499127
 30
0.0
 11
107.1866060632471
 21
206.3745260732182
 31
0.0
  0
LINE
  5
6CDE
330
A
100
AcDbEntity
  8
MODEL
  6
Continuous
100
AcDbLine
 10
110.4360213761409
 20
206.5590695040234
 30
0.0
 11
110.4360213761409
 21
206.2735707061299
 31
0.0
  0
LINE
  5
6CDF
330
A
100
AcDbEntity
  8
MODEL
  6
Continuous
100
AcDbLine
 10
112.5902771276611
 20
206.748560120345
 30
0.0
 11
112.5902771276611
 21
206.2977925436505
 31
0.0
  0
LINE
  5
6CE0
330
A
100
AcDbEntity
  8
MODEL
  6
Continuous
100
AcDbLine
 10
105.7168250230331
 20
206.7228332655438
 30
0.0
 11
105.7168250230331
 21
206.2720656888493
 31
0.0
  0
LINE
  5
6CE1
330
A
100
AcDbEntity
  8
MODEL
  6
Continuous
100
AcDbLine
 10
108.9662402813571
 20
206.4566091196545
 30
0.0
 11
108.9662402813571
 21
206.171110321761
 31
0.0
  0
LINE
  5
6CE2
330
A
100
AcDbEntity
  8
MODEL
  6
Continuous
100
AcDbLine
 10
111.1204959710318
 20
206.6460997359761
 30
0.0
 11
111.1204959710318
 21
206.1953321592816
 31
0.0
  0
LINE
  5
6CE3
330
A
100
AcDbEntity
  8
MODEL
  6
Continuous
100
AcDbLine
 10
104.2470438664038
 20
206.6203728811749
 30
0.0
 11
104.2470438664038
 21
206.1696053044804
 31
0.0
  0
LINE
  5
6CE4
330
A
100
AcDbEntity
  8
MODEL
  6
Continuous
100
AcDbLine
 10
107.4964591792974
 20
206.3541487352856
 30
0.0
 11
107.4964591792974
 21
206.0686499373921
 31
0.0
  0
LINE
  5
6CE5
330
A
100
AcDbEntity
  8
MODEL
  6
Continuous
100
AcDbLine
 10
109.6507149890256
 20
206.5436393516072
 30
0.0
 11
109.6507149890256
 21
206.0928717749127
 31
0.0
  0
LINE
  5
6CE6
330
A
100
AcDbEntity
  8
MODEL
  6
Continuous
100
AcDbLine
 10
112.9001300108809
 20
206.2774152057179
 30
0.0
 11
112.9001300108809
 21
205.9919089572438
 31
0.0
  0
LINE
  5
6CE7
330
A
100
AcDbEntity
  8
MODEL
  6
Continuous
100
AcDbLine
 10
103.6888701168079
 20
205.1555142300137
 30
0.0
 11
104.043103780337
 21
205.2925527589329
 31
0.0
  0
LINE
  5
6CE8
330
A
100
AcDbEntity
  8
MODEL
  6
Continuous
100
AcDbLine
 10
106.0266781390834
 20
206.2516883509167
 30
0.0
 11
106.0266781390834
 21
205.9661895530232
 31
0.0
  0
LINE
  5
6CE9
330
A
100
AcDbEntity
  8
MODEL
  6
Continuous
100
AcDbLine
 10
108.1809338906038
 20
206.4411789672383
 30
0.0
 11
108.1809338906038
 21
205.9904113905438
 31
0.0
  0
LINE
  5
6CEA
330
A
100
AcDbEntity
  8
MODEL
  6
Continuous
100
AcDbLine
 10
111.4303490870822
 20
206.174954821349
 30
0.0
 11
111.4303490870822
 21
205.8894485728749
 31
0.0
  0
LINE
  5
6CEB
330
A
100
AcDbEntity
  8
MODEL
  6
Continuous
100
AcDbLine
 10
104.5568972152847
 20
206.1492279665478
 30
0.0
 11
104.5568972152847
 21
205.8637291686543
 31
0.0
  0
LINE
  5
6CEC
330
A
100
AcDbEntity
  8
MODEL
  6
Continuous
100
AcDbLine
 10
106.7111527339745
 20
206.3387185828694
 30
0.0
 11
106.7111527339745
 21
205.8879510061749
 31
0.0
  0
LINE
  5
6CED
330
A
100
AcDbEntity
  8
MODEL
  6
Continuous
100
AcDbLine
 10
109.9605681050758
 20
206.0724944369801
 30
0.0
 11
109.9605681050758
 21
205.786988188506
 31
0.0
  0
LINE
  5
6CEE
330
A
100
AcDbEntity
  8
MODEL
  6
Continuous
100
AcDbLine
 10
112.1148239148039
 20
206.2619776027211
 30
0.0
 11
112.1148239148039
 21
205.8112100260266
 31
0.0
  0
LINE
  5
6CEF
330
A
100
AcDbEntity
  8
MODEL
  6
Continuous
100
AcDbLine
 10
113.5846050714332
 20
206.36443798709
 30
0.0
 11
113.5846050714332
 21
205.9136704103955
 31
0.0
  0
LINE
  5
6CF0
330
A
100
AcDbEntity
  8
MODEL
  6
Continuous
100
AcDbLine
 10
105.2413718101758
 20
206.2362581985005
 30
0.0
 11
105.2413718101758
 21
205.785490621806
 31
0.0
  0
LINE
  5
6CF1
330
A
100
AcDbEntity
  8
MODEL
  6
Continuous
100
AcDbLine
 10
110.6450427581747
 20
206.1595246689328
 30
0.0
 11
110.6450427581747
 21
205.7087496416577
 31
0.0
  0
LINE
  5
6CF2
330
A
100
AcDbEntity
  8
MODEL
  6
Continuous
100
AcDbLine
 10
107.0210058500249
 20
205.8675736682423
 30
0.0
 11
107.0210058500249
 21
205.5820748703488
 31
0.0
  0
LINE
  5
6CF3
330
A
100
AcDbEntity
  8
MODEL
  6
Continuous
100
AcDbLine
 10
112.4259527099508
 20
204.8489228384503
 30
0.0
 11
112.5598259062696
 21
204.7571689383992
 31
0.0
  0
LINE
  5
6CF4
330
A
100
AcDbEntity
  8
MODEL
  6
Continuous
100
AcDbLine
 10
107.7054806777466
 20
205.954603900195
 30
0.0
 11
107.7054806777466
 21
205.5038363235005
 31
0.0
  0
LINE
  5
6CF5
330
A
100
AcDbEntity
  8
MODEL
  6
Continuous
100
AcDbLine
 10
110.954895874225
 20
205.6883797543057
 30
0.0
 11
110.954895874225
 21
205.4028735058316
 31
0.0
  0
LINE
  5
6CF6
330
A
100
AcDbEntity
  8
MODEL
  6
Continuous
100
AcDbLine
 10
106.2356995211174
 20
205.8521435158261
 30
0.0
 11
106.2356995211174
 21
205.4013759391316
 31
0.0
  0
LINE
  5
6CF7
330
A
100
AcDbEntity
  8
MODEL
  6
Continuous
100
AcDbLine
 10
103.6888701168079
 20
204.2158246533879
 30
0.0
 11
104.3512248692293
 21
204.4720650212773
 31
0.0
  0
LINE
  5
6CF8
330
A
100
AcDbEntity
  8
MODEL
  6
Continuous
100
AcDbLine
 10
106.7689266313989
 20
203.9950415985592
 30
0.0
 11
106.4519579780478
 21
203.6706582205304
 31
0.0
  0
LINE
  5
6CF9
330
A
100
AcDbEntity
  8
MODEL
  6
Continuous
100
AcDbLine
 10
109.485114834011
 20
205.5859193699368
 30
0.0
 11
109.485114834011
 21
205.3004131214627
 31
0.0
  0
LINE
  5
6CFA
330
A
100
AcDbEntity
  8
MODEL
  6
Continuous
100
AcDbLine
 10
112.1133114469427
 20
204.1235045092114
 30
0.0
 11
112.5598259062696
 21
203.8174793617734
 31
0.0
  0
LINE
  5
6CFB
330
A
100
AcDbEntity
  8
MODEL
  6
Continuous
100
AcDbLine
 10
109.4789243328575
 20
203.5347298281201
 30
0.0
 11
109.4175223810322
 21
203.8761079804905
 31
0.0
  0
LINE
  5
6CFC
330
A
100
AcDbEntity
  8
MODEL
  6
Continuous
100
AcDbLine
 10
108.0153337355893
 20
205.4834589855679
 30
0.0
 11
108.0153337355893
 21
205.1979527370938
 31
0.0
  0
LINE
  5
6CFD
330
A
100
AcDbEntity
  8
MODEL
  6
Continuous
100
AcDbLine
 10
110.1695895453173
 20
205.6729421513089
 30
0.0
 11
110.1695895453173
 21
205.2221745746144
 31
0.0
  0
LWPOLYLINE
  5
6CFE
330
A
100
AcDbEntity
  8
MODEL
  6
Continuous
100
AcDbPolyline
 90
       49
 70
   128
 43
0.0
 10
117.2877084722001
 20
206.2657252447613
 10
117.2167007138211
 20
205.8951929705151
 10
117.004892814644
 20
205.5310011403569
 10
116.6559085508068
 20
205.1793784396657
 10
116.1757195626575
 20
204.8463449375638
 10
115.5725415122885
 20
204.5376003282078
 10
114.8566948508103
 20
204.2584196226605
 10
114.040428332724
 20
204.013586093665
 10
113.1377085370201
 20
203.8072869675168
 10
112.1639809829373
 20
203.6430463688382
 10
111.135906565674
 20
203.5236880676755
 10
110.0710759896044
 20
203.4512460725316
 10
108.9877086018403
 20
203.4269646303662
 10
107.904341214076
 20
203.4512460725316
 10
106.8395106380064
 20
203.5236880676755
 10
105.8114362207431
 20
203.6430463688382
 10
104.8377086666602
 20
203.8072869675168
 10
103.9349888709563
 20
204.013586093665
 10
103.1187223528701
 20
204.2584196226605
 10
102.4028756913919
 20
204.5376003282078
 10
101.7996976410229
 20
204.8463449375638
 10
101.3195086528737
 20
205.1793784396657
 10
100.9705243890364
 20
205.5310011403569
 10
100.7587164898593
 20
205.8951929705151
 10
100.6877087314804
 20
206.2657252447613
 10
100.7587164898593
 20
206.6362649695881
 10
100.9705243890364
 20
207.0004567997464
 10
101.3195086528737
 20
207.3520795004376
 10
101.7996976410229
 20
207.6851130025395
 10
102.4028756913919
 20
207.9938576118954
 10
103.1187223528701
 20
208.2730383174428
 10
103.9349888709563
 20
208.5178718464383
 10
104.8377086666602
 20
208.7241709725865
 10
105.8114362207431
 20
208.8884041206845
 10
106.8395106380064
 20
209.0077698724278
 10
107.904341214076
 20
209.0802118675717
 10
108.9877086018403
 20
209.1044933097371
 10
110.0710759896044
 20
209.0802118675717
 10
111.135906565674
 20
209.0077698724278
 10
112.1639809829373
 20
208.8884041206845
 10
113.1377085370201
 20
208.7241709725865
 10
114.040428332724
 20
208.5178718464383
 10
114.8566948508103
 20
208.2730383174428
 10
115.5725415122885
 20
207.9938576118954
 10
116.1757195626575
 20
207.6851130025395
 10
116.6559085508068
 20
207.3520795004376
 10
117.004892814644
 20
207.0004567997464
 10
117.2167007138211
 20
206.6362649695881
 10
117.2877084722001
 20
206.2657252447613
  0
LWPOLYLINE
  5
6CFF
330
A
100
AcDbEntity
  8
MODEL
  6
Continuous
100
AcDbPolyline
 90
       54
 70
   128
 43
0.0
 10
118.9877083783228
 20
206.2657252447613
 10
118.9175192524869
 20
205.8612108724125
 10
118.7079381455857
 20
205.4623738424786
 10
118.3619052429873
 20
205.0748095409878
 10
117.8842792545635
 20
204.7039643423565
 10
117.2817657028516
 20
204.355046202422
 10
116.5628209968287
 20
204.0329427020558
 10
115.7375388105591
 20
203.7421912448414
 10
114.8175033998865
 20
203.4868598477849
 10
113.8156308119375
 20
203.2705396907338
 10
112.7459844832498
 20
203.0962631599911
 10
111.6235803605247
 20
202.9664814965733
 10
110.4641742098336
 20
202.883012642146
 10
109.2840418826978
 20
202.8470263378628
 10
108.0997496286597
 20
202.8590366737851
 10
106.9279224869986
 20
202.9188648359784
 10
105.785010175519
 20
203.0256838099965
 10
104.6870565300066
 20
203.1779811279782
 10
103.6494747062404
 20
203.3736184732922
 10
102.6868303564568
 20
203.6098614828595
 10
101.8126360398907
 20
203.8833871977337
 10
101.0391637941081
 20
204.190351118327
 10
100.377272840329
 20
204.5264468090542
 10
99.83625265557347
 20
204.8869655029782
 10
99.4236991067607
 20
205.2668333547123
 10
99.14540315765927
 20
205.6607306497105
 10
99.0052717064697
 20
206.0631141560086
 10
99.0052717064697
 20
206.4683437840947
 10
99.14540315765927
 20
206.8707272903927
 10
99.4236991067607
 20
207.2646245853909
 10
99.83625265557347
 20
207.6444924371251
 10
100.377272840329
 20
208.005011131049
 10
101.0391637941081
 20
208.3411068217763
 10
101.8126360398907
 20
208.6480707423695
 10
102.6868303564568
 20
208.9215964572438
 10
103.6494747062404
 20
209.157839466811
 10
104.6870565300066
 20
209.3534768121251
 10
105.785010175519
 20
209.5057741301068
 10
106.9279224869986
 20
209.6125856535443
 10
108.0997496286597
 20
209.6724212663182
 10
109.2840418826978
 20
209.6844316022404
 10
110.4641742098336
 20
209.6484452979573
 10
111.6235803605247
 20
209.5649764435299
 10
112.7459844832498
 20
209.4351947801121
 10
113.8156308119375
 20
209.2609182493695
 10
114.8175033998865
 20
209.0445980923184
 10
115.7375388105591
 20
208.7892666952618
 10
116.5628209968287
 20
208.4985152380475
 10
117.2817657028516
 20
208.1764117376812
 10
117.8842792545635
 20
207.8274935977467
 10
118.3619052429873
 20
207.4566483991154
 10
118.7079381455857
 20
207.0690840976246
 10
118.9175192524869
 20
206.6702470676907
 10
118.9877083783228
 20
206.2657252447613
  0
LWPOLYLINE
  5
6D00
330
A
100
AcDbEntity
  8
MODEL
  6
Continuous
100
AcDbPolyline
 90
       28
 70
   128
 43
0.0
 10
98.9877088253576
 20
239.9067245917328
 10
99.0052717064697
 20
240.1093394057759
 10
99.14540315765927
 20
240.5117266373642
 10
99.4236991067607
 20
240.9056164817818
 10
99.83625265557347
 20
241.2854880588063
 10
100.377272840329
 20
241.6460030274399
 10
101.0391637941081
 20
241.9821024434575
 10
101.8126360398907
 20
242.289070089341
 10
102.6868303564568
 20
242.562592078925
 10
103.6494747062404
 20
242.7988332258471
 10
104.6870565300066
 20
242.9944742964514
 10
105.785010175519
 20
243.1467716144331
 10
106.9279224869986
 20
243.2535850005158
 10
108.0997496286597
 20
243.3134150253542
 10
109.2840418826978
 20
243.3254234986313
 10
110.4641742098336
 20
243.2894409196385
 10
111.6235803605247
 20
243.2059720652112
 10
112.7459844832498
 20
243.0761904017933
 10
113.8156308119375
 20
242.9019138710507
 10
114.8175033998865
 20
242.6855937139996
 10
115.7375388105591
 20
242.430262316943
 10
116.5628209968287
 20
242.1395071344384
 10
117.2817657028516
 20
241.8174073593625
 10
117.8842792545635
 20
241.4684892194279
 10
118.3619052429873
 20
241.0976440207966
 10
118.7079381455857
 20
240.7100834445962
 10
118.9175192524869
 20
240.3112426893719
 10
118.9877083783228
 20
239.9067245917328
  0
SPLINE
  5
6D01
330
A
100
AcDbEntity
  8
MODEL
  6
Continuous
100
AcDbSpline
210
0.0
220
0.0
230
1.0
 70
     8
 71
     3
 72
    15
 73
    11
 74
     0
 42
0.000000001
 43
0.00000001
 40
0.0
 40
0.0
 40
0.0
 40
0.0
 40
0.1111478578031413
 40
0.2264505489457197
 40
0.3374046536840988
 40
0.4507596859222429
 40
0.5805637682371112
 40
0.7131535404121196
 40
0.8625064757477892
 40
1.0
 40
1.0
 40
1.0
 40
1.0
 10
101.7496148382503
 20
224.9763198690423
 30
0.0
 10
101.7365446061946
 20
225.2791288224368
 30
0.0
 10
101.7099155619442
 20
225.896066072303
 30
0.0
 10
101.5080413343909
 20
226.7195076572795
 30
0.0
 10
101.2231052124777
 20
227.4511820953346
 30
0.0
 10
100.8644459313497
 20
228.1043927112812
 30
0.0
 10
100.4521201162186
 20
228.6735273063175
 30
0.0
 10
100.0055359030419
 20
229.1395560579919
 30
0.0
 10
99.5803586982062
 20
229.458992466906
 30
0.0
 10
99.37526135807238
 20
229.4893062761846
 30
0.0
 10
99.2769524713238
 20
229.5038365321168
 30
0.0
  0
SPLINE
  5
6D02
330
A
100
AcDbEntity
  8
MODEL
  6
Continuous
100
AcDbSpline
210
0.0
220
0.0
230
1.0
 70
     8
 71
     3
 72
    17
 73
    13
 74
     0
 42
0.000000001
 43
0.00000001
 40
0.0
 40
0.0
 40
0.0
 40
0.0
 40
0.0604146707217625
 40
0.1451848558001784
 40
0.2322387375669275
 40
0.3208708440071204
 40
0.4114408679724171
 40
0.5141190434292269
 40
0.6190810453568262
 40
0.7357594815432835
 40
0.8567028627789893
 40
1.0
 40
1.0
 40
1.0
 40
1.0
 10
99.00127446997939
 20
216.1509283380517
 30
0.0
 10
99.0003138525359
 20
216.2272193389515
 30
0.0
 10
98.9980053552232
 20
216.4105572241412
 30
0.0
 10
99.10868971730687
 20
216.8545705678996
 30
0.0
 10
99.3011495875042
 20
217.4356474436924
 30
0.0
 10
99.5743382784392
 20
218.124883319854
 30
0.0
 10
99.9201469787611
 20
218.930047617089
 30
0.0
 10
100.3272990255598
 20
219.8527789282404
 30
0.0
 10
100.7848328696579
 20
220.9221366356439
 30
0.0
 10
101.2338687200633
 20
222.1124589527487
 30
0.0
 10
101.647286564367
 20
223.5005169915136
 30
0.0
 10
101.7136344852703
 20
224.4574025996651
 30
0.0
 10
101.7496148382503
 20
224.9763198690423
 30
0.0
  0
LINE
  5
6D03
330
A
100
AcDbEntity
  8
MODEL
  6
Continuous
100
AcDbLine
 10
89.98770921278779
 20
224.9763198690423
 30
0.0
 11
89.98770921278779
 21
229.5163795845517
 31
0.0
  0
LINE
  5
6D04
330
A
100
AcDbEntity
  8
MODEL
  6
Continuous
100
AcDbLine
 10
89.98770921278779
 20
215.7163806753167
 30
0.0
 11
89.98770921278779
 21
224.9763198690423
 31
0.0
  0
ARC
  5
6D05
330
A
100
AcDbEntity
  8
MODEL
  6
Continuous
100
AcDbCircle
 10
108.9877086018403
 20
273.9857286708363
 30
0.0
 40
10.49999999999993
100
AcDbArc
 50
342.2472098380525
 51
0.0
  0
ARC
  5
6D06
330
A
100
AcDbEntity
  8
MODEL
  6
Continuous
100
AcDbCircle
 10
108.9877086018403
 20
273.9857286708363
 30
0.0
 40
10.49999999999993
100
AcDbArc
 50
0.0
 51
197.7527901619471
  0
ARC
  5
6D07
330
A
100
AcDbEntity
  8
MODEL
  6
Continuous
100
AcDbCircle
 10
108.9877086018403
 20
273.9857286708363
 30
0.0
 40
24.00000000000039
100
AcDbArc
 50
294.6243183521636
 51
0.0
  0
ARC
  5
6D08
330
A
100
AcDbEntity
  8
MODEL
  6
Continuous
100
AcDbCircle
 10
108.9877086018403
 20
273.9857286708363
 30
0.0
 40
24.00000000000039
100
AcDbArc
 50
0.0
 51
245.3756816478357
  0
ARC
  5
6D09
330
A
100
AcDbEntity
  8
MODEL
  6
Continuous
100
AcDbCircle
 10
275.8010626937538
 20
238.9857286708362
 30
0.0
 40
25.0
100
AcDbArc
 50
19.99999999999891
 51
90.0
  0
ARC
  5
6D0A
330
A
100
AcDbEntity
  8
MODEL
  6
Continuous
100
AcDbCircle
 10
275.8010626937538
 20
238.9857286708362
 30
0.0
 40
45.0
100
AcDbArc
 50
19.99999999999951
 51
90.0
  0
LINE
  5
6D0B
330
A
100
AcDbEntity
  8
MODEL
  6
Continuous
100
AcDbLine
 10
255.7063861538889
 20
263.9857288943536
 30
0.0
 11
275.8010593031766
 21
263.9857288943536
 31
0.0
  0
LINE
  5
6D0C
330
A
100
AcDbEntity
  8
MODEL
  6
Continuous
100
AcDbLine
 10
275.8010593031766
 20
283.9857284473188
 30
0.0
 11
255.7063861538889
 21
283.9857284473188
 31
0.0
  0
LINE
  5
6D0D
330
A
100
AcDbEntity
  8
MODEL
  6
Continuous
100
AcDbLine
 10
322.0063862179639
 20
243.6088342713124
 30
0.0
 11
318.08723181237
 21
254.3766350047595
 31
0.0
  0
LINE
  5
6D0E
330
A
100
AcDbEntity
  8
MODEL
  6
Continuous
100
AcDbLine
 10
299.2933806752088
 20
247.5362327443368
 30
0.0
 11
303.2125350808027
 21
236.7684320108898
 31
0.0
  0
LINE
  5
6D0F
330
A
100
AcDbEntity
  8
MODEL
  6
Continuous
100
AcDbLine
 10
320.9108826493146
 20
242.8908497588642
 30
0.0
 11
320.8082881544949
 21
243.17275737691
 31
0.0
  0
LINE
  5
6D10
330
A
100
AcDbEntity
  8
MODEL
  6
Continuous
100
AcDbLine
 10
304.4106480454328
 20
237.2045070426471
 30
0.0
 11
304.5132574414136
 21
236.9225994246013
 31
0.0
  0
LINE
  5
6D11
330
A
100
AcDbEntity
  8
MODEL
  6
Continuous
100
AcDbLine
 10
303.3151444767835
 20
236.486524392844
 30
0.0
 11
315.5594584320905
 21
202.8455287711627
 31
0.0
  0
LINE
  5
6D12
330
A
100
AcDbEntity
  8
MODEL
  6
Continuous
100
AcDbLine
 10
334.3533095692518
 20
209.6859291689403
 30
0.0
 11
322.1089956139447
 21
243.3269266532667
 31
0.0
  0
LINE
  5
6D13
330
A
100
AcDbEntity
  8
MODEL
  6
Continuous
100
AcDbLine
 10
250.7063862656477
 20
249.98572846222
 30
0.0
 11
255.7063861538889
 21
249.98572846222
 31
0.0
  0
LINE
  5
6D14
330
A
100
AcDbEntity
  8
MODEL
  6
Continuous
100
AcDbLine
 10
255.7063861538889
 20
297.9857288794525
 30
0.0
 11
250.7063862656477
 21
297.9857288794525
 31
0.0
  0
LINE
  5
6D15
330
A
100
AcDbEntity
  8
MODEL
  6
Continuous
100
AcDbLine
 10
249.7063862181502
 20
259.6357288332589
 30
0.0
 11
250.7063862656477
 21
259.6357288332589
 31
0.0
  0
LINE
  5
6D16
330
A
100
AcDbEntity
  8
MODEL
  6
Continuous
100
AcDbLine
 10
250.7063862656477
 20
288.3357285084136
 30
0.0
 11
249.7063862181502
 21
288.3357285084136
 31
0.0
  0
LWPOLYLINE
  5
6D17
330
A
100
AcDbEntity
  8
MODEL
  6
Continuous
100
AcDbPolyline
 90
       28
 70
   128
 43
0.0
 10
322.0063862179639
 20
243.6088342713124
 10
321.9692674254299
 20
243.5953226434
 10
321.8048927163007
 20
243.5354926185615
 10
321.5114143465879
 20
243.4286792324789
 10
321.0929897402645
 20
243.2763819144971
 10
320.555460152519
 20
243.0807408438928
 10
319.9063953732373
 20
242.8444996969707
 10
319.1549000119092
 20
242.5709777073866
 10
318.3115240906597
 20
242.2640100615032
 10
317.3880991314771
 20
241.9279106454856
 10
316.3975891445997
 20
241.567395676852
 10
315.3538969134214
 20
241.1875240998275
 10
314.271685180557
 20
240.79363425541
 10
313.166138229263
 20
240.3912470238216
 10
312.0527830695035
 20
239.9860173957355
 10
310.9472361182095
 20
239.5836301641471
 10
309.8650243853452
 20
239.1897403197296
 10
308.8213470553281
 20
238.8098687427051
 10
307.8308370684507
 20
238.4493537740715
 10
306.9074121092679
 20
238.1132543580539
 10
306.0640212868573
 20
237.8062867121704
 10
305.3125259255292
 20
237.5327647225864
 10
304.6634611462476
 20
237.2965254383093
 10
304.1259464596631
 20
237.1008806424148
 10
303.7075069521787
 20
236.9485870497234
 10
303.4140434836271
 20
236.8417718009956
 10
303.2496538733364
 20
236.781939913512
 10
303.2125350808027
 20
236.7684320108898
  0
CIRCLE
  5
6D18
330
A
100
AcDbEntity
  8
MODEL
  6
Continuous
100
AcDbCircle
 10
319.0052403017342
 20
222.6163802725101
 30
0.0
 40
6.899999999999789
  0
LWPOLYLINE
  5
6D19
102
{ACAD_REACTORS
330
6D53
102
}
330
A
100
AcDbEntity
  8
MODEL
  6
Continuous
100
AcDbPolyline
 90
       28
 70
   128
 43
0.0
 10
315.5594584320905
 20
202.8455287711627
 10
315.5965772246244
 20
202.859036673785
 10
315.7609668349149
 20
202.9188648359783
 10
316.0544303034664
 20
203.0256838099964
 10
316.472869810951
 20
203.1779811279781
 10
317.0103844975354
 20
203.3736184732921
 10
317.6594492768171
 20
203.6098614828593
 10
318.4109595393063
 20
203.8833871977336
 10
319.2543354605558
 20
204.1903511183269
 10
320.1777604197385
 20
204.5264468090541
 10
321.1682704066159
 20
204.8869655029781
 10
322.211947736633
 20
205.2668333547122
 10
323.2941594694974
 20
205.6607306497104
 10
324.3997064207914
 20
206.0631141560085
 10
325.513076481712
 20
206.4683437840946
 10
326.6186085318447
 20
206.8707272903926
 10
327.7008202647092
 20
207.2646245853908
 10
328.7445124958875
 20
207.644492437125
 10
329.7350224827648
 20
208.0050111310489
 10
330.6584474419476
 20
208.3411068217762
 10
331.5018233631971
 20
208.6480707423694
 10
332.2533336256864
 20
208.9215964572437
 10
332.902398404968
 20
209.1578394668109
 10
333.4399130915525
 20
209.353476812125
 10
333.8583525990369
 20
209.5057741301067
 10
334.1518160675885
 20
209.6125856535442
 10
334.3161907767178
 20
209.6724212663181
 10
334.3533095692518
 20
209.6859291689403
  0
LWPOLYLINE
  5
6D1A
330
A
100
AcDbEntity
  8
MODEL
  6
Continuous
100
AcDbPolyline
 90
       28
 70
   128
 43
0.0
 10
303.3151444767835
 20
236.486524392844
 10
303.3522632693174
 20
236.5000322954662
 10
303.5166528796079
 20
236.5598641829498
 10
303.8101163481595
 20
236.6666757063873
 10
304.2285409544828
 20
236.818973024369
 10
304.7660705422284
 20
237.0146140949733
 10
305.4151353215101
 20
237.2508571045406
 10
306.1666306828381
 20
237.5243790941246
 10
307.0100066040876
 20
237.8313467400081
 10
307.9334464644315
 20
238.1674461560256
 10
308.9239415501477
 20
238.5279611246593
 10
309.9676337813259
 20
238.9078327016838
 10
311.0498455141904
 20
239.3017225461012
 10
312.1553924654844
 20
239.7041097776897
 10
313.2687476252438
 20
240.1093394057758
 10
314.3742945765378
 20
240.5117266373641
 10
315.4565063094022
 20
240.9056164817817
 10
316.5001836394193
 20
241.2854880588062
 10
317.4906936262966
 20
241.6460030274397
 10
318.4141185854794
 20
241.9821024434574
 10
319.2575094078901
 20
242.2890700893409
 10
320.0090047692182
 20
242.5625920789249
 10
320.6580695484998
 20
242.798833225847
 10
321.1955991362455
 20
242.9944742964512
 10
321.6140237425687
 20
243.146771614433
 10
321.9074872111203
 20
243.2535850005157
 10
322.0718768214109
 20
243.3134150253541
 10
322.1089956139447
 20
243.3269266532667
  0
LINE
  5
6D1B
330
A
100
AcDbEntity
  8
MODEL
  6
Continuous
100
AcDbLine
 10
250.7063862656477
 20
249.98572846222
 30
0.0
 11
250.7063862656477
 21
297.9857288794525
 31
0.0
  0
LINE
  5
6D1C
330
A
100
AcDbEntity
  8
MODEL
  6
Continuous
100
AcDbLine
 10
255.7063861538889
 20
249.98572846222
 30
0.0
 11
255.7063861538889
 21
297.9857288794525
 31
0.0
  0
LINE
  5
6D1D
330
A
100
AcDbEntity
  8
MODEL
  6
Continuous
100
AcDbLine
 10
249.7063862181502
 20
259.6357288332589
 30
0.0
 11
249.7063862181502
 21
288.3357285084136
 31
0.0
  0
LINE
  5
6D1F
330
A
100
AcDbEntity
  8
MODEL
  6
Continuous
100
AcDbLine
 10
118.9877083783226
 20
440.9110723481975
 30
0.0
 11
118.9877083783226
 21
461.0071164043151
 31
0.0
  0
LINE
  5
6D20
330
A
100
AcDbEntity
  8
MODEL
  6
Continuous
100
AcDbLine
 10
98.98770882535737
 20
440.9110723481975
 30
0.0
 11
98.98770882535737
 21
408.0218254075847
 31
0.0
  0
LINE
  5
6D21
330
A
100
AcDbEntity
  8
MODEL
  6
Continuous
100
AcDbLine
 10
118.9877083783226
 20
408.0218254075847
 30
0.0
 11
118.9877083783226
 21
440.9110723481975
 31
0.0
  0
LINE
  5
6D22
330
A
100
AcDbEntity
  8
MODEL
  6
Continuous
100
AcDbLine
 10
118.9877083783226
 20
404.1026710019909
 30
0.0
 11
118.9877083783226
 21
408.0218254075847
 31
0.0
  0
LINE
  5
6D23
330
A
100
AcDbEntity
  8
MODEL
  6
Continuous
100
AcDbLine
 10
98.98770882535737
 20
408.0218254075847
 30
0.0
 11
98.98770882535737
 21
404.1026710019909
 31
0.0
  0
LINE
  5
6D24
330
A
100
AcDbEntity
  8
MODEL
  6
Continuous
100
AcDbLine
 10
98.98770882535737
 20
404.00006160601
 30
0.0
 11
98.98770882535737
 21
400.0618039117657
 31
0.0
  0
LINE
  5
6D25
330
A
100
AcDbEntity
  8
MODEL
  6
Continuous
100
AcDbLine
 10
118.9877083783226
 20
391.755747650703
 30
0.0
 11
118.9877083783226
 21
404.00006160601
 31
0.0
  0
LINE
  5
6D26
330
A
100
AcDbEntity
  8
MODEL
  6
Continuous
100
AcDbLine
 10
89.98770921278756
 20
390.8068864093624
 30
0.0
 11
101.3556039218978
 21
390.8068864093624
 31
0.0
  0
LINE
  5
6D27
330
A
100
AcDbEntity
  8
MODEL
  6
Continuous
100
AcDbLine
 10
98.98770882535737
 20
404.6068964944683
 30
0.0
 11
89.98770921278756
 21
404.6068964944683
 31
0.0
  0
LINE
  5
6D28
330
A
100
AcDbEntity
  8
MODEL
  6
Continuous
100
AcDbLine
 10
84.98770839322356
 20
466.0071162925564
 30
0.0
 11
84.98770839322356
 21
461.0071164043151
 31
0.0
  0
LINE
  5
6D29
330
A
100
AcDbEntity
  8
MODEL
  6
Continuous
100
AcDbLine
 10
132.9877088104561
 20
461.0071164043151
 30
0.0
 11
132.9877088104561
 21
466.0071162925564
 31
0.0
  0
LINE
  5
6D2A
330
A
100
AcDbEntity
  8
MODEL
  6
Continuous
100
AcDbLine
 10
94.63770876426247
 20
467.0071163400538
 30
0.0
 11
94.63770876426247
 21
466.0071162925564
 31
0.0
  0
LINE
  5
6D2B
330
A
100
AcDbEntity
  8
MODEL
  6
Continuous
100
AcDbLine
 10
123.3377084394172
 20
466.0071162925564
 30
0.0
 11
123.3377084394172
 21
467.0071163400538
 31
0.0
  0
LWPOLYLINE
  5
6D2C
330
A
100
AcDbEntity
  8
MODEL
  6
Continuous
100
AcDbPolyline
 90
       28
 70
   128
 43
0.0
 10
118.9877083783226
 20
404.1026710019909
 10
118.9175192524867
 20
402.9912678943477
 10
118.7079381455855
 20
401.8954663024746
 10
118.3619052429871
 20
400.8306442247234
 10
117.8842792545633
 20
399.8117624269329
 10
117.2817657028514
 20
398.8531111226879
 10
116.5628209968285
 20
397.9681460605465
 10
115.7375388105589
 20
397.1693097101055
 10
114.8175033998862
 20
396.4677928434215
 10
113.8156308119373
 20
395.8734451280437
 10
112.7459844832496
 20
395.394641016563
 10
111.6235803605245
 20
395.0380562291942
 10
110.4641742098334
 20
394.8087273584209
 10
109.2840418826976
 20
394.7098730550609
 10
108.0997496286595
 20
394.7428642259441
 10
106.9279224869984
 20
394.9072389350735
 10
105.7850101755187
 20
395.2007173047863
 10
104.6870565300064
 20
395.6191419111095
 10
103.6494747062402
 20
396.1566714988552
 10
102.6868303564566
 20
396.8057362781368
 10
101.8126360398905
 20
397.5572316394649
 10
101.0391637941078
 20
398.4006075607143
 10
100.3772728403288
 20
399.3240325198971
 10
99.83625265557325
 20
400.3145425067745
 10
99.42369910676047
 20
401.3582347379528
 10
99.14540315765905
 20
402.4404464708172
 10
99.00527170646947
 20
403.5459934221111
 10
98.98770882535737
 20
404.1026710019909
  0
LWPOLYLINE
  5
6D2D
330
A
100
AcDbEntity
  8
MODEL
  6
Continuous
100
AcDbPolyline
 90
       27
 70
   128
 43
0.0
 10
99.03881887692967
 20
390.8068864093624
 10
99.14540315765905
 20
390.0935231195293
 10
99.42369910676047
 20
389.0113113866649
 10
99.83625265557325
 20
387.9676191554867
 10
100.3772728403288
 20
386.9771091686092
 10
101.0391637941078
 20
386.0536842094265
 10
101.8126360398905
 20
385.2103082881771
 10
102.6868303564566
 20
384.4587980256878
 10
103.6494747062402
 20
383.8097332464062
 10
104.6870565300064
 20
383.2722185598217
 10
105.7850101755187
 20
382.8537790523372
 10
106.9279224869984
 20
382.5603155837856
 10
108.0997496286595
 20
382.3959408746563
 10
109.2840418826976
 20
382.3629348026119
 10
110.4641742098334
 20
382.4618040071331
 10
111.6235803605245
 20
382.6911328779064
 10
112.7459844832496
 20
383.047702764114
 10
113.8156308119373
 20
383.5265217767559
 10
114.8175033998862
 20
384.1208545909725
 10
115.7375388105589
 20
384.8223714576565
 10
116.5628209968285
 20
385.6212227092586
 10
117.2817657028514
 20
386.5061728702389
 10
117.8842792545633
 20
387.4648241744839
 10
118.3619052429871
 20
388.4837208734356
 10
118.7079381455855
 20
389.5485280500255
 10
118.9175192524867
 20
390.6443296418987
 10
118.9877083783226
 20
391.755747650703
  0
LWPOLYLINE
  5
6D2E
330
A
100
AcDbEntity
  8
MODEL
  6
Continuous
100
AcDbPolyline
 90
       28
 70
   128
 43
0.0
 10
98.98770882535737
 20
404.00006160601
 10
99.00527170646947
 20
403.4433840261303
 10
99.14540315765905
 20
402.3378370748363
 10
99.42369910676047
 20
401.2556253419719
 10
99.83625265557325
 20
400.2119480119549
 10
100.3772728403288
 20
399.2214380250774
 10
101.0391637941078
 20
398.2980130658947
 10
101.8126360398905
 20
397.4546222434841
 10
102.6868303564566
 20
396.703126882156
 10
103.6494747062402
 20
396.0540621028744
 10
104.6870565300064
 20
395.5165325151287
 10
105.7850101755187
 20
395.0981079088054
 10
106.9279224869984
 20
394.8046444402538
 10
108.0997496286595
 20
394.6402548299633
 10
109.2840418826976
 20
394.6072636590801
 10
110.4641742098334
 20
394.7061179624401
 10
111.6235803605245
 20
394.9354468332134
 10
112.7459844832496
 20
395.2920316205822
 10
113.8156308119373
 20
395.7708506332241
 10
114.8175033998862
 20
396.3651834474407
 10
115.7375388105589
 20
397.0667003141247
 10
116.5628209968285
 20
397.8655366645656
 10
117.2817657028514
 20
398.7505017267071
 10
117.8842792545633
 20
399.7091530309521
 10
118.3619052429871
 20
400.7280348287426
 10
118.7079381455855
 20
401.7928569064937
 10
118.9175192524867
 20
402.8886584983669
 10
118.9877083783226
 20
404.00006160601
  0
SPLINE
  5
6D2F
330
A
100
AcDbEntity
  8
MODEL
  6
Continuous
100
AcDbSpline
210
0.0
220
0.0
230
1.0
 70
     8
 71
     3
 72
    18
 73
    14
 74
     0
 42
0.000000001
 43
0.00000001
 40
0.0
 40
0.0
 40
0.0
 40
0.0
 40
0.0871449794810992
 40
0.1775475374101242
 40
0.2645406056696594
 40
0.3534161103687092
 40
0.4551884190165905
 40
0.559144835307217
 40
0.6762443345015328
 40
0.7976454695234454
 40
0.8842117708795012
 40
0.9732231656530335
 40
1.0
 40
1.0
 40
1.0
 40
1.0
 10
101.7496148382501
 20
391.2230162368618
 30
0.0
 10
101.7365452033778
 20
391.3476823608638
 30
0.0
 10
101.7099173758148
 20
391.601674770371
 30
0.0
 10
101.5080338808123
 20
392.1332300320504
 30
0.0
 10
101.2231322006377
 20
392.7535972667032
 30
0.0
 10
100.8643362721154
 20
393.4851348642645
 30
0.0
 10
100.4526000700475
 20
394.3428707787247
 30
0.0
 10
100.0036124250114
 20
395.3689516249018
 30
0.0
 10
99.57109081739455
 20
396.5428471871513
 30
0.0
 10
99.24556671757676
 20
397.725184000163
 30
0.0
 10
99.05955755382675
 20
398.818978049116
 30
0.0
 10
98.98255029426255
 20
399.5670884612922
 30
0.0
 10
98.99496805798515
 20
399.9687403105421
 30
0.0
 10
98.99783975232407
 20
400.0616250978313
 30
0.0
  0
SPLINE
  5
6D30
330
A
100
AcDbEntity
  8
MODEL
  6
Continuous
100
AcDbSpline
210
0.0
220
0.0
230
1.0
 70
     8
 71
     3
 72
     9
 73
     5
 74
     0
 42
0.000000001
 43
0.00000001
 40
0.0
 40
0.0
 40
0.0
 40
0.0
 40
0.3406157366529429
 40
1.0
 40
1.0
 40
1.0
 40
1.0
 10
101.3556039218978
 20
390.8365099178158
 30
0.0
 10
101.4368446221674
 20
390.8323380334663
 30
0.0
 10
101.6753559166495
 20
390.8200899665084
 30
0.0
 10
101.7201068060262
 20
391.0629067023623
 30
0.0
 10
101.7496148382501
 20
391.2230162368618
 30
0.0
  0
LINE
  5
6D31
330
A
100
AcDbEntity
  8
MODEL
  6
Continuous
100
AcDbLine
 10
89.98770921278756
 20
391.2230162368618
 30
0.0
 11
89.98770921278756
 21
404.6068964944683
 31
0.0
  0
LINE
  5
6D32
330
A
100
AcDbEntity
  8
MODEL
  6
Continuous
100
AcDbLine
 10
89.98770921278756
 20
390.8068864093624
 30
0.0
 11
89.98770921278756
 21
391.2230162368618
 31
0.0
  0
LINE
  5
6D33
330
A
100
AcDbEntity
  8
MODEL
  6
Continuous
100
AcDbLine
 10
84.98770839322356
 20
461.0071164043151
 30
0.0
 11
132.9877088104561
 21
461.0071164043151
 31
0.0
  0
LINE
  5
6D34
330
A
100
AcDbEntity
  8
MODEL
  6
Continuous
100
AcDbLine
 10
84.98770839322356
 20
466.0071162925564
 30
0.0
 11
132.9877088104561
 21
466.0071162925564
 31
0.0
  0
LINE
  5
6D35
330
A
100
AcDbEntity
  8
MODEL
  6
Continuous
100
AcDbLine
 10
94.63770876426247
 20
467.0071163400538
 30
0.0
 11
123.3377084394172
 21
467.0071163400538
 31
0.0
  0
LINE
  5
6D4F
330
A
100
AcDbEntity
  8
DIM
100
AcDbLine
 10
269.2602619039439
 20
283.9857284473188
 30
0.0
 11
288.3264172312915
 21
307.3742716023075
 31
0.0
  0
LINE
  5
6D50
330
A
100
AcDbEntity
  8
DIM
100
AcDbLine
 10
288.3264172312915
 20
307.3742716023075
 30
0.0
 11
314.9698877735042
 21
307.3742716023075
 31
0.0
  0
DIMENSION
  5
6D51
102
{ACAD_REACTORS
330
6D53
102
}
102
{ACAD_XDICTIONARY
360
6D52
102
}
330
A
100
AcDbEntity
  8
DIM
100
AcDbDimension
  2
*D16
 10
250.7063862656477
 20
158.7052588436239
 30
0.0
 11
287.5530463432195
 21
163.2052588436239
 31
0.0
 70
    32
 71
     5
 42
73.69332015514368
 73
     0
 74
     0
 75
     0
  3
tfrom線あり
100
AcDbAlignedDimension
 13
324.3997064207914
 23
206.0631141560085
 33
0.0
 14
250.7063862656477
 24
181.5123190826287
 34
0.0
100
AcDbRotatedDimension
  0
DIMENSION
  5
6D60
330
A
100
AcDbEntity
  8
DIM
100
AcDbDimension
  2
*D17
 10
230.7063862656477
 20
158.7052588436239
 30
0.0
 11
240.2063862656477
 21
158.7052588436239
 31
0.0
 70
   160
 71
     5
 42
20.0
 73
     0
 74
     0
 75
     0
  3
tfrom線あり
100
AcDbAlignedDimension
 13
250.7063862656477
 23
181.5123190826287
 33
0.0
 14
230.7063862656477
 24
249.98572846222
 34
0.0
100
AcDbRotatedDimension
  0
LINE
  5
6D7C
330
A
100
AcDbEntity
  8
MODEL
100
AcDbLine
 10
229.7063862181502
 20
283.9857284473188
 30
0.0
 11
229.7063862181502
 21
263.9857288943536
 31
0.0
  0
LINE
  5
6D7F
330
A
100
AcDbEntity
  8
MODEL
100
AcDbLine
 10
230.7623801453045
 20
282.9036297872712
 30
0.0
 11
232.1004145019277
 21
265.0563123818119
 31
0.0
  0
LINE
  5
6E4C
330
A
100
AcDbEntity
  8
MODEL
100
AcDbLine
 10
229.6985917741893
 20
283.9857284473188
 30
0.0
 11
231.198015240829
 21
263.9857288943536
 31
0.0
  0
LINE
  5
6E4D
330
A
100
AcDbEntity
  8
MODEL
100
AcDbLine
 10
229.6985917741893
 20
283.9857284473188
 30
0.0
 11
230.7623801453045
 21
282.9036297872712
 31
0.0
  0
LINE
  5
6E4E
330
A
100
AcDbEntity
  8
MODEL
100
AcDbLine
 10
230.7623801453045
 20
282.9036297872712
 30
0.0
 11
231.6639161003835
 21
283.9857284473188
 31
0.0
  0
LINE
  5
6E51
330
A
100
AcDbEntity
  8
MODEL
100
AcDbLine
 10
232.1004145019277
 20
265.0563123818119
 30
0.0
 11
233.1555451230623
 21
263.9857288943536
 31
0.0
  0
LINE
  5
6E52
330
A
100
AcDbEntity
  8
MODEL
100
AcDbLine
 10
231.1902207968686
 20
263.9857288943536
 30
0.0
 11
232.1004145019277
 21
265.0563123818119
 31
0.0
  0
LINE
  5
6E53
330
A
100
AcDbEntity
  8
MODEL
100
AcDbLine
 10
231.2058096847894
 20
263.9857288943536
 30
0.0
 11
230.2956159797307
 21
265.0563123818119
 31
0.0
  0
LINE
  5
6E54
330
A
100
AcDbEntity
  8
MODEL
100
AcDbLine
 10
229.7063862181502
 20
263.9857288943536
 30
0.0
 11
230.2956159797307
 21
265.0563123818119
 31
0.0
  0
LINE
  5
6EFD
330
A
100
AcDbEntity
  8
MODEL
100
AcDbLine
 10
231.6985917741893
 20
283.9857284473188
 30
0.0
 11
233.198015240829
 21
263.9857288943536
 31
0.0
  0
LINE
  5
6EFE
330
A
100
AcDbEntity
  8
MODEL
100
AcDbLine
 10
231.6985917741893
 20
283.9857284473188
 30
0.0
 11
232.7623801453045
 21
282.9036297872712
 31
0.0
  0
LINE
  5
6EFF
330
A
100
AcDbEntity
  8
MODEL
100
AcDbLine
 10
232.7623801453045
 20
282.9036297872712
 30
0.0
 11
233.6639161003835
 21
283.9857284473188
 31
0.0
  0
LINE
  5
6F00
330
A
100
AcDbEntity
  8
MODEL
100
AcDbLine
 10
234.1004145019277
 20
265.0563123818119
 30
0.0
 11
235.1555451230623
 21
263.9857288943536
 31
0.0
  0
LINE
  5
6F01
330
A
100
AcDbEntity
  8
MODEL
100
AcDbLine
 10
233.1902207968686
 20
263.9857288943536
 30
0.0
 11
234.1004145019277
 21
265.0563123818119
 31
0.0
  0
LINE
  5
6F02
330
A
100
AcDbEntity
  8
MODEL
100
AcDbLine
 10
232.7623801453045
 20
282.9036297872712
 30
0.0
 11
234.1004145019277
 21
265.0563123818119
 31
0.0
  0
LINE
  5
6F03
330
A
100
AcDbEntity
  8
MODEL
100
AcDbLine
 10
233.6985917741893
 20
283.9857284473188
 30
0.0
 11
235.198015240829
 21
263.9857288943536
 31
0.0
  0
LINE
  5
6F04
330
A
100
AcDbEntity
  8
MODEL
100
AcDbLine
 10
233.6985917741893
 20
283.9857284473188
 30
0.0
 11
234.7623801453045
 21
282.9036297872712
 31
0.0
  0
LINE
  5
6F05
330
A
100
AcDbEntity
  8
MODEL
100
AcDbLine
 10
234.7623801453045
 20
282.9036297872712
 30
0.0
 11
235.6639161003835
 21
283.9857284473188
 31
0.0
  0
LINE
  5
6F06
330
A
100
AcDbEntity
  8
MODEL
100
AcDbLine
 10
236.1004145019277
 20
265.0563123818119
 30
0.0
 11
237.1555451230623
 21
263.9857288943536
 31
0.0
  0
LINE
  5
6F07
330
A
100
AcDbEntity
  8
MODEL
100
AcDbLine
 10
235.1902207968686
 20
263.9857288943536
 30
0.0
 11
236.1004145019277
 21
265.0563123818119
 31
0.0
  0
LINE
  5
6F08
330
A
100
AcDbEntity
  8
MODEL
100
AcDbLine
 10
234.7623801453045
 20
282.9036297872712
 30
0.0
 11
236.1004145019277
 21
265.0563123818119
 31
0.0
  0
LINE
  5
6F09
330
A
100
AcDbEntity
  8
MODEL
100
AcDbLine
 10
235.6985917741893
 20
283.9857284473188
 30
0.0
 11
237.198015240829
 21
263.9857288943536
 31
0.0
  0
LINE
  5
6F0A
330
A
100
AcDbEntity
  8
MODEL
100
AcDbLine
 10
235.6985917741893
 20
283.9857284473188
 30
0.0
 11
236.7623801453045
 21
282.9036297872712
 31
0.0
  0
LINE
  5
6F0B
330
A
100
AcDbEntity
  8
MODEL
100
AcDbLine
 10
236.7623801453045
 20
282.9036297872712
 30
0.0
 11
237.6639161003835
 21
283.9857284473188
 31
0.0
  0
LINE
  5
6F0C
330
A
100
AcDbEntity
  8
MODEL
100
AcDbLine
 10
238.1004145019277
 20
265.0563123818119
 30
0.0
 11
239.1555451230623
 21
263.9857288943536
 31
0.0
  0
LINE
  5
6F0D
330
A
100
AcDbEntity
  8
MODEL
100
AcDbLine
 10
237.1902207968686
 20
263.9857288943536
 30
0.0
 11
238.1004145019277
 21
265.0563123818119
 31
0.0
  0
LINE
  5
6F0E
330
A
100
AcDbEntity
  8
MODEL
100
AcDbLine
 10
236.7623801453045
 20
282.9036297872712
 30
0.0
 11
238.1004145019277
 21
265.0563123818119
 31
0.0
  0
LINE
  5
6F0F
330
A
100
AcDbEntity
  8
MODEL
100
AcDbLine
 10
237.6985917741893
 20
283.9857284473188
 30
0.0
 11
239.198015240829
 21
263.9857288943536
 31
0.0
  0
LINE
  5
6F10
330
A
100
AcDbEntity
  8
MODEL
100
AcDbLine
 10
237.6985917741893
 20
283.9857284473188
 30
0.0
 11
238.7623801453045
 21
282.9036297872712
 31
0.0
  0
LINE
  5
6F11
330
A
100
AcDbEntity
  8
MODEL
100
AcDbLine
 10
238.7623801453045
 20
282.9036297872712
 30
0.0
 11
239.6639161003835
 21
283.9857284473188
 31
0.0
  0
LINE
  5
6F12
330
A
100
AcDbEntity
  8
MODEL
100
AcDbLine
 10
240.1004145019277
 20
265.0563123818119
 30
0.0
 11
241.1555451230623
 21
263.9857288943536
 31
0.0
  0
LINE
  5
6F13
330
A
100
AcDbEntity
  8
MODEL
100
AcDbLine
 10
239.1902207968686
 20
263.9857288943536
 30
0.0
 11
240.1004145019277
 21
265.0563123818119
 31
0.0
  0
LINE
  5
6F14
330
A
100
AcDbEntity
  8
MODEL
100
AcDbLine
 10
238.7623801453045
 20
282.9036297872712
 30
0.0
 11
240.1004145019277
 21
265.0563123818119
 31
0.0
  0
LINE
  5
6F15
330
A
100
AcDbEntity
  8
MODEL
100
AcDbLine
 10
239.6985917741893
 20
283.9857284473188
 30
0.0
 11
241.198015240829
 21
263.9857288943536
 31
0.0
  0
LINE
  5
6F16
330
A
100
AcDbEntity
  8
MODEL
100
AcDbLine
 10
239.6985917741893
 20
283.9857284473188
 30
0.0
 11
240.7623801453045
 21
282.9036297872712
 31
0.0
  0
LINE
  5
6F17
330
A
100
AcDbEntity
  8
MODEL
100
AcDbLine
 10
240.7623801453045
 20
282.9036297872712
 30
0.0
 11
241.6639161003835
 21
283.9857284473188
 31
0.0
  0
LINE
  5
6F18
330
A
100
AcDbEntity
  8
MODEL
100
AcDbLine
 10
242.1004145019277
 20
265.0563123818119
 30
0.0
 11
243.1555451230623
 21
263.9857288943536
 31
0.0
  0
LINE
  5
6F19
330
A
100
AcDbEntity
  8
MODEL
100
AcDbLine
 10
241.1902207968686
 20
263.9857288943536
 30
0.0
 11
242.1004145019277
 21
265.0563123818119
 31
0.0
  0
LINE
  5
6F1A
330
A
100
AcDbEntity
  8
MODEL
100
AcDbLine
 10
240.7623801453045
 20
282.9036297872712
 30
0.0
 11
242.1004145019277
 21
265.0563123818119
 31
0.0
  0
LINE
  5
6F1B
330
A
100
AcDbEntity
  8
MODEL
100
AcDbLine
 10
241.6985917741893
 20
283.9857284473188
 30
0.0
 11
243.198015240829
 21
263.9857288943536
 31
0.0
  0
LINE
  5
6F1C
330
A
100
AcDbEntity
  8
MODEL
100
AcDbLine
 10
241.6985917741893
 20
283.9857284473188
 30
0.0
 11
242.7623801453045
 21
282.9036297872712
 31
0.0
  0
LINE
  5
6F1D
330
A
100
AcDbEntity
  8
MODEL
100
AcDbLine
 10
242.7623801453045
 20
282.9036297872712
 30
0.0
 11
243.6639161003835
 21
283.9857284473188
 31
0.0
  0
LINE
  5
6F1E
330
A
100
AcDbEntity
  8
MODEL
100
AcDbLine
 10
244.1004145019277
 20
265.0563123818119
 30
0.0
 11
245.1555451230623
 21
263.9857288943536
 31
0.0
  0
LINE
  5
6F1F
330
A
100
AcDbEntity
  8
MODEL
100
AcDbLine
 10
243.1902207968686
 20
263.9857288943536
 30
0.0
 11
244.1004145019277
 21
265.0563123818119
 31
0.0
  0
LINE
  5
6F20
330
A
100
AcDbEntity
  8
MODEL
100
AcDbLine
 10
242.7623801453045
 20
282.9036297872712
 30
0.0
 11
244.1004145019277
 21
265.0563123818119
 31
0.0
  0
LINE
  5
6F21
330
A
100
AcDbEntity
  8
MODEL
100
AcDbLine
 10
243.6985917741893
 20
283.9857284473188
 30
0.0
 11
245.198015240829
 21
263.9857288943536
 31
0.0
  0
LINE
  5
6F22
330
A
100
AcDbEntity
  8
MODEL
100
AcDbLine
 10
243.6985917741893
 20
283.9857284473188
 30
0.0
 11
244.7623801453045
 21
282.9036297872712
 31
0.0
  0
LINE
  5
6F23
330
A
100
AcDbEntity
  8
MODEL
100
AcDbLine
 10
244.7623801453045
 20
282.9036297872712
 30
0.0
 11
245.6639161003835
 21
283.9857284473188
 31
0.0
  0
LINE
  5
6F24
330
A
100
AcDbEntity
  8
MODEL
100
AcDbLine
 10
246.1004145019277
 20
265.0563123818119
 30
0.0
 11
247.1555451230623
 21
263.9857288943536
 31
0.0
  0
LINE
  5
6F25
330
A
100
AcDbEntity
  8
MODEL
100
AcDbLine
 10
245.1902207968686
 20
263.9857288943536
 30
0.0
 11
246.1004145019277
 21
265.0563123818119
 31
0.0
  0
LINE
  5
6F26
330
A
100
AcDbEntity
  8
MODEL
100
AcDbLine
 10
244.7623801453045
 20
282.9036297872712
 30
0.0
 11
246.1004145019277
 21
265.0563123818119
 31
0.0
  0
LINE
  5
6F27
330
A
100
AcDbEntity
  8
MODEL
100
AcDbLine
 10
245.6985917741893
 20
283.9857284473188
 30
0.0
 11
247.198015240829
 21
263.9857288943536
 31
0.0
  0
LINE
  5
6F28
330
A
100
AcDbEntity
  8
MODEL
100
AcDbLine
 10
245.6985917741893
 20
283.9857284473188
 30
0.0
 11
246.7623801453045
 21
282.9036297872712
 31
0.0
  0
LINE
  5
6F29
330
A
100
AcDbEntity
  8
MODEL
100
AcDbLine
 10
246.7623801453045
 20
282.9036297872712
 30
0.0
 11
247.6639161003835
 21
283.9857284473188
 31
0.0
  0
LINE
  5
6F2A
330
A
100
AcDbEntity
  8
MODEL
100
AcDbLine
 10
248.1004145019277
 20
265.0563123818119
 30
0.0
 11
249.1555451230623
 21
263.9857288943536
 31
0.0
  0
LINE
  5
6F2B
330
A
100
AcDbEntity
  8
MODEL
100
AcDbLine
 10
247.1902207968686
 20
263.9857288943536
 30
0.0
 11
248.1004145019277
 21
265.0563123818119
 31
0.0
  0
LINE
  5
6F2C
330
A
100
AcDbEntity
  8
MODEL
100
AcDbLine
 10
246.7623801453045
 20
282.9036297872712
 30
0.0
 11
248.1004145019277
 21
265.0563123818119
 31
0.0
  0
LINE
  5
6F2D
330
A
100
AcDbEntity
  8
MODEL
100
AcDbLine
 10
247.6985917741893
 20
283.9857284473188
 30
0.0
 11
249.198015240829
 21
263.9857288943536
 31
0.0
  0
LINE
  5
6F2E
330
A
100
AcDbEntity
  8
MODEL
100
AcDbLine
 10
247.6985917741893
 20
283.9857284473188
 30
0.0
 11
248.7623801453045
 21
282.9036297872712
 31
0.0
  0
LINE
  5
6F2F
330
A
100
AcDbEntity
  8
MODEL
100
AcDbLine
 10
248.7623801453045
 20
282.9036297872712
 30
0.0
 11
249.6639161003835
 21
283.9857284473188
 31
0.0
  0
LINE
  5
6F31
330
A
100
AcDbEntity
  8
MODEL
100
AcDbLine
 10
249.1902207968686
 20
263.9857288943536
 30
0.0
 11
249.7063862181502
 21
264.5928504045877
 31
0.0
  0
LINE
  5
6F32
330
A
100
AcDbEntity
  8
MODEL
100
AcDbLine
 10
248.7623801453045
 20
282.9036297872712
 30
0.0
 11
249.7063862181502
 21
270.3120427840224
 31
0.0
  0
LINE
  5
6F33
330
A
100
AcDbEntity
  8
MODEL
100
AcDbLine
 10
229.7063862181502
 20
272.915729838189
 30
0.0
 11
230.2956159797307
 21
265.0563123818119
 31
0.0
  0
MTEXT
  5
6F37
330
A
100
AcDbEntity
  8
DIM
390
1D
100
AcDbMText
 10
293.8506678090541
 20
318.11051874189
 30
0.0
 40
5.0
 41
0.0
 46
13.944
 71
     1
 72
     1
  1
{\fＭＳ ゴシック|b0|i0|c1|p0;φ20}
  7
ＭＳ ゴシック
 73
     1
 44
0.7828267384257843
1001
ACAD
1000
ACAD_MTEXT_DEFINED_HEIGHT_BEGIN
1070
    46
1040
13.944
1000
ACAD_MTEXT_DEFINED_HEIGHT_END
  0
LINE
  5
6FB7
330
A
100
AcDbEntity
  8
MODEL
100
AcDbLine
 10
118.9877083783225
 20
487.0071163400538
 30
0.0
 11
98.98770882535726
 21
487.0071163400538
 31
0.0
  0
LINE
  5
6FB8
330
A
100
AcDbEntity
  8
MODEL
100
AcDbLine
 10
118.9877083783225
 20
487.0149107840142
 30
0.0
 11
98.98770882535726
 21
485.5154873173746
 31
0.0
  0
LINE
  5
6FB9
330
A
100
AcDbEntity
  8
MODEL
100
AcDbLine
 10
118.9877083783225
 20
487.0149107840142
 30
0.0
 11
117.905609718275
 21
485.9511224128993
 31
0.0
  0
LINE
  5
6FBA
330
A
100
AcDbEntity
  8
MODEL
100
AcDbLine
 10
117.905609718275
 20
485.9511224128993
 30
0.0
 11
118.9877083783225
 21
485.0495864578203
 31
0.0
  0
LINE
  5
6FBB
330
A
100
AcDbEntity
  8
MODEL
100
AcDbLine
 10
100.0582923128157
 20
484.6130880562763
 30
0.0
 11
98.98770882535726
 21
483.5579574351412
 31
0.0
  0
LINE
  5
6FBC
330
A
100
AcDbEntity
  8
MODEL
100
AcDbLine
 10
98.98770882535726
 20
485.5232817613352
 30
0.0
 11
100.0582923128157
 21
484.6130880562763
 31
0.0
  0
LINE
  5
6FBD
330
A
100
AcDbEntity
  8
MODEL
100
AcDbLine
 10
117.905609718275
 20
485.9511224128993
 30
0.0
 11
100.0582923128157
 21
484.6130880562763
 31
0.0
  0
LINE
  5
6FBE
330
A
100
AcDbEntity
  8
MODEL
100
AcDbLine
 10
98.98770882535726
 20
485.5076928734142
 30
0.0
 11
100.0582923128157
 21
486.417886578473
 31
0.0
  0
LINE
  5
6FBF
330
A
100
AcDbEntity
  8
MODEL
100
AcDbLine
 10
98.98770882535726
 20
487.0071163400538
 30
0.0
 11
100.0582923128157
 21
486.417886578473
 31
0.0
  0
LINE
  5
6FC0
330
A
100
AcDbEntity
  8
MODEL
100
AcDbLine
 10
118.9877083783225
 20
485.0149107840142
 30
0.0
 11
98.98770882535726
 21
483.5154873173746
 31
0.0
  0
LINE
  5
6FC1
330
A
100
AcDbEntity
  8
MODEL
100
AcDbLine
 10
118.9877083783225
 20
485.0149107840142
 30
0.0
 11
117.905609718275
 21
483.9511224128993
 31
0.0
  0
LINE
  5
6FC2
330
A
100
AcDbEntity
  8
MODEL
100
AcDbLine
 10
117.905609718275
 20
483.9511224128993
 30
0.0
 11
118.9877083783225
 21
483.0495864578203
 31
0.0
  0
LINE
  5
6FC3
330
A
100
AcDbEntity
  8
MODEL
100
AcDbLine
 10
100.0582923128157
 20
482.6130880562763
 30
0.0
 11
98.98770882535726
 21
481.5579574351412
 31
0.0
  0
LINE
  5
6FC4
330
A
100
AcDbEntity
  8
MODEL
100
AcDbLine
 10
98.98770882535726
 20
483.5232817613352
 30
0.0
 11
100.0582923128157
 21
482.6130880562763
 31
0.0
  0
LINE
  5
6FC5
330
A
100
AcDbEntity
  8
MODEL
100
AcDbLine
 10
117.905609718275
 20
483.9511224128993
 30
0.0
 11
100.0582923128157
 21
482.6130880562763
 31
0.0
  0
LINE
  5
6FC6
330
A
100
AcDbEntity
  8
MODEL
100
AcDbLine
 10
118.9877083783225
 20
483.0149107840142
 30
0.0
 11
98.98770882535726
 21
481.5154873173746
 31
0.0
  0
LINE
  5
6FC7
330
A
100
AcDbEntity
  8
MODEL
100
AcDbLine
 10
118.9877083783225
 20
483.0149107840142
 30
0.0
 11
117.905609718275
 21
481.9511224128993
 31
0.0
  0
LINE
  5
6FC8
330
A
100
AcDbEntity
  8
MODEL
100
AcDbLine
 10
117.905609718275
 20
481.9511224128993
 30
0.0
 11
118.9877083783225
 21
481.0495864578203
 31
0.0
  0
LINE
  5
6FC9
330
A
100
AcDbEntity
  8
MODEL
100
AcDbLine
 10
100.0582923128157
 20
480.6130880562763
 30
0.0
 11
98.98770882535726
 21
479.5579574351412
 31
0.0
  0
LINE
  5
6FCA
330
A
100
AcDbEntity
  8
MODEL
100
AcDbLine
 10
98.98770882535726
 20
481.5232817613352
 30
0.0
 11
100.0582923128157
 21
480.6130880562763
 31
0.0
  0
LINE
  5
6FCB
330
A
100
AcDbEntity
  8
MODEL
100
AcDbLine
 10
117.905609718275
 20
481.9511224128993
 30
0.0
 11
100.0582923128157
 21
480.6130880562763
 31
0.0
  0
LINE
  5
6FCC
330
A
100
AcDbEntity
  8
MODEL
100
AcDbLine
 10
118.9877083783225
 20
481.0149107840142
 30
0.0
 11
98.98770882535726
 21
479.5154873173746
 31
0.0
  0
LINE
  5
6FCD
330
A
100
AcDbEntity
  8
MODEL
100
AcDbLine
 10
118.9877083783225
 20
481.0149107840142
 30
0.0
 11
117.905609718275
 21
479.9511224128993
 31
0.0
  0
LINE
  5
6FCE
330
A
100
AcDbEntity
  8
MODEL
100
AcDbLine
 10
117.905609718275
 20
479.9511224128993
 30
0.0
 11
118.9877083783225
 21
479.0495864578203
 31
0.0
  0
LINE
  5
6FCF
330
A
100
AcDbEntity
  8
MODEL
100
AcDbLine
 10
100.0582923128157
 20
478.6130880562763
 30
0.0
 11
98.98770882535726
 21
477.5579574351412
 31
0.0
  0
LINE
  5
6FD0
330
A
100
AcDbEntity
  8
MODEL
100
AcDbLine
 10
98.98770882535726
 20
479.5232817613352
 30
0.0
 11
100.0582923128157
 21
478.6130880562763
 31
0.0
  0
LINE
  5
6FD1
330
A
100
AcDbEntity
  8
MODEL
100
AcDbLine
 10
117.905609718275
 20
479.9511224128993
 30
0.0
 11
100.0582923128157
 21
478.6130880562763
 31
0.0
  0
LINE
  5
6FD2
330
A
100
AcDbEntity
  8
MODEL
100
AcDbLine
 10
118.9877083783225
 20
479.0149107840142
 30
0.0
 11
98.98770882535726
 21
477.5154873173746
 31
0.0
  0
LINE
  5
6FD3
330
A
100
AcDbEntity
  8
MODEL
100
AcDbLine
 10
118.9877083783225
 20
479.0149107840142
 30
0.0
 11
117.905609718275
 21
477.9511224128993
 31
0.0
  0
LINE
  5
6FD4
330
A
100
AcDbEntity
  8
MODEL
100
AcDbLine
 10
117.905609718275
 20
477.9511224128993
 30
0.0
 11
118.9877083783225
 21
477.0495864578203
 31
0.0
  0
LINE
  5
6FD5
330
A
100
AcDbEntity
  8
MODEL
100
AcDbLine
 10
100.0582923128157
 20
476.6130880562763
 30
0.0
 11
98.98770882535726
 21
475.5579574351412
 31
0.0
  0
LINE
  5
6FD6
330
A
100
AcDbEntity
  8
MODEL
100
AcDbLine
 10
98.98770882535726
 20
477.5232817613352
 30
0.0
 11
100.0582923128157
 21
476.6130880562763
 31
0.0
  0
LINE
  5
6FD7
330
A
100
AcDbEntity
  8
MODEL
100
AcDbLine
 10
117.905609718275
 20
477.9511224128993
 30
0.0
 11
100.0582923128157
 21
476.6130880562763
 31
0.0
  0
LINE
  5
6FD8
330
A
100
AcDbEntity
  8
MODEL
100
AcDbLine
 10
118.9877083783225
 20
477.0149107840142
 30
0.0
 11
98.98770882535726
 21
475.5154873173746
 31
0.0
  0
LINE
  5
6FD9
330
A
100
AcDbEntity
  8
MODEL
100
AcDbLine
 10
118.9877083783225
 20
477.0149107840142
 30
0.0
 11
117.905609718275
 21
475.9511224128993
 31
0.0
  0
LINE
  5
6FDA
330
A
100
AcDbEntity
  8
MODEL
100
AcDbLine
 10
117.905609718275
 20
475.9511224128993
 30
0.0
 11
118.9877083783225
 21
475.0495864578203
 31
0.0
  0
LINE
  5
6FDB
330
A
100
AcDbEntity
  8
MODEL
100
AcDbLine
 10
100.0582923128157
 20
474.6130880562763
 30
0.0
 11
98.98770882535726
 21
473.5579574351412
 31
0.0
  0
LINE
  5
6FDC
330
A
100
AcDbEntity
  8
MODEL
100
AcDbLine
 10
98.98770882535726
 20
475.5232817613352
 30
0.0
 11
100.0582923128157
 21
474.6130880562763
 31
0.0
  0
LINE
  5
6FDD
330
A
100
AcDbEntity
  8
MODEL
100
AcDbLine
 10
117.905609718275
 20
475.9511224128993
 30
0.0
 11
100.0582923128157
 21
474.6130880562763
 31
0.0
  0
LINE
  5
6FDE
330
A
100
AcDbEntity
  8
MODEL
100
AcDbLine
 10
118.9877083783225
 20
475.0149107840142
 30
0.0
 11
98.98770882535726
 21
473.5154873173746
 31
0.0
  0
LINE
  5
6FDF
330
A
100
AcDbEntity
  8
MODEL
100
AcDbLine
 10
118.9877083783225
 20
475.0149107840142
 30
0.0
 11
117.905609718275
 21
473.9511224128993
 31
0.0
  0
LINE
  5
6FE0
330
A
100
AcDbEntity
  8
MODEL
100
AcDbLine
 10
117.905609718275
 20
473.9511224128993
 30
0.0
 11
118.9877083783225
 21
473.0495864578203
 31
0.0
  0
LINE
  5
6FE1
330
A
100
AcDbEntity
  8
MODEL
100
AcDbLine
 10
100.0582923128157
 20
472.6130880562763
 30
0.0
 11
98.98770882535726
 21
471.5579574351412
 31
0.0
  0
LINE
  5
6FE2
330
A
100
AcDbEntity
  8
MODEL
100
AcDbLine
 10
98.98770882535726
 20
473.5232817613352
 30
0.0
 11
100.0582923128157
 21
472.6130880562763
 31
0.0
  0
LINE
  5
6FE3
330
A
100
AcDbEntity
  8
MODEL
100
AcDbLine
 10
117.905609718275
 20
473.9511224128993
 30
0.0
 11
100.0582923128157
 21
472.6130880562763
 31
0.0
  0
LINE
  5
6FE4
330
A
100
AcDbEntity
  8
MODEL
100
AcDbLine
 10
118.9877083783225
 20
473.0149107840142
 30
0.0
 11
98.98770882535726
 21
471.5154873173746
 31
0.0
  0
LINE
  5
6FE5
330
A
100
AcDbEntity
  8
MODEL
100
AcDbLine
 10
118.9877083783225
 20
473.0149107840142
 30
0.0
 11
117.905609718275
 21
471.9511224128993
 31
0.0
  0
LINE
  5
6FE6
330
A
100
AcDbEntity
  8
MODEL
100
AcDbLine
 10
117.905609718275
 20
471.9511224128993
 30
0.0
 11
118.9877083783225
 21
471.0495864578203
 31
0.0
  0
LINE
  5
6FE7
330
A
100
AcDbEntity
  8
MODEL
100
AcDbLine
 10
100.0582923128157
 20
470.6130880562763
 30
0.0
 11
98.98770882535726
 21
469.5579574351412
 31
0.0
  0
LINE
  5
6FE8
330
A
100
AcDbEntity
  8
MODEL
100
AcDbLine
 10
98.98770882535726
 20
471.5232817613352
 30
0.0
 11
100.0582923128157
 21
470.6130880562763
 31
0.0
  0
LINE
  5
6FE9
330
A
100
AcDbEntity
  8
MODEL
100
AcDbLine
 10
117.905609718275
 20
471.9511224128993
 30
0.0
 11
100.0582923128157
 21
470.6130880562763
 31
0.0
  0
LINE
  5
6FEA
330
A
100
AcDbEntity
  8
MODEL
100
AcDbLine
 10
118.9877083783225
 20
471.0149107840142
 30
0.0
 11
98.98770882535726
 21
469.5154873173746
 31
0.0
  0
LINE
  5
6FEB
330
A
100
AcDbEntity
  8
MODEL
100
AcDbLine
 10
118.9877083783225
 20
471.0149107840142
 30
0.0
 11
117.905609718275
 21
469.9511224128993
 31
0.0
  0
LINE
  5
6FEC
330
A
100
AcDbEntity
  8
MODEL
100
AcDbLine
 10
117.905609718275
 20
469.9511224128993
 30
0.0
 11
118.9877083783225
 21
469.0495864578203
 31
0.0
  0
LINE
  5
6FED
330
A
100
AcDbEntity
  8
MODEL
100
AcDbLine
 10
100.0582923128157
 20
468.6130880562763
 30
0.0
 11
98.98770882535726
 21
467.5579574351412
 31
0.0
  0
LINE
  5
6FEE
330
A
100
AcDbEntity
  8
MODEL
100
AcDbLine
 10
98.98770882535726
 20
469.5232817613352
 30
0.0
 11
100.0582923128157
 21
468.6130880562763
 31
0.0
  0
LINE
  5
6FEF
330
A
100
AcDbEntity
  8
MODEL
100
AcDbLine
 10
117.905609718275
 20
469.9511224128993
 30
0.0
 11
100.0582923128157
 21
468.6130880562763
 31
0.0
  0
LINE
  5
6FF0
330
A
100
AcDbEntity
  8
MODEL
100
AcDbLine
 10
118.9877083783225
 20
469.0149107840142
 30
0.0
 11
98.98770882535726
 21
467.5154873173746
 31
0.0
  0
LINE
  5
6FF1
330
A
100
AcDbEntity
  8
MODEL
100
AcDbLine
 10
118.9877083783225
 20
469.0149107840142
 30
0.0
 11
117.905609718275
 21
467.9511224128993
 31
0.0
  0
LINE
  5
6FF2
330
A
100
AcDbEntity
  8
MODEL
100
AcDbLine
 10
117.905609718275
 20
467.9511224128993
 30
0.0
 11
118.9877083783225
 21
467.0495864578203
 31
0.0
  0
LINE
  5
6FF3
330
A
100
AcDbEntity
  8
MODEL
100
AcDbLine
 10
107.9177097691925
 20
487.0071163400538
 30
0.0
 11
100.0582923128157
 21
486.417886578473
 31
0.0
  0
LINE
  5
6FF4
330
A
100
AcDbEntity
  8
MODEL
100
AcDbLine
 10
117.905609718275
 20
467.9511224128993
 30
0.0
 11
105.314022715026
 21
467.0071163400538
 31
0.0
  0
LINE
  5
6FF5
330
A
100
AcDbEntity
  8
MODEL
100
AcDbLine
 10
98.98770882535726
 20
467.5232817613352
 30
0.0
 11
99.59483033559127
 21
467.0071163400538
 31
0.0
  0
MTEXT
  5
702A
330
A
100
AcDbEntity
  8
DIM
390
1D
100
AcDbMText
 10
198.5760883685481
 20
276.4988912845487
 30
0.0
 40
5.0
 41
0.0
 46
13.704
 71
     1
 72
     1
  1
{\fＭＳ ゴシック|b0|i0|c1|p0;G1/2”}
  7
ＭＳ ゴシック
 73
     1
 44
0.7828267384257843
1001
ACAD
1000
ACAD_MTEXT_DEFINED_HEIGHT_BEGIN
1070
    46
1040
13.704
1000
ACAD_MTEXT_DEFINED_HEIGHT_END
  0
MTEXT
  5
702E
330
A
100
AcDbEntity
  8
DIM
390
1D
100
AcDbMText
 10
219.3382751657963
 20
280.4094398350439
 30
0.0
 40
12.0
 41
0.0
 46
12.0
 71
     1
 72
     1
  1
{\fＭＳ ゴシック|b0|i0|c1|p0;▶}
  7
ＭＳ ゴシック
 73
     1
 44
0.7828267384257843
1001
ACAD
1000
ACAD_MTEXT_DEFINED_HEIGHT_BEGIN
1070
    46
1040
12.0
1000
ACAD_MTEXT_DEFINED_HEIGHT_END
  0
LINE
  5
7038
330
A
100
AcDbEntity
  8
MODEL
100
AcDbLine
 10
250.7063862656477
 20
254.8233569130921
 30
0.0
 11
250.7063862656477
 21
180.1946365379888
 31
0.0
  0
LINE
  5
703B
330
A
100
AcDbEntity
  8
MODEL
100
AcDbLine
 10
240.0356577670362
 20
254.8233569130921
 30
0.0
 11
250.7063862656477
 21
254.8233569130921
 31
0.0
  0
LINE
  5
703D
330
A
100
AcDbEntity
  8
MODEL
100
AcDbLine
 10
250.7063862656477
 20
293.1481004285804
 30
0.0
 11
250.7063862656477
 21
367.7768208036836
 31
0.0
  0
LINE
  5
703E
330
A
100
AcDbEntity
  8
MODEL
100
AcDbLine
 10
240.0356577670362
 20
293.1481004285804
 30
0.0
 11
250.7063862656477
 21
293.1481004285804
 31
0.0
  0
HATCH
  5
7042
330
A
100
AcDbEntity
  8
MODEL
100
AcDbHatch
 10
0.0
 20
0.0
 30
0.0
210
0.0
220
0.0
230
1.0
  2
ANSI31
 70
     0
 71
     0
 91
        2
 92
        1
 93
        4
 72
     1
 10
250.7063862656477
 20
293.1481004285804
 11
250.7063862656477
 21
367.7768208036836
 72
     1
 10
250.7063862656477
 20
367.7768208036836
 11
240.0356577670363
 21
367.7768208036836
 72
     1
 10
240.0356577670362
 20
367.7768208036836
 11
240.0356577670362
 21
293.1481004285804
 72
     1
 10
240.0356577670362
 20
293.1481004285804
 11
250.7063862656475
 21
293.1481004285804
 97
        0
 92
        1
 93
        4
 72
     1
 10
250.7063862656477
 20
254.8233569130921
 11
250.7063862656477
 21
180.1946365379888
 72
     1
 10
240.0356577670362
 20
254.8233569130921
 11
250.7063862656475
 21
254.8233569130921
 72
     1
 10
240.0356577670362
 20
180.1946365379888
 11
240.0356577670362
 21
254.8233569130921
 72
     1
 10
250.7063862656477
 20
180.1946365379888
 11
240.0356577670363
 21
180.1946365379888
 97
        0
 75
     0
 76
     1
 52
0.0
 41
1.0
 77
     0
 78
     1
 53
45.0
 43
-218.0500362691095
 44
-249.5477278969958
 45
-2.245064030267288
 46
2.245064030267288
 79
     0
 98
        1
 10
-218.0500362691095
 20
-249.5477278969958
1001
ACAD
1010
0.0
1020
0.0
1030
0.0
  0
LINE
  5
7093
330
A
100
AcDbEntity
  8
DIM
100
AcDbLine
 10
121.7646352192956
 20
294.3019819231509
 30
0.0
 11
140.8307905466429
 21
317.6905250781397
 31
0.0
  0
LINE
  5
7094
330
A
100
AcDbEntity
  8
DIM
100
AcDbLine
 10
140.8307905466429
 20
317.6905250781397
 30
0.0
 11
167.2667225405505
 21
317.6905250781397
 31
0.0
  0
MTEXT
  5
7095
330
A
100
AcDbEntity
  8
DIM
390
1D
100
AcDbMText
 10
148.6013222691737
 20
325.3485310258653
 30
0.0
 40
5.0
 41
0.0
 46
13.944
 71
     1
 72
     1
  1
{\fＭＳ ゴシック|b0|i0|c1|p0;φ45}
  7
ＭＳ ゴシック
 73
     1
 44
0.7828267384257843
1001
ACAD
1000
ACAD_MTEXT_DEFINED_HEIGHT_BEGIN
1070
    46
1040
13.944
1000
ACAD_MTEXT_DEFINED_HEIGHT_END
  0
MTEXT
  5
70B1
330
A
100
AcDbEntity
  8
DIM
390
1D
100
AcDbMText
 10
79.65617803229478
 20
201.4434108988678
 30
0.0
 40
5.0
 41
0.0
 46
12.0
 71
     1
 72
     1
  1
{\fＭＳ ゴシック|b0|i0|c1|p0;90°}
  7
ＭＳ ゴシック
 73
     1
 44
0.7828267384257843
1001
ACAD
1000
ACAD_MTEXT_DEFINED_HEIGHT_BEGIN
1070
    46
1040
12.0
1000
ACAD_MTEXT_DEFINED_HEIGHT_END
  0
ARC
  5
70B8
330
A
100
AcDbEntity
  8
DIM
100
AcDbCircle
 10
105.8203252265054
 20
202.794143533223
 30
0.0
 40
12.16516439829591
100
AcDbArc
 50
72.70616739701487
 51
166.0093396885674
  0
LINE
  5
70B9
330
A
100
AcDbEntity
  8
DIM
100
AcDbLine
 10
109.4366892011023
 20
214.4093549579371
 30
0.0
 11
106.5617722444467
 21
216.8845591665525
 31
0.0
  0
LINE
  5
70BA
330
A
100
AcDbEntity
  8
DIM
100
AcDbLine
 10
109.4366892011023
 20
214.4093549579371
 30
0.0
 11
105.7723260401739
 21
213.4274048538862
 31
0.0
  0
DIMENSION
  5
70F2
330
A
100
AcDbEntity
  8
DIM
100
AcDbDimension
  2
*D22
 10
364.2724864140153
 20
273.9857286708362
 30
0.0
 11
359.7724864140153
 21
240.0244214134223
 31
0.0
 70
    32
 71
     5
 42
67.92261451482773
 73
     0
 74
     0
 75
     0
  3
tfrom線あり
100
AcDbAlignedDimension
 13
334.1882053238313
 23
206.0631141560085
 33
0.0
 14
310.8222198162533
 24
273.9857286708362
 34
0.0
 50
90.0
100
AcDbRotatedDimension
  0
LINE
  5
71D9
330
A
100
AcDbEntity
  8
MODEL
  6
HIDDEN
 48
0.5
100
AcDbLine
 10
102.1759719263949
 20
378.618623695755
 30
0.0
 11
102.1759719263949
 21
388.802570856595
 31
0.0
  0
LINE
  5
71DA
330
A
100
AcDbEntity
  8
MODEL
  6
HIDDEN
 48
0.5
100
AcDbLine
 10
115.9759820115007
 20
388.802570856595
 30
0.0
 11
115.9759820115007
 21
378.618623695755
 31
0.0
  0
LINE
  5
71DB
330
A
100
AcDbEntity
  8
MODEL
  6
HIDDEN
 48
0.5
100
AcDbLine
 10
102.5921017538943
 20
378.618623695755
 30
0.0
 11
115.9759820115007
 21
378.618623695755
 31
0.0
  0
LINE
  5
71DC
330
A
100
AcDbEntity
  8
MODEL
  6
HIDDEN
 48
0.5
100
AcDbLine
 10
102.1759719263949
 20
378.618623695755
 30
0.0
 11
102.5921017538943
 21
378.618623695755
 31
0.0
  0
ARC
  5
7224
330
A
100
AcDbEntity
  8
DIM
100
AcDbCircle
 10
98.15852407673776
 20
387.1912847517959
 30
0.0
 40
12.16516439829591
100
AcDbArc
 50
179.2050538054972
 51
272.5082260970507
  0
LINE
  5
7225
330
A
100
AcDbEntity
  8
DIM
100
AcDbLine
 10
98.69090600995497
 20
375.0377752045601
 30
0.0
 11
95.27950543692995
 21
373.378218181623
 31
0.0
  0
LINE
  5
7226
330
A
100
AcDbEntity
  8
DIM
100
AcDbLine
 10
98.69090600995497
 20
375.0377752045601
 30
0.0
 11
95.39847545086707
 21
376.9223665118728
 31
0.0
  0
MTEXT
  5
7265
330
A
100
AcDbEntity
  8
DIM
390
1D
100
AcDbMText
 10
73.92210672596485
 20
400.85082135144
 30
0.0
 40
5.0
 41
0.0
 46
7.784
 71
     1
 72
     1
  1
{\fＭＳ ゴシック|b0|i0|c1|p0;閉}
  7
ＭＳ ゴシック
 73
     1
 44
0.7828267384257843
1001
ACAD
1000
ACAD_MTEXT_DEFINED_HEIGHT_BEGIN
1070
    46
1040
7.784
1000
ACAD_MTEXT_DEFINED_HEIGHT_END
  0
MTEXT
  5
7266
330
A
100
AcDbEntity
  8
DIM
390
1D
100
AcDbMText
 10
104.9817667067648
 20
368.3793586442401
 30
0.0
 40
5.0
 41
0.0
 46
7.784
 71
     1
 72
     1
  1
{\fＭＳ ゴシック|b0|i0|c1|p0;開}
  7
ＭＳ ゴシック
 73
     1
 44
0.7828267384257843
1001
ACAD
1000
ACAD_MTEXT_DEFINED_HEIGHT_BEGIN
1070
    46
1040
7.784
1000
ACAD_MTEXT_DEFINED_HEIGHT_END
  0
LINE
  5
76FD
330
A
100
AcDbEntity
  8
MODEL
  6
Continuous
100
AcDbLine
 10
98.98770882535737
 20
461.0071164043151
 30
0.0
 11
98.98770882535737
 21
440.9110723481975
 31
0.0
  0
MTEXT
  5
774A
330
A
100
AcDbEntity
  8
MODEL
390
1D
100
AcDbMText
 10
265.840428909598
 20
92.07710116773828
 30
0.0
 40
4.8865234375
 41
0.0
 46
8.18737001953125
 71
     1
 72
     1
  1
{BRS73-0601-008 (マットブラック)}
  7
ＭＳ ゴシック
 73
     1
 44
0.7828267384257843
1001
ACAD
1000
ACAD_MTEXT_DEFINED_HEIGHT_BEGIN
1070
    46
1040
8.18737001953125
1000
ACAD_MTEXT_DEFINED_HEIGHT_END
  0
MTEXT
  5
774B
330
A
100
AcDbEntity
  8
MODEL
390
1D
100
AcDbMText
 10
265.840428909598
 20
98.65934834932762
 30
0.0
 40
4.8865234375
 41
0.0
 46
8.18737001953125
 71
     1
 72
     1
  1
{BRS73-0601-020 (クローム)}
  7
ＭＳ ゴシック
 73
     1
 44
0.7828267384257843
1001
ACAD
1000
ACAD_MTEXT_DEFINED_HEIGHT_BEGIN
1070
    46
1040
8.18737001953125
1000
ACAD_MTEXT_DEFINED_HEIGHT_END
  0
MTEXT
  5
7782
330
A
100
AcDbEntity
  8
MODEL
390
1D
100
AcDbMText
 10
265.840428909598
 20
84.78961321669291
 30
0.0
 40
4.8865234375
 41
0.0
 46
5.458461156332062
 71
     1
 72
     1
  1
{BRS73-0601-081 (ブラッシュドガンメタル)}
  7
ＭＳ ゴシック
 73
     1
 44
0.7828267384257843
1001
ACAD
1000
ACAD_MTEXT_DEFINED_HEIGHT_BEGIN
1070
    46
1040
5.458461156332062
1000
ACAD_MTEXT_DEFINED_HEIGHT_END
  0
MTEXT
  5
7783
330
A
100
AcDbEntity
  8
MODEL
390
1D
100
AcDbMText
 10
265.840428909598
 20
78.20736603510359
 30
0.0
 40
4.8865234375
 41
0.0
 46
5.458461156332062
 71
     1
 72
     1
  1
{BRS73-0601-083 (ブラッシュドブロンズ)}
  7
ＭＳ ゴシック
 73
     1
 44
0.7828267384257843
1001
ACAD
1000
ACAD_MTEXT_DEFINED_HEIGHT_BEGIN
1070
    46
1040
5.458461156332062
1000
ACAD_MTEXT_DEFINED_HEIGHT_END
  0
VIEWPORT
  5
349
330
B
100
AcDbEntity
 67
     1
  8
0
100
AcDbViewport
 10
202.5
 20
128.5
 30
0.0
 40
486.0
 41
308.4
 68
     1
 69
     1
 12
202.5
 22
128.5
 13
0.0
 23
0.0
 14
0.5
 24
0.5
 15
0.0
 25
0.0
 16
0.0
 26
0.0
 36
1.0
 17
0.0
 27
0.0
 37
0.0
 42
50.0
 43
0.0
 44
0.0
 45
308.4
 50
0.0
 51
0.0
 72
   100
 90
   557152
  1

281
     0
 71
     1
 74
     0
110
0.0
120
0.0
130
0.0
111
1.0
121
0.0
131
0.0
112
0.0
122
1.0
132
0.0
 79
     0
146
0.0
170
     0
 61
     5
348
26C
292
     1
282
     1
141
0.0
142
0.0
 63
   256
  0
VIEWPORT
  5
34A
330
B
100
AcDbEntity
 67
     1
  8
0
100
AcDbViewport
 10
202.5
 20
128.5
 30
0.0
 40
324.0
 41
205.6
 68
     2
 69
     2
 12
986.6781359294573
 22
1427.077061889956
 13
0.0
 23
0.0
 14
0.5
 24
0.5
 15
0.0
 25
0.0
 16
0.0
 26
0.0
 36
1.0
 17
0.0
 27
0.0
 37
0.0
 42
50.0
 43
0.0
 44
0.0
 45
2890.021615685494
 50
0.0
 51
0.0
 72
   100
 90
   557152
  1

281
     0
 71
     1
 74
     0
110
0.0
120
0.0
130
0.0
111
1.0
121
0.0
131
0.0
112
0.0
122
1.0
132
0.0
 79
     0
146
0.0
170
     0
 61
     5
348
26C
292
     1
282
     1
141
0.0
142
0.0
 63
   256
  0
ENDSEC
  0
SECTION
  2
OBJECTS
  0
DICTIONARY
  5
19
330
0
100
AcDbDictionary
281
     1
  3
ACAD_COLOR
350
674
  3
ACAD_DETAILVIEWSTYLE
350
BBF
  3
ACAD_GROUP
350
1A
  3
ACAD_IMAGE_VARS
350
27B
  3
ACAD_LAYOUT
350
1E
  3
ACAD_MATERIAL
350
263
  3
ACAD_MLEADERSTYLE
350
336
  3
ACAD_MLINESTYLE
350
1B
  3
ACAD_PLOTSETTINGS
350
22
  3
ACAD_PLOTSTYLENAME
350
1F
  3
ACAD_SCALELIST
350
241
  3
ACAD_SECTIONVIEWSTYLE
350
BC0
  3
ACAD_TABLESTYLE
350
278
  3
ACAD_VISUALSTYLE
350
267
  3
AcadDim
350
186B
  3
ACDB_RECOMPOSE_DATA
350
7787
  3
AcDbVariableDictionary
350
330
  3
APPDATA
350
27A
  3
DimOffsetDictionary
350
7176
  0
SUN
  5
904
330
15
100
AcDbSun
 90
        1
290
     0
 63
     7
421
 16777215
 40
1.0
291
     1
 91
  2455826
 92
 54000000
292
     0
 70
     2
 71
   256
280
     1
  0
DICTIONARY
  5
2E1
330
2
100
AcDbDictionary
280
     1
281
     1
  3
ACAD_LAYERSTATES
360
2E2
  3
ACLYDICTIONARY
360
4923
  0
DICTIONARY
  5
6D52
330
6D51
100
AcDbDictionary
280
     1
281
     1
  3
ACAD_DIMASSOC
360
6D53
  0
DICTIONARY
  5
674
102
{ACAD_REACTORS
330
19
102
}
330
19
100
AcDbDictionary
281
     1
  0
DICTIONARY
  5
BBF
102
{ACAD_REACTORS
330
19
102
}
330
19
100
AcDbDictionary
281
     1
  0
DICTIONARY
  5
1A
102
{ACAD_REACTORS
330
19
102
}
330
19
100
AcDbDictionary
281
     1
  0
RASTERVARIABLES
  5
27B
102
{ACAD_REACTORS
330
19
102
}
330
19
100
AcDbRasterVariables
 90
        0
 70
     1
 71
     1
 72
     1
  0
DICTIONARY
  5
1E
102
{ACAD_REACTORS
330
19
102
}
330
19
100
AcDbDictionary
281
     1
  3
Layout1
350
21
  3
Model
350
20
  0
DICTIONARY
  5
263
102
{ACAD_REACTORS
330
19
102
}
330
19
100
AcDbDictionary
281
     1
  3
ByBlock
350
68D3
  3
ByLayer
350
264
  3
Global
350
266
  0
DICTIONARY
  5
336
102
{ACAD_REACTORS
330
19
102
}
330
19
100
AcDbDictionary
281
     1
  3
Standard
350
1A6C
  0
DICTIONARY
  5
1B
102
{ACAD_REACTORS
330
19
102
}
330
19
100
AcDbDictionary
281
     1
  3
Standard
350
1C
  0
DICTIONARY
  5
22
102
{ACAD_REACTORS
330
19
102
}
330
19
100
AcDbDictionary
281
     1
  0
ACDBDICTIONARYWDFLT
  5
1F
102
{ACAD_REACTORS
330
19
102
}
330
19
100
AcDbDictionary
281
     1
  3
Normal
350
1D
100
AcDbDictionaryWithDefault
340
1D
  0
DICTIONARY
  5
241
102
{ACAD_REACTORS
330
19
102
}
330
19
100
AcDbDictionary
281
     1
  3
*A1
350
728B
  3
A0
350
242
  3
A1
350
243
  3
A2
350
244
  3
A3
350
245
  3
A4
350
246
  3
A5
350
247
  3
A6
350
248
  3
A7
350
249
  3
A8
350
24A
  3
A9
350
24B
  3
B0
350
24C
  3
B1
350
24D
  3
B2
350
24E
  3
B3
350
24F
  3
B4
350
250
  3
B5
350
251
  3
B6
350
252
  3
B7
350
253
  3
B8
350
254
  3
B9
350
255
  3
C0
350
256
  3
C1
350
257
  3
C2
350
258
  3
C3
350
259
  3
C4
350
25A
  3
C5
350
25B
  3
C6
350
25C
  3
C7
350
25D
  3
C8
350
25E
  3
C9
350
25F
  3
D0
350
260
  3
D1
350
261
  3
D2
350
262
  0
DICTIONARY
  5
BC0
102
{ACAD_REACTORS
330
19
102
}
330
19
100
AcDbDictionary
281
     1
  0
DICTIONARY
  5
278
102
{ACAD_REACTORS
330
19
102
}
330
19
100
AcDbDictionary
281
     1
  3
Standard
350
279
  0
DICTIONARY
  5
267
102
{ACAD_REACTORS
330
19
102
}
330
19
100
AcDbDictionary
281
     1
  3
2dWireframe
350
26C
  3
3D Hidden
350
26E
  3
3dWireframe
350
26D
  3
Basic
350
26F
  3
Brighten
350
273
  3
ColorChange
350
277
  3
Conceptual
350
271
  3
Dim
350
272
  3
EdgeColorOff
350
8FE
  3
Facepattern
350
276
  3
Flat
350
268
  3
FlatWithEdges
350
269
  3
Gouraud
350
26A
  3
GouraudWithEdges
350
26B
  3
Hidden
350
8FB
  3
JitterOff
350
8FC
  3
Linepattern
350
275
  3
OverhangOff
350
8FD
  3
Realistic
350
270
  3
Shaded
350
903
  3
Shaded with edges
350
902
  3
Shades of Gray
350
8FF
  3
Sketchy
350
900
  3
Thicken
350
274
  3
Wireframe
350
8FA
  3
X-Ray
350
901
  0
XRECORD
  5
186B
102
{ACAD_REACTORS
330
19
102
}
330
19
100
AcDbXrecord
280
     1
340
0
 72
     0
 71
     0
 70
     0
 69
     0
 68
     1
 67
     3
 66
     0
 65
     0
 64
     0
 63
     3
 62
     1
 61
     0
 60
     0
 40
0.0
  0
XRECORD
  5
7787
102
{ACAD_REACTORS
330
19
102
}
330
19
100
AcDbXrecord
280
     1
 90
        1
330
279
  0
DICTIONARY
  5
330
102
{ACAD_REACTORS
330
19
102
}
330
19
100
AcDbDictionary
281
     1
  3
CANNOSCALE
350
331
  3
CMLEADERSTYLE
350
1AA2
  3
CTABLESTYLE
350
335
  3
HPTRANSPARENCY
350
D6B
  3
XCLIPFRAME
350
896
  0
DICTIONARY
  5
27A
102
{ACAD_REACTORS
330
19
102
}
330
19
100
AcDbDictionary
281
     1
  0
DICTIONARY
  5
7176
102
{ACAD_REACTORS
330
19
102
}
330
19
100
AcDbDictionary
281
     1
  3
DIMRAILANGLE
350
7179
  3
DIMRAILFIRSTOFFSET
350
7177
  3
DIMRAILOFFSET
350
7178
  3
DIMRAILSENABLED
350
717A
  0
DICTIONARY
  5
2E2
102
{ACAD_REACTORS
330
2E1
102
}
330
2E1
100
AcDbDictionary
281
     1
  0
DICTIONARY
  5
4923
102
{ACAD_REACTORS
330
2E1
102
}
330
2E1
100
AcDbDictionary
281
     1
1001
ACAD
1000
<All
  0
DIMASSOC
  5
6D53
102
{ACAD_REACTORS
330
6D52
102
}
330
6D52
100
AcDbDimAssoc
330
6D51
 90
        1
 70
     0
 71
     1
  1
AcDbOsnapPointRef
 72
     1
331
6D19
 73
     2
 91
       13
 40
1.0
 10
0.0
 20
0.0
 30
0.0
 75
     0
  0
LAYOUT
  5
21
102
{ACAD_REACTORS
330
1E
102
}
330
1E
100
AcDbPlotSettings
  1

  2
none_device
  4
ISO_A3_(420.00_x_297.00_MM)
  6

 40
7.5
 41
20.0
 42
7.5
 43
20.0
 44
420.0
 45
297.0
 46
0.0
 47
0.0
 48
0.0
 49
0.0
140
0.0
141
0.0
142
1.0
143
1.0
 70
     0
 72
     1
 73
     0
 74
     0
  7

 75
     0
 76
     0
 77
     2
 78
   300
147
1.0
148
0.0
149
0.0
100
AcDbLayout
  1
Layout1
 70
     0
 71
     0
 10
-7.5
 20
-20.0
 11
412.5
 21
277.0
 12
0.0
 22
0.0
 32
0.0
 14
0.0
 24
0.0
 34
0.0
 15
0.0
 25
0.0
 35
0.0
146
0.0
 13
0.0
 23
0.0
 33
0.0
 16
0.0
 26
0.0
 36
0.0
 17
0.0
 27
0.0
 37
0.0
 76
     0
330
B
331
349
  0
LAYOUT
  5
20
102
{ACAD_REACTORS
330
1E
102
}
330
1E
100
AcDbPlotSettings
  1

  2
none_device
  4
ISO_A3_(420.00_x_297.00_MM)
  6

 40
7.5
 41
20.0
 42
7.5
 43
20.0
 44
420.0
 45
297.0
 46
0.0
 47
0.0
 48
0.0
 49
0.0
140
0.0
141
0.0
142
1.0
143
1.0
 70
  1024
 72
     1
 73
     0
 74
     0
  7

 75
     0
 76
     0
 77
     2
 78
   300
147
1.0
148
0.0
149
0.0
100
AcDbLayout
  1
Model
 70
     0
 71
     1
 10
0.0
 20
0.0
 11
420.0000000000001
 21
594.0
 12
0.0
 22
0.0
 32
0.0
 14
0.0
 24
0.0
 34
-0.0000000000000142
 15
420.0000000000001
 25
594.0
 35
0.5
146
0.0
 13
0.0
 23
0.0
 33
0.0
 16
0.0
 26
0.0
 36
0.0
 17
0.0
 27
0.0
 37
0.0
 76
     0
330
A
331
15
  0
MATERIAL
  5
68D3
102
{ACAD_REACTORS
330
263
102
}
330
263
100
AcDbMaterial
  1
ByBlock
 72
     1
 94
      127
  0
MATERIAL
  5
264
102
{ACAD_REACTORS
330
263
102
}
330
263
100
AcDbMaterial
  1
ByLayer
 72
     1
 94
      127
  0
MATERIAL
  5
266
102
{ACAD_REACTORS
330
263
102
}
330
263
100
AcDbMaterial
  1
Global
 72
     1
 94
      127
  0
MLEADERSTYLE
  5
1A6C
102
{ACAD_REACTORS
330
336
102
}
330
336
100
AcDbMLeaderStyle
170
     2
171
     1
172
     0
 90
        2
 40
0.0
 41
0.0
173
     1
 91
-1056964608
340
11
 92
       -2
290
     1
 42
2.0
291
     1
 43
8.0
  3
Standard
341
0
 44
4.0
300

342
17
174
     1
178
     6
175
     1
176
     0
 93
-1056964608
 45
4.0
292
     0
297
     0
 46
4.0
343
0
 94
-1056964608
 47
1.0
 49
1.0
140
1.0
293
     1
141
0.0
294
     1
177
     0
142
1.0
295
     0
296
     0
143
3.75
1001
ACAD_MLEADERVER
1070
     2
  0
MLINESTYLE
  5
1C
102
{ACAD_REACTORS
330
1B
102
}
330
1B
100
AcDbMlineStyle
  2
Standard
 70
     0
  3

 62
     0
 51
90.0
 52
90.0
 71
     2
 49
0.5
 62
   256
  6
BYLAYER
 49
-0.5
 62
   256
  6
BYLAYER
  0
ACDBPLACEHOLDER
  5
1D
102
{ACAD_REACTORS
330
1F
102
}
330
1F
  0
SCALE
  5
728B
102
{ACAD_REACTORS
330
241
102
}
330
241
100
AcDbScale
 70
     0
300
1:1_XREF_XREF
140
1.0
141
1.0
290
     1
  0
SCALE
  5
242
102
{ACAD_REACTORS
330
241
102
}
330
241
100
AcDbScale
 70
     0
300
1:1
140
1.0
141
1.0
290
     0
  0
SCALE
  5
243
102
{ACAD_REACTORS
330
241
102
}
330
241
100
AcDbScale
 70
     0
300
1:2
140
1.0
141
2.0
290
     0
  0
SCALE
  5
244
102
{ACAD_REACTORS
330
241
102
}
330
241
100
AcDbScale
 70
     0
300
1:4
140
1.0
141
4.0
290
     0
  0
SCALE
  5
245
102
{ACAD_REACTORS
330
241
102
}
330
241
100
AcDbScale
 70
     0
300
1:5
140
1.0
141
5.0
290
     0
  0
SCALE
  5
246
102
{ACAD_REACTORS
330
241
102
}
330
241
100
AcDbScale
 70
     0
300
1:8
140
1.0
141
8.0
290
     0
  0
SCALE
  5
247
102
{ACAD_REACTORS
330
241
102
}
330
241
100
AcDbScale
 70
     0
300
1:10
140
1.0
141
10.0
290
     0
  0
SCALE
  5
248
102
{ACAD_REACTORS
330
241
102
}
330
241
100
AcDbScale
 70
     0
300
1:16
140
1.0
141
16.0
290
     0
  0
SCALE
  5
249
102
{ACAD_REACTORS
330
241
102
}
330
241
100
AcDbScale
 70
     0
300
1:20
140
1.0
141
20.0
290
     0
  0
SCALE
  5
24A
102
{ACAD_REACTORS
330
241
102
}
330
241
100
AcDbScale
 70
     0
300
1:30
140
1.0
141
30.0
290
     0
  0
SCALE
  5
24B
102
{ACAD_REACTORS
330
241
102
}
330
241
100
AcDbScale
 70
     0
300
1:40
140
1.0
141
40.0
290
     0
  0
SCALE
  5
24C
102
{ACAD_REACTORS
330
241
102
}
330
241
100
AcDbScale
 70
     0
300
1:50
140
1.0
141
50.0
290
     0
  0
SCALE
  5
24D
102
{ACAD_REACTORS
330
241
102
}
330
241
100
AcDbScale
 70
     0
300
1:100
140
1.0
141
100.0
290
     0
  0
SCALE
  5
24E
102
{ACAD_REACTORS
330
241
102
}
330
241
100
AcDbScale
 70
     0
300
2:1
140
2.0
141
1.0
290
     0
  0
SCALE
  5
24F
102
{ACAD_REACTORS
330
241
102
}
330
241
100
AcDbScale
 70
     0
300
4:1
140
4.0
141
1.0
290
     0
  0
SCALE
  5
250
102
{ACAD_REACTORS
330
241
102
}
330
241
100
AcDbScale
 70
     0
300
8:1
140
8.0
141
1.0
290
     0
  0
SCALE
  5
251
102
{ACAD_REACTORS
330
241
102
}
330
241
100
AcDbScale
 70
     0
300
10:1
140
10.0
141
1.0
290
     0
  0
SCALE
  5
252
102
{ACAD_REACTORS
330
241
102
}
330
241
100
AcDbScale
 70
     0
300
100:1
140
100.0
141
1.0
290
     0
  0
SCALE
  5
253
102
{ACAD_REACTORS
330
241
102
}
330
241
100
AcDbScale
 70
     0
300
1/128" = 1'-0"
140
0.0078125
141
12.0
290
     0
  0
SCALE
  5
254
102
{ACAD_REACTORS
330
241
102
}
330
241
100
AcDbScale
 70
     0
300
1/64" = 1'-0"
140
0.015625
141
12.0
290
     0
  0
SCALE
  5
255
102
{ACAD_REACTORS
330
241
102
}
330
241
100
AcDbScale
 70
     0
300
1/32" = 1'-0"
140
0.03125
141
12.0
290
     0
  0
SCALE
  5
256
102
{ACAD_REACTORS
330
241
102
}
330
241
100
AcDbScale
 70
     0
300
1/16" = 1'-0"
140
0.0625
141
12.0
290
     0
  0
SCALE
  5
257
102
{ACAD_REACTORS
330
241
102
}
330
241
100
AcDbScale
 70
     0
300
3/32" = 1'-0"
140
0.09375
141
12.0
290
     0
  0
SCALE
  5
258
102
{ACAD_REACTORS
330
241
102
}
330
241
100
AcDbScale
 70
     0
300
1/8" = 1'-0"
140
0.125
141
12.0
290
     0
  0
SCALE
  5
259
102
{ACAD_REACTORS
330
241
102
}
330
241
100
AcDbScale
 70
     0
300
3/16" = 1'-0"
140
0.1875
141
12.0
290
     0
  0
SCALE
  5
25A
102
{ACAD_REACTORS
330
241
102
}
330
241
100
AcDbScale
 70
     0
300
1/4" = 1'-0"
140
0.25
141
12.0
290
     0
  0
SCALE
  5
25B
102
{ACAD_REACTORS
330
241
102
}
330
241
100
AcDbScale
 70
     0
300
3/8" = 1'-0"
140
0.375
141
12.0
290
     0
  0
SCALE
  5
25C
102
{ACAD_REACTORS
330
241
102
}
330
241
100
AcDbScale
 70
     0
300
1/2" = 1'-0"
140
0.5
141
12.0
290
     0
  0
SCALE
  5
25D
102
{ACAD_REACTORS
330
241
102
}
330
241
100
AcDbScale
 70
     0
300
3/4" = 1'-0"
140
0.75
141
12.0
290
     0
  0
SCALE
  5
25E
102
{ACAD_REACTORS
330
241
102
}
330
241
100
AcDbScale
 70
     0
300
1" = 1'-0"
140
1.0
141
12.0
290
     0
  0
SCALE
  5
25F
102
{ACAD_REACTORS
330
241
102
}
330
241
100
AcDbScale
 70
     0
300
1-1/2" = 1'-0"
140
1.5
141
12.0
290
     0
  0
SCALE
  5
260
102
{ACAD_REACTORS
330
241
102
}
330
241
100
AcDbScale
 70
     0
300
3" = 1'-0"
140
3.0
141
12.0
290
     0
  0
SCALE
  5
261
102
{ACAD_REACTORS
330
241
102
}
330
241
100
AcDbScale
 70
     0
300
6" = 1'-0"
140
6.0
141
12.0
290
     0
  0
SCALE
  5
262
102
{ACAD_REACTORS
330
241
102
}
330
241
100
AcDbScale
 70
     0
300
1'-0" = 1'-0"
140
12.0
141
12.0
290
     0
  0
TABLESTYLE
  5
279
102
{ACAD_REACTORS
330
278
102
}
102
{ACAD_XDICTIONARY
360
7785
102
}
330
278
100
AcDbTableStyle
  3
Standard
 70
     0
 71
     0
 40
0.06
 41
0.06
280
     0
281
     0
  7
Standard
140
4.5
170
     2
 62
     0
 63
   257
283
     0
 90
        4
 91
        0
  1

274
    -2
284
     1
 64
     0
275
    -2
285
     1
 65
     0
276
    -2
286
     1
 66
     0
277
    -2
287
     1
 67
     0
278
    -2
288
     1
 68
     0
279
    -2
289
     1
 69
     0
  7
Standard
140
6.0
170
     5
 62
     0
 63
   257
283
     0
 90
        4
 91
        0
  1

274
    -2
284
     1
 64
     0
275
    -2
285
     1
 65
     0
276
    -2
286
     1
 66
     0
277
    -2
287
     1
 67
     0
278
    -2
288
     1
 68
     0
279
    -2
289
     1
 69
     0
  7
Standard
140
4.5
170
     5
 62
     0
 63
   257
283
     0
 90
        4
 91
        0
  1

274
    -2
284
     1
 64
     0
275
    -2
285
     1
 65
     0
276
    -2
286
     1
 66
     0
277
    -2
287
     1
 67
     0
278
    -2
288
     1
 68
     0
279
    -2
289
     1
 69
     0
  0
VISUALSTYLE
  5
26C
102
{ACAD_REACTORS
330
267
102
}
330
267
100
AcDbVisualStyle
  2
2dWireframe
 70
     4
 71
     0
 72
     2
 73
     0
 90
        0
 40
-0.6
 41
-30.0
 62
     5
 63
     7
421
 16777215
 74
     1
 91
        4
 64
     7
 65
   257
 75
     1
175
     1
 42
1.0
 92
        0
 66
   257
 43
1.0
 76
     1
 77
     6
 78
     2
 67
     7
 79
     5
170
     0
171
     0
290
     0
174
     0
 93
        1
 44
0.0
173
     0
291
     0
 45
0.0
  0
VISUALSTYLE
  5
26E
102
{ACAD_REACTORS
330
267
102
}
330
267
100
AcDbVisualStyle
  2
3D Hidden
 70
     6
 71
     1
 72
     2
 73
     2
 90
        0
 40
-0.6
 41
-30.0
 62
     5
 63
     7
421
 16777215
 74
     2
 91
        2
 64
     7
 65
   257
 75
     2
175
     1
 42
40.0
 92
        0
 66
   257
 43
1.0
 76
     1
 77
     6
 78
     2
 67
     7
 79
     3
170
     0
171
     0
290
     0
174
     0
 93
        1
 44
0.0
173
     0
291
     0
 45
0.0
  0
VISUALSTYLE
  5
26D
102
{ACAD_REACTORS
330
267
102
}
330
267
100
AcDbVisualStyle
  2
3dWireframe
 70
     5
 71
     0
 72
     2
 73
     0
 90
        0
 40
-0.6
 41
-30.0
 62
     5
 63
     7
421
 16777215
 74
     1
 91
        4
 64
     7
 65
   257
 75
     1
175
     1
 42
1.0
 92
        0
 66
   257
 43
1.0
 76
     1
 77
     6
 78
     2
 67
     7
 79
     5
170
     0
171
     0
290
     0
174
     0
 93
        1
 44
0.0
173
     0
291
     0
 45
0.0
  0
VISUALSTYLE
  5
26F
102
{ACAD_REACTORS
330
267
102
}
330
267
100
AcDbVisualStyle
  2
Basic
 70
     7
 71
     1
 72
     0
 73
     1
 90
        0
 40
-0.6
 41
-30.0
 62
     5
 63
     7
421
 16777215
 74
     0
 91
        4
 64
     7
 65
   257
 75
     1
175
     1
 42
1.0
 92
        8
 66
     7
 43
1.0
 76
     1
 77
     6
 78
     2
 67
     7
 79
     5
170
     0
171
     0
290
     0
174
     0
 93
        1
 44
0.0
173
     0
291
     1
 45
0.0
  0
VISUALSTYLE
  5
273
102
{ACAD_REACTORS
330
267
102
}
330
267
100
AcDbVisualStyle
  2
Brighten
 70
    12
 71
     2
 72
     2
 73
     0
 90
        0
 40
-0.6
 41
-30.0
 62
     5
 63
     7
421
 16777215
 74
     1
 91
        4
 64
     7
 65
   257
 75
     1
175
     1
 42
1.0
 92
        8
 66
     7
 43
1.0
 76
     1
 77
     6
 78
     2
 67
     7
 79
     5
170
     0
171
     0
290
     0
174
     0
 93
        1
 44
50.0
173
     0
291
     1
 45
0.0
  0
VISUALSTYLE
  5
277
102
{ACAD_REACTORS
330
267
102
}
330
267
100
AcDbVisualStyle
  2
ColorChange
 70
    16
 71
     2
 72
     2
 73
     3
 90
        0
 40
-0.6
 41
-30.0
 62
     5
 63
     8
421
  8421504
 74
     1
 91
        4
 64
     7
 65
   257
 75
     1
175
     1
 42
1.0
 92
        8
 66
     8
424
  8421504
 43
1.0
 76
     1
 77
     6
 78
     2
 67
     7
 79
     5
170
     0
171
     0
290
     0
174
     0
 93
        1
 44
0.0
173
     0
291
     1
 45
0.0
  0
VISUALSTYLE
  5
271
102
{ACAD_REACTORS
330
267
102
}
330
267
100
AcDbVisualStyle
  2
Conceptual
 70
     9
 71
     3
 72
     2
 73
     0
 90
        0
 40
-0.6
 41
-30.0
 62
     5
 63
     7
421
 16777215
 74
     2
 91
        2
 64
     7
 65
   257
 75
     1
175
     1
 42
40.0
 92
        8
 66
     7
 43
1.0
 76
     1
 77
     6
 78
     2
 67
     7
 79
     3
170
     0
171
     0
290
     0
174
     0
 93
        1
 44
0.0
173
     0
291
     0
 45
0.0
  0
VISUALSTYLE
  5
272
102
{ACAD_REACTORS
330
267
102
}
330
267
100
AcDbVisualStyle
  2
Dim
 70
    11
 71
     2
 72
     2
 73
     0
 90
        0
 40
-0.6
 41
-30.0
 62
     5
 63
     7
421
 16777215
 74
     1
 91
        4
 64
     7
 65
   257
 75
     1
175
     1
 42
1.0
 92
        8
 66
     7
 43
1.0
 76
     1
 77
     6
 78
     2
 67
     7
 79
     5
170
     0
171
     0
290
     0
174
     0
 93
        1
 44
-50.0
173
     0
291
     1
 45
0.0
  0
VISUALSTYLE
  5
8FE
102
{ACAD_REACTORS
330
267
102
}
330
267
100
AcDbVisualStyle
  2
EdgeColorOff
 70
    22
 71
     2
 72
     2
 73
     0
 90
        0
 40
0.6
 41
30.0
 62
     5
 63
     7
421
 16777215
 74
     1
 91
        4
 64
     7
 65
   257
 75
     1
175
     1
 42
1.0
 92
        8
 66
     7
 43
1.0
 76
     1
 77
     6
 78
     2
 67
     7
 79
     5
170
     0
171
     0
290
     0
174
     0
 93
        1
 44
0.0
173
     0
291
     1
 45
0.0
  0
VISUALSTYLE
  5
276
102
{ACAD_REACTORS
330
267
102
}
330
267
100
AcDbVisualStyle
  2
Facepattern
 70
    15
 71
     2
 72
     2
 73
     0
 90
        0
 40
-0.6
 41
-30.0
 62
     5
 63
     7
421
 16777215
 74
     1
 91
        4
 64
     7
 65
   257
 75
     1
175
     1
 42
1.0
 92
        8
 66
     7
 43
1.0
 76
     1
 77
     6
 78
     2
 67
     7
 79
     5
170
     0
171
     0
290
     0
174
     0
 93
        1
 44
0.0
173
     0
291
     1
 45
0.0
  0
VISUALSTYLE
  5
268
102
{ACAD_REACTORS
330
267
102
}
330
267
100
AcDbVisualStyle
  2
Flat
 70
     0
 71
     2
 72
     1
 73
     1
 90
        2
 40
-0.6
 41
30.0
 62
     5
 63
     7
421
 16777215
 74
     0
 91
        4
 64
     7
 65
   257
 75
     1
175
     1
 42
1.0
 92
        8
 66
     7
 43
1.0
 76
     1
 77
     6
 78
     2
 67
     7
 79
     5
170
     0
171
     0
290
     0
174
     0
 93
       13
 44
0.0
173
     0
291
     1
 45
0.0
  0
VISUALSTYLE
  5
269
102
{ACAD_REACTORS
330
267
102
}
330
267
100
AcDbVisualStyle
  2
FlatWithEdges
 70
     1
 71
     2
 72
     1
 73
     1
 90
        2
 40
-0.6
 41
30.0
 62
     5
 63
     7
421
 16777215
 74
     1
 91
        4
 64
     7
 65
   257
 75
     1
175
     1
 42
1.0
 92
        0
 66
   257
 43
1.0
 76
     1
 77
     6
 78
     2
 67
     7
 79
     5
170
     0
171
     0
290
     0
174
     0
 93
       13
 44
0.0
173
     0
291
     1
 45
0.0
  0
VISUALSTYLE
  5
26A
102
{ACAD_REACTORS
330
267
102
}
330
267
100
AcDbVisualStyle
  2
Gouraud
 70
     2
 71
     2
 72
     2
 73
     1
 90
        2
 40
-0.6
 41
30.0
 62
     5
 63
     7
421
 16777215
 74
     0
 91
        4
 64
     7
 65
   257
 75
     1
175
     1
 42
1.0
 92
        0
 66
     7
 43
1.0
 76
     1
 77
     6
 78
     2
 67
     7
 79
     5
170
     0
171
     0
290
     0
174
     0
 93
       13
 44
0.0
173
     0
291
     1
 45
0.0
  0
VISUALSTYLE
  5
26B
102
{ACAD_REACTORS
330
267
102
}
330
267
100
AcDbVisualStyle
  2
GouraudWithEdges
 70
     3
 71
     2
 72
     2
 73
     1
 90
        2
 40
-0.6
 41
30.0
 62
     5
 63
     7
421
 16777215
 74
     1
 91
        4
 64
     7
 65
   257
 75
     1
175
     1
 42
1.0
 92
        0
 66
   257
 43
1.0
 76
     1
 77
     6
 78
     2
 67
     7
 79
     5
170
     0
171
     0
290
     0
174
     0
 93
       13
 44
0.0
173
     0
291
     1
 45
0.0
  0
VISUALSTYLE
  5
8FB
102
{ACAD_REACTORS
330
267
102
}
330
267
100
AcDbVisualStyle
  2
Hidden
 70
     6
 71
     1
 72
     2
 73
     2
 90
        0
 40
0.6
 41
30.0
 62
     5
 63
     7
421
 16777215
 74
     2
 91
        2
 64
     7
 65
   257
 75
     2
175
     1
 42
40.0
 92
        0
 66
   257
 43
1.0
 76
     1
 77
     6
 78
     2
 67
     7
 79
     3
170
     0
171
     0
290
     0
174
     0
 93
        1
 44
0.0
173
     0
291
     0
 45
0.0
  0
VISUALSTYLE
  5
8FC
102
{ACAD_REACTORS
330
267
102
}
330
267
100
AcDbVisualStyle
  2
JitterOff
 70
    20
 71
     2
 72
     2
 73
     0
 90
        0
 40
0.6
 41
30.0
 62
     5
 63
     7
421
 16777215
 74
     1
 91
        4
 64
     7
 65
   257
 75
     1
175
     1
 42
1.0
 92
       10
 66
     7
 43
1.0
 76
     1
 77
     6
 78
     2
 67
     7
 79
     5
170
     0
171
     0
290
     0
174
     0
 93
        1
 44
0.0
173
     0
291
     1
 45
0.0
  0
VISUALSTYLE
  5
275
102
{ACAD_REACTORS
330
267
102
}
330
267
100
AcDbVisualStyle
  2
Linepattern
 70
    14
 71
     2
 72
     2
 73
     0
 90
        0
 40
-0.6
 41
-30.0
 62
     5
 63
     7
421
 16777215
 74
     1
 91
        4
 64
     7
 65
   257
 75
     7
175
     7
 42
1.0
 92
        8
 66
     7
 43
1.0
 76
     1
 77
     6
 78
     2
 67
     7
 79
     5
170
     0
171
     0
290
     0
174
     0
 93
        1
 44
0.0
173
     0
291
     1
 45
0.0
  0
VISUALSTYLE
  5
8FD
102
{ACAD_REACTORS
330
267
102
}
330
267
100
AcDbVisualStyle
  2
OverhangOff
 70
    21
 71
     2
 72
     2
 73
     0
 90
        0
 40
0.6
 41
30.0
 62
     5
 63
     7
421
 16777215
 74
     1
 91
        4
 64
     7
 65
   257
 75
     1
175
     1
 42
1.0
 92
        9
 66
     7
 43
1.0
 76
     1
 77
     6
 78
     2
 67
     7
 79
     5
170
     0
171
     0
290
     0
174
     0
 93
        1
 44
0.0
173
     0
291
     1
 45
0.0
  0
VISUALSTYLE
  5
270
102
{ACAD_REACTORS
330
267
102
}
330
267
100
AcDbVisualStyle
  2
Realistic
 70
     8
 71
     2
 72
     2
 73
     0
 90
        0
 40
-0.6
 41
-30.0
 62
     5
 63
     7
421
 16777215
 74
     1
 91
        0
 64
     7
 65
   257
 75
     1
175
     1
 42
1.0
 92
        8
 66
     8
424
  7895160
 43
1.0
 76
     1
 77
     6
 78
     2
 67
     7
 79
     5
170
     0
171
     0
290
     0
174
     0
 93
       13
 44
0.0
173
     0
291
     0
 45
0.0
  0
VISUALSTYLE
  5
903
102
{ACAD_REACTORS
330
267
102
}
330
267
100
AcDbVisualStyle
  2
Shaded
 70
    27
 71
     2
 72
     2
 73
     1
 90
        2
 40
0.6
 41
30.0
 62
     5
 63
     7
421
 16777215
 74
     0
 91
        4
 64
     7
 65
   257
 75
     1
175
     1
 42
1.0
 92
        8
 66
   257
 43
1.0
 76
     1
 77
     6
 78
     2
 67
     8
425
  7895160
 79
     3
170
     0
171
     0
290
     0
174
     0
 93
        5
 44
0.0
173
     0
291
     0
 45
0.0
  0
VISUALSTYLE
  5
902
102
{ACAD_REACTORS
330
267
102
}
330
267
100
AcDbVisualStyle
  2
Shaded with edges
 70
    26
 71
     2
 72
     2
 73
     1
 90
        2
 40
0.6
 41
30.0
 62
     5
 63
     7
421
 16777215
 74
     1
 91
       10
 64
     7
 65
   257
 75
     2
175
     1
 42
1.0
 92
        8
 66
   257
 43
1.0
 76
     1
 77
     6
 78
     2
 67
     7
 79
     3
170
     0
171
     0
290
     0
174
     0
 93
        5
 44
0.0
173
     0
291
     0
 45
0.0
  0
VISUALSTYLE
  5
8FF
102
{ACAD_REACTORS
330
267
102
}
330
267
100
AcDbVisualStyle
  2
Shades of Gray
 70
    23
 71
     2
 72
     2
 73
     3
 90
        0
 40
0.6
 41
30.0
 62
     5
 63
     7
421
 16777215
 74
     2
 91
        2
 64
     7
 65
     7
 75
     1
175
     1
 42
40.0
 92
        8
 66
     7
 43
1.0
 76
     1
 77
     6
 78
     2
 67
     7
 79
     3
170
     0
171
     0
290
     0
174
     0
 93
        1
 44
0.0
173
     0
291
     0
 45
0.0
  0
VISUALSTYLE
  5
900
102
{ACAD_REACTORS
330
267
102
}
330
267
100
AcDbVisualStyle
  2
Sketchy
 70
    24
 71
     1
 72
     2
 73
     2
 90
        0
 40
0.6
 41
30.0
 62
     5
 63
     7
421
 16777215
 74
     2
 91
        2
 64
     7
 65
     7
 75
     1
175
     1
 42
40.0
 92
       11
 66
     7
 43
1.0
 76
     1
 77
     6
 78
     2
 67
     7
 79
     6
170
     0
171
     0
290
     0
174
     0
 93
        1
 44
0.0
173
     0
291
     0
 45
0.0
  0
VISUALSTYLE
  5
274
102
{ACAD_REACTORS
330
267
102
}
330
267
100
AcDbVisualStyle
  2
Thicken
 70
    13
 71
     2
 72
     2
 73
     0
 90
        0
 40
-0.6
 41
-30.0
 62
     5
 63
     7
421
 16777215
 74
     1
 91
        4
 64
     7
 65
   257
 75
     1
175
     1
 42
1.0
 92
       12
 66
     7
 43
1.0
 76
     1
 77
     6
 78
     2
 67
     7
 79
     5
170
     0
171
     0
290
     0
174
     0
 93
        1
 44
0.0
173
     0
291
     1
 45
0.0
  0
VISUALSTYLE
  5
8FA
102
{ACAD_REACTORS
330
267
102
}
330
267
100
AcDbVisualStyle
  2
Wireframe
 70
     5
 71
     0
 72
     2
 73
     0
 90
        0
 40
0.6
 41
30.0
 62
     5
 63
     7
421
 16777215
 74
     1
 91
        4
 64
     7
 65
   257
 75
     1
175
     1
 42
1.0
 92
        0
 66
   257
 43
1.0
 76
     1
 77
     6
 78
     2
 67
     7
 79
     3
170
     0
171
     0
290
     0
174
     0
 93
        1
 44
0.0
173
     0
291
     0
 45
0.0
  0
VISUALSTYLE
  5
901
102
{ACAD_REACTORS
330
267
102
}
330
267
100
AcDbVisualStyle
  2
X-Ray
 70
    25
 71
     2
 72
     2
 73
     1
 90
        1
 40
0.5
 41
30.0
 62
     5
 63
     7
421
 16777215
 74
     1
 91
        0
 64
     7
 65
   257
 75
     1
175
     1
 42
1.0
 92
        8
 66
     7
 43
1.0
 76
     1
 77
     6
 78
     2
 67
     7
 79
     3
170
     0
171
     0
290
     0
174
     0
 93
       13
 44
0.0
173
     0
291
     0
 45
0.0
  0
DICTIONARYVAR
  5
331
102
{ACAD_REACTORS
330
330
102
}
330
330
100
DictionaryVariables
280
     0
  1
1:1
  0
DICTIONARYVAR
  5
1AA2
102
{ACAD_REACTORS
330
330
102
}
330
330
100
DictionaryVariables
280
     0
  1
Standard
  0
DICTIONARYVAR
  5
335
102
{ACAD_REACTORS
330
330
102
}
330
330
100
DictionaryVariables
280
     0
  1
Standard
  0
DICTIONARYVAR
  5
D6B
102
{ACAD_REACTORS
330
330
102
}
330
330
100
DictionaryVariables
280
     0
  1
ByLayer
  0
DICTIONARYVAR
  5
896
102
{ACAD_REACTORS
330
330
102
}
330
330
100
DictionaryVariables
280
     0
  1
0
  0
DICTIONARYVAR
  5
7179
102
{ACAD_REACTORS
330
7176
102
}
330
7176
100
DictionaryVariables
280
     0
  1
0.261799
  0
DICTIONARYVAR
  5
7177
102
{ACAD_REACTORS
330
7176
102
}
330
7176
100
DictionaryVariables
280
     0
  1
0.400000
  0
DICTIONARYVAR
  5
7178
102
{ACAD_REACTORS
330
7176
102
}
330
7176
100
DictionaryVariables
280
     0
  1
0.250000
  0
DICTIONARYVAR
  5
717A
102
{ACAD_REACTORS
330
7176
102
}
330
7176
100
DictionaryVariables
280
     0
  1
1
  0
DICTIONARY
  5
7785
330
279
100
AcDbDictionary
280
     1
281
     1
  3
ACAD_ROUNDTRIP_2008_TABLESTYLE_CELLSTYLEMAP
360
7786
  0
CELLSTYLEMAP
  5
7786
102
{ACAD_REACTORS
330
7785
102
}
330
7785
100
AcDbCellStyleMap
 90
        3
300
CELLSTYLE
  1
TABLEFORMAT_BEGIN
 90
        5
170
     1
 91
        0
 92
    32768
 62
   257
 93
        1
300
CONTENTFORMAT
  1
CONTENTFORMAT_BEGIN
 90
        0
 91
        0
 92
        4
 93
        0
300

 40
0.0
140
1.0
 94
        5
 62
     0
340
17
144
6.0
309
CONTENTFORMAT_END
171
     1
301
MARGIN
  1
CELLMARGIN_BEGIN
 40
0.06
 40
0.06
 40
0.06
 40
0.06
 40
0.18
 40
0.18
309
CELLMARGIN_END
 94
        6
 95
        1
302
GRIDFORMAT
  1
GRIDFORMAT_BEGIN
 90
        0
 91
        1
 62
     0
 92
       -2
340
0
 93
        0
 40
0.045
309
GRIDFORMAT_END
 95
        2
302
GRIDFORMAT
  1
GRIDFORMAT_BEGIN
 90
        0
 91
        1
 62
     0
 92
       -2
340
0
 93
        0
 40
0.045
309
GRIDFORMAT_END
 95
        4
302
GRIDFORMAT
  1
GRIDFORMAT_BEGIN
 90
        0
 91
        1
 62
     0
 92
       -2
340
0
 93
        0
 40
0.045
309
GRIDFORMAT_END
 95
        8
302
GRIDFORMAT
  1
GRIDFORMAT_BEGIN
 90
        0
 91
        1
 62
     0
 92
       -2
340
0
 93
        0
 40
0.045
309
GRIDFORMAT_END
 95
       16
302
GRIDFORMAT
  1
GRIDFORMAT_BEGIN
 90
        0
 91
        1
 62
     0
 92
       -2
340
0
 93
        0
 40
0.045
309
GRIDFORMAT_END
 95
       32
302
GRIDFORMAT
  1
GRIDFORMAT_BEGIN
 90
        0
 91
        1
 62
     0
 92
       -2
340
0
 93
        0
 40
0.045
309
GRIDFORMAT_END
309
TABLEFORMAT_END
  1
CELLSTYLE_BEGIN
 90
        1
 91
        1
300
_TITLE
309
CELLSTYLE_END
300
CELLSTYLE
  1
TABLEFORMAT_BEGIN
 90
        5
170
     1
 91
        0
 92
        0
 62
   257
 93
        1
300
CONTENTFORMAT
  1
CONTENTFORMAT_BEGIN
 90
        0
 91
        0
 92
        4
 93
        0
300

 40
0.0
140
1.0
 94
        5
 62
     0
340
17
144
4.5
309
CONTENTFORMAT_END
171
     1
301
MARGIN
  1
CELLMARGIN_BEGIN
 40
0.06
 40
0.06
 40
0.06
 40
0.06
 40
0.18
 40
0.18
309
CELLMARGIN_END
 94
        6
 95
        1
302
GRIDFORMAT
  1
GRIDFORMAT_BEGIN
 90
        0
 91
        1
 62
     0
 92
       -2
340
0
 93
        0
 40
0.045
309
GRIDFORMAT_END
 95
        2
302
GRIDFORMAT
  1
GRIDFORMAT_BEGIN
 90
        0
 91
        1
 62
     0
 92
       -2
340
0
 93
        0
 40
0.045
309
GRIDFORMAT_END
 95
        4
302
GRIDFORMAT
  1
GRIDFORMAT_BEGIN
 90
        0
 91
        1
 62
     0
 92
       -2
340
0
 93
        0
 40
0.045
309
GRIDFORMAT_END
 95
        8
302
GRIDFORMAT
  1
GRIDFORMAT_BEGIN
 90
        0
 91
        1
 62
     0
 92
       -2
340
0
 93
        0
 40
0.045
309
GRIDFORMAT_END
 95
       16
302
GRIDFORMAT
  1
GRIDFORMAT_BEGIN
 90
        0
 91
        1
 62
     0
 92
       -2
340
0
 93
        0
 40
0.045
309
GRIDFORMAT_END
 95
       32
302
GRIDFORMAT
  1
GRIDFORMAT_BEGIN
 90
        0
 91
        1
 62
     0
 92
       -2
340
0
 93
        0
 40
0.045
309
GRIDFORMAT_END
309
TABLEFORMAT_END
  1
CELLSTYLE_BEGIN
 90
        2
 91
        1
300
_HEADER
309
CELLSTYLE_END
300
CELLSTYLE
  1
TABLEFORMAT_BEGIN
 90
        5
170
     1
 91
        0
 92
        0
 62
   257
 93
        1
300
CONTENTFORMAT
  1
CONTENTFORMAT_BEGIN
 90
        0
 91
        0
 92
        4
 93
        0
300

 40
0.0
140
1.0
 94
        2
 62
     0
340
17
144
4.5
309
CONTENTFORMAT_END
171
     1
301
MARGIN
  1
CELLMARGIN_BEGIN
 40
0.06
 40
0.06
 40
0.06
 40
0.06
 40
0.18
 40
0.18
309
CELLMARGIN_END
 94
        6
 95
        1
302
GRIDFORMAT
  1
GRIDFORMAT_BEGIN
 90
        0
 91
        1
 62
     0
 92
       -2
340
0
 93
        0
 40
0.045
309
GRIDFORMAT_END
 95
        2
302
GRIDFORMAT
  1
GRIDFORMAT_BEGIN
 90
        0
 91
        1
 62
     0
 92
       -2
340
0
 93
        0
 40
0.045
309
GRIDFORMAT_END
 95
        4
302
GRIDFORMAT
  1
GRIDFORMAT_BEGIN
 90
        0
 91
        1
 62
     0
 92
       -2
340
0
 93
        0
 40
0.045
309
GRIDFORMAT_END
 95
        8
302
GRIDFORMAT
  1
GRIDFORMAT_BEGIN
 90
        0
 91
        1
 62
     0
 92
       -2
340
0
 93
        0
 40
0.045
309
GRIDFORMAT_END
 95
       16
302
GRIDFORMAT
  1
GRIDFORMAT_BEGIN
 90
        0
 91
        1
 62
     0
 92
       -2
340
0
 93
        0
 40
0.045
309
GRIDFORMAT_END
 95
       32
302
GRIDFORMAT
  1
GRIDFORMAT_BEGIN
 90
        0
 91
        1
 62
     0
 92
       -2
340
0
 93
        0
 40
0.045
309
GRIDFORMAT_END
309
TABLEFORMAT_END
  1
CELLSTYLE_BEGIN
 90
        3
 91
        2
300
_DATA
309
CELLSTYLE_END
  0
ENDSEC
  0
EOF
