  0
SECTION
  2
HEADER
  9
$ACADVER
  1
AC1021
  9
$ACADMAINTVER
 70
    25
  9
$DWGCODEPAGE
  3
ANSI_932
  9
$LASTSAVEDBY
  1
tform
  9
$INSBASE
 10
0.0
 20
0.0
 30
0.0
  9
$EXTMIN
 10
0.0
 20
0.0
 30
-0.0000000000000071
  9
$EXTMAX
 10
1680.0
 20
2376.0
 30
0.0000000000000071
  9
$LIMMIN
 10
0.0
 20
0.0
  9
$LIMMAX
 10
1680.0
 20
2376.0
  9
$ORTHOMODE
 70
     1
  9
$REGENMODE
 70
     1
  9
$FILLMODE
 70
     1
  9
$QTEXTMODE
 70
     0
  9
$MIRRTEXT
 70
     1
  9
$LTSCALE
 40
4.0
  9
$ATTMODE
 70
     1
  9
$TEXTSIZE
 40
2.5
  9
$TRACEWID
 40
1.0
  9
$TEXTSTYLE
  7
ＭＳ ゴシック
  9
$CLAYER
  8
0
  9
$CELTYPE
  6
ByLayer
  9
$CECOLOR
 62
   256
  9
$CELTSCALE
 40
1.0
  9
$DISPSILH
 70
     0
  9
$DIMSCALE
 40
1.0
  9
$DIMASZ
 40
8.0
  9
$DIMEXO
 40
5.0
  9
$DIMDLI
 40
0.9999999999999999
  9
$DIMRND
 40
0.0
  9
$DIMDLE
 40
0.0
  9
$DIMEXE
 40
0.0
  9
$DIMTP
 40
0.0
  9
$DIMTM
 40
0.0
  9
$DIMTXT
 40
20.0
  9
$DIMCEN
 40
0.0
  9
$DIMTSZ
 40
0.0
  9
$DIMTOL
 70
     0
  9
$DIMLIM
 70
     0
  9
$DIMTIH
 70
     0
  9
$DIMTOH
 70
     0
  9
$DIMSE1
 70
     0
  9
$DIMSE2
 70
     0
  9
$DIMTAD
 70
     1
  9
$DIMZIN
 70
    11
  9
$DIMBLK
  1
DOT
  9
$DIMASO
 70
     1
  9
$DIMSHO
 70
     1
  9
$DIMPOST
  1
<>
  9
$DIMAPOST
  1
[]
  9
$DIMALT
 70
     0
  9
$DIMALTD
 70
     1
  9
$DIMALTF
 40
1.0
  9
$DIMLFAC
 40
1.0
  9
$DIMTOFL
 70
     0
  9
$DIMTVP
 40
0.0
  9
$DIMTIX
 70
     1
  9
$DIMSOXD
 70
     0
  9
$DIMSAH
 70
     0
  9
$DIMBLK1
  1

  9
$DIMBLK2
  1

  9
$DIMSTYLE
  2
tfrom線あり
  9
$DIMCLRD
 70
     0
  9
$DIMCLRE
 70
     0
  9
$DIMCLRT
 70
     0
  9
$DIMTFAC
 40
1.0
  9
$DIMGAP
 40
16.0
  9
$DIMJUST
 70
     0
  9
$DIMSD1
 70
     0
  9
$DIMSD2
 70
     0
  9
$DIMTOLJ
 70
     1
  9
$DIMTZIN
 70
    11
  9
$DIMALTZ
 70
    11
  9
$DIMALTTZ
 70
    11
  9
$DIMUPT
 70
     0
  9
$DIMDEC
 70
     0
  9
$DIMTDEC
 70
     1
  9
$DIMALTU
 70
     2
  9
$DIMALTTD
 70
     2
  9
$DIMTXSTY
  7
ＭＳ ゴシック
  9
$DIMAUNIT
 70
     0
  9
$DIMADEC
 70
     2
  9
$DIMALTRND
 40
0.0
  9
$DIMAZIN
 70
     0
  9
$DIMDSEP
 70
    46
  9
$DIMATFIT
 70
     0
  9
$DIMFRAC
 70
     2
  9
$DIMLDRBLK
  1
DOT
  9
$DIMLUNIT
 70
     2
  9
$DIMLWD
 70
    -2
  9
$DIMLWE
 70
    -2
  9
$DIMTMOVE
 70
     0
  9
$DIMFXL
 40
1.0
  9
$DIMFXLON
 70
     0
  9
$DIMJOGANG
 40
0.7853981633974483
  9
$DIMTFILL
 70
     0
  9
$DIMTFILLCLR
 70
     0
  9
$DIMARCSYM
 70
     0
  9
$DIMLTYPE
  6

  9
$DIMLTEX1
  6

  9
$DIMLTEX2
  6

  9
$LUNITS
 70
     2
  9
$LUPREC
 70
     0
  9
$SKETCHINC
 40
0.1
  9
$FILLETRAD
 40
0.0
  9
$AUNITS
 70
     0
  9
$AUPREC
 70
     0
  9
$MENU
  1
acad
  9
$ELEVATION
 40
0.0
  9
$PELEVATION
 40
0.0
  9
$THICKNESS
 40
0.0
  9
$LIMCHECK
 70
     0
  9
$CHAMFERA
 40
0.0
  9
$CHAMFERB
 40
0.0
  9
$CHAMFERC
 40
0.0
  9
$CHAMFERD
 40
0.0
  9
$SKPOLY
 70
     0
  9
$TDCREATE
 40
2447893.375
  9
$TDUCREATE
 40
0.0
  9
$TDUPDATE
 40
2460335.623630486
  9
$TDUUPDATE
 40
2460335.248630486
  9
$TDINDWG
 40
0.1578527778
  9
$TDUSRTIMER
 40
0.0568392708
  9
$USRTIMER
 70
     1
  9
$ANGBASE
 50
0.0
  9
$ANGDIR
 70
     0
  9
$PDMODE
 70
     1
  9
$PDSIZE
 40
-2.0
  9
$PLINEWID
 40
0.0
  9
$SPLFRAME
 70
     0
  9
$SPLINETYPE
 70
     6
  9
$SPLINESEGS
 70
     8
  9
$HANDSEED
  5
7964
  9
$SURFTAB1
 70
     6
  9
$SURFTAB2
 70
     6
  9
$SURFTYPE
 70
     6
  9
$SURFU
 70
     6
  9
$SURFV
 70
     6
  9
$UCSBASE
  2

  9
$UCSNAME
  2

  9
$UCSORG
 10
0.0
 20
0.0
 30
0.0
  9
$UCSXDIR
 10
1.0
 20
0.0
 30
0.0
  9
$UCSYDIR
 10
0.0
 20
1.0
 30
0.0
  9
$UCSORTHOREF
  2

  9
$UCSORTHOVIEW
 70
     0
  9
$UCSORGTOP
 10
0.0
 20
0.0
 30
0.0
  9
$UCSORGBOTTOM
 10
0.0
 20
0.0
 30
0.0
  9
$UCSORGLEFT
 10
0.0
 20
0.0
 30
0.0
  9
$UCSORGRIGHT
 10
0.0
 20
0.0
 30
0.0
  9
$UCSORGFRONT
 10
0.0
 20
0.0
 30
0.0
  9
$UCSORGBACK
 10
0.0
 20
0.0
 30
0.0
  9
$PUCSBASE
  2

  9
$PUCSNAME
  2

  9
$PUCSORG
 10
0.0
 20
0.0
 30
0.0
  9
$PUCSXDIR
 10
1.0
 20
0.0
 30
0.0
  9
$PUCSYDIR
 10
0.0
 20
1.0
 30
0.0
  9
$PUCSORTHOREF
  2

  9
$PUCSORTHOVIEW
 70
     0
  9
$PUCSORGTOP
 10
0.0
 20
0.0
 30
0.0
  9
$PUCSORGBOTTOM
 10
0.0
 20
0.0
 30
0.0
  9
$PUCSORGLEFT
 10
0.0
 20
0.0
 30
0.0
  9
$PUCSORGRIGHT
 10
0.0
 20
0.0
 30
0.0
  9
$PUCSORGFRONT
 10
0.0
 20
0.0
 30
0.0
  9
$PUCSORGBACK
 10
0.0
 20
0.0
 30
0.0
  9
$USERI1
 70
     0
  9
$USERI2
 70
     0
  9
$USERI3
 70
     0
  9
$USERI4
 70
     0
  9
$USERI5
 70
     0
  9
$USERR1
 40
0.0
  9
$USERR2
 40
0.0
  9
$USERR3
 40
0.0
  9
$USERR4
 40
0.0
  9
$USERR5
 40
0.0
  9
$WORLDVIEW
 70
     1
  9
$SHADEDGE
 70
     3
  9
$SHADEDIF
 70
    70
  9
$TILEMODE
 70
     1
  9
$MAXACTVP
 70
    64
  9
$PINSBASE
 10
0.0
 20
0.0
 30
0.0
  9
$PLIMCHECK
 70
     0
  9
$PEXTMIN
 10
0.0
 20
0.0
 30
0.0
  9
$PEXTMAX
 10
0.0
 20
0.0
 30
0.0
  9
$PLIMMIN
 10
-7.5
 20
-20.0
  9
$PLIMMAX
 10
412.5
 20
277.0
  9
$UNITMODE
 70
     0
  9
$VISRETAIN
 70
     0
  9
$PLINEGEN
 70
     1
  9
$PSLTSCALE
 70
     0
  9
$TREEDEPTH
 70
  3020
  9
$CMLSTYLE
  2
Standard
  9
$CMLJUST
 70
     0
  9
$CMLSCALE
 40
1.0
  9
$PROXYGRAPHICS
 70
     0
  9
$MEASUREMENT
 70
     1
  9
$CELWEIGHT
370
    -1
  9
$ENDCAPS
280
     0
  9
$JOINSTYLE
280
     0
  9
$LWDISPLAY
290
     1
  9
$INSUNITS
 70
     4
  9
$HYPERLINKBASE
  1

  9
$STYLESHEET
  1

  9
$XEDIT
290
     1
  9
$CEPSNTYPE
380
     0
  9
$PSTYLEMODE
290
     1
  9
$FINGERPRINTGUID
  2

  9
$VERSIONGUID
  2

  9
$EXTNAMES
290
     1
  9
$PSVPSCALE
 40
0.0
  9
$OLESTARTUP
290
     0
  9
$SORTENTS
280
   127
  9
$INDEXCTL
280
     0
  9
$HIDETEXT
280
     1
  9
$XCLIPFRAME
290
     0
  9
$HALOGAP
280
     0
  9
$OBSCOLOR
 70
   257
  9
$OBSLTYPE
280
     0
  9
$INTERSECTIONDISPLAY
280
     0
  9
$INTERSECTIONCOLOR
 70
   257
  9
$DIMASSOC
280
     2
  9
$PROJECTNAME
  1

  9
$CAMERADISPLAY
290
     0
  9
$LENSLENGTH
 40
50.0
  9
$CAMERAHEIGHT
 40
0.0
  9
$STEPSPERSEC
 40
2.0
  9
$STEPSIZE
 40
6.0
  9
$3DDWFPREC
 40
2.0
  9
$PSOLWIDTH
 40
0.25
  9
$PSOLHEIGHT
 40
4.0
  9
$LOFTANG1
 40
1.570796326794897
  9
$LOFTANG2
 40
1.570796326794897
  9
$LOFTMAG1
 40
0.0
  9
$LOFTMAG2
 40
0.0
  9
$LOFTPARAM
 70
     7
  9
$LOFTNORMALS
280
     1
  9
$LATITUDE
 40
37.795
  9
$LONGITUDE
 40
-122.394
  9
$NORTHDIRECTION
 40
0.0
  9
$TIMEZONE
 70
 -8000
  9
$LIGHTGLYPHDISPLAY
280
     1
  9
$TILEMODELIGHTSYNCH
280
     1
  9
$SOLIDHIST
280
     1
  9
$SHOWHIST
280
     1
  9
$DWFFRAME
280
     2
  9
$DGNFRAME
280
     2
  9
$REALWORLDSCALE
290
     1
  9
$INTERFERECOLOR
 62
   256
  9
$CSHADOW
280
     0
  9
$SHADOWPLANELOCATION
 40
0.0
  0
ENDSEC
  0
SECTION
  2
CLASSES
  0
CLASS
  1
LWPOLYLINE
  2
AcDbPolyline
  3
ObjectDBX Classes
 90
        0
 91
        1
280
     0
281
     1
  0
CLASS
  1
IMAGE
  2
AcDbRasterImage
  3
ISM
 90
      127
 91
        4
280
     0
281
     1
  0
CLASS
  1
OLE2FRAME
  2
AcDbOle2Frame
  3
ObjectDBX Classes
 90
        0
 91
        1
280
     0
281
     1
  0
CLASS
  1
HATCH
  2
AcDbHatch
  3
ObjectDBX Classes
 90
        0
 91
        1
280
     0
281
     1
  0
CLASS
  1
DICTIONARYVAR
  2
AcDbDictionaryVar
  3
ObjectDBX Classes
 90
        0
 91
        3
280
     0
281
     0
  0
CLASS
  1
RASTERVARIABLES
  2
AcDbRasterVariables
  3
ISM
 90
        0
 91
        3
280
     0
281
     0
  0
CLASS
  1
IMAGEDEF
  2
AcDbRasterImageDef
  3
ISM
 90
        0
 91
        3
280
     0
281
     0
  0
CLASS
  1
IMAGEDEF_REACTOR
  2
AcDbRasterImageDefReactor
  3
ISM
 90
        1
 91
        3
280
     0
281
     0
  0
CLASS
  1
IDBUFFER
  2
AcDbIdBuffer
  3
ObjectDBX Classes
 90
        0
 91
        3
280
     0
281
     0
  0
CLASS
  1
SPATIAL_FILTER
  2
AcDbSpatialFilter
  3
ObjectDBX Classes
 90
        0
 91
        3
280
     0
281
     0
  0
CLASS
  1
XRECORD
  2
AcDbXrecord
  3
ObjectDBX Classes
 90
        0
 91
        1
280
     0
281
     0
  0
CLASS
  1
SORTENTSTABLE
  2
AcDbSortentsTable
  3
ObjectDBX Classes
 90
        0
 91
        3
280
     0
281
     0
  0
CLASS
  1
LAYER_INDEX
  2
AcDbLayerIndex
  3
ObjectDBX Classes
 90
        0
 91
        3
280
     0
281
     0
  0
CLASS
  1
SPATIAL_INDEX
  2
AcDbSpatialIndex
  3
AutoCAD 2000
 90
        0
 91
        3
280
     0
281
     0
  0
CLASS
  1
OBJECT_PTR
  2
CAseDLPNTableRecord
  3
ASE-LPNTableRecord
 90
        1
 91
        3
280
     0
281
     0
  0
CLASS
  1
LAYOUT
  2
AcDbLayout
  3
ObjectDBX Classes
 90
        0
 91
        1
280
     0
281
     0
  0
CLASS
  1
PLOTSETTINGS
  2
AcDbPlotSettings
  3
ObjectDBX Classes
 90
        0
 91
        3
280
     0
281
     0
  0
CLASS
  1
ACDBDICTIONARYWDFLT
  2
AcDbDictionaryWithDefault
  3
ObjectDBX Classes
 90
        0
 91
        3
280
     0
281
     0
  0
CLASS
  1
ACDBPLACEHOLDER
  2
AcDbPlaceHolder
  3
ObjectDBX Classes
 90
        0
 91
        1
280
     0
281
     0
  0
CLASS
  1
SCALE
  2
AcDbScale
  3
ObjectDBX Classes
 90
     1153
 91
        3
280
     0
281
     0
  0
CLASS
  1
MATERIAL
  2
AcDbMaterial
  3
ObjectDBX Classes
 90
     1153
 91
        3
280
     0
281
     0
  0
CLASS
  1
VISUALSTYLE
  2
AcDbVisualStyle
  3
ObjectDBX Classes
 90
     4095
 91
        3
280
     0
281
     0
  0
CLASS
  1
TABLESTYLE
  2
AcDbTableStyle
  3
ObjectDBX Classes
 90
     4095
 91
        3
280
     0
281
     0
  0
CLASS
  1
DIMASSOC
  2
AcDbDimAssoc
  3
"AcDbDimAssoc|Product Desc:     AcDim ARX App For Dimension|Company:          Autodesk, Inc.|WEB Address:      www.autodesk.com"
 90
        0
 91
        3
280
     0
281
     0
  0
CLASS
  1
CELLSTYLEMAP
  2
AcDbCellStyleMap
  3
ObjectDBX Classes
 90
     1152
 91
        3
280
     0
281
     0
  0
CLASS
  1
SUN
  2
AcDbSun
  3
SCENEOE
 90
     1153
 91
        3
280
     0
281
     0
  0
CLASS
  1
MLEADERSTYLE
  2
AcDbMLeaderStyle
  3
ACDB_MLEADERSTYLE_CLASS
 90
     4095
 91
        3
280
     0
281
     0
  0
CLASS
  1
FIELD
  2
AcDbField
  3
ObjectDBX Classes
 90
     1152
 91
        3
280
     0
281
     0
  0
CLASS
  1
FIELDLIST
  2
AcDbFieldList
  3
ObjectDBX Classes
 90
     1152
 91
        3
280
     0
281
     0
  0
ENDSEC
  0
SECTION
  2
TABLES
  0
TABLE
  2
VPORT
  5
7
330
0
100
AcDbSymbolTable
 70
     1
  0
VPORT
  5
15
330
7
100
AcDbSymbolTableRecord
100
AcDbViewportTableRecord
  2
*ACTIVE
 70
     0
 10
0.0
 20
0.0
 11
1.0
 21
1.0
 12
931.0201356709008
 22
1114.401285469834
 13
0.0
 23
0.0
 14
1.0
 24
1.0
 15
0.0
 25
0.0
 16
0.0
 26
0.0
 36
1.0
 17
-91.0201356709008
 27
73.59871453016603
 37
-46.86809886248109
 40
2423.52
 41
2.136546184738956
 42
50.0
 43
0.0
 44
0.0
 50
0.0
 51
0.0
 71
    16
 72
  2000
 73
     1
 74
     1
 75
     0
 76
     0
 77
     0
 78
     0
281
     0
 65
     1
110
0.0
120
0.0
130
0.0
111
1.0
121
0.0
131
0.0
112
0.0
122
1.0
132
0.0
 79
     0
146
0.0
348
26C
 60
     3
 61
     5
292
     1
282
     1
141
0.0
142
0.0
 63
   256
361
904
  0
ENDTAB
  0
TABLE
  2
LTYPE
  5
4
330
0
100
AcDbSymbolTable
 70
     3
  0
LTYPE
  5
11
330
4
100
AcDbSymbolTableRecord
100
AcDbLinetypeTableRecord
  2
ByBlock
 70
     0
  3

 72
    65
 73
     0
 40
0.0
  0
LTYPE
  5
12
330
4
100
AcDbSymbolTableRecord
100
AcDbLinetypeTableRecord
  2
ByLayer
 70
     0
  3

 72
    65
 73
     0
 40
0.0
  0
LTYPE
  5
13
330
4
100
AcDbSymbolTableRecord
100
AcDbLinetypeTableRecord
  2
Continuous
 70
     0
  3
Solid line
 72
    65
 73
     0
 40
0.0
  0
LTYPE
  5
D6C
330
4
100
AcDbSymbolTableRecord
100
AcDbLinetypeTableRecord
  2
BORDER
 70
     0
  3
Border __  __  . __  __  . __  __  . __  __  . 
 72
    65
 73
     6
 40
44.45
 49
12.7
 74
     0
 49
-6.35
 74
     0
 49
12.7
 74
     0
 49
-6.35
 74
     0
 49
0.0
 74
     0
 49
-6.35
 74
     0
  0
LTYPE
  5
D6D
330
4
100
AcDbSymbolTableRecord
100
AcDbLinetypeTableRecord
  2
HIDDEN
 70
     0
  3
Hidden _ _ _ _ _ _ _ _ _ _ _ _ _ _ _ _ _ _ _ _ 
 72
    65
 73
     2
 40
9.524999999999999
 49
6.35
 74
     0
 49
-3.175
 74
     0
  0
ENDTAB
  0
TABLE
  2
LAYER
  5
2
102
{ACAD_XDICTIONARY
360
2E1
102
}
330
0
100
AcDbSymbolTable
 70
     9
  0
LAYER
  5
14
330
2
100
AcDbSymbolTableRecord
100
AcDbLayerTableRecord
  2
0
 70
     0
 62
     7
  6
Continuous
370
    -3
390
1D
347
266
  0
LAYER
  5
4B
330
2
100
AcDbSymbolTableRecord
100
AcDbLayerTableRecord
  2
TEMPLATE
 70
     0
 62
     7
  6
Continuous
370
    20
390
1D
347
266
  0
LAYER
  5
4C
330
2
100
AcDbSymbolTableRecord
100
AcDbLayerTableRecord
  2
DIM
 70
     0
 62
     3
  6
Continuous
370
    13
390
1D
347
266
  0
LAYER
  5
4D
330
2
100
AcDbSymbolTableRecord
100
AcDbLayerTableRecord
  2
MODEL
 70
     0
 62
     7
  6
Continuous
370
    20
390
1D
347
266
  0
LAYER
  5
88C
330
2
100
AcDbSymbolTableRecord
100
AcDbLayerTableRecord
  2
HIDDEN
 70
     0
 62
     8
  6
HIDDEN
370
    20
390
1D
347
266
1001
AcAecLayerStandard
1000

1000

  0
LAYER
  5
D6B
330
2
100
AcDbSymbolTableRecord
100
AcDbLayerTableRecord
  2
BORDER
 70
     0
 62
     4
  6
BORDER
290
     0
370
    20
390
1D
347
266
1001
AcAecLayerStandard
1000

1000

  0
LAYER
  5
D8C
330
2
100
AcDbSymbolTableRecord
100
AcDbLayerTableRecord
  2
Defpoints
 70
     0
 62
     7
  6
Continuous
290
     0
370
    -3
390
1D
347
266
  0
LAYER
  5
3653
330
2
100
AcDbSymbolTableRecord
100
AcDbLayerTableRecord
  2
Standard
 70
     0
 62
     7
  6
Continuous
370
    -3
390
1D
347
266
  0
LAYER
  5
42BD
330
2
100
AcDbSymbolTableRecord
100
AcDbLayerTableRecord
  2
レイヤー 1
 70
     0
 62
     7
  6
Continuous
370
    -3
390
1D
347
266
  0
ENDTAB
  0
TABLE
  2
STYLE
  5
3
330
0
100
AcDbSymbolTable
 70
     2
  0
STYLE
  5
17
330
3
100
AcDbSymbolTableRecord
100
AcDbTextStyleTableRecord
  2
Standard
 70
     0
 40
0.0
 41
1.0
 50
0.0
 71
     0
 42
2.5
  3
txt
  4
BIGFONT.SHX
  0
STYLE
  5
39
330
3
100
AcDbSymbolTableRecord
100
AcDbTextStyleTableRecord
  2
ＭＳ ゴシック
 70
     0
 40
0.0
 41
1.0
 50
0.0
 71
     0
 42
2.5
  3
msgothic.ttc
  4
ＭＳ ゴシック
1001
ACAD
1000
ＭＳ ゴシック
1071
        0
  0
ENDTAB
  0
TABLE
  2
VIEW
  5
5
330
0
100
AcDbSymbolTable
 70
     0
  0
ENDTAB
  0
TABLE
  2
UCS
  5
6
330
0
100
AcDbSymbolTable
 70
     0
  0
ENDTAB
  0
TABLE
  2
APPID
  5
8
330
0
100
AcDbSymbolTable
 70
     8
  0
APPID
  5
16
330
8
100
AcDbSymbolTableRecord
100
AcDbRegAppTableRecord
  2
ACAD
 70
     0
  0
APPID
  5
7AC
330
8
100
AcDbSymbolTableRecord
100
AcDbRegAppTableRecord
  2
AcAecLayerStandard
 70
     0
  0
APPID
  5
E29
330
8
100
AcDbSymbolTableRecord
100
AcDbRegAppTableRecord
  2
ACAD_MLEADERVER
 70
     0
  0
APPID
  5
3E5E
330
8
100
AcDbSymbolTableRecord
100
AcDbRegAppTableRecord
  2
ACAD_DSTYLE_DIMJAG
 70
     0
  0
APPID
  5
3E5F
330
8
100
AcDbSymbolTableRecord
100
AcDbRegAppTableRecord
  2
ACAD_DSTYLE_DIMBREAK
 70
     0
  0
APPID
  5
3E60
330
8
100
AcDbSymbolTableRecord
100
AcDbRegAppTableRecord
  2
ACAD_PSEXT
 70
     0
  0
APPID
  5
3E61
330
8
100
AcDbSymbolTableRecord
100
AcDbRegAppTableRecord
  2
ACAD_NAV_VCDISPLAY
 70
     0
  0
APPID
  5
7960
330
8
100
AcDbSymbolTableRecord
100
AcDbRegAppTableRecord
  2
PLOTTRANSPARENCY
 70
     0
  0
ENDTAB
  0
TABLE
  2
DIMSTYLE
  5
9
330
0
100
AcDbSymbolTable
 70
     3
100
AcDbDimStyleTable
  0
DIMSTYLE
105
18
330
9
100
AcDbSymbolTableRecord
100
AcDbDimStyleTableRecord
  2
Standard
 70
     0
178
     0
340
17
  0
DIMSTYLE
105
57
102
{ACAD_REACTORS
330
78FF
330
790F
330
7941
330
7950
102
}
330
9
100
AcDbSymbolTableRecord
100
AcDbDimStyleTableRecord
  2
tfrom線あり
 70
     0
  3
<>
  4
[]
 41
8.0
 42
5.0
 43
0.9999999999999999
 44
0.0
 73
     0
 74
     0
 77
     1
 78
    11
140
20.0
141
0.0
143
1.0
147
16.0
171
     1
174
     1
178
     0
179
     2
271
     0
272
     1
276
     2
284
    11
285
    11
286
    11
289
     0
340
39
341
4E
342
4E
  0
DIMSTYLE
105
3E5C
330
9
100
AcDbSymbolTableRecord
100
AcDbDimStyleTableRecord
  2
AM_DIN
 70
     0
  4
"
 41
3.5
 42
1.0
 43
10.0
 44
1.0
 47
0.1
 48
0.1
 50
89.99999999999996
 73
     0
 74
     0
 77
     1
 78
     8
 79
     2
140
3.5
141
0.0
143
0.0393701
146
0.71
147
1.5
172
     1
176
   256
177
   256
271
     2
178
     2
271
     2
272
     3
274
     4
283
     0
284
     8
340
17
371
    -1
372
    -1
345
11
346
11
347
11
1001
ACAD_DSTYLE_DIMJAG
1070
   388
1040
1.5
1001
ACAD_DSTYLE_DIMBREAK
1070
   391
1040
3.75
  0
ENDTAB
  0
TABLE
  2
BLOCK_RECORD
  5
1
330
0
100
AcDbSymbolTable
 70
    30
  0
BLOCK_RECORD
  5
A
102
{ACAD_XDICTIONARY
360
3E3E
102
}
330
1
100
AcDbSymbolTableRecord
100
AcDbBlockTableRecord
  2
*MODEL_SPACE
340
20
 70
     0
280
     1
281
     0
  0
BLOCK_RECORD
  5
B
330
1
100
AcDbSymbolTableRecord
100
AcDbBlockTableRecord
  2
*PAPER_SPACE
340
21
 70
     0
280
     1
281
     0
  0
BLOCK_RECORD
  5
4E
330
1
100
AcDbSymbolTableRecord
100
AcDbBlockTableRecord
  2
_DOT
340
0
102
{BLKREFS
331
3E2C
331
3E2D
331
3E38
331
3E39
331
4275
331
4276
331
4284
331
4285
331
4293
331
4294
331
42A0
331
42A1
331
42AF
331
42B0
331
681A
331
681B
331
682D
331
682E
331
683A
331
683B
331
684B
331
684C
331
685B
331
685C
331
6868
331
6869
331
6C09
331
6C0A
331
7909
331
0
331
0
331
7908
331
7919
331
7918
331
7928
331
7927
331
794B
331
794A
331
795A
331
7959
102
}
 70
     0
280
     1
281
     0
  0
BLOCK_RECORD
  5
68D
330
1
100
AcDbSymbolTableRecord
100
AcDbBlockTableRecord
  2
block 2
340
0
102
{BLKREFS
331
68C
331
1343
331
5189
102
}
 70
     0
280
     1
281
     0
  0
BLOCK_RECORD
  5
3E26
330
1
100
AcDbSymbolTableRecord
100
AcDbBlockTableRecord
  2
*D2
340
0
 70
     0
280
     1
281
     0
  0
BLOCK_RECORD
  5
3E32
330
1
100
AcDbSymbolTableRecord
100
AcDbBlockTableRecord
  2
*D3
340
0
 70
     0
280
     1
281
     0
  0
BLOCK_RECORD
  5
3E88
330
1
100
AcDbSymbolTableRecord
100
AcDbBlockTableRecord
  2
812343s
340
0
 70
     4
280
     1
281
     0
1001
ACAD
1000
DesignCenter Data
1002
{
1070
     1
1070
     4
1002
}
  0
BLOCK_RECORD
  5
3EFC
330
1
100
AcDbSymbolTableRecord
100
AcDbBlockTableRecord
  2
812343d
340
0
 70
     4
280
     1
281
     0
1001
ACAD
1000
DesignCenter Data
1002
{
1070
     1
1070
     4
1002
}
  0
BLOCK_RECORD
  5
426F
330
1
100
AcDbSymbolTableRecord
100
AcDbBlockTableRecord
  2
*D6
340
0
 70
     0
280
     1
281
     0
  0
BLOCK_RECORD
  5
427E
330
1
100
AcDbSymbolTableRecord
100
AcDbBlockTableRecord
  2
*D7
340
0
 70
     0
280
     1
281
     0
  0
BLOCK_RECORD
  5
428D
330
1
100
AcDbSymbolTableRecord
100
AcDbBlockTableRecord
  2
*D8
340
0
 70
     0
280
     1
281
     0
  0
BLOCK_RECORD
  5
429A
330
1
100
AcDbSymbolTableRecord
100
AcDbBlockTableRecord
  2
*D9
340
0
 70
     0
280
     1
281
     0
  0
BLOCK_RECORD
  5
42A9
330
1
100
AcDbSymbolTableRecord
100
AcDbBlockTableRecord
  2
*D10
340
0
 70
     0
280
     1
281
     0
  0
BLOCK_RECORD
  5
4E0B
330
1
100
AcDbSymbolTableRecord
100
AcDbBlockTableRecord
  2
block 3
340
0
 70
     0
280
     1
281
     0
  0
BLOCK_RECORD
  5
4E31
330
1
100
AcDbSymbolTableRecord
100
AcDbBlockTableRecord
  2
block 4
340
0
 70
     0
280
     1
281
     0
  0
BLOCK_RECORD
  5
4E57
330
1
100
AcDbSymbolTableRecord
100
AcDbBlockTableRecord
  2
block 5
340
0
 70
     0
280
     1
281
     0
  0
BLOCK_RECORD
  5
4E7D
330
1
100
AcDbSymbolTableRecord
100
AcDbBlockTableRecord
  2
block 6
340
0
 70
     0
280
     1
281
     0
  0
BLOCK_RECORD
  5
4EA3
330
1
100
AcDbSymbolTableRecord
100
AcDbBlockTableRecord
  2
block 7
340
0
 70
     0
280
     1
281
     0
  0
BLOCK_RECORD
  5
4EC9
330
1
100
AcDbSymbolTableRecord
100
AcDbBlockTableRecord
  2
block 8
340
0
 70
     0
280
     1
281
     0
  0
BLOCK_RECORD
  5
4EEF
330
1
100
AcDbSymbolTableRecord
100
AcDbBlockTableRecord
  2
block 9
340
0
 70
     0
280
     1
281
     0
  0
BLOCK_RECORD
  5
6814
330
1
100
AcDbSymbolTableRecord
100
AcDbBlockTableRecord
  2
*D18
340
0
 70
     0
280
     1
281
     0
  0
BLOCK_RECORD
  5
6827
330
1
100
AcDbSymbolTableRecord
100
AcDbBlockTableRecord
  2
*D19
340
0
 70
     0
280
     1
281
     0
  0
BLOCK_RECORD
  5
6834
330
1
100
AcDbSymbolTableRecord
100
AcDbBlockTableRecord
  2
*D20
340
0
 70
     0
280
     1
281
     0
  0
BLOCK_RECORD
  5
6845
330
1
100
AcDbSymbolTableRecord
100
AcDbBlockTableRecord
  2
*D21
340
0
 70
     0
280
     1
281
     0
  0
BLOCK_RECORD
  5
6855
330
1
100
AcDbSymbolTableRecord
100
AcDbBlockTableRecord
  2
*D22
340
0
 70
     0
280
     1
281
     0
  0
BLOCK_RECORD
  5
6862
330
1
100
AcDbSymbolTableRecord
100
AcDbBlockTableRecord
  2
*D23
340
0
 70
     0
280
     1
281
     0
  0
BLOCK_RECORD
  5
6C03
330
1
100
AcDbSymbolTableRecord
100
AcDbBlockTableRecord
  2
*D24
340
0
 70
     0
280
     1
281
     0
  0
BLOCK_RECORD
  5
7902
330
1
100
AcDbSymbolTableRecord
100
AcDbBlockTableRecord
  2
*D26
340
0
 70
     0
280
     1
281
     0
  0
BLOCK_RECORD
  5
7912
330
1
100
AcDbSymbolTableRecord
100
AcDbBlockTableRecord
  2
*D27
340
0
 70
     0
280
     1
281
     0
  0
BLOCK_RECORD
  5
7921
330
1
100
AcDbSymbolTableRecord
100
AcDbBlockTableRecord
  2
*D28
340
0
 70
     0
280
     1
281
     0
  0
BLOCK_RECORD
  5
7944
330
1
100
AcDbSymbolTableRecord
100
AcDbBlockTableRecord
  2
*D29
340
0
 70
     0
280
     1
281
     0
  0
BLOCK_RECORD
  5
7953
330
1
100
AcDbSymbolTableRecord
100
AcDbBlockTableRecord
  2
*D30
340
0
 70
     0
280
     1
281
     0
  0
ENDTAB
  0
ENDSEC
  0
SECTION
  2
BLOCKS
  0
BLOCK
  5
D
330
A
100
AcDbEntity
  8
0
390
1D
100
AcDbBlockBegin
  2
*MODEL_SPACE
 70
     0
 10
0.0
 20
0.0
 30
0.0
  3
*MODEL_SPACE
  1
*MODEL_SPACE
  0
ENDBLK
  5
E
330
A
100
AcDbEntity
  8
0
390
1D
100
AcDbBlockEnd
  0
BLOCK
  5
F
330
B
100
AcDbEntity
 67
     1
  8
0
390
1D
100
AcDbBlockBegin
  2
*PAPER_SPACE
 70
     0
 10
0.0
 20
0.0
 30
0.0
  3
*PAPER_SPACE
  1
*PAPER_SPACE
  0
ENDBLK
  5
10
330
B
100
AcDbEntity
 67
     1
  8
0
390
1D
100
AcDbBlockEnd
  0
BLOCK
  5
3FCE
330
4E
100
AcDbEntity
  8
0
390
1D
100
AcDbBlockBegin
  2
_DOT
 70
     0
 10
0.0
 20
0.0
 30
0.0
  3
_DOT
  1
_DOT
  0
POLYLINE
  5
3FD0
330
4E
100
AcDbEntity
  8
0
  6
ByBlock
 62
     0
370
    -2
390
1D
100
AcDb2dPolyline
 66
     1
 10
0.0
 20
0.0
 30
0.0
 70
     1
 40
0.5
 41
0.5
  0
VERTEX
  5
3FD1
330
3FD0
100
AcDbEntity
  8
0
  6
ByBlock
 62
     0
370
    -2
390
1D
100
AcDbVertex
100
AcDb2dVertex
 10
-0.25
 20
0.0
 30
0.0
 42
1.0
  0
VERTEX
  5
3FD2
330
3FD0
100
AcDbEntity
  8
0
  6
ByBlock
 62
     0
370
    -2
390
1D
100
AcDbVertex
100
AcDb2dVertex
 10
0.25
 20
0.0
 30
0.0
 42
1.0
  0
SEQEND
  5
3FD3
330
3FD0
100
AcDbEntity
  8
0
390
1D
  0
LINE
  5
3FD4
330
4E
100
AcDbEntity
  8
0
  6
ByBlock
 62
     0
370
    -2
390
1D
100
AcDbLine
 10
-0.5
 20
0.0
 30
0.0
 11
-1.0
 21
0.0
 31
0.0
  0
ENDBLK
  5
3FD5
330
4E
100
AcDbEntity
  8
0
390
1D
100
AcDbBlockEnd
  0
BLOCK
  5
68E
330
68D
100
AcDbEntity
  8
0
100
AcDbBlockBegin
  2
block 2
 70
     0
 10
0.0
 20
0.0
 30
0.0
  3
block 2
  1
block 2
  0
ENDBLK
  5
6B0
330
68D
100
AcDbEntity
  8
0
100
AcDbBlockEnd
  0
BLOCK
  5
3E27
330
3E26
100
AcDbEntity
  8
0
100
AcDbBlockBegin
  2
*D2
 70
     1
 10
0.0
 20
0.0
 30
0.0
  3
*D2
  1

  0
LINE
  5
3E29
330
3E26
100
AcDbEntity
  8
DIM
 62
     0
370
    -2
100
AcDbLine
 10
607.9608510638315
 20
1310.861155015197
 30
0.0
 11
607.9608510638315
 21
1586.446135090576
 31
0.0
  0
LINE
  5
3E2A
330
3E26
100
AcDbEntity
  8
DIM
 62
     0
370
    -2
100
AcDbLine
 10
1064.672826747721
 20
1310.861155015197
 30
0.0
 11
1064.672826747721
 21
1586.446135090576
 31
0.0
  0
LINE
  5
3E2B
330
3E26
100
AcDbEntity
  8
DIM
 62
     0
370
    -2
100
AcDbLine
 10
615.9608510638315
 20
1586.446135090576
 30
0.0
 11
1056.672826747721
 21
1586.446135090576
 31
0.0
  0
INSERT
  5
3E2C
330
3E26
100
AcDbEntity
  8
DIM
 62
     0
370
    -2
100
AcDbBlockReference
  2
_DOT
 10
607.9608510638315
 20
1586.446135090576
 30
0.0
 41
8.0
 42
8.0
 43
8.0
 50
180.0
  0
INSERT
  5
3E2D
330
3E26
100
AcDbEntity
  8
DIM
 62
     0
370
    -2
100
AcDbBlockReference
  2
_DOT
 10
1064.672826747721
 20
1586.446135090576
 30
0.0
 41
8.0
 42
8.0
 43
8.0
  0
MTEXT
  5
3E2E
330
3E26
100
AcDbEntity
  8
DIM
 62
     0
100
AcDbMText
 10
836.316838905775
 20
1612.446135090576
 30
0.0
 40
20.0
 41
0.0
 46
0.0
 71
     5
 72
     1
  1
\A1;457
  7
ＭＳ ゴシック
 73
     1
 44
1.0
  0
POINT
  5
3E2F
330
3E26
100
AcDbEntity
  8
Defpoints
 62
     0
100
AcDbPoint
 10
607.9608510638315
 20
1305.861155015197
 30
0.0
  0
POINT
  5
3E30
330
3E26
100
AcDbEntity
  8
Defpoints
 62
     0
100
AcDbPoint
 10
1064.672826747721
 20
1305.861155015197
 30
0.0
  0
POINT
  5
3E31
330
3E26
100
AcDbEntity
  8
Defpoints
 62
     0
100
AcDbPoint
 10
1064.672826747721
 20
1586.446135090576
 30
0.0
  0
ENDBLK
  5
3E28
330
3E26
100
AcDbEntity
  8
0
100
AcDbBlockEnd
  0
BLOCK
  5
3E33
330
3E32
100
AcDbEntity
  8
0
100
AcDbBlockBegin
  2
*D3
 70
     1
 10
0.0
 20
0.0
 30
0.0
  3
*D3
  1

  0
LINE
  5
3E35
330
3E32
100
AcDbEntity
  8
DIM
 62
     0
370
    -2
100
AcDbLine
 10
684.7691933658384
 20
1300.861155015197
 30
0.0
 11
684.7691933658384
 21
959.0664924984802
 31
0.0
  0
LINE
  5
3E36
330
3E32
100
AcDbEntity
  8
DIM
 62
     0
370
    -2
100
AcDbLine
 10
987.8644844457136
 20
1300.861155015197
 30
0.0
 11
987.8644844457136
 21
959.0664924984802
 31
0.0
  0
LINE
  5
3E37
330
3E32
100
AcDbEntity
  8
DIM
 62
     0
370
    -2
100
AcDbLine
 10
692.7691933658384
 20
959.0664924984802
 30
0.0
 11
979.8644844457136
 21
959.0664924984802
 31
0.0
  0
INSERT
  5
3E38
330
3E32
100
AcDbEntity
  8
DIM
 62
     0
370
    -2
100
AcDbBlockReference
  2
_DOT
 10
684.7691933658384
 20
959.0664924984802
 30
0.0
 41
8.0
 42
8.0
 43
8.0
 50
180.0
  0
INSERT
  5
3E39
330
3E32
100
AcDbEntity
  8
DIM
 62
     0
370
    -2
100
AcDbBlockReference
  2
_DOT
 10
987.8644844457136
 20
959.0664924984802
 30
0.0
 41
8.0
 42
8.0
 43
8.0
  0
MTEXT
  5
3E3A
330
3E32
100
AcDbEntity
  8
DIM
 62
     0
100
AcDbMText
 10
836.316838905776
 20
985.0664924984802
 30
0.0
 40
20.0
 41
0.0
 46
0.0
 71
     5
 72
     1
  1
\A1;303
  7
ＭＳ ゴシック
 73
     1
 44
1.0
  0
POINT
  5
3E3B
330
3E32
100
AcDbEntity
  8
Defpoints
 62
     0
100
AcDbPoint
 10
684.7691933658384
 20
1305.861155015197
 30
0.0
  0
POINT
  5
3E3C
330
3E32
100
AcDbEntity
  8
Defpoints
 62
     0
100
AcDbPoint
 10
987.8644844457136
 20
1305.861155015197
 30
0.0
  0
POINT
  5
3E3D
330
3E32
100
AcDbEntity
  8
Defpoints
 62
     0
100
AcDbPoint
 10
987.8644844457136
 20
959.0664924984802
 30
0.0
  0
ENDBLK
  5
3E34
330
3E32
100
AcDbEntity
  8
0
100
AcDbBlockEnd
  0
BLOCK
  5
3E89
330
3E88
100
AcDbEntity
  8
0
100
AcDbBlockBegin
  2
812343s
 70
     0
 10
0.0
 20
0.0
 30
0.0
  3
812343s
  1

  0
SPLINE
  5
3E8A
330
3E88
100
AcDbEntity
  8
0
 62
     7
100
AcDbSpline
210
0.0
220
0.0
230
1.0
 70
     8
 71
     3
 72
    32
 73
    28
 74
     0
 42
0.000000001
 43
0.0000000001
 40
0.0
 40
0.0
 40
0.0
 40
0.0
 40
1.0
 40
1.0
 40
1.0
 40
2.0
 40
2.0
 40
2.0
 40
3.0
 40
3.0
 40
3.0
 40
4.0
 40
4.0
 40
4.0
 40
5.0
 40
5.0
 40
5.0
 40
6.0
 40
6.0
 40
6.0
 40
7.0
 40
7.0
 40
7.0
 40
8.0
 40
8.0
 40
8.0
 40
9.0
 40
9.0
 40
9.0
 40
9.0
 10
57.47538925429434
 20
758.0014323271663
 30
0.0
 10
57.47538925429434
 20
758.0014323271663
 30
0.0
 10
57.47538925429434
 20
767.5043837136795
 30
0.0
 10
57.47538925429434
 20
767.5043837136795
 30
0.0
 10
55.32564967149845
 20
770.2935330185377
 30
0.0
 10
52.91683890821176
 20
772.8677083651164
 30
0.0
 10
50.27100557553988
 20
775.1993489895335
 30
0.0
 10
50.27100557553988
 20
775.1993489895335
 30
0.0
 10
47.735415298396
 20
777.4427951695282
 30
0.0
 10
47.735415298396
 20
777.4427951695282
 30
0.0
 10
47.25585800684924
 20
777.8727430860874
 30
0.0
 10
46.64952120144526
 20
778.1263021138017
 30
0.0
 10
46.01011147938289
 20
778.186935794342
 30
0.0
 10
42.48233370248705
 20
778.5011285025969
 30
0.0
 10
38.97109238392042
 20
778.8208333636281
 30
0.0
 10
35.44331460702459
 20
779.2011719051997
 30
0.0
 10
29.0271687752953
 20
779.8957031550259
 30
0.0
 10
22.60551079078959
 20
780.6233073215109
 30
0.0
 10
16.18919270428603
 20
781.3674479463249
 30
0.0
 10
13.27877603834697
 20
781.7036892656852
 30
0.0
 10
11.04635416390508
 20
784.0849392650897
 30
0.0
 10
10.89201388616588
 20
787.0174045421346
 30
0.0
 10
10.89201388616588
 20
787.0174045421346
 30
0.0
 10
5.05464409595856
 20
898.1038194449185
 30
0.0
 10
5.05464409595856
 20
898.1038194449185
 30
0.0
 10
4.999522568194564
 20
899.1676649307636
 30
0.0
 10
4.128602429523406
 20
900.0
 30
0.0
 10
3.059244790901855
 20
900.0
 30
0.0
  0
POLYLINE
  5
3E8B
330
3E88
100
AcDbEntity
  8
0
 62
     7
100
AcDb2dPolyline
 66
     1
 10
0.0
 20
0.0
 30
0.0
  0
VERTEX
  5
3E8C
330
3E8B
100
AcDbEntity
  8
0
 62
     7
100
AcDbVertex
100
AcDb2dVertex
 10
119.3939181559154
 20
800.0095486361088
 30
0.0
  0
VERTEX
  5
3E8D
330
3E8B
100
AcDbEntity
  8
0
 62
     7
100
AcDbVertex
100
AcDb2dVertex
 10
117.9442219757223
 20
799.8386719000404
 30
0.0
  0
VERTEX
  5
3E8E
330
3E8B
100
AcDbEntity
  8
0
 62
     7
100
AcDbVertex
100
AcDb2dVertex
 10
117.8450032257471
 20
800.0867187749785
 30
0.0
  0
VERTEX
  5
3E8F
330
3E8B
100
AcDbEntity
  8
0
 62
     7
100
AcDbVertex
100
AcDb2dVertex
 10
116.251646563819
 20
803.267230926961
 30
0.0
  0
SEQEND
  5
3E90
330
3E8B
100
AcDbEntity
  8
0
  0
POLYLINE
  5
3E91
330
3E88
100
AcDbEntity
  8
0
 62
     7
100
AcDb2dPolyline
 66
     1
 10
0.0
 20
0.0
 30
0.0
  0
VERTEX
  5
3E92
330
3E91
100
AcDbEntity
  8
0
 62
     7
100
AcDbVertex
100
AcDb2dVertex
 10
127.6952202371734
 20
801.1119791913886
 30
0.0
  0
VERTEX
  5
3E93
330
3E91
100
AcDbEntity
  8
0
 62
     7
100
AcDbVertex
100
AcDb2dVertex
 10
128.9685275285217
 20
801.2938802330099
 30
0.0
  0
SEQEND
  5
3E94
330
3E91
100
AcDbEntity
  8
0
  0
SPLINE
  5
3E95
330
3E88
100
AcDbEntity
  8
0
 62
     7
100
AcDbSpline
210
0.0
220
0.0
230
1.0
 70
     8
 71
     3
 72
     8
 73
     4
 74
     0
 42
0.000000001
 43
0.0000000001
 40
0.0
 40
0.0
 40
0.0
 40
0.0
 40
1.0
 40
1.0
 40
1.0
 40
1.0
 10
129.5197428061617
 20
804.8492187737876
 30
0.0
 10
129.8449598199693
 20
804.8822916904461
 30
0.0
 10
130.1260796115657
 20
805.0752170376201
 30
0.0
 10
130.2859320420813
 20
805.3618489819928
 30
0.0
  0
SPLINE
  5
3E96
330
3E88
100
AcDbEntity
  8
0
 62
     7
100
AcDbSpline
210
0.0
220
0.0
230
1.0
 70
     8
 71
     3
 72
     8
 73
     4
 74
     0
 42
0.000000001
 43
0.0000000001
 40
0.0
 40
0.0
 40
0.0
 40
0.0
 40
1.0
 40
1.0
 40
1.0
 40
1.0
 10
131.2229980140692
 20
806.2382812734405
 30
0.0
 10
130.8261230141685
 20
806.0618923845957
 30
0.0
 10
130.4953938475845
 20
805.7476996763409
 30
0.0
 10
130.2859320420813
 20
805.3618489819928
 30
0.0
  0
SPLINE
  5
3E97
330
3E88
100
AcDbEntity
  8
0
 62
     7
100
AcDbSpline
210
0.0
220
0.0
230
1.0
 70
     8
 71
     3
 72
    26
 73
    22
 74
     0
 42
0.000000001
 43
0.0000000001
 40
0.0
 40
0.0
 40
0.0
 40
0.0
 40
1.0
 40
1.0
 40
1.0
 40
2.0
 40
2.0
 40
2.0
 40
3.0
 40
3.0
 40
3.0
 40
4.0
 40
4.0
 40
4.0
 40
5.0
 40
5.0
 40
5.0
 40
6.0
 40
6.0
 40
6.0
 40
7.0
 40
7.0
 40
7.0
 40
7.0
 10
129.6134494033605
 20
804.8547309265641
 30
0.0
 10
129.6134494033605
 20
804.8547309265641
 30
0.0
 10
129.6520344727953
 20
804.4909288433217
 30
0.0
 10
129.6520344727953
 20
804.4909288433217
 30
0.0
 10
129.6520344727953
 20
804.4909288433217
 30
0.0
 10
129.6520344727953
 20
804.2263455100544
 30
0.0
 10
129.6520344727953
 20
804.2263455100544
 30
0.0
 10
129.6520344727953
 20
804.2263455100544
 30
0.0
 10
129.2551594728945
 20
801.4427083579727
 30
0.0
 10
129.2551594728945
 20
801.4427083579727
 30
0.0
 10
129.2551594728945
 20
801.4427083579727
 30
0.0
 10
128.9685275285217
 20
801.2938802330099
 30
0.0
 10
128.9685275285217
 20
801.2938802330099
 30
0.0
 10
127.2983452372726
 20
802.054557316153
 30
0.0
 10
125.4407497516259
 20
802.3467014133023
 30
0.0
 10
123.6107150298612
 20
802.1317274550225
 30
0.0
 10
123.6107150298612
 20
802.1317274550225
 30
0.0
 10
123.1587185021964
 20
802.0766059272586
 30
0.0
 10
123.1587185021964
 20
802.0766059272586
 30
0.0
 10
121.3231716276553
 20
801.8561198162027
 30
0.0
 10
119.5978678086422
 20
801.1395399552707
 30
0.0
 10
118.1536837812255
 20
800.0040364833322
 30
0.0
  0
SPLINE
  5
3E98
330
3E88
100
AcDbEntity
  8
0
 62
     7
100
AcDbSpline
210
0.0
220
0.0
230
1.0
 70
     8
 71
     3
 72
    56
 73
    52
 74
     0
 42
0.000000001
 43
0.0000000001
 40
0.0
 40
0.0
 40
0.0
 40
0.0
 40
1.0
 40
1.0
 40
1.0
 40
2.0
 40
2.0
 40
2.0
 40
3.0
 40
3.0
 40
3.0
 40
4.0
 40
4.0
 40
4.0
 40
5.0
 40
5.0
 40
5.0
 40
6.0
 40
6.0
 40
6.0
 40
7.0
 40
7.0
 40
7.0
 40
8.0
 40
8.0
 40
8.0
 40
9.0
 40
9.0
 40
9.0
 40
10.0
 40
10.0
 40
10.0
 40
11.0
 40
11.0
 40
11.0
 40
12.0
 40
12.0
 40
12.0
 40
13.0
 40
13.0
 40
13.0
 40
14.0
 40
14.0
 40
14.0
 40
15.0
 40
15.0
 40
15.0
 40
16.0
 40
16.0
 40
16.0
 40
17.0
 40
17.0
 40
17.0
 40
17.0
 10
131.2229980140692
 20
806.2382812734405
 30
0.0
 10
132.5734754442872
 20
806.8391059260681
 30
0.0
 10
133.4829806523931
 20
808.1344618285219
 30
0.0
 10
133.5877115551447
 20
809.6062066198207
 30
0.0
 10
133.5877115551447
 20
809.6062066198207
 30
0.0
 10
133.8302462773063
 20
813.0402777995175
 30
0.0
 10
133.8302462773063
 20
813.0402777995175
 30
0.0
 10
133.9074164161759
 20
814.1427083547975
 30
0.0
 10
133.0695691941632
 20
815.0907986323383
 30
0.0
 10
131.9671386388832
 20
815.1734809239844
 30
0.0
 10
131.8458712778024
 20
815.1845052295373
 30
0.0
 10
131.7190917639452
 20
815.1734809239844
 30
0.0
 10
131.5978244028644
 20
815.1624566184317
 30
0.0
 10
131.5978244028644
 20
815.1624566184317
 30
0.0
 10
38.56319307846685
 20
804.1050781489738
 30
0.0
 10
38.56319307846685
 20
804.1050781489738
 30
0.0
 10
37.46627467596329
 20
803.9727864823401
 30
0.0
 10
36.68354898171454
 20
802.980598982588
 30
0.0
 10
36.81584064834813
 20
801.8836805800846
 30
0.0
 10
36.82135280112453
 20
801.8506076634261
 30
0.0
 10
36.82135280112453
 20
801.8175347467678
 30
0.0
 10
36.83788925945372
 20
801.778949677333
 30
0.0
 10
36.83788925945372
 20
801.778949677333
 30
0.0
 10
37.3560316204353
 20
798.7141927336547
 30
0.0
 10
37.3560316204353
 20
798.7141927336547
 30
0.0
 10
37.71983370367768
 20
796.6195746786229
 30
0.0
 10
39.6601114809704
 20
795.175390651206
 30
0.0
 10
41.76575384155509
 20
795.4234375261441
 30
0.0
 10
41.76575384155509
 20
795.4234375261441
 30
0.0
 10
81.17230629481111
 20
800.1087673860839
 30
0.0
 10
81.17230629481111
 20
800.1087673860839
 30
0.0
 10
81.17230629481111
 20
800.1087673860839
 30
0.0
 10
114.3611504162882
 20
804.0554687739861
 30
0.0
 10
114.3611504162882
 20
804.0554687739861
 30
0.0
 10
114.3611504162882
 20
804.0554687739861
 30
0.0
 10
114.3611504162882
 20
804.0499566212098
 30
0.0
 10
114.3611504162882
 20
804.0499566212098
 30
0.0
 10
114.9289021522574
 20
804.1161024545266
 30
0.0
 10
115.4964816334523
 20
803.9452257184581
 30
0.0
 10
115.920917397235
 20
803.5648871768866
 30
0.0
 10
115.920917397235
 20
803.5648871768866
 30
0.0
 10
116.251646563819
 20
803.267230926961
 30
0.0
 10
116.251646563819
 20
803.267230926961
 30
0.0
 10
116.251646563819
 20
803.267230926961
 30
0.0
 10
116.6984754482559
 20
803.3223524547249
 30
0.0
 10
116.6984754482559
 20
803.3223524547249
 30
0.0
 10
116.6984754482559
 20
803.3223524547249
 30
0.0
 10
116.6929632954795
 20
803.3223524547249
 30
0.0
 10
116.6929632954795
 20
803.3223524547249
 30
0.0
 10
116.6929632954795
 20
803.3223524547249
 30
0.0
 10
129.6134494033605
 20
804.8547309265641
 30
0.0
 10
129.6134494033605
 20
804.8547309265641
 30
0.0
  0
SPLINE
  5
3E99
330
3E88
100
AcDbEntity
  8
0
 62
     7
100
AcDbSpline
210
0.0
220
0.0
230
1.0
 70
     8
 71
     3
 72
     8
 73
     4
 74
     0
 42
0.000000001
 43
0.0000000001
 40
0.0
 40
0.0
 40
0.0
 40
0.0
 40
1.0
 40
1.0
 40
1.0
 40
1.0
 10
42.82959932740023
 20
790.5617187773596
 30
0.0
 10
42.59257675801504
 20
790.0490885691545
 30
0.0
 10
42.23979898032546
 20
789.6081163470425
 30
0.0
 10
41.78229029988429
 20
789.2828993332349
 30
0.0
  0
SPLINE
  5
3E9A
330
3E88
100
AcDbEntity
  8
0
 62
     7
100
AcDbSpline
210
0.0
220
0.0
230
1.0
 70
     8
 71
     3
 72
     8
 73
     4
 74
     0
 42
0.000000001
 43
0.0000000001
 40
0.0
 40
0.0
 40
0.0
 40
0.0
 40
1.0
 40
1.0
 40
1.0
 40
1.0
 10
52.95542397764656
 20
790.6113281523471
 30
0.0
 10
52.43728161666499
 20
790.8207899578504
 30
0.0
 10
51.97977293622381
 20
791.1625434299872
 30
0.0
 10
51.63250731131062
 20
791.6200521104283
 30
0.0
  0
SPLINE
  5
3E9B
330
3E88
100
AcDbEntity
  8
0
 62
     7
100
AcDbSpline
210
0.0
220
0.0
230
1.0
 70
     8
 71
     3
 72
     8
 73
     4
 74
     0
 42
0.000000001
 43
0.0000000001
 40
0.0
 40
0.0
 40
0.0
 40
0.0
 40
1.0
 40
1.0
 40
1.0
 40
1.0
 10
43.07764620233824
 20
791.0523003744592
 30
0.0
 10
42.97842745236303
 20
790.8924479439435
 30
0.0
 10
42.90125731349343
 20
790.7381076662044
 30
0.0
 10
42.82959932740023
 20
790.5617187773596
 30
0.0
  0
SPLINE
  5
3E9C
330
3E88
100
AcDbEntity
  8
0
 62
     7
100
AcDbSpline
210
0.0
220
0.0
230
1.0
 70
     8
 71
     3
 72
     8
 73
     4
 74
     0
 42
0.000000001
 43
0.0000000001
 40
0.0
 40
0.0
 40
0.0
 40
0.0
 40
1.0
 40
1.0
 40
1.0
 40
1.0
 10
51.63250731131062
 20
791.6200521104283
 30
0.0
 10
51.52226425578263
 20
791.7633680826146
 30
0.0
 10
51.40099689470184
 20
791.9011719020248
 30
0.0
 10
51.27972953362105
 20
792.0224392631055
 30
0.0
  0
POLYLINE
  5
3E9D
330
3E88
100
AcDbEntity
  8
0
 62
     7
100
AcDb2dPolyline
 66
     1
 10
0.0
 20
0.0
 30
0.0
  0
VERTEX
  5
3E9E
330
3E9D
100
AcDbEntity
  8
0
 62
     7
100
AcDbVertex
100
AcDb2dVertex
 10
47.18420002075602
 20
791.5428819715587
 30
0.0
  0
VERTEX
  5
3E9F
330
3E9D
100
AcDbEntity
  8
0
 62
     7
100
AcDbVertex
100
AcDb2dVertex
 10
41.99726425816388
 20
790.9089844022727
 30
0.0
  0
VERTEX
  5
3EA0
330
3E9D
100
AcDbEntity
  8
0
 62
     7
100
AcDbVertex
100
AcDb2dVertex
 10
41.4680975916295
 20
791.0137153050243
 30
0.0
  0
VERTEX
  5
3EA1
330
3E9D
100
AcDbEntity
  8
0
 62
     7
100
AcDbVertex
100
AcDb2dVertex
 10
39.94123127256677
 20
794.6241753735662
 30
0.0
  0
SEQEND
  5
3EA2
330
3E9D
100
AcDbEntity
  8
0
  0
POLYLINE
  5
3EA3
330
3E88
100
AcDbEntity
  8
0
 62
     7
100
AcDb2dPolyline
 66
     1
 10
0.0
 20
0.0
 30
0.0
  0
VERTEX
  5
3EA4
330
3EA3
100
AcDbEntity
  8
0
 62
     7
100
AcDbVertex
100
AcDb2dVertex
 10
47.18420002075602
 20
791.5428819715587
 30
0.0
  0
VERTEX
  5
3EA5
330
3EA3
100
AcDbEntity
  8
0
 62
     7
100
AcDbVertex
100
AcDb2dVertex
 10
52.67981633882657
 20
792.1988281519502
 30
0.0
  0
VERTEX
  5
3EA6
330
3EA3
100
AcDbEntity
  8
0
 62
     7
100
AcDbVertex
100
AcDb2dVertex
 10
52.86171738044776
 20
792.3641927352423
 30
0.0
  0
VERTEX
  5
3EA7
330
3EA3
100
AcDbEntity
  8
0
 62
     7
100
AcDbVertex
100
AcDb2dVertex
 10
53.19795869980815
 20
795.7707031510574
 30
0.0
  0
SEQEND
  5
3EA8
330
3EA3
100
AcDbEntity
  8
0
  0
SPLINE
  5
3EA9
330
3E88
100
AcDbEntity
  8
0
 62
     7
100
AcDbSpline
210
0.0
220
0.0
230
1.0
 70
     8
 71
     3
 72
    23
 73
    19
 74
     0
 42
0.000000001
 43
0.0000000001
 40
0.0
 40
0.0
 40
0.0
 40
0.0
 40
1.0
 40
1.0
 40
1.0
 40
2.0
 40
2.0
 40
2.0
 40
3.0
 40
3.0
 40
3.0
 40
4.0
 40
4.0
 40
4.0
 40
5.0
 40
5.0
 40
5.0
 40
6.0
 40
6.0
 40
6.0
 40
6.0
 10
38.98762884224963
 20
796.1400173870761
 30
0.0
 10
39.3293823143864
 20
795.8533854427034
 30
0.0
 10
39.57742918932439
 20
795.4785590539082
 30
0.0
 10
39.70420870318159
 20
795.0430989845726
 30
0.0
 10
39.81996391148598
 20
794.5580295402494
 30
0.0
 10
40.27747259192716
 20
794.2383246792183
 30
0.0
 10
40.78459064735593
 20
794.2989583597586
 30
0.0
 10
40.78459064735593
 20
794.2989583597586
 30
0.0
 10
46.77078856252605
 20
795.0100260679142
 30
0.0
 10
46.77078856252605
 20
795.0100260679142
 30
0.0
 10
46.77078856252605
 20
795.0100260679142
 30
0.0
 10
53.19795869980815
 20
795.7707031510574
 30
0.0
 10
53.19795869980815
 20
795.7707031510574
 30
0.0
 10
53.49561494973374
 20
795.8148003732686
 30
0.0
 10
53.74366182467174
 20
795.958116345455
 30
0.0
 10
53.92556286629291
 20
796.19513891484
 30
0.0
 10
54.25629203287691
 20
796.6526475952812
 30
0.0
 10
54.73584932442367
 20
796.9447916924305
 30
0.0
 10
55.29257675484005
 20
797.0329861368529
 30
0.0
  0
SPLINE
  5
3EAA
330
3E88
100
AcDbEntity
  8
0
 62
     7
100
AcDbSpline
210
0.0
220
0.0
230
1.0
 70
     8
 71
     3
 72
    17
 73
    13
 74
     0
 42
0.000000001
 43
0.0000000001
 40
0.0
 40
0.0
 40
0.0
 40
0.0
 40
1.0
 40
1.0
 40
1.0
 40
2.0
 40
2.0
 40
2.0
 40
3.0
 40
3.0
 40
3.0
 40
4.0
 40
4.0
 40
4.0
 40
4.0
 10
36.83788925945372
 20
802.3136284966438
 30
0.0
 10
36.83788925945372
 20
802.3136284966438
 30
0.0
 10
35.93940835690057
 20
787.2985243337309
 30
0.0
 10
35.93940835690057
 20
787.2985243337309
 30
0.0
 10
35.92287189857136
 20
786.3835069728486
 30
0.0
 10
35.79058023193777
 20
785.4629774591898
 30
0.0
 10
35.49843613478858
 20
784.5920573205187
 30
0.0
 10
35.31102294039099
 20
784.0022569734438
 30
0.0
 10
35.05195175990022
 20
783.4455295430275
 30
0.0
 10
34.69366182943422
 20
782.9384114875988
 30
0.0
 10
33.79518092688106
 20
781.6540798906976
 30
0.0
 10
32.40611842722834
 20
780.7611111409209
 30
0.0
 10
30.87373995538921
 20
780.4414062798896
 30
0.0
  0
SPLINE
  5
3EAB
330
3E88
100
AcDbEntity
  8
0
 62
     7
100
AcDbSpline
210
0.0
220
0.0
230
1.0
 70
    11
 71
     3
 72
    35
 73
    31
 74
     0
 42
0.000000001
 43
0.0000000001
 40
0.0
 40
0.0
 40
0.0
 40
0.0
 40
1.0
 40
1.0
 40
1.0
 40
2.0
 40
2.0
 40
2.0
 40
3.0
 40
3.0
 40
3.0
 40
4.0
 40
4.0
 40
4.0
 40
5.0
 40
5.0
 40
5.0
 40
6.0
 40
6.0
 40
6.0
 40
7.0
 40
7.0
 40
7.0
 40
8.0
 40
8.0
 40
8.0
 40
9.0
 40
9.0
 40
9.0
 40
10.0
 40
10.0
 40
10.0
 40
10.0
 10
364.9999429426042
 20
897.9605034727322
 30
0.0
 10
364.9999429426042
 20
897.9605034727322
 30
0.0
 10
362.7950818320443
 20
771.9967882264452
 30
0.0
 10
362.7950818320443
 20
771.9967882264452
 30
0.0
 10
362.7950818320443
 20
771.9967882264452
 30
0.0
 10
357.7679984999677
 20
769.9958767686121
 30
0.0
 10
357.7679984999677
 20
769.9958767686121
 30
0.0
 10
357.7679984999677
 20
769.9958767686121
 30
0.0
 10
7.237456595412858
 20
769.9958767686121
 30
0.0
 10
7.237456595412858
 20
769.9958767686121
 30
0.0
 10
7.237456595412858
 20
769.9958767686121
 30
0.0
 10
2.204861110559894
 20
771.9967882264452
 30
0.0
 10
2.204861110559894
 20
771.9967882264452
 30
0.0
 10
2.204861110559894
 20
771.9967882264452
 30
0.0
 10
0.0000000000000036
 20
897.9605034727322
 30
0.0
 10
0.0000000000000036
 20
897.9605034727322
 30
0.0
 10
0.0000000000000036
 20
897.9770399310615
 30
0.0
 10
0.0000000000000036
 20
897.988064236614
 30
0.0
 10
0.0000000000000036
 20
897.9935763893905
 30
0.0
 10
0.0000000000000036
 20
899.1070312502231
 30
0.0
 10
0.8984809025531586
 20
900.0
 30
0.0
 10
2.000911457833103
 20
900.0
 30
0.0
 10
2.000911457833103
 20
900.0
 30
0.0
 10
363.0045436375476
 20
900.0
 30
0.0
 10
363.0045436375476
 20
900.0
 30
0.0
 10
363.0100557903239
 20
900.0
 30
0.0
 10
363.0265922486531
 20
900.0
 30
0.0
 10
363.0321044014295
 20
899.9944878472236
 30
0.0
 10
364.1400471094858
 20
899.9779513888946
 30
0.0
 10
365.0164794009334
 20
899.062934028012
 30
0.0
 10
364.9999429426042
 20
897.9605034727322
 30
0.0
  0
SPLINE
  5
3EAC
330
3E88
100
AcDbEntity
  8
0
 62
     7
100
AcDbSpline
210
0.0
220
0.0
230
1.0
 70
     8
 71
     3
 72
    26
 73
    22
 74
     0
 42
0.000000001
 43
0.0000000001
 40
0.0
 40
0.0
 40
0.0
 40
0.0
 40
1.0
 40
1.0
 40
1.0
 40
2.0
 40
2.0
 40
2.0
 40
3.0
 40
3.0
 40
3.0
 40
4.0
 40
4.0
 40
4.0
 40
5.0
 40
5.0
 40
5.0
 40
6.0
 40
6.0
 40
6.0
 40
7.0
 40
7.0
 40
7.0
 40
7.0
 10
119.085237600437
 20
770.0013889213885
 30
0.0
 10
118.4954372533622
 20
769.1855903104813
 30
0.0
 10
118.0654893368031
 20
768.2650607968227
 30
0.0
 10
117.8229546146415
 20
767.2728732970706
 30
0.0
 10
117.8229546146415
 20
767.2728732970706
 30
0.0
 10
115.8713080222474
 20
759.5172743406763
 30
0.0
 10
115.8713080222474
 20
759.5172743406763
 30
0.0
 10
115.6508219111915
 20
758.6187934381229
 30
0.0
 10
114.8517320133877
 20
758.0014323271663
 30
0.0
 10
113.931202499729
 20
758.0014323271663
 30
0.0
 10
113.931202499729
 20
758.0014323271663
 30
0.0
 10
47.03537189579324
 20
758.0014323271663
 30
0.0
 10
47.03537189579324
 20
758.0014323271663
 30
0.0
 10
46.12035453491087
 20
758.0014323271663
 30
0.0
 10
45.31558022955652
 20
758.6187934381229
 30
0.0
 10
45.08406981294774
 20
759.5172743406763
 30
0.0
 10
45.08406981294774
 20
759.5172743406763
 30
0.0
 10
43.96510279933858
 20
764.0151910062185
 30
0.0
 10
43.96510279933858
 20
764.0151910062185
 30
0.0
 10
43.13827988287862
 20
767.3445312831637
 30
0.0
 10
40.28849689747995
 20
769.7698785047799
 30
0.0
 10
36.87096217611213
 20
770.0565104491525
 30
0.0
  0
SPLINE
  5
3EAD
330
3E88
100
AcDbEntity
  8
0
 62
     7
100
AcDbSpline
210
0.0
220
0.0
230
1.0
 70
     8
 71
     3
 72
    80
 73
    76
 74
     0
 42
0.000000001
 43
0.0000000001
 40
0.0
 40
0.0
 40
0.0
 40
0.0
 40
1.0
 40
1.0
 40
1.0
 40
2.0
 40
2.0
 40
2.0
 40
3.0
 40
3.0
 40
3.0
 40
4.0
 40
4.0
 40
4.0
 40
5.0
 40
5.0
 40
5.0
 40
6.0
 40
6.0
 40
6.0
 40
7.0
 40
7.0
 40
7.0
 40
8.0
 40
8.0
 40
8.0
 40
9.0
 40
9.0
 40
9.0
 40
10.0
 40
10.0
 40
10.0
 40
11.0
 40
11.0
 40
11.0
 40
12.0
 40
12.0
 40
12.0
 40
13.0
 40
13.0
 40
13.0
 40
14.0
 40
14.0
 40
14.0
 40
15.0
 40
15.0
 40
15.0
 40
16.0
 40
16.0
 40
16.0
 40
17.0
 40
17.0
 40
17.0
 40
18.0
 40
18.0
 40
18.0
 40
19.0
 40
19.0
 40
19.0
 40
20.0
 40
20.0
 40
20.0
 40
21.0
 40
21.0
 40
21.0
 40
22.0
 40
22.0
 40
22.0
 40
23.0
 40
23.0
 40
23.0
 40
24.0
 40
24.0
 40
24.0
 40
25.0
 40
25.0
 40
25.0
 40
25.0
 10
361.8580158600564
 20
900.0
 30
0.0
 10
360.7996825269875
 20
900.0
 30
0.0
 10
359.92325023554
 20
899.1676649307636
 30
0.0
 10
359.8626165549996
 20
898.098307292142
 30
0.0
 10
359.8626165549996
 20
898.098307292142
 30
0.0
 10
357.040394333483
 20
847.0833333465625
 30
0.0
 10
357.040394333483
 20
847.0833333465625
 30
0.0
 10
356.9191269724023
 20
844.8839843887791
 30
0.0
 10
355.5962103060662
 20
842.9216580003807
 30
0.0
 10
353.6114907970138
 20
841.9790798756164
 30
0.0
 10
353.0051539916098
 20
841.69796008402
 30
0.0
 10
352.3712564223239
 20
841.5105468896224
 30
0.0
 10
351.7097980891559
 20
841.4333767507528
 30
0.0
 10
351.2302407976091
 20
841.3782552229887
 30
0.0
 10
350.7341470477331
 20
841.3231336952247
 30
0.0
 10
350.2490776034099
 20
841.2680121674608
 30
0.0
 10
318.245518583633
 20
837.6355034878134
 30
0.0
 10
261.3321966577572
 20
830.9327257117113
 30
0.0
 10
229.3451740963095
 20
827.1513889071011
 30
0.0
 10
199.2653563954962
 20
823.5905382135468
 30
0.0
 10
167.6032063383074
 20
819.6328125200916
 30
0.0
 10
137.5454372485997
 20
815.8790364793635
 30
0.0
 10
136.6304198877174
 20
815.7632812710591
 30
0.0
 10
135.9138400267854
 20
815.0467014101273
 30
0.0
 10
135.8035969712574
 20
814.1371962020212
 30
0.0
 10
135.8035969712574
 20
814.1371962020212
 30
0.0
 10
134.5688747493439
 20
804.066493079539
 30
0.0
 10
134.5688747493439
 20
804.066493079539
 30
0.0
 10
134.3814615549463
 20
802.5175781493706
 30
0.0
 10
133.3121039163247
 20
801.2222222469165
 30
0.0
 10
131.8238226666968
 20
800.7481771081463
 30
0.0
 10
131.8238226666968
 20
800.7481771081463
 30
0.0
 10
131.2285101668456
 20
800.5607639137487
 30
0.0
 10
131.2285101668456
 20
800.5607639137487
 30
0.0
 10
130.8040744030629
 20
800.4229600943387
 30
0.0
 10
130.3631021809509
 20
800.3568142610218
 30
0.0
 10
129.9055935005097
 20
800.3678385665747
 30
0.0
 10
129.0016004451801
 20
800.3953993304566
 30
0.0
 10
128.130680306509
 20
800.7261284970407
 30
0.0
 10
127.441661209459
 20
801.3049045385626
 30
0.0
 10
126.5927896818935
 20
802.0214843994947
 30
0.0
 10
125.4848469738371
 20
802.3467014133023
 30
0.0
 10
124.39344072411
 20
802.2199218994451
 30
0.0
 10
124.39344072411
 20
802.2199218994451
 30
0.0
 10
122.3980414190533
 20
801.9828993300599
 30
0.0
 10
122.3980414190533
 20
801.9828993300599
 30
0.0
 10
120.3861056556674
 20
801.7403646078983
 30
0.0
 10
118.8702636421574
 20
800.0371093999908
 30
0.0
 10
118.8702636421574
 20
798.0141493310521
 30
0.0
 10
118.8702636421574
 20
798.0141493310521
 30
0.0
 10
118.8702636421574
 20
795.6053385677653
 30
0.0
 10
118.8702636421574
 20
795.6053385677653
 30
0.0
 10
118.8702636421574
 20
795.6053385677653
 30
0.0
 10
118.6222167672194
 20
793.9406684292926
 30
0.0
 10
118.6222167672194
 20
793.9406684292926
 30
0.0
 10
118.6222167672194
 20
793.9406684292926
 30
0.0
 10
117.6300292674675
 20
782.6187066265675
 30
0.0
 10
117.6300292674675
 20
782.6187066265675
 30
0.0
 10
117.6300292674675
 20
782.6187066265675
 30
0.0
 10
117.6300292674675
 20
782.6187066265675
 30
0.0
 10
117.6300292674675
 20
782.6187066265675
 30
0.0
 10
117.4646646841755
 20
780.77764759925
 30
0.0
 10
116.3012559388066
 20
779.1791232940941
 30
0.0
 10
114.6036851384498
 20
778.4570312803856
 30
0.0
 10
114.6036851384498
 20
778.4570312803856
 30
0.0
 10
113.7989108330954
 20
777.9388889194042
 30
0.0
 10
113.7989108330954
 20
777.9388889194042
 30
0.0
 10
113.7989108330954
 20
777.9388889194042
 30
0.0
 10
110.690056667206
 20
775.1993489895335
 30
0.0
 10
110.690056667206
 20
775.1993489895335
 30
0.0
 10
108.044223334534
 20
772.8677083651164
 30
0.0
 10
105.6354125712474
 20
770.2880208657614
 30
0.0
 10
103.4856729884515
 20
767.4933594081267
 30
0.0
 10
103.4856729884515
 20
767.4933594081267
 30
0.0
 10
103.4856729884515
 20
758.0014323271663
 30
0.0
 10
103.4856729884515
 20
758.0014323271663
 30
0.0
  0
POLYLINE
  5
3EAE
330
3E88
100
AcDbEntity
  8
0
 62
     7
100
AcDb2dPolyline
 66
     1
 10
0.0
 20
0.0
 30
0.0
  0
VERTEX
  5
3EAF
330
3EAE
100
AcDbEntity
  8
0
 62
     7
100
AcDbVertex
100
AcDb2dVertex
 10
80.48328719776111
 20
748.0023871907771
 30
0.0
  0
VERTEX
  5
3EB0
330
3EAE
100
AcDbEntity
  8
0
 62
     7
100
AcDbVertex
100
AcDb2dVertex
 10
80.48328719776111
 20
819.1642795340978
 30
0.0
  0
SEQEND
  5
3EB1
330
3EAE
100
AcDbEntity
  8
0
  0
POLYLINE
  5
3EB2
330
3E88
100
AcDbEntity
  8
0
 62
     7
100
AcDb2dPolyline
 66
     1
 10
0.0
 20
0.0
 30
0.0
  0
VERTEX
  5
3EB3
330
3EB2
100
AcDbEntity
  8
0
 62
     7
100
AcDbVertex
100
AcDb2dVertex
 10
12.49053819132181
 20
768.9981771160838
 30
0.0
  0
VERTEX
  5
3EB4
330
3EB2
100
AcDbEntity
  8
0
 62
     7
100
AcDbVertex
100
AcDb2dVertex
 10
12.49053819132181
 20
883.9982204901117
 30
0.0
  0
SEQEND
  5
3EB5
330
3EB2
100
AcDbEntity
  8
0
  0
POLYLINE
  5
3EB6
330
3E88
100
AcDbEntity
  8
0
 62
     7
100
AcDb2dPolyline
 66
     1
 10
0.0
 20
0.0
 30
0.0
  0
VERTEX
  5
3EB7
330
3EB6
100
AcDbEntity
  8
0
 62
     7
100
AcDbVertex
100
AcDb2dVertex
 10
32.49431287165072
 20
768.9981771160838
 30
0.0
  0
VERTEX
  5
3EB8
330
3EB6
100
AcDbEntity
  8
0
 62
     7
100
AcDbVertex
100
AcDb2dVertex
 10
32.49431287165072
 20
883.9982204901117
 30
0.0
  0
SEQEND
  5
3EB9
330
3EB6
100
AcDbEntity
  8
0
  0
POLYLINE
  5
3EBA
330
3E88
100
AcDbEntity
  8
0
 62
     7
100
AcDb2dPolyline
 66
     1
 10
0.0
 20
0.0
 30
0.0
  0
VERTEX
  5
3EBB
330
3EBA
100
AcDbEntity
  8
0
 62
     7
100
AcDbVertex
100
AcDb2dVertex
 10
52.49791529720538
 20
768.9981771160838
 30
0.0
  0
VERTEX
  5
3EBC
330
3EBA
100
AcDbEntity
  8
0
 62
     7
100
AcDbVertex
100
AcDb2dVertex
 10
52.49791529720538
 20
883.9982204901117
 30
0.0
  0
SEQEND
  5
3EBD
330
3EBA
100
AcDbEntity
  8
0
  0
POLYLINE
  5
3EBE
330
3E88
100
AcDbEntity
  8
0
 62
     7
100
AcDb2dPolyline
 66
     1
 10
0.0
 20
0.0
 30
0.0
  0
VERTEX
  5
3EBF
330
3EBE
100
AcDbEntity
  8
0
 62
     7
100
AcDbVertex
100
AcDb2dVertex
 10
72.50168997753431
 20
768.9981771160838
 30
0.0
  0
VERTEX
  5
3EC0
330
3EBE
100
AcDbEntity
  8
0
 62
     7
100
AcDbVertex
100
AcDb2dVertex
 10
72.50168997753431
 20
883.9982204901117
 30
0.0
  0
SEQEND
  5
3EC1
330
3EBE
100
AcDbEntity
  8
0
  0
POLYLINE
  5
3EC2
330
3E88
100
AcDbEntity
  8
0
 62
     7
100
AcDb2dPolyline
 66
     1
 10
0.0
 20
0.0
 30
0.0
  0
VERTEX
  5
3EC3
330
3EC2
100
AcDbEntity
  8
0
 62
     7
100
AcDbVertex
100
AcDb2dVertex
 10
92.49978025031255
 20
768.9981771160838
 30
0.0
  0
VERTEX
  5
3EC4
330
3EC2
100
AcDbEntity
  8
0
 62
     7
100
AcDbVertex
100
AcDb2dVertex
 10
92.49978025031255
 20
883.9982204901117
 30
0.0
  0
SEQEND
  5
3EC5
330
3EC2
100
AcDbEntity
  8
0
  0
POLYLINE
  5
3EC6
330
3E88
100
AcDbEntity
  8
0
 62
     7
100
AcDb2dPolyline
 66
     1
 10
0.0
 20
0.0
 30
0.0
  0
VERTEX
  5
3EC7
330
3EC6
100
AcDbEntity
  8
0
 62
     7
100
AcDbVertex
100
AcDb2dVertex
 10
112.5035549306415
 20
768.9981771160838
 30
0.0
  0
VERTEX
  5
3EC8
330
3EC6
100
AcDbEntity
  8
0
 62
     7
100
AcDbVertex
100
AcDb2dVertex
 10
112.5035549306415
 20
883.9982204901117
 30
0.0
  0
SEQEND
  5
3EC9
330
3EC6
100
AcDbEntity
  8
0
  0
POLYLINE
  5
3ECA
330
3E88
100
AcDbEntity
  8
0
 62
     7
100
AcDb2dPolyline
 66
     1
 10
0.0
 20
0.0
 30
0.0
  0
VERTEX
  5
3ECB
330
3ECA
100
AcDbEntity
  8
0
 62
     7
100
AcDbVertex
100
AcDb2dVertex
 10
132.5073296109704
 20
768.9981771160838
 30
0.0
  0
VERTEX
  5
3ECC
330
3ECA
100
AcDbEntity
  8
0
 62
     7
100
AcDbVertex
100
AcDb2dVertex
 10
132.5073296109704
 20
883.9982204901117
 30
0.0
  0
SEQEND
  5
3ECD
330
3ECA
100
AcDbEntity
  8
0
  0
POLYLINE
  5
3ECE
330
3E88
100
AcDbEntity
  8
0
 62
     7
100
AcDb2dPolyline
 66
     1
 10
0.0
 20
0.0
 30
0.0
  0
VERTEX
  5
3ECF
330
3ECE
100
AcDbEntity
  8
0
 62
     7
100
AcDbVertex
100
AcDb2dVertex
 10
152.5054198837485
 20
768.9981771160838
 30
0.0
  0
VERTEX
  5
3ED0
330
3ECE
100
AcDbEntity
  8
0
 62
     7
100
AcDbVertex
100
AcDb2dVertex
 10
152.5054198837485
 20
883.9982204901117
 30
0.0
  0
SEQEND
  5
3ED1
330
3ECE
100
AcDbEntity
  8
0
  0
POLYLINE
  5
3ED2
330
3E88
100
AcDbEntity
  8
0
 62
     7
100
AcDb2dPolyline
 66
     1
 10
0.0
 20
0.0
 30
0.0
  0
VERTEX
  5
3ED3
330
3ED2
100
AcDbEntity
  8
0
 62
     7
100
AcDbVertex
100
AcDb2dVertex
 10
172.5090223093033
 20
768.9981771160838
 30
0.0
  0
VERTEX
  5
3ED4
330
3ED2
100
AcDbEntity
  8
0
 62
     7
100
AcDbVertex
100
AcDb2dVertex
 10
172.5090223093033
 20
883.9982204901117
 30
0.0
  0
SEQEND
  5
3ED5
330
3ED2
100
AcDbEntity
  8
0
  0
POLYLINE
  5
3ED6
330
3E88
100
AcDbEntity
  8
0
 62
     7
100
AcDb2dPolyline
 66
     1
 10
0.0
 20
0.0
 30
0.0
  0
VERTEX
  5
3ED7
330
3ED6
100
AcDbEntity
  8
0
 62
     7
100
AcDbVertex
100
AcDb2dVertex
 10
192.512624734858
 20
768.9981771160838
 30
0.0
  0
VERTEX
  5
3ED8
330
3ED6
100
AcDbEntity
  8
0
 62
     7
100
AcDbVertex
100
AcDb2dVertex
 10
192.512624734858
 20
883.9982204901117
 30
0.0
  0
SEQEND
  5
3ED9
330
3ED6
100
AcDbEntity
  8
0
  0
POLYLINE
  5
3EDA
330
3E88
100
AcDbEntity
  8
0
 62
     7
100
AcDb2dPolyline
 66
     1
 10
0.0
 20
0.0
 30
0.0
  0
VERTEX
  5
3EDB
330
3EDA
100
AcDbEntity
  8
0
 62
     7
100
AcDbVertex
100
AcDb2dVertex
 10
212.5165716699611
 20
768.9981771160838
 30
0.0
  0
VERTEX
  5
3EDC
330
3EDA
100
AcDbEntity
  8
0
 62
     7
100
AcDbVertex
100
AcDb2dVertex
 10
212.5165716699611
 20
883.9982204901117
 30
0.0
  0
SEQEND
  5
3EDD
330
3EDA
100
AcDbEntity
  8
0
  0
POLYLINE
  5
3EDE
330
3E88
100
AcDbEntity
  8
0
 62
     7
100
AcDb2dPolyline
 66
     1
 10
0.0
 20
0.0
 30
0.0
  0
VERTEX
  5
3EDF
330
3EDE
100
AcDbEntity
  8
0
 62
     7
100
AcDbVertex
100
AcDb2dVertex
 10
232.5587591649506
 20
768.9981771160838
 30
0.0
  0
VERTEX
  5
3EE0
330
3EDE
100
AcDbEntity
  8
0
 62
     7
100
AcDbVertex
100
AcDb2dVertex
 10
232.5587591649506
 20
883.9982204901117
 30
0.0
  0
SEQEND
  5
3EE1
330
3EDE
100
AcDbEntity
  8
0
  0
POLYLINE
  5
3EE2
330
3E88
100
AcDbEntity
  8
0
 62
     7
100
AcDb2dPolyline
 66
     1
 10
0.0
 20
0.0
 30
0.0
  0
VERTEX
  5
3EE3
330
3EE2
100
AcDbEntity
  8
0
 62
     7
100
AcDbVertex
100
AcDb2dVertex
 10
252.518264368294
 20
768.9981771160838
 30
0.0
  0
VERTEX
  5
3EE4
330
3EE2
100
AcDbEntity
  8
0
 62
     7
100
AcDbVertex
100
AcDb2dVertex
 10
252.518264368294
 20
883.9982204901117
 30
0.0
  0
SEQEND
  5
3EE5
330
3EE2
100
AcDbEntity
  8
0
  0
POLYLINE
  5
3EE6
330
3E88
100
AcDbEntity
  8
0
 62
     7
100
AcDb2dPolyline
 66
     1
 10
0.0
 20
0.0
 30
0.0
  0
VERTEX
  5
3EE7
330
3EE6
100
AcDbEntity
  8
0
 62
     7
100
AcDbVertex
100
AcDb2dVertex
 10
272.5222113033972
 20
768.9981771160838
 30
0.0
  0
VERTEX
  5
3EE8
330
3EE6
100
AcDbEntity
  8
0
 62
     7
100
AcDbVertex
100
AcDb2dVertex
 10
272.5222113033972
 20
883.9982204901117
 30
0.0
  0
SEQEND
  5
3EE9
330
3EE6
100
AcDbEntity
  8
0
  0
POLYLINE
  5
3EEA
330
3E88
100
AcDbEntity
  8
0
 62
     7
100
AcDb2dPolyline
 66
     1
 10
0.0
 20
0.0
 30
0.0
  0
VERTEX
  5
3EEB
330
3EEA
100
AcDbEntity
  8
0
 62
     7
100
AcDbVertex
100
AcDb2dVertex
 10
292.5258137289519
 20
768.9981771160838
 30
0.0
  0
VERTEX
  5
3EEC
330
3EEA
100
AcDbEntity
  8
0
 62
     7
100
AcDbVertex
100
AcDb2dVertex
 10
292.5258137289519
 20
883.9982204901117
 30
0.0
  0
SEQEND
  5
3EED
330
3EEA
100
AcDbEntity
  8
0
  0
POLYLINE
  5
3EEE
330
3E88
100
AcDbEntity
  8
0
 62
     7
100
AcDb2dPolyline
 66
     1
 10
0.0
 20
0.0
 30
0.0
  0
VERTEX
  5
3EEF
330
3EEE
100
AcDbEntity
  8
0
 62
     7
100
AcDbVertex
100
AcDb2dVertex
 10
312.5239040017302
 20
768.9981771160838
 30
0.0
  0
VERTEX
  5
3EF0
330
3EEE
100
AcDbEntity
  8
0
 62
     7
100
AcDbVertex
100
AcDb2dVertex
 10
312.5239040017302
 20
883.9982204901117
 30
0.0
  0
SEQEND
  5
3EF1
330
3EEE
100
AcDbEntity
  8
0
  0
POLYLINE
  5
3EF2
330
3E88
100
AcDbEntity
  8
0
 62
     7
100
AcDb2dPolyline
 66
     1
 10
0.0
 20
0.0
 30
0.0
  0
VERTEX
  5
3EF3
330
3EF2
100
AcDbEntity
  8
0
 62
     7
100
AcDbVertex
100
AcDb2dVertex
 10
332.5219942745084
 20
768.9981771160838
 30
0.0
  0
VERTEX
  5
3EF4
330
3EF2
100
AcDbEntity
  8
0
 62
     7
100
AcDbVertex
100
AcDb2dVertex
 10
332.5219942745084
 20
883.9982204901117
 30
0.0
  0
SEQEND
  5
3EF5
330
3EF2
100
AcDbEntity
  8
0
  0
POLYLINE
  5
3EF6
330
3E88
100
AcDbEntity
  8
0
 62
     7
100
AcDb2dPolyline
 66
     1
 10
0.0
 20
0.0
 30
0.0
  0
VERTEX
  5
3EF7
330
3EF6
100
AcDbEntity
  8
0
 62
     7
100
AcDbVertex
100
AcDb2dVertex
 10
352.5200845472867
 20
768.9981771160838
 30
0.0
  0
VERTEX
  5
3EF8
330
3EF6
100
AcDbEntity
  8
0
 62
     7
100
AcDbVertex
100
AcDb2dVertex
 10
352.5200845472867
 20
883.9982204901117
 30
0.0
  0
SEQEND
  5
3EF9
330
3EF6
100
AcDbEntity
  8
0
  0
ENDBLK
  5
3EFA
330
3E88
100
AcDbEntity
  8
0
100
AcDbBlockEnd
  0
BLOCK
  5
3EFD
330
3EFC
100
AcDbEntity
  8
0
100
AcDbBlockBegin
  2
812343d
 70
     0
 10
0.0
 20
0.0
 30
0.0
  3
812343d
  1

  0
SPLINE
  5
3EFE
330
3EFC
100
AcDbEntity
  8
0
 62
     7
100
AcDbSpline
210
0.0
220
0.0
230
1.0
 70
     8
 71
     3
 72
     8
 73
     4
 74
     0
 42
0.000000001
 43
0.0000000001
 40
0.0
 40
0.0
 40
0.0
 40
0.0
 40
1.0
 40
1.0
 40
1.0
 40
1.0
 10
165.548206881356
 20
-37.35241427017576
 30
0.0
 10
132.9600151577322
 20
-37.18687743210955
 30
0.0
 10
83.71134166744022
 20
-36.79551458498508
 30
0.0
 10
51.12314994381643
 20
-36.79000243220873
 30
0.0
  0
SPLINE
  5
3EFF
330
3EFC
100
AcDbEntity
  8
0
 62
     7
100
AcDbSpline
210
0.0
220
0.0
230
1.0
 70
    11
 71
     3
 72
    29
 73
    25
 74
     0
 42
0.000000001
 43
0.0000000001
 40
0.0
 40
0.0
 40
0.0
 40
0.0
 40
1.0
 40
1.0
 40
1.0
 40
2.0
 40
2.0
 40
2.0
 40
3.0
 40
3.0
 40
3.0
 40
4.0
 40
4.0
 40
4.0
 40
5.0
 40
5.0
 40
5.0
 40
6.0
 40
6.0
 40
6.0
 40
7.0
 40
7.0
 40
7.0
 40
8.0
 40
8.0
 40
8.0
 40
8.0
 10
-205.0000623402431
 20
-178.9990654391912
 30
0.0
 10
-205.0000623402431
 20
-178.9990654391912
 30
0.0
 10
-205.0000623402431
 20
-20.0020521325863
 30
0.0
 10
-205.0000623402431
 20
-19.99653997980988
 30
0.0
 10
-205.0000623402431
 20
-8.953458656615794
 30
0.0
 10
-196.0412637856251
 20
0.0
 30
0.0
 10
-184.9985269719796
 20
0.0
 30
0.0
 10
-184.9985269719796
 20
0.0
 30
0.0
 10
185.0036946152074
 20
0.0
 30
0.0
 10
185.0036946152074
 20
0.0
 30
0.0
 10
196.0521158364036
 20
0.0
 30
0.0
 10
205.0055744930194
 20
-8.953458656615794
 30
0.0
 10
205.000062340243
 20
-20.0020521325863
 30
0.0
 10
205.000062340243
 20
-20.0020521325863
 30
0.0
 10
205.000062340243
 20
-178.9990654391912
 30
0.0
 10
205.000062340243
 20
-178.9990654391912
 30
0.0
 10
205.000062340243
 20
-178.9990654391912
 30
0.0
 10
205.000062340243
 20
-179.0045775919676
 30
0.0
 10
205.000062340243
 20
-179.0045775919676
 30
0.0
 10
205.000062340243
 20
-281.7278509495333
 30
0.0
 10
113.2175509699595
 20
-364.9999429426042
 30
0.0
 10
-0.0000000000000142
 20
-364.9999429426042
 30
0.0
 10
-113.2175509699595
 20
-364.9999429426042
 30
0.0
 10
-205.0000623402431
 20
-281.7223387967569
 30
0.0
 10
-205.0000623402431
 20
-178.9990654391912
 30
0.0
  0
SPLINE
  5
3F00
330
3EFC
100
AcDbEntity
  8
0
 62
     7
100
AcDbSpline
210
0.0
220
0.0
230
1.0
 70
    11
 71
     3
 72
    56
 73
    52
 74
     0
 42
0.000000001
 43
0.0000000001
 40
0.0
 40
0.0
 40
0.0
 40
0.0
 40
1.0
 40
1.0
 40
1.0
 40
2.0
 40
2.0
 40
2.0
 40
3.0
 40
3.0
 40
3.0
 40
4.0
 40
4.0
 40
4.0
 40
5.0
 40
5.0
 40
5.0
 40
6.0
 40
6.0
 40
6.0
 40
7.0
 40
7.0
 40
7.0
 40
8.0
 40
8.0
 40
8.0
 40
9.0
 40
9.0
 40
9.0
 40
10.0
 40
10.0
 40
10.0
 40
11.0
 40
11.0
 40
11.0
 40
12.0
 40
12.0
 40
12.0
 40
13.0
 40
13.0
 40
13.0
 40
14.0
 40
14.0
 40
14.0
 40
15.0
 40
15.0
 40
15.0
 40
16.0
 40
16.0
 40
16.0
 40
17.0
 40
17.0
 40
17.0
 40
17.0
 10
-185.9245686384147
 20
-4.465705022755059
 30
0.0
 10
-193.9628376793739
 20
-4.43814425887308
 30
0.0
 10
-200.5067965536059
 20
-10.93835042044253
 30
0.0
 10
-200.5288451647116
 20
-18.97661946140175
 30
0.0
 10
-200.5288451647116
 20
-19.00969237806009
 30
0.0
 10
-200.5288451647116
 20
-19.04276529471855
 30
0.0
 10
-200.5288451647116
 20
-19.07032605860053
 30
0.0
 10
-200.5288451647116
 20
-19.07032605860053
 30
0.0
 10
-200.5178208591588
 20
-19.0482774474948
 30
0.0
 10
-200.5178208591588
 20
-19.0482774474948
 30
0.0
 10
-200.5178208591588
 20
-19.0482774474948
 30
0.0
 10
-200.5178208591588
 20
-178.9990654391912
 30
0.0
 10
-200.5178208591588
 20
-178.9990654391912
 30
0.0
 10
-200.5178208591588
 20
-178.9990654391912
 30
0.0
 10
-200.5508937758172
 20
-178.9659925225328
 30
0.0
 10
-200.5508937758172
 20
-178.9659925225328
 30
0.0
 10
-200.0988972481524
 20
-208.3903808072774
 30
0.0
 10
-192.6340643507129
 20
-236.4858235085869
 30
0.0
 10
-178.2228854263644
 20
-262.1776230898376
 30
0.0
 10
-150.4862494198438
 20
-311.6316242710504
 30
0.0
 10
-97.95715600849684
 20
-346.1611273006125
 30
0.0
 10
-42.61100801886115
 20
-356.371701299796
 30
0.0
 10
14.36708170213737
 20
-366.879931548905
 30
0.0
 10
73.06530759892112
 20
-356.0354599804356
 30
0.0
 10
121.305257131132
 20
-323.5292615293607
 30
0.0
 10
169.4955972883553
 20
-291.0561359949443
 30
0.0
 10
199.6081433962785
 20
-237.0976724667672
 30
0.0
 10
200.5617458265956
 20
-178.9659925225328
 30
0.0
 10
200.5617458265956
 20
-178.9659925225328
 30
0.0
 10
200.5286729099372
 20
-178.9990654391912
 30
0.0
 10
200.5286729099372
 20
-178.9990654391912
 30
0.0
 10
200.5286729099372
 20
-178.9990654391912
 30
0.0
 10
200.5286729099372
 20
-19.0482774474948
 30
0.0
 10
200.5286729099372
 20
-19.0482774474948
 30
0.0
 10
200.5286729099372
 20
-19.0482774474948
 30
0.0
 10
200.5341850627137
 20
-19.07032605860053
 30
0.0
 10
200.5341850627137
 20
-19.07032605860053
 30
0.0
 10
200.5617458265956
 20
-11.03756917041761
 30
0.0
 10
194.0673963273512
 20
-4.493265786637152
 30
0.0
 10
186.0292995411663
 20
-4.465705022755059
 30
0.0
 10
185.9962266245079
 20
-4.465705022755059
 30
0.0
 10
185.9631537078495
 20
-4.465705022755059
 30
0.0
 10
185.9300807911911
 20
-4.465705022755059
 30
0.0
 10
185.9300807911911
 20
-4.465705022755059
 30
0.0
 10
185.9576415550731
 20
-4.476729328307897
 30
0.0
 10
185.9576415550731
 20
-4.476729328307897
 30
0.0
 10
185.9576415550731
 20
-4.476729328307897
 30
0.0
 10
-185.9521294022967
 20
-4.476729328307897
 30
0.0
 10
-185.9521294022967
 20
-4.476729328307897
 30
0.0
 10
-185.9521294022967
 20
-4.476729328307897
 30
0.0
 10
-185.9245686384147
 20
-4.465705022755059
 30
0.0
 10
-185.9245686384147
 20
-4.465705022755059
 30
0.0
  0
SPLINE
  5
3F01
330
3EFC
100
AcDbEntity
  8
0
 62
     7
100
AcDbSpline
210
0.0
220
0.0
230
1.0
 70
    11
 71
     3
 72
    17
 73
    13
 74
     0
 42
0.000000001
 43
0.0000000001
 40
0.0
 40
0.0
 40
0.0
 40
0.0
 40
1.0
 40
1.0
 40
1.0
 40
2.0
 40
2.0
 40
2.0
 40
3.0
 40
3.0
 40
3.0
 40
4.0
 40
4.0
 40
4.0
 40
4.0
 10
-23.00083549772203
 20
-80.4881103314404
 30
0.0
 10
-23.00083549772203
 20
-67.76899005467232
 30
0.0
 10
-12.70775146166683
 20
-57.47022161106645
 30
0.0
 10
-0.0000000000000142
 20
-57.47022161106645
 30
0.0
 10
12.70775146166679
 20
-57.47022161106645
 30
0.0
 10
23.00617539572414
 20
-67.76899005467232
 30
0.0
 10
23.00617539572414
 20
-80.4881103314404
 30
0.0
 10
23.00617539572414
 20
-93.18518199710302
 30
0.0
 10
12.70775146166679
 20
-103.4949747462617
 30
0.0
 10
-0.0000000000000142
 20
-103.4949747462617
 30
0.0
 10
-12.70775146166683
 20
-103.4949747462617
 30
0.0
 10
-23.00083549772203
 20
-93.18518199710302
 30
0.0
 10
-23.00083549772203
 20
-80.4881103314404
 30
0.0
  0
SPLINE
  5
3F02
330
3EFC
100
AcDbEntity
  8
0
 62
     7
100
AcDbSpline
210
0.0
220
0.0
230
1.0
 70
    11
 71
     3
 72
    17
 73
    13
 74
     0
 42
0.000000001
 43
0.0000000001
 40
0.0
 40
0.0
 40
0.0
 40
0.0
 40
1.0
 40
1.0
 40
1.0
 40
2.0
 40
2.0
 40
2.0
 40
3.0
 40
3.0
 40
3.0
 40
4.0
 40
4.0
 40
4.0
 40
4.0
 10
-37.46179605183249
 20
-80.4881103314404
 30
0.0
 10
-37.46179605183249
 20
-59.78584254147711
 30
0.0
 10
-20.68521456731136
 20
-43.01442870018393
 30
0.0
 10
-0.0000000000000142
 20
-43.01442870018393
 30
0.0
 10
20.69072672008771
 20
-43.01442870018393
 30
0.0
 10
37.46162379705821
 20
-59.78584254147711
 30
0.0
 10
37.46162379705821
 20
-80.4881103314404
 30
0.0
 10
37.46162379705821
 20
-101.179353815851
 30
0.0
 10
20.69072672008771
 20
-117.9507676571442
 30
0.0
 10
-0.0000000000000142
 20
-117.9507676571442
 30
0.0
 10
-20.68521456731136
 20
-117.9507676571442
 30
0.0
 10
-37.46179605183249
 20
-101.179353815851
 30
0.0
 10
-37.46179605183249
 20
-80.4881103314404
 30
0.0
  0
POLYLINE
  5
3F03
330
3EFC
100
AcDbEntity
  8
0
 62
     7
100
AcDb2dPolyline
 66
     1
 10
0.0
 20
0.0
 30
0.0
  0
VERTEX
  5
3F04
330
3F03
100
AcDbEntity
  8
0
 62
     7
100
AcDbVertex
100
AcDb2dVertex
 10
-0.0000000000000142
 20
-24.28034396094381
 30
0.0
  0
VERTEX
  5
3F05
330
3F03
100
AcDbEntity
  8
0
 62
     7
100
AcDbVertex
100
AcDb2dVertex
 10
-0.0000000000000142
 20
-136.6848523963843
 30
0.0
  0
SEQEND
  5
3F06
330
3F03
100
AcDbEntity
  8
0
  0
POLYLINE
  5
3F07
330
3EFC
100
AcDbEntity
  8
0
 62
     7
100
AcDb2dPolyline
 66
     1
 10
0.0
 20
0.0
 30
0.0
  0
VERTEX
  5
3F08
330
3F07
100
AcDbEntity
  8
0
 62
     7
100
AcDbVertex
100
AcDb2dVertex
 10
-56.20087617952619
 20
-80.4881103314404
 30
0.0
  0
VERTEX
  5
3F09
330
3F07
100
AcDbEntity
  8
0
 62
     7
100
AcDbVertex
100
AcDb2dVertex
 10
56.19519177197547
 20
-80.4881103314404
 30
0.0
  0
SEQEND
  5
3F0A
330
3F07
100
AcDbEntity
  8
0
  0
SPLINE
  5
3F0B
330
3EFC
100
AcDbEntity
  8
0
 62
     7
100
AcDbSpline
210
0.0
220
0.0
230
1.0
 70
    11
 71
     3
 72
    26
 73
    22
 74
     0
 42
0.000000001
 43
0.0000000001
 40
0.0
 40
0.0
 40
0.0
 40
0.0
 40
1.0
 40
1.0
 40
1.0
 40
2.0
 40
2.0
 40
2.0
 40
3.0
 40
3.0
 40
3.0
 40
4.0
 40
4.0
 40
4.0
 40
5.0
 40
5.0
 40
5.0
 40
6.0
 40
6.0
 40
6.0
 40
7.0
 40
7.0
 40
7.0
 40
7.0
 10
-51.12332219859071
 20
-36.79000243220873
 30
0.0
 10
-52.23143716142132
 20
-36.79000243220873
 30
0.0
 10
-53.12457816597235
 20
-37.68314343675979
 30
0.0
 10
-53.12457816597235
 20
-38.79125839959039
 30
0.0
 10
-53.12457816597235
 20
-38.79125839959039
 30
0.0
 10
-53.12457816597235
 20
-80.71410859527293
 30
0.0
 10
-53.12457816597235
 20
-80.71410859527293
 30
0.0
 10
-53.12457816597235
 20
-110.0558145883714
 30
0.0
 10
-29.34084471922731
 20
-133.8454046974414
 30
0.0
 10
-0.0000000000000142
 20
-133.8454046974414
 30
0.0
 10
29.34084471922728
 20
-133.8454046974414
 30
0.0
 10
53.11889375842167
 20
-110.0558145883714
 30
0.0
 10
53.11889375842167
 20
-80.71410859527293
 30
0.0
 10
53.11889375842167
 20
-80.71410859527293
 30
0.0
 10
53.11889375842167
 20
-38.79125839959039
 30
0.0
 10
53.11889375842167
 20
-38.79125839959039
 30
0.0
 10
53.11889375842167
 20
-37.68314343675979
 30
0.0
 10
52.23126490664703
 20
-36.79000243220873
 30
0.0
 10
51.12314994381643
 20
-36.79000243220873
 30
0.0
 10
51.12314994381643
 20
-36.79000243220873
 30
0.0
 10
-51.12332219859071
 20
-36.79000243220873
 30
0.0
 10
-51.12332219859071
 20
-36.79000243220873
 30
0.0
  0
SPLINE
  5
3F0C
330
3EFC
100
AcDbEntity
  8
0
 62
     7
100
AcDbSpline
210
0.0
220
0.0
230
1.0
 70
     8
 71
     3
 72
     8
 73
     4
 74
     0
 42
0.000000001
 43
0.0000000001
 40
0.0
 40
0.0
 40
0.0
 40
0.0
 40
1.0
 40
1.0
 40
1.0
 40
1.0
 10
-51.12332219859071
 20
-36.79000243220873
 30
0.0
 10
-83.71134166744027
 20
-36.79000243220873
 30
0.0
 10
-167.9298013903093
 20
-37.18687743210955
 30
0.0
 10
-200.5178208591588
 20
-37.35241427017576
 30
0.0
  0
SPLINE
  5
3F0D
330
3EFC
100
AcDbEntity
  8
0
 62
     7
100
AcDbSpline
210
0.0
220
0.0
230
1.0
 70
     8
 71
     3
 72
     8
 73
     4
 74
     0
 42
0.000000001
 43
0.0000000001
 40
0.0
 40
0.0
 40
0.0
 40
0.0
 40
1.0
 40
1.0
 40
1.0
 40
1.0
 10
200.5286729099372
 20
-37.35241427017576
 30
0.0
 10
167.9353135430856
 20
-37.18687743210955
 30
0.0
 10
83.71134166744022
 20
-36.79551458498508
 30
0.0
 10
51.12314994381643
 20
-36.79000243220873
 30
0.0
  0
ENDBLK
  5
3F0E
330
3EFC
100
AcDbEntity
  8
0
100
AcDbBlockEnd
  0
BLOCK
  5
4270
330
426F
100
AcDbEntity
  8
0
100
AcDbBlockBegin
  2
*D6
 70
     1
 10
0.0
 20
0.0
 30
0.0
  3
*D6
  1

  0
LINE
  5
4272
330
426F
100
AcDbEntity
  8
0
 62
     0
370
    -2
100
AcDbLine
 10
2545.456436710963
 20
4096.916658052858
 30
0.0
 11
2545.456436710963
 21
4913.757445361376
 31
0.0
  0
LINE
  5
4273
330
426F
100
AcDbEntity
  8
0
 62
     0
370
    -2
100
AcDbLine
 10
13367.27787953767
 20
4359.224987268912
 30
0.0
 11
13367.27787953767
 21
4913.757445361376
 31
0.0
  0
LINE
  5
4274
330
426F
100
AcDbEntity
  8
0
 62
     0
370
    -2
100
AcDbLine
 10
2553.456436710963
 20
4913.757445361376
 30
0.0
 11
13359.27787953767
 21
4913.757445361376
 31
0.0
  0
INSERT
  5
4275
330
426F
100
AcDbEntity
  8
0
 62
     0
370
    -2
100
AcDbBlockReference
  2
_DOT
 10
2545.456436710963
 20
4913.757445361376
 30
0.0
 41
8.0
 42
8.0
 43
8.0
 50
180.0
  0
INSERT
  5
4276
330
426F
100
AcDbEntity
  8
0
 62
     0
370
    -2
100
AcDbBlockReference
  2
_DOT
 10
13367.27787953767
 20
4913.757445361376
 30
0.0
 41
8.0
 42
8.0
 43
8.0
  0
MTEXT
  5
4277
330
426F
100
AcDbEntity
  8
0
 62
     0
100
AcDbMText
 10
7956.367158124315
 20
4939.761196768153
 30
0.0
 40
20.0
 41
0.0
 46
0.0
 71
     5
 72
     1
  1
\A1;10822
  7
ＭＳ ゴシック
 73
     1
 44
1.0
  0
POINT
  5
4278
330
426F
100
AcDbEntity
  8
Defpoints
 62
     0
100
AcDbPoint
 10
2545.456436710963
 20
4091.916658052858
 30
0.0
  0
POINT
  5
4279
330
426F
100
AcDbEntity
  8
Defpoints
 62
     0
100
AcDbPoint
 10
13367.27787953767
 20
4354.224987268912
 30
0.0
  0
POINT
  5
427A
330
426F
100
AcDbEntity
  8
Defpoints
 62
     0
100
AcDbPoint
 10
13367.27787953767
 20
4913.757445361376
 30
0.0
  0
ENDBLK
  5
4271
330
426F
100
AcDbEntity
  8
0
100
AcDbBlockEnd
  0
BLOCK
  5
427F
330
427E
100
AcDbEntity
  8
0
100
AcDbBlockBegin
  2
*D7
 70
     1
 10
0.0
 20
0.0
 30
0.0
  3
*D7
  1

  0
LINE
  5
4281
330
427E
100
AcDbEntity
  8
0
 62
     0
370
    -2
100
AcDbLine
 10
4329.737011085022
 20
3286.916658051182
 30
0.0
 11
4329.737011085022
 21
3327.596645024688
 31
0.0
  0
LINE
  5
4282
330
427E
100
AcDbEntity
  8
0
 62
     0
370
    -2
100
AcDbLine
 10
4411.737011085022
 20
3286.916658051182
 30
0.0
 11
4411.737011085022
 21
3327.596645024688
 31
0.0
  0
LINE
  5
4283
330
427E
100
AcDbEntity
  8
0
 62
     0
370
    -2
100
AcDbLine
 10
4337.737011085022
 20
3327.596645024688
 30
0.0
 11
4403.737011085022
 21
3327.596645024688
 31
0.0
  0
INSERT
  5
4284
330
427E
100
AcDbEntity
  8
0
 62
     0
370
    -2
100
AcDbBlockReference
  2
_DOT
 10
4329.737011085022
 20
3327.596645024688
 30
0.0
 41
8.0
 42
8.0
 43
8.0
 50
180.0
  0
INSERT
  5
4285
330
427E
100
AcDbEntity
  8
0
 62
     0
370
    -2
100
AcDbBlockReference
  2
_DOT
 10
4411.737011085022
 20
3327.596645024688
 30
0.0
 41
8.0
 42
8.0
 43
8.0
  0
MTEXT
  5
4286
330
427E
100
AcDbEntity
  8
0
 62
     0
100
AcDbMText
 10
4370.737011085022
 20
3353.600396431466
 30
0.0
 40
20.0
 41
0.0
 46
0.0
 71
     5
 72
     1
  1
\A1;82
  7
ＭＳ ゴシック
 73
     1
 44
1.0
  0
POINT
  5
4287
330
427E
100
AcDbEntity
  8
Defpoints
 62
     0
100
AcDbPoint
 10
4329.737011085022
 20
3281.916658051182
 30
0.0
  0
POINT
  5
4288
330
427E
100
AcDbEntity
  8
Defpoints
 62
     0
100
AcDbPoint
 10
4411.737011085022
 20
3281.916658051182
 30
0.0
  0
POINT
  5
4289
330
427E
100
AcDbEntity
  8
Defpoints
 62
     0
100
AcDbPoint
 10
4411.737011085022
 20
3327.596645024688
 30
0.0
  0
ENDBLK
  5
4280
330
427E
100
AcDbEntity
  8
0
100
AcDbBlockEnd
  0
BLOCK
  5
428E
330
428D
100
AcDbEntity
  8
0
100
AcDbBlockBegin
  2
*D8
 70
     1
 10
0.0
 20
0.0
 30
0.0
  3
*D8
  1

  0
LINE
  5
4290
330
428D
100
AcDbEntity
  8
0
 62
     0
370
    -2
100
AcDbLine
 10
4329.737011085022
 20
3286.916658051182
 30
0.0
 11
4329.737011085022
 21
3307.515447657025
 31
0.0
  0
LINE
  5
4291
330
428D
100
AcDbEntity
  8
0
 62
     0
370
    -2
100
AcDbLine
 10
4411.737011085022
 20
3286.916658051182
 30
0.0
 11
4411.737011085022
 21
3307.515447657025
 31
0.0
  0
LINE
  5
4292
330
428D
100
AcDbEntity
  8
0
 62
     0
370
    -2
100
AcDbLine
 10
4337.737011085022
 20
3307.515447657025
 30
0.0
 11
4403.737011085022
 21
3307.515447657025
 31
0.0
  0
INSERT
  5
4293
330
428D
100
AcDbEntity
  8
0
 62
     0
370
    -2
100
AcDbBlockReference
  2
_DOT
 10
4329.737011085022
 20
3307.515447657025
 30
0.0
 41
8.0
 42
8.0
 43
8.0
 50
180.0
  0
INSERT
  5
4294
330
428D
100
AcDbEntity
  8
0
 62
     0
370
    -2
100
AcDbBlockReference
  2
_DOT
 10
4411.737011085022
 20
3307.515447657025
 30
0.0
 41
8.0
 42
8.0
 43
8.0
  0
MTEXT
  5
4295
330
428D
100
AcDbEntity
  8
0
 62
     0
100
AcDbMText
 10
4370.737011085022
 20
3333.519199063803
 30
0.0
 40
20.0
 41
0.0
 46
0.0
 71
     5
 72
     1
  1
\A1;82
  7
ＭＳ ゴシック
 73
     1
 44
1.0
  0
POINT
  5
4296
330
428D
100
AcDbEntity
  8
Defpoints
 62
     0
100
AcDbPoint
 10
4329.737011085022
 20
3281.916658051182
 30
0.0
  0
POINT
  5
4297
330
428D
100
AcDbEntity
  8
Defpoints
 62
     0
100
AcDbPoint
 10
4411.737011085022
 20
3281.916658051182
 30
0.0
  0
POINT
  5
4298
330
428D
100
AcDbEntity
  8
Defpoints
 62
     0
100
AcDbPoint
 10
4411.737011085022
 20
3307.515447657025
 30
0.0
  0
ENDBLK
  5
428F
330
428D
100
AcDbEntity
  8
0
100
AcDbBlockEnd
  0
BLOCK
  5
429B
330
429A
100
AcDbEntity
  8
0
100
AcDbBlockBegin
  2
*D9
 70
     1
 10
0.0
 20
0.0
 30
0.0
  3
*D9
  1

  0
LINE
  5
429D
330
429A
100
AcDbEntity
  8
0
 62
     0
370
    -2
100
AcDbLine
 10
144.3165100943875
 20
1530.735009672066
 30
0.0
 11
144.3165100943875
 21
1641.377875037652
 31
0.0
  0
LINE
  5
429E
330
429A
100
AcDbEntity
  8
0
 62
     0
370
    -2
100
AcDbLine
 10
1226.316510094387
 20
1530.735009672066
 30
0.0
 11
1226.316510094387
 21
1641.377875037652
 31
0.0
  0
LINE
  5
429F
330
429A
100
AcDbEntity
  8
0
 62
     0
370
    -2
100
AcDbLine
 10
152.3165100943875
 20
1641.377875037652
 30
0.0
 11
1218.316510094387
 21
1641.377875037652
 31
0.0
  0
INSERT
  5
42A0
330
429A
100
AcDbEntity
  8
0
 62
     0
370
    -2
100
AcDbBlockReference
  2
_DOT
 10
144.3165100943875
 20
1641.377875037652
 30
0.0
 41
8.0
 42
8.0
 43
8.0
 50
180.0
  0
INSERT
  5
42A1
330
429A
100
AcDbEntity
  8
0
 62
     0
370
    -2
100
AcDbBlockReference
  2
_DOT
 10
1226.316510094387
 20
1641.377875037652
 30
0.0
 41
8.0
 42
8.0
 43
8.0
  0
MTEXT
  5
42A2
330
429A
100
AcDbEntity
  8
0
 62
     0
100
AcDbMText
 10
685.3165100943875
 20
1667.38162644443
 30
0.0
 40
20.0
 41
0.0
 46
0.0
 71
     5
 72
     1
  1
\A1;1082
  7
ＭＳ ゴシック
 73
     1
 44
1.0
  0
POINT
  5
42A3
330
429A
100
AcDbEntity
  8
Defpoints
 62
     0
100
AcDbPoint
 10
144.3165100943875
 20
1525.735009672066
 30
0.0
  0
POINT
  5
42A4
330
429A
100
AcDbEntity
  8
Defpoints
 62
     0
100
AcDbPoint
 10
1226.316510094387
 20
1525.735009672066
 30
0.0
  0
POINT
  5
42A5
330
429A
100
AcDbEntity
  8
Defpoints
 62
     0
100
AcDbPoint
 10
1226.316510094387
 20
1641.377875037652
 30
0.0
  0
ENDBLK
  5
429C
330
429A
100
AcDbEntity
  8
0
100
AcDbBlockEnd
  0
BLOCK
  5
42AA
330
42A9
100
AcDbEntity
  8
0
100
AcDbBlockBegin
  2
*D10
 70
     1
 10
0.0
 20
0.0
 30
0.0
  3
*D10
  1

  0
LINE
  5
42AC
330
42A9
100
AcDbEntity
  8
0
 62
     0
370
    -2
100
AcDbLine
 10
185.3165100944811
 20
1530.735009672066
 30
0.0
 11
185.3165100944811
 21
1581.184204049239
 31
0.0
  0
LINE
  5
42AD
330
42A9
100
AcDbEntity
  8
0
 62
     0
370
    -2
100
AcDbLine
 10
1185.316510094294
 20
1530.735009672066
 30
0.0
 11
1185.316510094294
 21
1581.184204049239
 31
0.0
  0
LINE
  5
42AE
330
42A9
100
AcDbEntity
  8
0
 62
     0
370
    -2
100
AcDbLine
 10
193.3165100944811
 20
1581.184204049239
 30
0.0
 11
1177.316510094294
 21
1581.184204049239
 31
0.0
  0
INSERT
  5
42AF
330
42A9
100
AcDbEntity
  8
0
 62
     0
370
    -2
100
AcDbBlockReference
  2
_DOT
 10
185.3165100944811
 20
1581.184204049239
 30
0.0
 41
8.0
 42
8.0
 43
8.0
 50
180.0
  0
INSERT
  5
42B0
330
42A9
100
AcDbEntity
  8
0
 62
     0
370
    -2
100
AcDbBlockReference
  2
_DOT
 10
1185.316510094294
 20
1581.184204049239
 30
0.0
 41
8.0
 42
8.0
 43
8.0
  0
MTEXT
  5
42B1
330
42A9
100
AcDbEntity
  8
0
 62
     0
100
AcDbMText
 10
685.3165100943875
 20
1607.187955456016
 30
0.0
 40
20.0
 41
0.0
 46
0.0
 71
     5
 72
     1
  1
\A1;1000
  7
ＭＳ ゴシック
 73
     1
 44
1.0
  0
POINT
  5
42B2
330
42A9
100
AcDbEntity
  8
Defpoints
 62
     0
100
AcDbPoint
 10
185.3165100944811
 20
1525.735009672066
 30
0.0
  0
POINT
  5
42B3
330
42A9
100
AcDbEntity
  8
Defpoints
 62
     0
100
AcDbPoint
 10
1185.316510094294
 20
1525.735009672066
 30
0.0
  0
POINT
  5
42B4
330
42A9
100
AcDbEntity
  8
Defpoints
 62
     0
100
AcDbPoint
 10
1185.316510094294
 20
1581.184204049239
 30
0.0
  0
ENDBLK
  5
42AB
330
42A9
100
AcDbEntity
  8
0
100
AcDbBlockEnd
  0
BLOCK
  5
4E0C
330
4E0B
100
AcDbEntity
  8
0
100
AcDbBlockBegin
  2
block 3
 70
     0
 10
0.0
 20
0.0
 30
0.0
  3
block 3
  1

  0
POLYLINE
  5
4E0D
330
4E0B
100
AcDbEntity
  8
レイヤー 1
370
     0
100
AcDb2dPolyline
 66
     1
 10
0.0
 20
0.0
 30
0.0
  0
VERTEX
  5
4E0E
330
4E0D
100
AcDbEntity
  8
レイヤー 1
370
     0
100
AcDbVertex
100
AcDb2dVertex
 10
0.0
 20
100.0001636008023
 30
0.0
  0
VERTEX
  5
4E0F
330
4E0D
100
AcDbEntity
  8
レイヤー 1
370
     0
100
AcDbVertex
100
AcDb2dVertex
 10
100.0761280063654
 20
100.0001636008023
 30
0.0
  0
VERTEX
  5
4E10
330
4E0D
100
AcDbEntity
  8
レイヤー 1
370
     0
100
AcDbVertex
100
AcDb2dVertex
 10
100.0761280063654
 20
0.0
 30
0.0
  0
VERTEX
  5
4E11
330
4E0D
100
AcDbEntity
  8
レイヤー 1
370
     0
100
AcDbVertex
100
AcDb2dVertex
 10
0.0
 20
0.0
 30
0.0
  0
VERTEX
  5
4E12
330
4E0D
100
AcDbEntity
  8
レイヤー 1
370
     0
100
AcDbVertex
100
AcDb2dVertex
 10
0.0
 20
100.0001636008023
 30
0.0
  0
SEQEND
  5
4E13
330
4E0D
100
AcDbEntity
  8
レイヤー 1
370
     0
  0
POLYLINE
  5
4E14
330
4E0B
100
AcDbEntity
  8
レイヤー 1
370
     0
100
AcDb2dPolyline
 66
     1
 10
0.0
 20
0.0
 30
0.0
  0
VERTEX
  5
4E15
330
4E14
100
AcDbEntity
  8
レイヤー 1
370
     0
100
AcDbVertex
100
AcDb2dVertex
 10
84.79091827384097
 20
31.8774895544195
 30
0.0
  0
VERTEX
  5
4E16
330
4E14
100
AcDbEntity
  8
レイヤー 1
370
     0
100
AcDbVertex
100
AcDb2dVertex
 10
80.79081526707166
 20
31.20225039385901
 30
0.0
  0
VERTEX
  5
4E17
330
4E14
100
AcDbEntity
  8
レイヤー 1
370
     0
100
AcDbVertex
100
AcDb2dVertex
 10
80.79081526707166
 20
32.5523842052042
 30
0.0
  0
VERTEX
  5
4E18
330
4E14
100
AcDbEntity
  8
レイヤー 1
370
     0
100
AcDbVertex
100
AcDb2dVertex
 10
84.79091827384097
 20
31.8774895544195
 30
0.0
  0
SEQEND
  5
4E19
330
4E14
100
AcDbEntity
  8
レイヤー 1
370
     0
  0
HATCH
  5
4E1A
330
4E0B
100
AcDbEntity
  8
レイヤー 1
 62
     7
420
 16777215
100
AcDbHatch
 10
0.0
 20
0.0
 30
0.0
210
0.0
220
0.0
230
1.0
  2
SOLID
 70
     1
 71
     0
 91
        1
 92
        1
 93
        3
 72
     1
 10
84.79091827384097
 20
31.8774895544195
 11
80.79081526707166
 21
31.20225039385901
 72
     1
 10
80.79081526707166
 20
31.20225039385901
 11
80.79081526707166
 21
32.5523842052042
 72
     1
 10
80.79081526707166
 20
32.5523842052042
 11
84.79091827384097
 21
31.8774895544195
 97
        0
 75
     2
 76
     1
 98
        0
  0
POLYLINE
  5
4E1B
330
4E0B
100
AcDbEntity
  8
レイヤー 1
370
     0
100
AcDb2dPolyline
 66
     1
 10
0.0
 20
0.0
 30
0.0
  0
VERTEX
  5
4E1C
330
4E1B
100
AcDbEntity
  8
レイヤー 1
370
     0
100
AcDbVertex
100
AcDb2dVertex
 10
84.79091827384097
 20
31.8774895544195
 30
0.0
  0
VERTEX
  5
4E1D
330
4E1B
100
AcDbEntity
  8
レイヤー 1
370
     0
100
AcDbVertex
100
AcDb2dVertex
 10
80.79081526707166
 20
31.20225039385901
 30
0.0
  0
VERTEX
  5
4E1E
330
4E1B
100
AcDbEntity
  8
レイヤー 1
370
     0
100
AcDbVertex
100
AcDb2dVertex
 10
80.79081526707166
 20
32.5523842052042
 30
0.0
  0
VERTEX
  5
4E1F
330
4E1B
100
AcDbEntity
  8
レイヤー 1
370
     0
100
AcDbVertex
100
AcDb2dVertex
 10
84.79091827384097
 20
31.8774895544195
 30
0.0
  0
SEQEND
  5
4E20
330
4E1B
100
AcDbEntity
  8
レイヤー 1
370
     0
  0
POLYLINE
  5
4E21
330
4E0B
100
AcDbEntity
  8
レイヤー 1
370
     0
100
AcDb2dPolyline
 66
     1
 10
0.0
 20
0.0
 30
0.0
  0
VERTEX
  5
4E22
330
4E21
100
AcDbEntity
  8
レイヤー 1
370
     0
100
AcDbVertex
100
AcDb2dVertex
 10
87.59109373151223
 20
31.8774895544195
 30
0.0
  0
VERTEX
  5
4E23
330
4E21
100
AcDbEntity
  8
レイヤー 1
370
     0
100
AcDbVertex
100
AcDb2dVertex
 10
91.59119673828155
 20
32.5523842052042
 30
0.0
  0
VERTEX
  5
4E24
330
4E21
100
AcDbEntity
  8
レイヤー 1
370
     0
100
AcDbVertex
100
AcDb2dVertex
 10
91.59119673828155
 20
31.20225039385901
 30
0.0
  0
VERTEX
  5
4E25
330
4E21
100
AcDbEntity
  8
レイヤー 1
370
     0
100
AcDbVertex
100
AcDb2dVertex
 10
87.59109373151223
 20
31.8774895544195
 30
0.0
  0
SEQEND
  5
4E26
330
4E21
100
AcDbEntity
  8
レイヤー 1
370
     0
  0
HATCH
  5
4E27
330
4E0B
100
AcDbEntity
  8
レイヤー 1
 62
     7
420
 16777215
100
AcDbHatch
 10
0.0
 20
0.0
 30
0.0
210
0.0
220
0.0
230
1.0
  2
SOLID
 70
     1
 71
     0
 91
        1
 92
        1
 93
        3
 72
     1
 10
87.59109373151223
 20
31.8774895544195
 11
91.59119673828155
 21
32.5523842052042
 72
     1
 10
91.59119673828155
 20
32.5523842052042
 11
91.59119673828155
 21
31.20225039385901
 72
     1
 10
91.59119673828155
 20
31.20225039385901
 11
87.59109373151223
 21
31.8774895544195
 97
        0
 75
     2
 76
     1
 98
        0
  0
POLYLINE
  5
4E28
330
4E0B
100
AcDbEntity
  8
レイヤー 1
370
     0
100
AcDb2dPolyline
 66
     1
 10
0.0
 20
0.0
 30
0.0
  0
VERTEX
  5
4E29
330
4E28
100
AcDbEntity
  8
レイヤー 1
370
     0
100
AcDbVertex
100
AcDb2dVertex
 10
87.59109373151223
 20
31.8774895544195
 30
0.0
  0
VERTEX
  5
4E2A
330
4E28
100
AcDbEntity
  8
レイヤー 1
370
     0
100
AcDbVertex
100
AcDb2dVertex
 10
91.59119673828155
 20
32.5523842052042
 30
0.0
  0
VERTEX
  5
4E2B
330
4E28
100
AcDbEntity
  8
レイヤー 1
370
     0
100
AcDbVertex
100
AcDb2dVertex
 10
91.59119673828155
 20
31.20225039385901
 30
0.0
  0
VERTEX
  5
4E2C
330
4E28
100
AcDbEntity
  8
レイヤー 1
370
     0
100
AcDbVertex
100
AcDb2dVertex
 10
87.59109373151223
 20
31.8774895544195
 30
0.0
  0
SEQEND
  5
4E2D
330
4E28
100
AcDbEntity
  8
レイヤー 1
370
     0
  0
ENDBLK
  5
4E2E
330
4E0B
100
AcDbEntity
  8
0
100
AcDbBlockEnd
  0
BLOCK
  5
4E32
330
4E31
100
AcDbEntity
  8
0
100
AcDbBlockBegin
  2
block 4
 70
     0
 10
0.0
 20
0.0
 30
0.0
  3
block 4
  1

  0
POLYLINE
  5
4E33
330
4E31
100
AcDbEntity
  8
レイヤー 1
370
     0
100
AcDb2dPolyline
 66
     1
 10
0.0
 20
0.0
 30
0.0
  0
VERTEX
  5
4E34
330
4E33
100
AcDbEntity
  8
レイヤー 1
370
     0
100
AcDbVertex
100
AcDb2dVertex
 10
0.0
 20
100.0001636008023
 30
0.0
  0
VERTEX
  5
4E35
330
4E33
100
AcDbEntity
  8
レイヤー 1
370
     0
100
AcDbVertex
100
AcDb2dVertex
 10
100.0761280063654
 20
100.0001636008023
 30
0.0
  0
VERTEX
  5
4E36
330
4E33
100
AcDbEntity
  8
レイヤー 1
370
     0
100
AcDbVertex
100
AcDb2dVertex
 10
100.0761280063654
 20
0.0
 30
0.0
  0
VERTEX
  5
4E37
330
4E33
100
AcDbEntity
  8
レイヤー 1
370
     0
100
AcDbVertex
100
AcDb2dVertex
 10
0.0
 20
0.0
 30
0.0
  0
VERTEX
  5
4E38
330
4E33
100
AcDbEntity
  8
レイヤー 1
370
     0
100
AcDbVertex
100
AcDb2dVertex
 10
0.0
 20
100.0001636008023
 30
0.0
  0
SEQEND
  5
4E39
330
4E33
100
AcDbEntity
  8
レイヤー 1
370
     0
  0
POLYLINE
  5
4E3A
330
4E31
100
AcDbEntity
  8
レイヤー 1
370
     0
100
AcDb2dPolyline
 66
     1
 10
0.0
 20
0.0
 30
0.0
  0
VERTEX
  5
4E3B
330
4E3A
100
AcDbEntity
  8
レイヤー 1
370
     0
100
AcDbVertex
100
AcDb2dVertex
 10
83.9162079530945
 20
67.1461610868886
 30
0.0
  0
VERTEX
  5
4E3C
330
4E3A
100
AcDbEntity
  8
レイヤー 1
370
     0
100
AcDbVertex
100
AcDb2dVertex
 10
79.91576043654939
 20
66.4709219263281
 30
0.0
  0
VERTEX
  5
4E3D
330
4E3A
100
AcDbEntity
  8
レイヤー 1
370
     0
100
AcDbVertex
100
AcDb2dVertex
 10
79.91576043654939
 20
67.82140024744909
 30
0.0
  0
VERTEX
  5
4E3E
330
4E3A
100
AcDbEntity
  8
レイヤー 1
370
     0
100
AcDbVertex
100
AcDb2dVertex
 10
83.9162079530945
 20
67.1461610868886
 30
0.0
  0
SEQEND
  5
4E3F
330
4E3A
100
AcDbEntity
  8
レイヤー 1
370
     0
  0
HATCH
  5
4E40
330
4E31
100
AcDbEntity
  8
レイヤー 1
 62
     7
420
 16777215
100
AcDbHatch
 10
0.0
 20
0.0
 30
0.0
210
0.0
220
0.0
230
1.0
  2
SOLID
 70
     1
 71
     0
 91
        1
 92
        1
 93
        3
 72
     1
 10
83.9162079530945
 20
67.1461610868886
 11
79.91576043654939
 21
66.4709219263281
 72
     1
 10
79.91576043654939
 20
66.4709219263281
 11
79.91576043654939
 21
67.82140024744909
 72
     1
 10
79.91576043654939
 20
67.82140024744909
 11
83.9162079530945
 21
67.1461610868886
 97
        0
 75
     2
 76
     1
 98
        0
  0
POLYLINE
  5
4E41
330
4E31
100
AcDbEntity
  8
レイヤー 1
370
     0
100
AcDb2dPolyline
 66
     1
 10
0.0
 20
0.0
 30
0.0
  0
VERTEX
  5
4E42
330
4E41
100
AcDbEntity
  8
レイヤー 1
370
     0
100
AcDbVertex
100
AcDb2dVertex
 10
83.9162079530945
 20
67.1461610868886
 30
0.0
  0
VERTEX
  5
4E43
330
4E41
100
AcDbEntity
  8
レイヤー 1
370
     0
100
AcDbVertex
100
AcDb2dVertex
 10
79.91576043654939
 20
66.4709219263281
 30
0.0
  0
VERTEX
  5
4E44
330
4E41
100
AcDbEntity
  8
レイヤー 1
370
     0
100
AcDbVertex
100
AcDb2dVertex
 10
79.91576043654939
 20
67.82140024744909
 30
0.0
  0
VERTEX
  5
4E45
330
4E41
100
AcDbEntity
  8
レイヤー 1
370
     0
100
AcDbVertex
100
AcDb2dVertex
 10
83.9162079530945
 20
67.1461610868886
 30
0.0
  0
SEQEND
  5
4E46
330
4E41
100
AcDbEntity
  8
レイヤー 1
370
     0
  0
POLYLINE
  5
4E47
330
4E31
100
AcDbEntity
  8
レイヤー 1
370
     0
100
AcDb2dPolyline
 66
     1
 10
0.0
 20
0.0
 30
0.0
  0
VERTEX
  5
4E48
330
4E47
100
AcDbEntity
  8
レイヤー 1
370
     0
100
AcDbVertex
100
AcDb2dVertex
 10
88.4658040522587
 20
67.1461610868886
 30
0.0
  0
VERTEX
  5
4E49
330
4E47
100
AcDbEntity
  8
レイヤー 1
370
     0
100
AcDbVertex
100
AcDb2dVertex
 10
92.46590705902803
 20
67.82140024744909
 30
0.0
  0
VERTEX
  5
4E4A
330
4E47
100
AcDbEntity
  8
レイヤー 1
370
     0
100
AcDbVertex
100
AcDb2dVertex
 10
92.46590705902803
 20
66.4709219263281
 30
0.0
  0
VERTEX
  5
4E4B
330
4E47
100
AcDbEntity
  8
レイヤー 1
370
     0
100
AcDbVertex
100
AcDb2dVertex
 10
88.4658040522587
 20
67.1461610868886
 30
0.0
  0
SEQEND
  5
4E4C
330
4E47
100
AcDbEntity
  8
レイヤー 1
370
     0
  0
HATCH
  5
4E4D
330
4E31
100
AcDbEntity
  8
レイヤー 1
 62
     7
420
 16777215
100
AcDbHatch
 10
0.0
 20
0.0
 30
0.0
210
0.0
220
0.0
230
1.0
  2
SOLID
 70
     1
 71
     0
 91
        1
 92
        1
 93
        3
 72
     1
 10
88.4658040522587
 20
67.1461610868886
 11
92.46590705902803
 21
67.82140024744909
 72
     1
 10
92.46590705902803
 20
67.82140024744909
 11
92.46590705902803
 21
66.4709219263281
 72
     1
 10
92.46590705902803
 20
66.4709219263281
 11
88.4658040522587
 21
67.1461610868886
 97
        0
 75
     2
 76
     1
 98
        0
  0
POLYLINE
  5
4E4E
330
4E31
100
AcDbEntity
  8
レイヤー 1
370
     0
100
AcDb2dPolyline
 66
     1
 10
0.0
 20
0.0
 30
0.0
  0
VERTEX
  5
4E4F
330
4E4E
100
AcDbEntity
  8
レイヤー 1
370
     0
100
AcDbVertex
100
AcDb2dVertex
 10
88.4658040522587
 20
67.1461610868886
 30
0.0
  0
VERTEX
  5
4E50
330
4E4E
100
AcDbEntity
  8
レイヤー 1
370
     0
100
AcDbVertex
100
AcDb2dVertex
 10
92.46590705902803
 20
67.82140024744909
 30
0.0
  0
VERTEX
  5
4E51
330
4E4E
100
AcDbEntity
  8
レイヤー 1
370
     0
100
AcDbVertex
100
AcDb2dVertex
 10
92.46590705902803
 20
66.4709219263281
 30
0.0
  0
VERTEX
  5
4E52
330
4E4E
100
AcDbEntity
  8
レイヤー 1
370
     0
100
AcDbVertex
100
AcDb2dVertex
 10
88.4658040522587
 20
67.1461610868886
 30
0.0
  0
SEQEND
  5
4E53
330
4E4E
100
AcDbEntity
  8
レイヤー 1
370
     0
  0
ENDBLK
  5
4E54
330
4E31
100
AcDbEntity
  8
0
100
AcDbBlockEnd
  0
BLOCK
  5
4E58
330
4E57
100
AcDbEntity
  8
0
100
AcDbBlockBegin
  2
block 5
 70
     0
 10
0.0
 20
0.0
 30
0.0
  3
block 5
  1

  0
POLYLINE
  5
4E59
330
4E57
100
AcDbEntity
  8
レイヤー 1
370
     0
100
AcDb2dPolyline
 66
     1
 10
0.0
 20
0.0
 30
0.0
  0
VERTEX
  5
4E5A
330
4E59
100
AcDbEntity
  8
レイヤー 1
370
     0
100
AcDbVertex
100
AcDb2dVertex
 10
0.0
 20
100.0001636008023
 30
0.0
  0
VERTEX
  5
4E5B
330
4E59
100
AcDbEntity
  8
レイヤー 1
370
     0
100
AcDbVertex
100
AcDb2dVertex
 10
100.0761280063654
 20
100.0001636008023
 30
0.0
  0
VERTEX
  5
4E5C
330
4E59
100
AcDbEntity
  8
レイヤー 1
370
     0
100
AcDbVertex
100
AcDb2dVertex
 10
100.0761280063654
 20
0.0
 30
0.0
  0
VERTEX
  5
4E5D
330
4E59
100
AcDbEntity
  8
レイヤー 1
370
     0
100
AcDbVertex
100
AcDb2dVertex
 10
0.0
 20
0.0
 30
0.0
  0
VERTEX
  5
4E5E
330
4E59
100
AcDbEntity
  8
レイヤー 1
370
     0
100
AcDbVertex
100
AcDb2dVertex
 10
0.0
 20
100.0001636008023
 30
0.0
  0
SEQEND
  5
4E5F
330
4E59
100
AcDbEntity
  8
レイヤー 1
370
     0
  0
POLYLINE
  5
4E60
330
4E57
100
AcDbEntity
  8
レイヤー 1
370
     0
100
AcDb2dPolyline
 66
     1
 10
0.0
 20
0.0
 30
0.0
  0
VERTEX
  5
4E61
330
4E60
100
AcDbEntity
  8
レイヤー 1
370
     0
100
AcDbVertex
100
AcDb2dVertex
 10
76.62121345061063
 20
55.27245940918574
 30
0.0
  0
VERTEX
  5
4E62
330
4E60
100
AcDbEntity
  8
レイヤー 1
370
     0
100
AcDbVertex
100
AcDb2dVertex
 10
75.94597429005013
 20
59.27221790617926
 30
0.0
  0
VERTEX
  5
4E63
330
4E60
100
AcDbEntity
  8
レイヤー 1
370
     0
100
AcDbVertex
100
AcDb2dVertex
 10
77.29576359161952
 20
59.27221790617926
 30
0.0
  0
VERTEX
  5
4E64
330
4E60
100
AcDbEntity
  8
レイヤー 1
370
     0
100
AcDbVertex
100
AcDb2dVertex
 10
76.62121345061063
 20
55.27245940918574
 30
0.0
  0
SEQEND
  5
4E65
330
4E60
100
AcDbEntity
  8
レイヤー 1
370
     0
  0
HATCH
  5
4E66
330
4E57
100
AcDbEntity
  8
レイヤー 1
 62
     7
420
 16777215
100
AcDbHatch
 10
0.0
 20
0.0
 30
0.0
210
0.0
220
0.0
230
1.0
  2
SOLID
 70
     1
 71
     0
 91
        1
 92
        1
 93
        3
 72
     1
 10
76.62121345061063
 20
55.27245940918574
 11
75.94597429005013
 21
59.27221790617926
 72
     1
 10
75.94597429005013
 20
59.27221790617926
 11
77.29576359161952
 21
59.27221790617926
 72
     1
 10
77.29576359161952
 20
59.27221790617926
 11
76.62121345061063
 21
55.27245940918574
 97
        0
 75
     2
 76
     1
 98
        0
  0
POLYLINE
  5
4E67
330
4E57
100
AcDbEntity
  8
レイヤー 1
370
     0
100
AcDb2dPolyline
 66
     1
 10
0.0
 20
0.0
 30
0.0
  0
VERTEX
  5
4E68
330
4E67
100
AcDbEntity
  8
レイヤー 1
370
     0
100
AcDbVertex
100
AcDb2dVertex
 10
76.62121345061063
 20
55.27245940918574
 30
0.0
  0
VERTEX
  5
4E69
330
4E67
100
AcDbEntity
  8
レイヤー 1
370
     0
100
AcDbVertex
100
AcDb2dVertex
 10
75.94597429005013
 20
59.27221790617926
 30
0.0
  0
VERTEX
  5
4E6A
330
4E67
100
AcDbEntity
  8
レイヤー 1
370
     0
100
AcDbVertex
100
AcDb2dVertex
 10
77.29576359161952
 20
59.27221790617926
 30
0.0
  0
VERTEX
  5
4E6B
330
4E67
100
AcDbEntity
  8
レイヤー 1
370
     0
100
AcDbVertex
100
AcDb2dVertex
 10
76.62121345061063
 20
55.27245940918574
 30
0.0
  0
SEQEND
  5
4E6C
330
4E67
100
AcDbEntity
  8
レイヤー 1
370
     0
  0
POLYLINE
  5
4E6D
330
4E57
100
AcDbEntity
  8
レイヤー 1
370
     0
100
AcDb2dPolyline
 66
     1
 10
0.0
 20
0.0
 30
0.0
  0
VERTEX
  5
4E6E
330
4E6D
100
AcDbEntity
  8
レイヤー 1
370
     0
100
AcDbVertex
100
AcDb2dVertex
 10
76.62121345061063
 20
51.77241234198456
 30
0.0
  0
VERTEX
  5
4E6F
330
4E6D
100
AcDbEntity
  8
レイヤー 1
370
     0
100
AcDbVertex
100
AcDb2dVertex
 10
77.29576359161952
 20
47.77248159010314
 30
0.0
  0
VERTEX
  5
4E70
330
4E6D
100
AcDbEntity
  8
レイヤー 1
370
     0
100
AcDbVertex
100
AcDb2dVertex
 10
75.94597429005013
 20
47.77248159010314
 30
0.0
  0
VERTEX
  5
4E71
330
4E6D
100
AcDbEntity
  8
レイヤー 1
370
     0
100
AcDbVertex
100
AcDb2dVertex
 10
76.62121345061063
 20
51.77241234198456
 30
0.0
  0
SEQEND
  5
4E72
330
4E6D
100
AcDbEntity
  8
レイヤー 1
370
     0
  0
HATCH
  5
4E73
330
4E57
100
AcDbEntity
  8
レイヤー 1
 62
     7
420
 16777215
100
AcDbHatch
 10
0.0
 20
0.0
 30
0.0
210
0.0
220
0.0
230
1.0
  2
SOLID
 70
     1
 71
     0
 91
        1
 92
        1
 93
        3
 72
     1
 10
76.62121345061063
 20
51.77241234198456
 11
77.29576359161952
 21
47.77248159010314
 72
     1
 10
77.29576359161952
 20
47.77248159010314
 11
75.94597429005013
 21
47.77248159010314
 72
     1
 10
75.94597429005013
 20
47.77248159010314
 11
76.62121345061063
 21
51.77241234198456
 97
        0
 75
     2
 76
     1
 98
        0
  0
POLYLINE
  5
4E74
330
4E57
100
AcDbEntity
  8
レイヤー 1
370
     0
100
AcDb2dPolyline
 66
     1
 10
0.0
 20
0.0
 30
0.0
  0
VERTEX
  5
4E75
330
4E74
100
AcDbEntity
  8
レイヤー 1
370
     0
100
AcDbVertex
100
AcDb2dVertex
 10
76.62121345061063
 20
51.77241234198456
 30
0.0
  0
VERTEX
  5
4E76
330
4E74
100
AcDbEntity
  8
レイヤー 1
370
     0
100
AcDbVertex
100
AcDb2dVertex
 10
77.29576359161952
 20
47.77248159010314
 30
0.0
  0
VERTEX
  5
4E77
330
4E74
100
AcDbEntity
  8
レイヤー 1
370
     0
100
AcDbVertex
100
AcDb2dVertex
 10
75.94597429005013
 20
47.77248159010314
 30
0.0
  0
VERTEX
  5
4E78
330
4E74
100
AcDbEntity
  8
レイヤー 1
370
     0
100
AcDbVertex
100
AcDb2dVertex
 10
76.62121345061063
 20
51.77241234198456
 30
0.0
  0
SEQEND
  5
4E79
330
4E74
100
AcDbEntity
  8
レイヤー 1
370
     0
  0
ENDBLK
  5
4E7A
330
4E57
100
AcDbEntity
  8
0
100
AcDbBlockEnd
  0
BLOCK
  5
4E7E
330
4E7D
100
AcDbEntity
  8
0
100
AcDbBlockBegin
  2
block 6
 70
     0
 10
0.0
 20
0.0
 30
0.0
  3
block 6
  1

  0
POLYLINE
  5
4E7F
330
4E7D
100
AcDbEntity
  8
レイヤー 1
370
     0
100
AcDb2dPolyline
 66
     1
 10
0.0
 20
0.0
 30
0.0
  0
VERTEX
  5
4E80
330
4E7F
100
AcDbEntity
  8
レイヤー 1
370
     0
100
AcDbVertex
100
AcDb2dVertex
 10
0.0
 20
100.0001636008023
 30
0.0
  0
VERTEX
  5
4E81
330
4E7F
100
AcDbEntity
  8
レイヤー 1
370
     0
100
AcDbVertex
100
AcDb2dVertex
 10
100.0761280063654
 20
100.0001636008023
 30
0.0
  0
VERTEX
  5
4E82
330
4E7F
100
AcDbEntity
  8
レイヤー 1
370
     0
100
AcDbVertex
100
AcDb2dVertex
 10
100.0761280063654
 20
0.0
 30
0.0
  0
VERTEX
  5
4E83
330
4E7F
100
AcDbEntity
  8
レイヤー 1
370
     0
100
AcDbVertex
100
AcDb2dVertex
 10
0.0
 20
0.0
 30
0.0
  0
VERTEX
  5
4E84
330
4E7F
100
AcDbEntity
  8
レイヤー 1
370
     0
100
AcDbVertex
100
AcDb2dVertex
 10
0.0
 20
100.0001636008023
 30
0.0
  0
SEQEND
  5
4E85
330
4E7F
100
AcDbEntity
  8
レイヤー 1
370
     0
  0
POLYLINE
  5
4E86
330
4E7D
100
AcDbEntity
  8
レイヤー 1
370
     0
100
AcDb2dPolyline
 66
     1
 10
0.0
 20
0.0
 30
0.0
  0
VERTEX
  5
4E87
330
4E86
100
AcDbEntity
  8
レイヤー 1
370
     0
100
AcDbVertex
100
AcDb2dVertex
 10
69.27419797198154
 20
55.27245940918574
 30
0.0
  0
VERTEX
  5
4E88
330
4E86
100
AcDbEntity
  8
レイヤー 1
370
     0
100
AcDbVertex
100
AcDb2dVertex
 10
68.59930332119683
 20
59.27221790617926
 30
0.0
  0
VERTEX
  5
4E89
330
4E86
100
AcDbEntity
  8
レイヤー 1
370
     0
100
AcDbVertex
100
AcDb2dVertex
 10
69.94874811299043
 20
59.27221790617926
 30
0.0
  0
VERTEX
  5
4E8A
330
4E86
100
AcDbEntity
  8
レイヤー 1
370
     0
100
AcDbVertex
100
AcDb2dVertex
 10
69.27419797198154
 20
55.27245940918574
 30
0.0
  0
SEQEND
  5
4E8B
330
4E86
100
AcDbEntity
  8
レイヤー 1
370
     0
  0
HATCH
  5
4E8C
330
4E7D
100
AcDbEntity
  8
レイヤー 1
 62
     7
420
 16777215
100
AcDbHatch
 10
0.0
 20
0.0
 30
0.0
210
0.0
220
0.0
230
1.0
  2
SOLID
 70
     1
 71
     0
 91
        1
 92
        1
 93
        3
 72
     1
 10
69.27419797198154
 20
55.27245940918574
 11
68.59930332119683
 21
59.27221790617926
 72
     1
 10
68.59930332119683
 20
59.27221790617926
 11
69.94874811299043
 21
59.27221790617926
 72
     1
 10
69.94874811299043
 20
59.27221790617926
 11
69.27419797198154
 21
55.27245940918574
 97
        0
 75
     2
 76
     1
 98
        0
  0
POLYLINE
  5
4E8D
330
4E7D
100
AcDbEntity
  8
レイヤー 1
370
     0
100
AcDb2dPolyline
 66
     1
 10
0.0
 20
0.0
 30
0.0
  0
VERTEX
  5
4E8E
330
4E8D
100
AcDbEntity
  8
レイヤー 1
370
     0
100
AcDbVertex
100
AcDb2dVertex
 10
69.27419797198154
 20
55.27245940918574
 30
0.0
  0
VERTEX
  5
4E8F
330
4E8D
100
AcDbEntity
  8
レイヤー 1
370
     0
100
AcDbVertex
100
AcDb2dVertex
 10
68.59930332119683
 20
59.27221790617926
 30
0.0
  0
VERTEX
  5
4E90
330
4E8D
100
AcDbEntity
  8
レイヤー 1
370
     0
100
AcDbVertex
100
AcDb2dVertex
 10
69.94874811299043
 20
59.27221790617926
 30
0.0
  0
VERTEX
  5
4E91
330
4E8D
100
AcDbEntity
  8
レイヤー 1
370
     0
100
AcDbVertex
100
AcDb2dVertex
 10
69.27419797198154
 20
55.27245940918574
 30
0.0
  0
SEQEND
  5
4E92
330
4E8D
100
AcDbEntity
  8
レイヤー 1
370
     0
  0
POLYLINE
  5
4E93
330
4E7D
100
AcDbEntity
  8
レイヤー 1
370
     0
100
AcDb2dPolyline
 66
     1
 10
0.0
 20
0.0
 30
0.0
  0
VERTEX
  5
4E94
330
4E93
100
AcDbEntity
  8
レイヤー 1
370
     0
100
AcDbVertex
100
AcDb2dVertex
 10
69.27419797198154
 20
43.58220918709434
 30
0.0
  0
VERTEX
  5
4E95
330
4E93
100
AcDbEntity
  8
レイヤー 1
370
     0
100
AcDbVertex
100
AcDb2dVertex
 10
69.94874811299043
 20
39.58245069010082
 30
0.0
  0
VERTEX
  5
4E96
330
4E93
100
AcDbEntity
  8
レイヤー 1
370
     0
100
AcDbVertex
100
AcDb2dVertex
 10
68.59930332119683
 20
39.58245069010082
 30
0.0
  0
VERTEX
  5
4E97
330
4E93
100
AcDbEntity
  8
レイヤー 1
370
     0
100
AcDbVertex
100
AcDb2dVertex
 10
69.27419797198154
 20
43.58220918709434
 30
0.0
  0
SEQEND
  5
4E98
330
4E93
100
AcDbEntity
  8
レイヤー 1
370
     0
  0
HATCH
  5
4E99
330
4E7D
100
AcDbEntity
  8
レイヤー 1
 62
     7
420
 16777215
100
AcDbHatch
 10
0.0
 20
0.0
 30
0.0
210
0.0
220
0.0
230
1.0
  2
SOLID
 70
     1
 71
     0
 91
        1
 92
        1
 93
        3
 72
     1
 10
69.27419797198154
 20
43.58220918709434
 11
69.94874811299043
 21
39.58245069010082
 72
     1
 10
69.94874811299043
 20
39.58245069010082
 11
68.59930332119683
 21
39.58245069010082
 72
     1
 10
68.59930332119683
 20
39.58245069010082
 11
69.27419797198154
 21
43.58220918709434
 97
        0
 75
     2
 76
     1
 98
        0
  0
POLYLINE
  5
4E9A
330
4E7D
100
AcDbEntity
  8
レイヤー 1
370
     0
100
AcDb2dPolyline
 66
     1
 10
0.0
 20
0.0
 30
0.0
  0
VERTEX
  5
4E9B
330
4E9A
100
AcDbEntity
  8
レイヤー 1
370
     0
100
AcDbVertex
100
AcDb2dVertex
 10
69.27419797198154
 20
43.58220918709434
 30
0.0
  0
VERTEX
  5
4E9C
330
4E9A
100
AcDbEntity
  8
レイヤー 1
370
     0
100
AcDbVertex
100
AcDb2dVertex
 10
69.94874811299043
 20
39.58245069010082
 30
0.0
  0
VERTEX
  5
4E9D
330
4E9A
100
AcDbEntity
  8
レイヤー 1
370
     0
100
AcDbVertex
100
AcDb2dVertex
 10
68.59930332119683
 20
39.58245069010082
 30
0.0
  0
VERTEX
  5
4E9E
330
4E9A
100
AcDbEntity
  8
レイヤー 1
370
     0
100
AcDbVertex
100
AcDb2dVertex
 10
69.27419797198154
 20
43.58220918709434
 30
0.0
  0
SEQEND
  5
4E9F
330
4E9A
100
AcDbEntity
  8
レイヤー 1
370
     0
  0
ENDBLK
  5
4EA0
330
4E7D
100
AcDbEntity
  8
0
100
AcDbBlockEnd
  0
BLOCK
  5
4EA4
330
4EA3
100
AcDbEntity
  8
0
100
AcDbBlockBegin
  2
block 7
 70
     0
 10
0.0
 20
0.0
 30
0.0
  3
block 7
  1

  0
POLYLINE
  5
4EA5
330
4EA3
100
AcDbEntity
  8
レイヤー 1
370
     0
100
AcDb2dPolyline
 66
     1
 10
0.0
 20
0.0
 30
0.0
  0
VERTEX
  5
4EA6
330
4EA5
100
AcDbEntity
  8
レイヤー 1
370
     0
100
AcDbVertex
100
AcDb2dVertex
 10
0.0
 20
100.0001636008023
 30
0.0
  0
VERTEX
  5
4EA7
330
4EA5
100
AcDbEntity
  8
レイヤー 1
370
     0
100
AcDbVertex
100
AcDb2dVertex
 10
100.0761280063654
 20
100.0001636008023
 30
0.0
  0
VERTEX
  5
4EA8
330
4EA5
100
AcDbEntity
  8
レイヤー 1
370
     0
100
AcDbVertex
100
AcDb2dVertex
 10
100.0761280063654
 20
0.0
 30
0.0
  0
VERTEX
  5
4EA9
330
4EA5
100
AcDbEntity
  8
レイヤー 1
370
     0
100
AcDbVertex
100
AcDb2dVertex
 10
0.0
 20
0.0
 30
0.0
  0
VERTEX
  5
4EAA
330
4EA5
100
AcDbEntity
  8
レイヤー 1
370
     0
100
AcDbVertex
100
AcDb2dVertex
 10
0.0
 20
100.0001636008023
 30
0.0
  0
SEQEND
  5
4EAB
330
4EA5
100
AcDbEntity
  8
レイヤー 1
370
     0
  0
POLYLINE
  5
4EAC
330
4EA3
100
AcDbEntity
  8
レイヤー 1
370
     0
100
AcDb2dPolyline
 66
     1
 10
0.0
 20
0.0
 30
0.0
  0
VERTEX
  5
4EAD
330
4EAC
100
AcDbEntity
  8
レイヤー 1
370
     0
100
AcDbVertex
100
AcDb2dVertex
 10
95.3904505457617
 20
55.27245940918574
 30
0.0
  0
VERTEX
  5
4EAE
330
4EAC
100
AcDbEntity
  8
レイヤー 1
370
     0
100
AcDbVertex
100
AcDb2dVertex
 10
94.71521138520121
 20
59.27221790617926
 30
0.0
  0
VERTEX
  5
4EAF
330
4EAC
100
AcDbEntity
  8
レイヤー 1
370
     0
100
AcDbVertex
100
AcDb2dVertex
 10
96.0650006867706
 20
59.27221790617926
 30
0.0
  0
VERTEX
  5
4EB0
330
4EAC
100
AcDbEntity
  8
レイヤー 1
370
     0
100
AcDbVertex
100
AcDb2dVertex
 10
95.3904505457617
 20
55.27245940918574
 30
0.0
  0
SEQEND
  5
4EB1
330
4EAC
100
AcDbEntity
  8
レイヤー 1
370
     0
  0
HATCH
  5
4EB2
330
4EA3
100
AcDbEntity
  8
レイヤー 1
 62
     7
420
 16777215
100
AcDbHatch
 10
0.0
 20
0.0
 30
0.0
210
0.0
220
0.0
230
1.0
  2
SOLID
 70
     1
 71
     0
 91
        1
 92
        1
 93
        3
 72
     1
 10
95.3904505457617
 20
55.27245940918574
 11
94.71521138520121
 21
59.27221790617926
 72
     1
 10
94.71521138520121
 20
59.27221790617926
 11
96.0650006867706
 21
59.27221790617926
 72
     1
 10
96.0650006867706
 20
59.27221790617926
 11
95.3904505457617
 21
55.27245940918574
 97
        0
 75
     2
 76
     1
 98
        0
  0
POLYLINE
  5
4EB3
330
4EA3
100
AcDbEntity
  8
レイヤー 1
370
     0
100
AcDb2dPolyline
 66
     1
 10
0.0
 20
0.0
 30
0.0
  0
VERTEX
  5
4EB4
330
4EB3
100
AcDbEntity
  8
レイヤー 1
370
     0
100
AcDbVertex
100
AcDb2dVertex
 10
95.3904505457617
 20
55.27245940918574
 30
0.0
  0
VERTEX
  5
4EB5
330
4EB3
100
AcDbEntity
  8
レイヤー 1
370
     0
100
AcDbVertex
100
AcDb2dVertex
 10
94.71521138520121
 20
59.27221790617926
 30
0.0
  0
VERTEX
  5
4EB6
330
4EB3
100
AcDbEntity
  8
レイヤー 1
370
     0
100
AcDbVertex
100
AcDb2dVertex
 10
96.0650006867706
 20
59.27221790617926
 30
0.0
  0
VERTEX
  5
4EB7
330
4EB3
100
AcDbEntity
  8
レイヤー 1
370
     0
100
AcDbVertex
100
AcDb2dVertex
 10
95.3904505457617
 20
55.27245940918574
 30
0.0
  0
SEQEND
  5
4EB8
330
4EB3
100
AcDbEntity
  8
レイヤー 1
370
     0
  0
POLYLINE
  5
4EB9
330
4EA3
100
AcDbEntity
  8
レイヤー 1
370
     0
100
AcDb2dPolyline
 66
     1
 10
0.0
 20
0.0
 30
0.0
  0
VERTEX
  5
4EBA
330
4EB9
100
AcDbEntity
  8
レイヤー 1
370
     0
100
AcDbVertex
100
AcDb2dVertex
 10
95.3904505457617
 20
47.6773968919834
 30
0.0
  0
VERTEX
  5
4EBB
330
4EB9
100
AcDbEntity
  8
レイヤー 1
370
     0
100
AcDbVertex
100
AcDb2dVertex
 10
96.0650006867706
 20
43.67729388521408
 30
0.0
  0
VERTEX
  5
4EBC
330
4EB9
100
AcDbEntity
  8
レイヤー 1
370
     0
100
AcDbVertex
100
AcDb2dVertex
 10
94.71521138520121
 20
43.67729388521408
 30
0.0
  0
VERTEX
  5
4EBD
330
4EB9
100
AcDbEntity
  8
レイヤー 1
370
     0
100
AcDbVertex
100
AcDb2dVertex
 10
95.3904505457617
 20
47.6773968919834
 30
0.0
  0
SEQEND
  5
4EBE
330
4EB9
100
AcDbEntity
  8
レイヤー 1
370
     0
  0
HATCH
  5
4EBF
330
4EA3
100
AcDbEntity
  8
レイヤー 1
 62
     7
420
 16777215
100
AcDbHatch
 10
0.0
 20
0.0
 30
0.0
210
0.0
220
0.0
230
1.0
  2
SOLID
 70
     1
 71
     0
 91
        1
 92
        1
 93
        3
 72
     1
 10
95.3904505457617
 20
47.6773968919834
 11
96.0650006867706
 21
43.67729388521408
 72
     1
 10
96.0650006867706
 20
43.67729388521408
 11
94.71521138520121
 21
43.67729388521408
 72
     1
 10
94.71521138520121
 20
43.67729388521408
 11
95.3904505457617
 21
47.6773968919834
 97
        0
 75
     2
 76
     1
 98
        0
  0
POLYLINE
  5
4EC0
330
4EA3
100
AcDbEntity
  8
レイヤー 1
370
     0
100
AcDb2dPolyline
 66
     1
 10
0.0
 20
0.0
 30
0.0
  0
VERTEX
  5
4EC1
330
4EC0
100
AcDbEntity
  8
レイヤー 1
370
     0
100
AcDbVertex
100
AcDb2dVertex
 10
95.3904505457617
 20
47.6773968919834
 30
0.0
  0
VERTEX
  5
4EC2
330
4EC0
100
AcDbEntity
  8
レイヤー 1
370
     0
100
AcDbVertex
100
AcDb2dVertex
 10
96.0650006867706
 20
43.67729388521408
 30
0.0
  0
VERTEX
  5
4EC3
330
4EC0
100
AcDbEntity
  8
レイヤー 1
370
     0
100
AcDbVertex
100
AcDb2dVertex
 10
94.71521138520121
 20
43.67729388521408
 30
0.0
  0
VERTEX
  5
4EC4
330
4EC0
100
AcDbEntity
  8
レイヤー 1
370
     0
100
AcDbVertex
100
AcDb2dVertex
 10
95.3904505457617
 20
47.6773968919834
 30
0.0
  0
SEQEND
  5
4EC5
330
4EC0
100
AcDbEntity
  8
レイヤー 1
370
     0
  0
ENDBLK
  5
4EC6
330
4EA3
100
AcDbEntity
  8
0
100
AcDbBlockEnd
  0
BLOCK
  5
4ECA
330
4EC9
100
AcDbEntity
  8
0
100
AcDbBlockBegin
  2
block 8
 70
     0
 10
0.0
 20
0.0
 30
0.0
  3
block 8
  1

  0
POLYLINE
  5
4ECB
330
4EC9
100
AcDbEntity
  8
レイヤー 1
370
     0
100
AcDb2dPolyline
 66
     1
 10
0.0
 20
0.0
 30
0.0
  0
VERTEX
  5
4ECC
330
4ECB
100
AcDbEntity
  8
レイヤー 1
370
     0
100
AcDbVertex
100
AcDb2dVertex
 10
0.0
 20
100.0001636008023
 30
0.0
  0
VERTEX
  5
4ECD
330
4ECB
100
AcDbEntity
  8
レイヤー 1
370
     0
100
AcDbVertex
100
AcDb2dVertex
 10
100.0761280063654
 20
100.0001636008023
 30
0.0
  0
VERTEX
  5
4ECE
330
4ECB
100
AcDbEntity
  8
レイヤー 1
370
     0
100
AcDbVertex
100
AcDb2dVertex
 10
100.0761280063654
 20
0.0
 30
0.0
  0
VERTEX
  5
4ECF
330
4ECB
100
AcDbEntity
  8
レイヤー 1
370
     0
100
AcDbVertex
100
AcDb2dVertex
 10
0.0
 20
0.0
 30
0.0
  0
VERTEX
  5
4ED0
330
4ECB
100
AcDbEntity
  8
レイヤー 1
370
     0
100
AcDbVertex
100
AcDb2dVertex
 10
0.0
 20
100.0001636008023
 30
0.0
  0
SEQEND
  5
4ED1
330
4ECB
100
AcDbEntity
  8
レイヤー 1
370
     0
  0
POLYLINE
  5
4ED2
330
4EC9
100
AcDbEntity
  8
レイヤー 1
370
     0
100
AcDb2dPolyline
 66
     1
 10
0.0
 20
0.0
 30
0.0
  0
VERTEX
  5
4ED3
330
4ED2
100
AcDbEntity
  8
レイヤー 1
370
     0
100
AcDbVertex
100
AcDb2dVertex
 10
7.023693054044393
 20
55.30742715142905
 30
0.0
  0
VERTEX
  5
4ED4
330
4ED2
100
AcDbEntity
  8
レイヤー 1
370
     0
100
AcDbVertex
100
AcDb2dVertex
 10
7.698587704829087
 20
51.30732414465973
 30
0.0
  0
VERTEX
  5
4ED5
330
4ED2
100
AcDbEntity
  8
レイヤー 1
370
     0
100
AcDbVertex
100
AcDb2dVertex
 10
6.348453893483901
 20
51.30732414465973
 30
0.0
  0
VERTEX
  5
4ED6
330
4ED2
100
AcDbEntity
  8
レイヤー 1
370
     0
100
AcDbVertex
100
AcDb2dVertex
 10
7.023693054044393
 20
55.30742715142905
 30
0.0
  0
SEQEND
  5
4ED7
330
4ED2
100
AcDbEntity
  8
レイヤー 1
370
     0
  0
HATCH
  5
4ED8
330
4EC9
100
AcDbEntity
  8
レイヤー 1
 62
     7
420
 16777215
100
AcDbHatch
 10
0.0
 20
0.0
 30
0.0
210
0.0
220
0.0
230
1.0
  2
SOLID
 70
     1
 71
     0
 91
        1
 92
        1
 93
        3
 72
     1
 10
7.023693054044393
 20
55.30742715142905
 11
7.698587704829087
 21
51.30732414465973
 72
     1
 10
7.698587704829087
 20
51.30732414465973
 11
6.348453893483901
 21
51.30732414465973
 72
     1
 10
6.348453893483901
 20
51.30732414465973
 11
7.023693054044393
 21
55.30742715142905
 97
        0
 75
     2
 76
     1
 98
        0
  0
POLYLINE
  5
4ED9
330
4EC9
100
AcDbEntity
  8
レイヤー 1
370
     0
100
AcDb2dPolyline
 66
     1
 10
0.0
 20
0.0
 30
0.0
  0
VERTEX
  5
4EDA
330
4ED9
100
AcDbEntity
  8
レイヤー 1
370
     0
100
AcDbVertex
100
AcDb2dVertex
 10
7.023693054044393
 20
55.30742715142905
 30
0.0
  0
VERTEX
  5
4EDB
330
4ED9
100
AcDbEntity
  8
レイヤー 1
370
     0
100
AcDbVertex
100
AcDb2dVertex
 10
7.698587704829087
 20
51.30732414465973
 30
0.0
  0
VERTEX
  5
4EDC
330
4ED9
100
AcDbEntity
  8
レイヤー 1
370
     0
100
AcDbVertex
100
AcDb2dVertex
 10
6.348453893483901
 20
51.30732414465973
 30
0.0
  0
VERTEX
  5
4EDD
330
4ED9
100
AcDbEntity
  8
レイヤー 1
370
     0
100
AcDbVertex
100
AcDb2dVertex
 10
7.023693054044393
 20
55.30742715142905
 30
0.0
  0
SEQEND
  5
4EDE
330
4ED9
100
AcDbEntity
  8
レイヤー 1
370
     0
  0
POLYLINE
  5
4EDF
330
4EC9
100
AcDbEntity
  8
レイヤー 1
370
     0
100
AcDb2dPolyline
 66
     1
 10
0.0
 20
0.0
 30
0.0
  0
VERTEX
  5
4EE0
330
4EDF
100
AcDbEntity
  8
レイヤー 1
370
     0
100
AcDbVertex
100
AcDb2dVertex
 10
7.023693054044393
 20
37.6325253590945
 30
0.0
  0
VERTEX
  5
4EE1
330
4EDF
100
AcDbEntity
  8
レイヤー 1
370
     0
100
AcDbVertex
100
AcDb2dVertex
 10
6.348453893483901
 20
41.63228385608802
 30
0.0
  0
VERTEX
  5
4EE2
330
4EDF
100
AcDbEntity
  8
レイヤー 1
370
     0
100
AcDbVertex
100
AcDb2dVertex
 10
7.698587704829087
 20
41.63228385608802
 30
0.0
  0
VERTEX
  5
4EE3
330
4EDF
100
AcDbEntity
  8
レイヤー 1
370
     0
100
AcDbVertex
100
AcDb2dVertex
 10
7.023693054044393
 20
37.6325253590945
 30
0.0
  0
SEQEND
  5
4EE4
330
4EDF
100
AcDbEntity
  8
レイヤー 1
370
     0
  0
HATCH
  5
4EE5
330
4EC9
100
AcDbEntity
  8
レイヤー 1
 62
     7
420
 16777215
100
AcDbHatch
 10
0.0
 20
0.0
 30
0.0
210
0.0
220
0.0
230
1.0
  2
SOLID
 70
     1
 71
     0
 91
        1
 92
        1
 93
        3
 72
     1
 10
7.023693054044393
 20
37.6325253590945
 11
6.348453893483901
 21
41.63228385608802
 72
     1
 10
6.348453893483901
 20
41.63228385608802
 11
7.698587704829087
 21
41.63228385608802
 72
     1
 10
7.698587704829087
 20
41.63228385608802
 11
7.023693054044393
 21
37.6325253590945
 97
        0
 75
     2
 76
     1
 98
        0
  0
POLYLINE
  5
4EE6
330
4EC9
100
AcDbEntity
  8
レイヤー 1
370
     0
100
AcDb2dPolyline
 66
     1
 10
0.0
 20
0.0
 30
0.0
  0
VERTEX
  5
4EE7
330
4EE6
100
AcDbEntity
  8
レイヤー 1
370
     0
100
AcDbVertex
100
AcDb2dVertex
 10
7.023693054044393
 20
37.6325253590945
 30
0.0
  0
VERTEX
  5
4EE8
330
4EE6
100
AcDbEntity
  8
レイヤー 1
370
     0
100
AcDbVertex
100
AcDb2dVertex
 10
6.348453893483901
 20
41.63228385608802
 30
0.0
  0
VERTEX
  5
4EE9
330
4EE6
100
AcDbEntity
  8
レイヤー 1
370
     0
100
AcDbVertex
100
AcDb2dVertex
 10
7.698587704829087
 20
41.63228385608802
 30
0.0
  0
VERTEX
  5
4EEA
330
4EE6
100
AcDbEntity
  8
レイヤー 1
370
     0
100
AcDbVertex
100
AcDb2dVertex
 10
7.023693054044393
 20
37.6325253590945
 30
0.0
  0
SEQEND
  5
4EEB
330
4EE6
100
AcDbEntity
  8
レイヤー 1
370
     0
  0
ENDBLK
  5
4EEC
330
4EC9
100
AcDbEntity
  8
0
100
AcDbBlockEnd
  0
BLOCK
  5
4EF0
330
4EEF
100
AcDbEntity
  8
0
100
AcDbBlockBegin
  2
block 9
 70
     0
 10
0.0
 20
0.0
 30
0.0
  3
block 9
  1

  0
POLYLINE
  5
4EF1
330
4EEF
100
AcDbEntity
  8
レイヤー 1
370
     0
100
AcDb2dPolyline
 66
     1
 10
0.0
 20
0.0
 30
0.0
  0
VERTEX
  5
4EF2
330
4EF1
100
AcDbEntity
  8
レイヤー 1
370
     0
100
AcDbVertex
100
AcDb2dVertex
 10
0.0
 20
100.0001636008023
 30
0.0
  0
VERTEX
  5
4EF3
330
4EF1
100
AcDbEntity
  8
レイヤー 1
370
     0
100
AcDbVertex
100
AcDb2dVertex
 10
100.0761280063654
 20
100.0001636008023
 30
0.0
  0
VERTEX
  5
4EF4
330
4EF1
100
AcDbEntity
  8
レイヤー 1
370
     0
100
AcDbVertex
100
AcDb2dVertex
 10
100.0761280063654
 20
0.0
 30
0.0
  0
VERTEX
  5
4EF5
330
4EF1
100
AcDbEntity
  8
レイヤー 1
370
     0
100
AcDbVertex
100
AcDb2dVertex
 10
0.0
 20
0.0
 30
0.0
  0
VERTEX
  5
4EF6
330
4EF1
100
AcDbEntity
  8
レイヤー 1
370
     0
100
AcDbVertex
100
AcDb2dVertex
 10
0.0
 20
100.0001636008023
 30
0.0
  0
SEQEND
  5
4EF7
330
4EF1
100
AcDbEntity
  8
レイヤー 1
370
     0
  0
POLYLINE
  5
4EF8
330
4EEF
100
AcDbEntity
  8
レイヤー 1
370
     0
100
AcDb2dPolyline
 66
     1
 10
0.0
 20
0.0
 30
0.0
  0
VERTEX
  5
4EF9
330
4EF8
100
AcDbEntity
  8
レイヤー 1
370
     0
100
AcDbVertex
100
AcDb2dVertex
 10
11.97033666981368
 20
62.0923749308467
 30
0.0
  0
VERTEX
  5
4EFA
330
4EF8
100
AcDbEntity
  8
レイヤー 1
370
     0
100
AcDbVertex
100
AcDb2dVertex
 10
15.9700951668072
 20
62.76761409140719
 30
0.0
  0
VERTEX
  5
4EFB
330
4EF8
100
AcDbEntity
  8
レイヤー 1
370
     0
100
AcDbVertex
100
AcDb2dVertex
 10
15.9700951668072
 20
61.417480280062
 30
0.0
  0
VERTEX
  5
4EFC
330
4EF8
100
AcDbEntity
  8
レイヤー 1
370
     0
100
AcDbVertex
100
AcDb2dVertex
 10
11.97033666981368
 20
62.0923749308467
 30
0.0
  0
SEQEND
  5
4EFD
330
4EF8
100
AcDbEntity
  8
レイヤー 1
370
     0
  0
HATCH
  5
4EFE
330
4EEF
100
AcDbEntity
  8
レイヤー 1
 62
     7
420
 16777215
100
AcDbHatch
 10
0.0
 20
0.0
 30
0.0
210
0.0
220
0.0
230
1.0
  2
SOLID
 70
     1
 71
     0
 91
        1
 92
        1
 93
        3
 72
     1
 10
11.97033666981368
 20
62.0923749308467
 11
15.9700951668072
 21
62.76761409140719
 72
     1
 10
15.9700951668072
 20
62.76761409140719
 11
15.9700951668072
 21
61.417480280062
 72
     1
 10
15.9700951668072
 20
61.417480280062
 11
11.97033666981368
 21
62.0923749308467
 97
        0
 75
     2
 76
     1
 98
        0
  0
POLYLINE
  5
4EFF
330
4EEF
100
AcDbEntity
  8
レイヤー 1
370
     0
100
AcDb2dPolyline
 66
     1
 10
0.0
 20
0.0
 30
0.0
  0
VERTEX
  5
4F00
330
4EFF
100
AcDbEntity
  8
レイヤー 1
370
     0
100
AcDbVertex
100
AcDb2dVertex
 10
11.97033666981368
 20
62.0923749308467
 30
0.0
  0
VERTEX
  5
4F01
330
4EFF
100
AcDbEntity
  8
レイヤー 1
370
     0
100
AcDbVertex
100
AcDb2dVertex
 10
15.9700951668072
 20
62.76761409140719
 30
0.0
  0
VERTEX
  5
4F02
330
4EFF
100
AcDbEntity
  8
レイヤー 1
370
     0
100
AcDbVertex
100
AcDb2dVertex
 10
15.9700951668072
 20
61.417480280062
 30
0.0
  0
VERTEX
  5
4F03
330
4EFF
100
AcDbEntity
  8
レイヤー 1
370
     0
100
AcDbVertex
100
AcDb2dVertex
 10
11.97033666981368
 20
62.0923749308467
 30
0.0
  0
SEQEND
  5
4F04
330
4EFF
100
AcDbEntity
  8
レイヤー 1
370
     0
  0
POLYLINE
  5
4F05
330
4EEF
100
AcDbEntity
  8
レイヤー 1
370
     0
100
AcDb2dPolyline
 66
     1
 10
0.0
 20
0.0
 30
0.0
  0
VERTEX
  5
4F06
330
4F05
100
AcDbEntity
  8
レイヤー 1
370
     0
100
AcDbVertex
100
AcDb2dVertex
 10
60.99149394229004
 20
62.0923749308467
 30
0.0
  0
VERTEX
  5
4F07
330
4F05
100
AcDbEntity
  8
レイヤー 1
370
     0
100
AcDbVertex
100
AcDb2dVertex
 10
56.99104642574493
 20
61.417480280062
 30
0.0
  0
VERTEX
  5
4F08
330
4F05
100
AcDbEntity
  8
レイヤー 1
370
     0
100
AcDbVertex
100
AcDb2dVertex
 10
56.99104642574493
 20
62.76761409140719
 30
0.0
  0
VERTEX
  5
4F09
330
4F05
100
AcDbEntity
  8
レイヤー 1
370
     0
100
AcDbVertex
100
AcDb2dVertex
 10
60.99149394229004
 20
62.0923749308467
 30
0.0
  0
SEQEND
  5
4F0A
330
4F05
100
AcDbEntity
  8
レイヤー 1
370
     0
  0
HATCH
  5
4F0B
330
4EEF
100
AcDbEntity
  8
レイヤー 1
 62
     7
420
 16777215
100
AcDbHatch
 10
0.0
 20
0.0
 30
0.0
210
0.0
220
0.0
230
1.0
  2
SOLID
 70
     1
 71
     0
 91
        1
 92
        1
 93
        3
 72
     1
 10
60.99149394229004
 20
62.0923749308467
 11
56.99104642574493
 21
61.417480280062
 72
     1
 10
56.99104642574493
 20
61.417480280062
 11
56.99104642574493
 21
62.76761409140719
 72
     1
 10
56.99104642574493
 20
62.76761409140719
 11
60.99149394229004
 21
62.0923749308467
 97
        0
 75
     2
 76
     1
 98
        0
  0
POLYLINE
  5
4F0C
330
4EEF
100
AcDbEntity
  8
レイヤー 1
370
     0
100
AcDb2dPolyline
 66
     1
 10
0.0
 20
0.0
 30
0.0
  0
VERTEX
  5
4F0D
330
4F0C
100
AcDbEntity
  8
レイヤー 1
370
     0
100
AcDbVertex
100
AcDb2dVertex
 10
60.99149394229004
 20
62.0923749308467
 30
0.0
  0
VERTEX
  5
4F0E
330
4F0C
100
AcDbEntity
  8
レイヤー 1
370
     0
100
AcDbVertex
100
AcDb2dVertex
 10
56.99104642574493
 20
61.417480280062
 30
0.0
  0
VERTEX
  5
4F0F
330
4F0C
100
AcDbEntity
  8
レイヤー 1
370
     0
100
AcDbVertex
100
AcDb2dVertex
 10
56.99104642574493
 20
62.76761409140719
 30
0.0
  0
VERTEX
  5
4F10
330
4F0C
100
AcDbEntity
  8
レイヤー 1
370
     0
100
AcDbVertex
100
AcDb2dVertex
 10
60.99149394229004
 20
62.0923749308467
 30
0.0
  0
SEQEND
  5
4F11
330
4F0C
100
AcDbEntity
  8
レイヤー 1
370
     0
  0
POLYLINE
  5
4F12
330
4EEF
100
AcDbEntity
  8
レイヤー 1
 62
     7
420
 16777215
370
     9
100
AcDb2dPolyline
 66
     1
 10
0.0
 20
0.0
 30
0.0
  0
VERTEX
  5
4F13
330
4F12
100
AcDbEntity
  8
レイヤー 1
 62
     7
420
 16777215
370
     9
100
AcDbVertex
100
AcDb2dVertex
 10
7.023693054044393
 20
37.6325253590945
 30
0.0
  0
VERTEX
  5
4F14
330
4F12
100
AcDbEntity
  8
レイヤー 1
 62
     7
420
 16777215
370
     9
100
AcDbVertex
100
AcDb2dVertex
 10
7.023693054044393
 20
55.30742715142905
 30
0.0
  0
SEQEND
  5
4F15
330
4F12
100
AcDbEntity
  8
レイヤー 1
370
     9
  0
POLYLINE
  5
4F16
330
4EEF
100
AcDbEntity
  8
レイヤー 1
 62
     7
420
 16777215
370
     9
100
AcDb2dPolyline
 66
     1
 10
0.0
 20
0.0
 30
0.0
  0
VERTEX
  5
4F17
330
4F16
100
AcDbEntity
  8
レイヤー 1
 62
     7
420
 16777215
370
     9
100
AcDbVertex
100
AcDb2dVertex
 10
11.97033666981368
 20
42.78398003657462
 30
0.0
  0
VERTEX
  5
4F18
330
4F16
100
AcDbEntity
  8
レイヤー 1
 62
     7
420
 16777215
370
     9
100
AcDbVertex
100
AcDb2dVertex
 10
11.97033666981368
 20
63.59219823977531
 30
0.0
  0
SEQEND
  5
4F19
330
4F16
100
AcDbEntity
  8
レイヤー 1
370
     9
  0
POLYLINE
  5
4F1A
330
4EEF
100
AcDbEntity
  8
レイヤー 1
 62
     7
420
 16777215
370
     9
100
AcDb2dPolyline
 66
     1
 10
0.0
 20
0.0
 30
0.0
  0
VERTEX
  5
4F1B
330
4F1A
100
AcDbEntity
  8
レイヤー 1
 62
     7
420
 16777215
370
     9
100
AcDbVertex
100
AcDb2dVertex
 10
12.76098660526589
 20
37.6325253590945
 30
0.0
  0
VERTEX
  5
4F1C
330
4F1A
100
AcDbEntity
  8
レイヤー 1
 62
     7
420
 16777215
370
     9
100
AcDbVertex
100
AcDb2dVertex
 10
5.523352980452077
 20
37.6325253590945
 30
0.0
  0
SEQEND
  5
4F1D
330
4F1A
100
AcDbEntity
  8
レイヤー 1
370
     9
  0
POLYLINE
  5
4F1E
330
4EEF
100
AcDbEntity
  8
レイヤー 1
 62
     7
420
 16777215
370
     9
100
AcDb2dPolyline
 66
     1
 10
0.0
 20
0.0
 30
0.0
  0
VERTEX
  5
4F1F
330
4F1E
100
AcDbEntity
  8
レイヤー 1
 62
     7
420
 16777215
370
     9
100
AcDbVertex
100
AcDb2dVertex
 10
15.19770424947219
 20
55.30742715142905
 30
0.0
  0
VERTEX
  5
4F20
330
4F1E
100
AcDbEntity
  8
レイヤー 1
 62
     7
420
 16777215
370
     9
100
AcDbVertex
100
AcDb2dVertex
 10
5.523525235339975
 20
55.30742715142905
 30
0.0
  0
SEQEND
  5
4F21
330
4F1E
100
AcDbEntity
  8
レイヤー 1
370
     9
  0
POLYLINE
  5
4F22
330
4EEF
100
AcDbEntity
  8
レイヤー 1
 62
     7
420
 16777215
370
     9
100
AcDb2dPolyline
 66
     1
 10
0.0
 20
0.0
 30
0.0
  0
VERTEX
  5
4F23
330
4F22
100
AcDbEntity
  8
レイヤー 1
 62
     7
420
 16777215
370
     9
100
AcDbVertex
100
AcDb2dVertex
 10
11.97033666981368
 20
62.0923749308467
 30
0.0
  0
VERTEX
  5
4F24
330
4F22
100
AcDbEntity
  8
レイヤー 1
 62
     7
420
 16777215
370
     9
100
AcDbVertex
100
AcDb2dVertex
 10
60.99114943251424
 20
62.0923749308467
 30
0.0
  0
SEQEND
  5
4F25
330
4F22
100
AcDbEntity
  8
レイヤー 1
370
     9
  0
POLYLINE
  5
4F26
330
4EEF
100
AcDbEntity
  8
レイヤー 1
 62
     7
420
 16777215
370
     9
100
AcDb2dPolyline
 66
     1
 10
0.0
 20
0.0
 30
0.0
  0
VERTEX
  5
4F27
330
4F26
100
AcDbEntity
  8
レイヤー 1
 62
     7
420
 16777215
370
     9
100
AcDbVertex
100
AcDb2dVertex
 10
60.99149394229004
 20
53.52889543388132
 30
0.0
  0
VERTEX
  5
4F28
330
4F26
100
AcDbEntity
  8
レイヤー 1
 62
     7
420
 16777215
370
     9
100
AcDbVertex
100
AcDb2dVertex
 10
60.99149394229004
 20
63.59219823977531
 30
0.0
  0
SEQEND
  5
4F29
330
4F26
100
AcDbEntity
  8
レイヤー 1
370
     9
  0
POLYLINE
  5
4F2A
330
4EEF
100
AcDbEntity
  8
レイヤー 1
 62
     7
420
 16777215
370
     9
100
AcDb2dPolyline
 66
     1
 10
0.0
 20
0.0
 30
0.0
  0
VERTEX
  5
4F2B
330
4F2A
100
AcDbEntity
  8
レイヤー 1
 62
     7
420
 16777215
370
     9
100
AcDbVertex
100
AcDb2dVertex
 10
69.27419797198154
 20
37.58222693182827
 30
0.0
  0
VERTEX
  5
4F2C
330
4F2A
100
AcDbEntity
  8
レイヤー 1
 62
     7
420
 16777215
370
     9
100
AcDbVertex
100
AcDb2dVertex
 10
69.27419797198154
 20
61.27226940956392
 30
0.0
  0
SEQEND
  5
4F2D
330
4F2A
100
AcDbEntity
  8
レイヤー 1
370
     9
  0
POLYLINE
  5
4F2E
330
4EEF
100
AcDbEntity
  8
レイヤー 1
 62
     7
420
 16777215
370
     9
100
AcDb2dPolyline
 66
     1
 10
0.0
 20
0.0
 30
0.0
  0
VERTEX
  5
4F2F
330
4F2E
100
AcDbEntity
  8
レイヤー 1
 62
     7
420
 16777215
370
     9
100
AcDbVertex
100
AcDb2dVertex
 10
76.62121345061063
 20
45.77225783183059
 30
0.0
  0
VERTEX
  5
4F30
330
4F2E
100
AcDbEntity
  8
レイヤー 1
 62
     7
420
 16777215
370
     9
100
AcDbVertex
100
AcDb2dVertex
 10
76.62121345061063
 20
65.46788171409756
 30
0.0
  0
SEQEND
  5
4F31
330
4F2E
100
AcDbEntity
  8
レイヤー 1
370
     9
  0
POLYLINE
  5
4F32
330
4EEF
100
AcDbEntity
  8
レイヤー 1
 62
     7
420
 16777215
370
     9
100
AcDb2dPolyline
 66
     1
 10
0.0
 20
0.0
 30
0.0
  0
VERTEX
  5
4F33
330
4F32
100
AcDbEntity
  8
レイヤー 1
 62
     7
420
 16777215
370
     9
100
AcDbVertex
100
AcDb2dVertex
 10
75.00236201414442
 20
31.8774895544195
 30
0.0
  0
VERTEX
  5
4F34
330
4F32
100
AcDbEntity
  8
レイヤー 1
 62
     7
420
 16777215
370
     9
100
AcDbVertex
100
AcDb2dVertex
 10
93.59073147700252
 20
31.8774895544195
 30
0.0
  0
SEQEND
  5
4F35
330
4F32
100
AcDbEntity
  8
レイヤー 1
370
     9
  0
POLYLINE
  5
4F36
330
4EEF
100
AcDbEntity
  8
レイヤー 1
 62
     7
420
 16777215
370
     9
100
AcDb2dPolyline
 66
     1
 10
0.0
 20
0.0
 30
0.0
  0
VERTEX
  5
4F37
330
4F36
100
AcDbEntity
  8
レイヤー 1
 62
     7
420
 16777215
370
     9
100
AcDbVertex
100
AcDb2dVertex
 10
84.72821749464607
 20
43.58220918709434
 30
0.0
  0
VERTEX
  5
4F38
330
4F36
100
AcDbEntity
  8
レイヤー 1
 62
     7
420
 16777215
370
     9
100
AcDbVertex
100
AcDb2dVertex
 10
67.77385789838921
 20
43.58220918709434
 30
0.0
  0
SEQEND
  5
4F39
330
4F36
100
AcDbEntity
  8
レイヤー 1
370
     9
  0
POLYLINE
  5
4F3A
330
4EEF
100
AcDbEntity
  8
レイヤー 1
 62
     7
420
 16777215
370
     9
100
AcDb2dPolyline
 66
     1
 10
0.0
 20
0.0
 30
0.0
  0
VERTEX
  5
4F3B
330
4F3A
100
AcDbEntity
  8
レイヤー 1
 62
     7
420
 16777215
370
     9
100
AcDbVertex
100
AcDb2dVertex
 10
83.9162079530945
 20
52.65384060335906
 30
0.0
  0
VERTEX
  5
4F3C
330
4F3A
100
AcDbEntity
  8
レイヤー 1
 62
     7
420
 16777215
370
     9
100
AcDbVertex
100
AcDb2dVertex
 10
83.9162079530945
 20
68.64632890559301
 30
0.0
  0
SEQEND
  5
4F3D
330
4F3A
100
AcDbEntity
  8
レイヤー 1
370
     9
  0
POLYLINE
  5
4F3E
330
4EEF
100
AcDbEntity
  8
レイヤー 1
 62
     7
420
 16777215
370
     9
100
AcDb2dPolyline
 66
     1
 10
0.0
 20
0.0
 30
0.0
  0
VERTEX
  5
4F3F
330
4F3E
100
AcDbEntity
  8
レイヤー 1
 62
     7
420
 16777215
370
     9
100
AcDbVertex
100
AcDb2dVertex
 10
84.79091827384097
 20
43.51985291767523
 30
0.0
  0
VERTEX
  5
4F40
330
4F3E
100
AcDbEntity
  8
レイヤー 1
 62
     7
420
 16777215
370
     9
100
AcDbVertex
100
AcDb2dVertex
 10
84.79091827384097
 20
30.37749399060299
 30
0.0
  0
SEQEND
  5
4F41
330
4F3E
100
AcDbEntity
  8
レイヤー 1
370
     9
  0
POLYLINE
  5
4F42
330
4EEF
100
AcDbEntity
  8
レイヤー 1
 62
     7
420
 16777215
370
     9
100
AcDb2dPolyline
 66
     1
 10
0.0
 20
0.0
 30
0.0
  0
VERTEX
  5
4F43
330
4F42
100
AcDbEntity
  8
レイヤー 1
 62
     7
420
 16777215
370
     9
100
AcDbVertex
100
AcDb2dVertex
 10
86.63852420143583
 20
47.6773968919834
 30
0.0
  0
VERTEX
  5
4F44
330
4F42
100
AcDbEntity
  8
レイヤー 1
 62
     7
420
 16777215
370
     9
100
AcDbVertex
100
AcDb2dVertex
 10
96.89044610957822
 20
47.6773968919834
 30
0.0
  0
SEQEND
  5
4F45
330
4F42
100
AcDbEntity
  8
レイヤー 1
370
     9
  0
POLYLINE
  5
4F46
330
4EEF
100
AcDbEntity
  8
レイヤー 1
 62
     7
420
 16777215
370
     9
100
AcDb2dPolyline
 66
     1
 10
0.0
 20
0.0
 30
0.0
  0
VERTEX
  5
4F47
330
4F46
100
AcDbEntity
  8
レイヤー 1
 62
     7
420
 16777215
370
     9
100
AcDbVertex
100
AcDb2dVertex
 10
87.59109373151223
 20
43.51985291767523
 30
0.0
  0
VERTEX
  5
4F48
330
4F46
100
AcDbEntity
  8
レイヤー 1
 62
     7
420
 16777215
370
     9
100
AcDbVertex
100
AcDb2dVertex
 10
87.59109373151223
 20
30.37749399060299
 30
0.0
  0
SEQEND
  5
4F49
330
4F46
100
AcDbEntity
  8
レイヤー 1
370
     9
  0
POLYLINE
  5
4F4A
330
4EEF
100
AcDbEntity
  8
レイヤー 1
 62
     7
420
 16777215
370
     9
100
AcDb2dPolyline
 66
     1
 10
0.0
 20
0.0
 30
0.0
  0
VERTEX
  5
4F4B
330
4F4A
100
AcDbEntity
  8
レイヤー 1
 62
     7
420
 16777215
370
     9
100
AcDbVertex
100
AcDb2dVertex
 10
88.4658040522587
 20
52.65384060335906
 30
0.0
  0
VERTEX
  5
4F4C
330
4F4A
100
AcDbEntity
  8
レイヤー 1
 62
     7
420
 16777215
370
     9
100
AcDbVertex
100
AcDb2dVertex
 10
88.4658040522587
 20
68.64632890559301
 30
0.0
  0
SEQEND
  5
4F4D
330
4F4A
100
AcDbEntity
  8
レイヤー 1
370
     9
  0
POLYLINE
  5
4F4E
330
4EEF
100
AcDbEntity
  8
レイヤー 1
 62
     7
420
 16777215
370
     9
100
AcDb2dPolyline
 66
     1
 10
0.0
 20
0.0
 30
0.0
  0
VERTEX
  5
4F4F
330
4F4E
100
AcDbEntity
  8
レイヤー 1
 62
     7
420
 16777215
370
     9
100
AcDbVertex
100
AcDb2dVertex
 10
84.72821749464607
 20
51.77241234198456
 30
0.0
  0
VERTEX
  5
4F50
330
4F4E
100
AcDbEntity
  8
レイヤー 1
 62
     7
420
 16777215
370
     9
100
AcDbVertex
100
AcDb2dVertex
 10
75.12121788679411
 20
51.77241234198456
 30
0.0
  0
SEQEND
  5
4F51
330
4F4E
100
AcDbEntity
  8
レイヤー 1
370
     9
  0
POLYLINE
  5
4F52
330
4EEF
100
AcDbEntity
  8
レイヤー 1
 62
     7
420
 16777215
370
     9
100
AcDb2dPolyline
 66
     1
 10
0.0
 20
0.0
 30
0.0
  0
VERTEX
  5
4F53
330
4F52
100
AcDbEntity
  8
レイヤー 1
 62
     7
420
 16777215
370
     9
100
AcDbVertex
100
AcDb2dVertex
 10
95.3904505457617
 20
35.27538947309711
 30
0.0
  0
VERTEX
  5
4F54
330
4F52
100
AcDbEntity
  8
レイヤー 1
 62
     7
420
 16777215
370
     9
100
AcDbVertex
100
AcDb2dVertex
 10
95.3904505457617
 20
61.27226940956392
 30
0.0
  0
SEQEND
  5
4F55
330
4F52
100
AcDbEntity
  8
レイヤー 1
370
     9
  0
POLYLINE
  5
4F56
330
4EEF
100
AcDbEntity
  8
レイヤー 1
 62
     7
420
 16777215
370
     9
100
AcDb2dPolyline
 66
     1
 10
0.0
 20
0.0
 30
0.0
  0
VERTEX
  5
4F57
330
4F56
100
AcDbEntity
  8
レイヤー 1
 62
     7
420
 16777215
370
     9
100
AcDbVertex
100
AcDb2dVertex
 10
83.8531626641238
 20
55.27245940918574
 30
0.0
  0
VERTEX
  5
4F58
330
4F56
100
AcDbEntity
  8
レイヤー 1
 62
     7
420
 16777215
370
     9
100
AcDbVertex
100
AcDb2dVertex
 10
67.77420240816501
 20
55.27245940918574
 30
0.0
  0
SEQEND
  5
4F59
330
4F56
100
AcDbEntity
  8
レイヤー 1
370
     9
  0
POLYLINE
  5
4F5A
330
4EEF
100
AcDbEntity
  8
レイヤー 1
 62
     7
420
 16777215
370
     9
100
AcDb2dPolyline
 66
     1
 10
0.0
 20
0.0
 30
0.0
  0
VERTEX
  5
4F5B
330
4F5A
100
AcDbEntity
  8
レイヤー 1
 62
     7
420
 16777215
370
     9
100
AcDbVertex
100
AcDb2dVertex
 10
88.52850483145362
 20
55.27245940918574
 30
0.0
  0
VERTEX
  5
4F5C
330
4F5A
100
AcDbEntity
  8
レイヤー 1
 62
     7
420
 16777215
370
     9
100
AcDbVertex
100
AcDb2dVertex
 10
96.89010159980242
 20
55.27245940918574
 30
0.0
  0
SEQEND
  5
4F5D
330
4F5A
100
AcDbEntity
  8
レイヤー 1
370
     9
  0
POLYLINE
  5
4F5E
330
4EEF
100
AcDbEntity
  8
レイヤー 1
 62
     7
420
 16777215
370
     9
100
AcDb2dPolyline
 66
     1
 10
0.0
 20
0.0
 30
0.0
  0
VERTEX
  5
4F5F
330
4F5E
100
AcDbEntity
  8
レイヤー 1
 62
     7
420
 16777215
370
     9
100
AcDbVertex
100
AcDb2dVertex
 10
77.91622569782842
 20
67.1461610868886
 30
0.0
  0
VERTEX
  5
4F60
330
4F5E
100
AcDbEntity
  8
レイヤー 1
 62
     7
420
 16777215
370
     9
100
AcDbVertex
100
AcDb2dVertex
 10
98.04730993670175
 20
67.1461610868886
 30
0.0
  0
SEQEND
  5
4F61
330
4F5E
100
AcDbEntity
  8
レイヤー 1
370
     9
  0
ENDBLK
  5
4F62
330
4EEF
100
AcDbEntity
  8
0
100
AcDbBlockEnd
  0
BLOCK
  5
6815
330
6814
100
AcDbEntity
  8
0
100
AcDbBlockBegin
  2
*D18
 70
     1
 10
0.0
 20
0.0
 30
0.0
  3
*D18
  1

  0
LINE
  5
6817
330
6814
100
AcDbEntity
  8
DIM
 62
     0
370
    -2
100
AcDbLine
 10
714.6172222021206
 20
1218.556243812817
 30
0.0
 11
714.6172222021206
 21
1335.19042323058
 31
0.0
  0
LINE
  5
6818
330
6814
100
AcDbEntity
  8
DIM
 62
     0
370
    -2
100
AcDbLine
 10
1414.617222237483
 20
1215.635990375992
 30
0.0
 11
1414.617222237483
 21
1335.19042323058
 31
0.0
  0
LINE
  5
6819
330
6814
100
AcDbEntity
  8
DIM
 62
     0
370
    -2
100
AcDbLine
 10
722.6172222021206
 20
1335.19042323058
 30
0.0
 11
1406.617222237483
 21
1335.19042323058
 31
0.0
  0
INSERT
  5
681A
330
6814
100
AcDbEntity
  8
DIM
 62
     0
370
    -2
100
AcDbBlockReference
  2
_DOT
 10
714.6172222021206
 20
1335.19042323058
 30
0.0
 41
8.0
 42
8.0
 43
8.0
 50
180.0
  0
INSERT
  5
681B
330
6814
100
AcDbEntity
  8
DIM
 62
     0
370
    -2
100
AcDbBlockReference
  2
_DOT
 10
1414.617222237483
 20
1335.19042323058
 30
0.0
 41
8.0
 42
8.0
 43
8.0
  0
MTEXT
  5
681C
330
6814
100
AcDbEntity
  8
DIM
 62
     0
100
AcDbMText
 10
1064.617222219802
 20
1361.194174637357
 30
0.0
 40
20.0
 41
0.0
 46
0.0
 71
     5
 72
     1
  1
\A1;700
  7
ＭＳ ゴシック
 73
     1
 44
1.0
  0
POINT
  5
681D
330
6814
100
AcDbEntity
  8
Defpoints
 62
     0
100
AcDbPoint
 10
714.6172222021206
 20
1213.556243812817
 30
0.0
  0
POINT
  5
681E
330
6814
100
AcDbEntity
  8
Defpoints
 62
     0
100
AcDbPoint
 10
1414.617222237483
 20
1210.635990375992
 30
0.0
  0
POINT
  5
681F
330
6814
100
AcDbEntity
  8
Defpoints
 62
     0
100
AcDbPoint
 10
1414.617222237483
 20
1335.19042323058
 30
0.0
  0
ENDBLK
  5
6816
330
6814
100
AcDbEntity
  8
0
100
AcDbBlockEnd
  0
BLOCK
  5
6828
330
6827
100
AcDbEntity
  8
0
100
AcDbBlockBegin
  2
*D19
 70
     1
 10
0.0
 20
0.0
 30
0.0
  3
*D19
  1

  0
LINE
  5
682A
330
6827
100
AcDbEntity
  8
DIM
 62
     0
370
    -2
100
AcDbLine
 10
703.5426905351754
 20
948.860224450005
 30
0.0
 11
606.795181589342
 21
948.860224450005
 31
0.0
  0
LINE
  5
682B
330
6827
100
AcDbEntity
  8
DIM
 62
     0
370
    -2
100
AcDbLine
 10
709.8786628600335
 20
1201.253626993178
 30
0.0
 11
606.795181589342
 21
1201.253626993178
 31
0.0
  0
LINE
  5
682C
330
6827
100
AcDbEntity
  8
DIM
 62
     0
370
    -2
100
AcDbLine
 10
606.795181589342
 20
956.860224450005
 30
0.0
 11
606.795181589342
 21
1193.253626993178
 31
0.0
  0
INSERT
  5
682D
330
6827
100
AcDbEntity
  8
DIM
 62
     0
370
    -2
100
AcDbBlockReference
  2
_DOT
 10
606.795181589342
 20
948.860224450005
 30
0.0
 41
8.0
 42
8.0
 43
8.0
 50
270.0
  0
INSERT
  5
682E
330
6827
100
AcDbEntity
  8
DIM
 62
     0
370
    -2
100
AcDbBlockReference
  2
_DOT
 10
606.795181589342
 20
1201.253626993178
 30
0.0
 41
8.0
 42
8.0
 43
8.0
 50
90.0
  0
MTEXT
  5
682F
330
6827
100
AcDbEntity
  8
DIM
 62
     0
100
AcDbMText
 10
580.7914301825643
 20
1075.056925721592
 30
0.0
 40
20.0
 41
0.0
 46
0.0
 71
     5
 72
     1
  1
\A1;252
  7
ＭＳ ゴシック
 11
0.0
 21
1.0
 31
0.0
 73
     1
 44
1.0
  0
POINT
  5
6830
330
6827
100
AcDbEntity
  8
Defpoints
 62
     0
100
AcDbPoint
 10
708.5426905351754
 20
948.860224450005
 30
0.0
  0
POINT
  5
6831
330
6827
100
AcDbEntity
  8
Defpoints
 62
     0
100
AcDbPoint
 10
714.8786628600335
 20
1201.253626993178
 30
0.0
  0
POINT
  5
6832
330
6827
100
AcDbEntity
  8
Defpoints
 62
     0
100
AcDbPoint
 10
606.795181589342
 20
1201.253626993178
 30
0.0
  0
ENDBLK
  5
6829
330
6827
100
AcDbEntity
  8
0
100
AcDbBlockEnd
  0
BLOCK
  5
6835
330
6834
100
AcDbEntity
  8
0
100
AcDbBlockBegin
  2
*D20
 70
     1
 10
0.0
 20
0.0
 30
0.0
  3
*D20
  1

  0
LINE
  5
6837
330
6834
100
AcDbEntity
  8
DIM
 62
     0
370
    -2
100
AcDbLine
 10
322.5859992172029
 20
1221.008846288565
 30
0.0
 11
322.5859992172029
 21
1335.19042323058
 31
0.0
  0
LINE
  5
6838
330
6834
100
AcDbEntity
  8
DIM
 62
     0
370
    -2
100
AcDbLine
 10
387.9323802594009
 20
1221.779325277217
 30
0.0
 11
387.9323802594009
 21
1335.19042323058
 31
0.0
  0
LINE
  5
6839
330
6834
100
AcDbEntity
  8
DIM
 62
     0
370
    -2
100
AcDbLine
 10
330.5859992172029
 20
1335.19042323058
 30
0.0
 11
379.9323802594009
 21
1335.19042323058
 31
0.0
  0
INSERT
  5
683A
330
6834
100
AcDbEntity
  8
DIM
 62
     0
370
    -2
100
AcDbBlockReference
  2
_DOT
 10
322.5859992172029
 20
1335.19042323058
 30
0.0
 41
8.0
 42
8.0
 43
8.0
 50
180.0
  0
INSERT
  5
683B
330
6834
100
AcDbEntity
  8
DIM
 62
     0
370
    -2
100
AcDbBlockReference
  2
_DOT
 10
387.9323802594009
 20
1335.19042323058
 30
0.0
 41
8.0
 42
8.0
 43
8.0
  0
MTEXT
  5
683C
330
6834
100
AcDbEntity
  8
DIM
 62
     0
100
AcDbMText
 10
355.259189738302
 20
1361.194174637357
 30
0.0
 40
20.0
 41
0.0
 46
0.0
 71
     5
 72
     1
  1
\A1;65
  7
ＭＳ ゴシック
 73
     1
 44
1.0
  0
POINT
  5
683D
330
6834
100
AcDbEntity
  8
Defpoints
 62
     0
100
AcDbPoint
 10
322.5859992172029
 20
1216.008846288565
 30
0.0
  0
POINT
  5
683E
330
6834
100
AcDbEntity
  8
Defpoints
 62
     0
100
AcDbPoint
 10
387.9323802594009
 20
1216.779325277217
 30
0.0
  0
POINT
  5
683F
330
6834
100
AcDbEntity
  8
Defpoints
 62
     0
100
AcDbPoint
 10
387.9323802594009
 20
1335.19042323058
 30
0.0
  0
ENDBLK
  5
6836
330
6834
100
AcDbEntity
  8
0
100
AcDbBlockEnd
  0
BLOCK
  5
6846
330
6845
100
AcDbEntity
  8
0
100
AcDbBlockBegin
  2
*D21
 70
     1
 10
0.0
 20
0.0
 30
0.0
  3
*D21
  1

  0
LINE
  5
6848
330
6845
100
AcDbEntity
  8
DIM
 62
     0
370
    -2
100
AcDbLine
 10
392.552178042278
 20
1201.253626993178
 30
0.0
 11
468.3232189441518
 21
1201.253626993178
 31
0.0
  0
LINE
  5
6849
330
6845
100
AcDbEntity
  8
DIM
 62
     0
370
    -2
100
AcDbLine
 10
380.0576865408688
 20
1151.274534628091
 30
0.0
 11
468.3232189441518
 21
1151.274534628091
 31
0.0
  0
LINE
  5
684A
330
6845
100
AcDbEntity
  8
DIM
 62
     0
370
    -2
100
AcDbLine
 10
468.3232189441518
 20
1193.253626993178
 30
0.0
 11
468.3232189441518
 21
1159.274534628091
 31
0.0
  0
INSERT
  5
684B
330
6845
100
AcDbEntity
  8
DIM
 62
     0
370
    -2
100
AcDbBlockReference
  2
_DOT
 10
468.3232189441518
 20
1201.253626993178
 30
0.0
 41
8.0
 42
8.0
 43
8.0
 50
90.0
  0
INSERT
  5
684C
330
6845
100
AcDbEntity
  8
DIM
 62
     0
370
    -2
100
AcDbBlockReference
  2
_DOT
 10
468.3232189441518
 20
1151.274534628091
 30
0.0
 41
8.0
 42
8.0
 43
8.0
 50
270.0
  0
MTEXT
  5
684D
330
6845
100
AcDbEntity
  8
DIM
 62
     0
100
AcDbMText
 10
442.3194675373742
 20
1176.264080810634
 30
0.0
 40
20.0
 41
0.0
 46
0.0
 71
     5
 72
     1
  1
\A1;50
  7
ＭＳ ゴシック
 11
0.0
 21
1.0
 31
0.0
 73
     1
 44
1.0
  0
POINT
  5
684E
330
6845
100
AcDbEntity
  8
Defpoints
 62
     0
100
AcDbPoint
 10
387.552178042278
 20
1201.253626993178
 30
0.0
  0
POINT
  5
684F
330
6845
100
AcDbEntity
  8
Defpoints
 62
     0
100
AcDbPoint
 10
375.0576865408688
 20
1151.274534628091
 30
0.0
  0
POINT
  5
6850
330
6845
100
AcDbEntity
  8
Defpoints
 62
     0
100
AcDbPoint
 10
468.3232189441518
 20
1151.274534628091
 30
0.0
  0
ENDBLK
  5
6847
330
6845
100
AcDbEntity
  8
0
100
AcDbBlockEnd
  0
BLOCK
  5
6856
330
6855
100
AcDbEntity
  8
0
100
AcDbBlockBegin
  2
*D22
 70
     1
 10
0.0
 20
0.0
 30
0.0
  3
*D22
  1

  0
LINE
  5
6858
330
6855
100
AcDbEntity
  8
DIM
 62
     0
370
    -2
100
AcDbLine
 10
317.5859992172029
 20
1201.253626993178
 30
0.0
 11
271.0241987873504
 21
1201.253626993178
 31
0.0
  0
LINE
  5
6859
330
6855
100
AcDbEntity
  8
DIM
 62
     0
370
    -2
100
AcDbLine
 10
325.0756821683417
 20
1092.797722092836
 30
0.0
 11
271.0241987873504
 21
1092.797722092836
 31
0.0
  0
LINE
  5
685A
330
6855
100
AcDbEntity
  8
DIM
 62
     0
370
    -2
100
AcDbLine
 10
271.0241987873504
 20
1193.253626993178
 30
0.0
 11
271.0241987873504
 21
1100.797722092836
 31
0.0
  0
INSERT
  5
685B
330
6855
100
AcDbEntity
  8
DIM
 62
     0
370
    -2
100
AcDbBlockReference
  2
_DOT
 10
271.0241987873504
 20
1201.253626993178
 30
0.0
 41
8.0
 42
8.0
 43
8.0
 50
90.0
  0
INSERT
  5
685C
330
6855
100
AcDbEntity
  8
DIM
 62
     0
370
    -2
100
AcDbBlockReference
  2
_DOT
 10
271.0241987873504
 20
1092.797722092836
 30
0.0
 41
8.0
 42
8.0
 43
8.0
 50
270.0
  0
MTEXT
  5
685D
330
6855
100
AcDbEntity
  8
DIM
 62
     0
100
AcDbMText
 10
245.0204473805728
 20
1147.025674543007
 30
0.0
 40
20.0
 41
0.0
 46
0.0
 71
     5
 72
     1
  1
\A1;108
  7
ＭＳ ゴシック
 11
0.0
 21
1.0
 31
0.0
 73
     1
 44
1.0
  0
POINT
  5
685E
330
6855
100
AcDbEntity
  8
Defpoints
 62
     0
100
AcDbPoint
 10
322.5859992172029
 20
1201.253626993178
 30
0.0
  0
POINT
  5
685F
330
6855
100
AcDbEntity
  8
Defpoints
 62
     0
100
AcDbPoint
 10
330.0756821683417
 20
1092.797722092836
 30
0.0
  0
POINT
  5
6860
330
6855
100
AcDbEntity
  8
Defpoints
 62
     0
100
AcDbPoint
 10
271.0241987873504
 20
1092.797722092836
 30
0.0
  0
ENDBLK
  5
6857
330
6855
100
AcDbEntity
  8
0
100
AcDbBlockEnd
  0
BLOCK
  5
6863
330
6862
100
AcDbEntity
  8
0
100
AcDbBlockBegin
  2
*D23
 70
     1
 10
0.0
 20
0.0
 30
0.0
  3
*D23
  1

  0
LINE
  5
6865
330
6862
100
AcDbEntity
  8
DIM
 62
     0
370
    -2
100
AcDbLine
 10
317.5859992172029
 20
1201.253626993178
 30
0.0
 11
206.3930927500157
 21
1201.253626993178
 31
0.0
  0
LINE
  5
6866
330
6862
100
AcDbEntity
  8
DIM
 62
     0
370
    -2
100
AcDbLine
 10
317.5859992172029
 20
1033.973442426114
 30
0.0
 11
206.3930927500157
 21
1033.973442426114
 31
0.0
  0
LINE
  5
6867
330
6862
100
AcDbEntity
  8
DIM
 62
     0
370
    -2
100
AcDbLine
 10
206.3930927500157
 20
1193.253626993178
 30
0.0
 11
206.3930927500157
 21
1041.973442426114
 31
0.0
  0
INSERT
  5
6868
330
6862
100
AcDbEntity
  8
DIM
 62
     0
370
    -2
100
AcDbBlockReference
  2
_DOT
 10
206.3930927500157
 20
1201.253626993178
 30
0.0
 41
8.0
 42
8.0
 43
8.0
 50
90.0
  0
INSERT
  5
6869
330
6862
100
AcDbEntity
  8
DIM
 62
     0
370
    -2
100
AcDbBlockReference
  2
_DOT
 10
206.3930927500157
 20
1033.973442426114
 30
0.0
 41
8.0
 42
8.0
 43
8.0
 50
270.0
  0
MTEXT
  5
686A
330
6862
100
AcDbEntity
  8
DIM
 62
     0
100
AcDbMText
 10
180.3893413432381
 20
1117.613534709646
 30
0.0
 40
20.0
 41
0.0
 46
0.0
 71
     5
 72
     1
  1
\A1;167
  7
ＭＳ ゴシック
 11
0.0
 21
1.0
 31
0.0
 73
     1
 44
1.0
  0
POINT
  5
686B
330
6862
100
AcDbEntity
  8
Defpoints
 62
     0
100
AcDbPoint
 10
322.5859992172029
 20
1201.253626993178
 30
0.0
  0
POINT
  5
686C
330
6862
100
AcDbEntity
  8
Defpoints
 62
     0
100
AcDbPoint
 10
322.5859992172029
 20
1033.973442426114
 30
0.0
  0
POINT
  5
686D
330
6862
100
AcDbEntity
  8
Defpoints
 62
     0
100
AcDbPoint
 10
206.3930927500157
 20
1033.973442426114
 30
0.0
  0
ENDBLK
  5
6864
330
6862
100
AcDbEntity
  8
0
100
AcDbBlockEnd
  0
BLOCK
  5
6C04
330
6C03
100
AcDbEntity
  8
0
100
AcDbBlockBegin
  2
*D24
 70
     1
 10
0.0
 20
0.0
 30
0.0
  3
*D24
  1

  0
LINE
  5
6C06
330
6C03
100
AcDbEntity
  8
DIM
 62
     0
370
    -2
100
AcDbLine
 10
1421.622568784489
 20
1201.253626993178
 30
0.0
 11
1495.778390295551
 21
1201.253626993178
 31
0.0
  0
LINE
  5
6C07
330
6C03
100
AcDbEntity
  8
DIM
 62
     0
370
    -2
100
AcDbLine
 10
1421.117627674487
 20
1148.674608419621
 30
0.0
 11
1495.778390295551
 21
1148.674608419621
 31
0.0
  0
LINE
  5
6C08
330
6C03
100
AcDbEntity
  8
DIM
 62
     0
370
    -2
100
AcDbLine
 10
1495.778390295551
 20
1193.253626993178
 30
0.0
 11
1495.778390295551
 21
1156.674608419621
 31
0.0
  0
INSERT
  5
6C09
330
6C03
100
AcDbEntity
  8
DIM
 62
     0
370
    -2
100
AcDbBlockReference
  2
_DOT
 10
1495.778390295551
 20
1201.253626993178
 30
0.0
 41
8.0
 42
8.0
 43
8.0
 50
90.0
  0
INSERT
  5
6C0A
330
6C03
100
AcDbEntity
  8
DIM
 62
     0
370
    -2
100
AcDbBlockReference
  2
_DOT
 10
1495.778390295551
 20
1148.674608419621
 30
0.0
 41
8.0
 42
8.0
 43
8.0
 50
270.0
  0
MTEXT
  5
6C0B
330
6C03
100
AcDbEntity
  8
DIM
 62
     0
100
AcDbMText
 10
1469.774638888773
 20
1177.49273375053
 30
0.0
 40
20.0
 41
0.0
 46
0.0
 71
     5
 72
     1
  1
\A1;53
  7
ＭＳ ゴシック
 11
0.0
 21
1.0
 31
0.0
 73
     1
 44
1.0
  0
POINT
  5
6C0C
330
6C03
100
AcDbEntity
  8
Defpoints
 62
     0
100
AcDbPoint
 10
1416.622568784489
 20
1201.253626993178
 30
0.0
  0
POINT
  5
6C0D
330
6C03
100
AcDbEntity
  8
Defpoints
 62
     0
100
AcDbPoint
 10
1416.117627674487
 20
1148.674608419621
 30
0.0
  0
POINT
  5
6C0E
330
6C03
100
AcDbEntity
  8
Defpoints
 62
     0
100
AcDbPoint
 10
1495.778390295551
 20
1148.674608419621
 30
0.0
  0
ENDBLK
  5
6C05
330
6C03
100
AcDbEntity
  8
0
100
AcDbBlockEnd
  0
BLOCK
  5
7903
330
7902
100
AcDbEntity
  8
0
100
AcDbBlockBegin
  2
*D26
 70
     1
 10
0.0
 20
0.0
 30
0.0
  3
*D26
  1

  0
LINE
  5
7905
330
7902
100
AcDbEntity
  8
DIM
 62
     0
370
    -2
100
AcDbLine
 10
1064.222632151471
 20
1273.085786621848
 30
0.0
 11
1181.993676494086
 21
1273.085786621848
 31
0.0
  0
LINE
  5
7906
330
7902
100
AcDbEntity
  8
DIM
 62
     0
370
    -2
100
AcDbLine
 10
1078.243891050851
 20
797.0857866525637
 30
0.0
 11
1181.993676494086
 21
797.0857866525637
 31
0.0
  0
LINE
  5
7907
330
7902
100
AcDbEntity
  8
DIM
 62
     0
370
    -2
100
AcDbLine
 10
1181.993676494086
 20
1265.085786621848
 30
0.0
 11
1181.993676494086
 21
805.0857866525637
 31
0.0
  0
INSERT
  5
7908
330
7902
100
AcDbEntity
  8
DIM
 62
     0
370
    -2
100
AcDbBlockReference
  2
_DOT
 10
1181.993676494086
 20
1273.085786621848
 30
0.0
 41
8.0
 42
8.0
 43
8.0
 50
90.0
  0
INSERT
  5
7909
330
7902
100
AcDbEntity
  8
DIM
 62
     0
370
    -2
100
AcDbBlockReference
  2
_DOT
 10
1181.993676494086
 20
797.0857866525637
 30
0.0
 41
8.0
 42
8.0
 43
8.0
 50
270.0
  0
MTEXT
  5
790A
330
7902
100
AcDbEntity
  8
DIM
 62
     0
100
AcDbMText
 10
1155.989925087308
 20
1035.085786637206
 30
0.0
 40
20.0
 41
0.0
 46
0.0
 71
     5
 72
     1
  1
\A1;476
  7
ＭＳ ゴシック
 11
0.0
 21
1.0
 31
0.0
 73
     1
 44
1.0
  0
POINT
  5
790B
330
7902
100
AcDbEntity
  8
Defpoints
 62
     0
100
AcDbPoint
 10
1059.222632151471
 20
1273.085786621848
 30
0.0
  0
POINT
  5
790C
330
7902
100
AcDbEntity
  8
Defpoints
 62
     0
100
AcDbPoint
 10
1073.243891050851
 20
797.0857866525637
 30
0.0
  0
POINT
  5
790D
330
7902
100
AcDbEntity
  8
Defpoints
 62
     0
100
AcDbPoint
 10
1181.993676494086
 20
797.0857866525637
 30
0.0
  0
ENDBLK
  5
7904
330
7902
100
AcDbEntity
  8
0
100
AcDbBlockEnd
  0
BLOCK
  5
7913
330
7912
100
AcDbEntity
  8
0
100
AcDbBlockBegin
  2
*D27
 70
     1
 10
0.0
 20
0.0
 30
0.0
  3
*D27
  1

  0
LINE
  5
7915
330
7912
100
AcDbEntity
  8
DIM
 62
     0
370
    -2
100
AcDbLine
 10
616.1968478713763
 20
768.960171600058
 30
0.0
 11
616.1968478713763
 21
606.9757274367388
 31
0.0
  0
LINE
  5
7916
330
7912
100
AcDbEntity
  8
DIM
 62
     0
370
    -2
100
AcDbLine
 10
1039.466002887698
 20
767.7199593092687
 30
0.0
 11
1039.466002887698
 21
606.9757274367388
 31
0.0
  0
LINE
  5
7917
330
7912
100
AcDbEntity
  8
DIM
 62
     0
370
    -2
100
AcDbLine
 10
624.1968478713763
 20
606.9757274367388
 30
0.0
 11
1031.466002887698
 21
606.9757274367388
 31
0.0
  0
INSERT
  5
7918
330
7912
100
AcDbEntity
  8
DIM
 62
     0
370
    -2
100
AcDbBlockReference
  2
_DOT
 10
616.1968478713763
 20
606.9757274367388
 30
0.0
 41
8.0
 42
8.0
 43
8.0
 50
180.0
  0
INSERT
  5
7919
330
7912
100
AcDbEntity
  8
DIM
 62
     0
370
    -2
100
AcDbBlockReference
  2
_DOT
 10
1039.466002887698
 20
606.9757274367388
 30
0.0
 41
8.0
 42
8.0
 43
8.0
  0
MTEXT
  5
791A
330
7912
100
AcDbEntity
  8
DIM
 62
     0
100
AcDbMText
 10
827.831425379537
 20
632.9794788435163
 30
0.0
 40
20.0
 41
0.0
 46
0.0
 71
     5
 72
     1
  1
\A1;423
  7
ＭＳ ゴシック
 73
     1
 44
1.0
  0
POINT
  5
791B
330
7912
100
AcDbEntity
  8
Defpoints
 62
     0
100
AcDbPoint
 10
616.1968478713763
 20
773.960171600058
 30
0.0
  0
POINT
  5
791C
330
7912
100
AcDbEntity
  8
Defpoints
 62
     0
100
AcDbPoint
 10
1039.466002887698
 20
772.7199593092687
 30
0.0
  0
POINT
  5
791D
330
7912
100
AcDbEntity
  8
Defpoints
 62
     0
100
AcDbPoint
 10
1039.466002887698
 20
606.9757274367388
 30
0.0
  0
ENDBLK
  5
7914
330
7912
100
AcDbEntity
  8
0
100
AcDbBlockEnd
  0
BLOCK
  5
7922
330
7921
100
AcDbEntity
  8
0
100
AcDbBlockBegin
  2
*D28
 70
     1
 10
0.0
 20
0.0
 30
0.0
  3
*D28
  1

  0
LINE
  5
7924
330
7921
100
AcDbEntity
  8
DIM
 62
     0
370
    -2
100
AcDbLine
 10
658.9167385849403
 20
1285.315217181295
 30
0.0
 11
658.9167385849403
 21
1406.673771320171
 31
0.0
  0
LINE
  5
7925
330
7921
100
AcDbEntity
  8
DIM
 62
     0
370
    -2
100
AcDbLine
 10
996.7571957745961
 20
1285.315217181295
 30
0.0
 11
996.7571957745961
 21
1406.673771320171
 31
0.0
  0
LINE
  5
7926
330
7921
100
AcDbEntity
  8
DIM
 62
     0
370
    -2
100
AcDbLine
 10
666.9167385849403
 20
1406.673771320171
 30
0.0
 11
988.7571957745961
 21
1406.673771320171
 31
0.0
  0
INSERT
  5
7927
330
7921
100
AcDbEntity
  8
DIM
 62
     0
370
    -2
100
AcDbBlockReference
  2
_DOT
 10
658.9167385849403
 20
1406.673771320171
 30
0.0
 41
8.0
 42
8.0
 43
8.0
 50
180.0
  0
INSERT
  5
7928
330
7921
100
AcDbEntity
  8
DIM
 62
     0
370
    -2
100
AcDbBlockReference
  2
_DOT
 10
996.7571957745961
 20
1406.673771320171
 30
0.0
 41
8.0
 42
8.0
 43
8.0
  0
MTEXT
  5
7929
330
7921
100
AcDbEntity
  8
DIM
 62
     0
100
AcDbMText
 10
827.8369671797682
 20
1432.677522726949
 30
0.0
 40
20.0
 41
0.0
 46
0.0
 71
     5
 72
     1
  1
\A1;338
  7
ＭＳ ゴシック
 73
     1
 44
1.0
  0
POINT
  5
792A
330
7921
100
AcDbEntity
  8
Defpoints
 62
     0
100
AcDbPoint
 10
658.9167385849403
 20
1280.315217181295
 30
0.0
  0
POINT
  5
792B
330
7921
100
AcDbEntity
  8
Defpoints
 62
     0
100
AcDbPoint
 10
996.7571957745961
 20
1280.315217181295
 30
0.0
  0
POINT
  5
792C
330
7921
100
AcDbEntity
  8
Defpoints
 62
     0
100
AcDbPoint
 10
996.7571957745961
 20
1406.673771320171
 30
0.0
  0
ENDBLK
  5
7923
330
7921
100
AcDbEntity
  8
0
100
AcDbBlockEnd
  0
BLOCK
  5
7945
330
7944
100
AcDbEntity
  8
0
100
AcDbBlockBegin
  2
*D29
 70
     1
 10
0.0
 20
0.0
 30
0.0
  3
*D29
  1

  0
LINE
  5
7947
330
7944
100
AcDbEntity
  8
DIM
 62
     0
370
    -2
100
AcDbLine
 10
658.9167385849388
 20
1879.907258249457
 30
0.0
 11
658.9167385849388
 21
1972.758089808221
 31
0.0
  0
LINE
  5
7948
330
7944
100
AcDbEntity
  8
DIM
 62
     0
370
    -2
100
AcDbLine
 10
996.757195774595
 20
1885.300611170019
 30
0.0
 11
996.757195774595
 21
1972.758089808221
 31
0.0
  0
LINE
  5
7949
330
7944
100
AcDbEntity
  8
DIM
 62
     0
370
    -2
100
AcDbLine
 10
666.9167385849388
 20
1972.758089808221
 30
0.0
 11
988.757195774595
 21
1972.758089808221
 31
0.0
  0
INSERT
  5
794A
330
7944
100
AcDbEntity
  8
DIM
 62
     0
370
    -2
100
AcDbBlockReference
  2
_DOT
 10
658.9167385849388
 20
1972.758089808221
 30
0.0
 41
8.0
 42
8.0
 43
8.0
 50
180.0
  0
INSERT
  5
794B
330
7944
100
AcDbEntity
  8
DIM
 62
     0
370
    -2
100
AcDbBlockReference
  2
_DOT
 10
996.757195774595
 20
1972.758089808221
 30
0.0
 41
8.0
 42
8.0
 43
8.0
  0
MTEXT
  5
794C
330
7944
100
AcDbEntity
  8
DIM
 62
     0
100
AcDbMText
 10
827.8369671797668
 20
1998.761841214999
 30
0.0
 40
20.0
 41
0.0
 46
0.0
 71
     5
 72
     1
  1
\A1;338
  7
ＭＳ ゴシック
 73
     1
 44
1.0
  0
POINT
  5
794D
330
7944
100
AcDbEntity
  8
Defpoints
 62
     0
100
AcDbPoint
 10
658.9167385849388
 20
1874.907258249457
 30
0.0
  0
POINT
  5
794E
330
7944
100
AcDbEntity
  8
Defpoints
 62
     0
100
AcDbPoint
 10
996.757195774595
 20
1880.300611170019
 30
0.0
  0
POINT
  5
794F
330
7944
100
AcDbEntity
  8
Defpoints
 62
     0
100
AcDbPoint
 10
996.757195774595
 20
1972.758089808221
 30
0.0
  0
ENDBLK
  5
7946
330
7944
100
AcDbEntity
  8
0
100
AcDbBlockEnd
  0
BLOCK
  5
7954
330
7953
100
AcDbEntity
  8
0
100
AcDbBlockBegin
  2
*D30
 70
     1
 10
0.0
 20
0.0
 30
0.0
  3
*D30
  1

  0
LINE
  5
7956
330
7953
100
AcDbEntity
  8
DIM
 62
     0
370
    -2
100
AcDbLine
 10
1004.116569354118
 20
1531.489184638667
 30
0.0
 11
1109.255234819992
 21
1531.489184638667
 31
0.0
  0
LINE
  5
7957
330
7953
100
AcDbEntity
  8
DIM
 62
     0
370
    -2
100
AcDbLine
 10
1028.331418005556
 20
1869.329641828323
 30
0.0
 11
1109.255234819992
 21
1869.329641828323
 31
0.0
  0
LINE
  5
7958
330
7953
100
AcDbEntity
  8
DIM
 62
     0
370
    -2
100
AcDbLine
 10
1109.255234819992
 20
1539.489184638667
 30
0.0
 11
1109.255234819992
 21
1861.329641828323
 31
0.0
  0
INSERT
  5
7959
330
7953
100
AcDbEntity
  8
DIM
 62
     0
370
    -2
100
AcDbBlockReference
  2
_DOT
 10
1109.255234819992
 20
1531.489184638667
 30
0.0
 41
8.0
 42
8.0
 43
8.0
 50
270.0
  0
INSERT
  5
795A
330
7953
100
AcDbEntity
  8
DIM
 62
     0
370
    -2
100
AcDbBlockReference
  2
_DOT
 10
1109.255234819992
 20
1869.329641828323
 30
0.0
 41
8.0
 42
8.0
 43
8.0
 50
90.0
  0
MTEXT
  5
795B
330
7953
100
AcDbEntity
  8
DIM
 62
     0
100
AcDbMText
 10
1083.251483413214
 20
1700.409413233495
 30
0.0
 40
20.0
 41
0.0
 46
0.0
 71
     5
 72
     1
  1
\A1;338
  7
ＭＳ ゴシック
 11
0.0
 21
1.0
 31
0.0
 73
     1
 44
1.0
  0
POINT
  5
795C
330
7953
100
AcDbEntity
  8
Defpoints
 62
     0
100
AcDbPoint
 10
999.1165693541185
 20
1531.489184638667
 30
0.0
  0
POINT
  5
795D
330
7953
100
AcDbEntity
  8
Defpoints
 62
     0
100
AcDbPoint
 10
1023.331418005556
 20
1869.329641828323
 30
0.0
  0
POINT
  5
795E
330
7953
100
AcDbEntity
  8
Defpoints
 62
     0
100
AcDbPoint
 10
1109.255234819992
 20
1869.329641828323
 30
0.0
  0
ENDBLK
  5
7955
330
7953
100
AcDbEntity
  8
0
100
AcDbBlockEnd
  0
ENDSEC
  0
SECTION
  2
ENTITIES
  0
MTEXT
  5
177
330
A
100
AcDbEntity
  8
TEMPLATE
390
1D
100
AcDbMText
 10
63.3617156381846
 20
274.9854013051426
 30
0.0
 40
13.03072916666666
 41
0.0
 46
0.0
 71
     1
 72
     1
  1
品名
  7
ＭＳ ゴシック
 73
     1
 44
0.7828267384257843
  0
MTEXT
  5
178
330
A
100
AcDbEntity
  8
TEMPLATE
390
1D
100
AcDbMText
 10
63.3617156381846
 20
206.9854013051424
 30
0.0
 40
13.03072916666666
 41
0.0
 46
0.0
 71
     1
 72
     1
  1
仕様
  7
ＭＳ ゴシック
 73
     1
 44
0.7828267384257843
  0
LINE
  5
179
330
A
100
AcDbEntity
  8
TEMPLATE
390
1D
100
AcDbLine
 10
1617.761715637798
 20
213.7173388051428
 30
0.0
 11
57.761715637799
 21
213.7173388051428
 31
0.0
  0
LWPOLYLINE
  5
17A
330
A
100
AcDbEntity
  8
TEMPLATE
390
1D
100
AcDbPolyline
 90
        5
 70
   128
 43
0.0
 10
1617.761715637798
 20
2317.717338805142
 10
57.761715637799
 20
2317.717338805142
 10
57.761715637799
 20
77.7173388051426
 10
1617.761715637798
 20
77.7173388051426
 10
1617.761715637798
 20
2317.717338805142
  0
LINE
  5
17B
330
A
100
AcDbEntity
  8
TEMPLATE
390
1D
100
AcDbLine
 10
1617.761715637798
 20
281.7173388051426
 30
0.0
 11
57.761715637799
 21
281.7173388051426
 31
0.0
  0
LINE
  5
17C
330
A
100
AcDbEntity
  8
TEMPLATE
390
1D
100
AcDbLine
 10
1617.761715638186
 20
145.7173388051426
 30
0.0
 11
1015.361715638184
 21
145.7173388051426
 31
0.0
  0
MTEXT
  5
17E
330
A
100
AcDbEntity
  8
TEMPLATE
390
1D
100
AcDbMText
 10
1039.258840639993
 20
121.7890232264961
 30
0.0
 40
19.54609375
 41
0.0
 46
0.0
 71
     1
 72
     1
  1
大洋金物株式会社 ティーフォルム事業部
  7
ＭＳ ゴシック
 73
     1
 44
0.7828267384257843
  0
MTEXT
  5
180
330
A
100
AcDbEntity
  8
TEMPLATE
390
1D
100
AcDbMText
 10
1464.961715638392
 20
184.1194325551426
 30
0.0
 40
19.54609375
 41
0.0
 46
19.54609375
 71
     1
 72
     1
  1
{1:8}
  7
ＭＳ ゴシック
 73
     1
 44
0.7828267384257843
1001
ACAD
1000
ACAD_MTEXT_DEFINED_HEIGHT_BEGIN
1070
    46
1040
19.54609375
1000
ACAD_MTEXT_DEFINED_HEIGHT_END
  0
MTEXT
  5
181
330
A
100
AcDbEntity
  8
TEMPLATE
390
1D
100
AcDbMText
 10
1422.561715638392
 20
206.9854013051424
 30
0.0
 40
13.03072916666666
 41
0.0
 46
0.0
 71
     1
 72
     1
  1
縮尺
  7
ＭＳ ゴシック
 73
     1
 44
0.7828267384257843
  0
LINE
  5
182
330
A
100
AcDbEntity
  8
TEMPLATE
390
1D
100
AcDbLine
 10
1416.961715638392
 20
145.7173388051426
 30
0.0
 11
1416.961715638392
 21
213.7173388051428
 31
0.0
  0
MTEXT
  5
183
330
A
100
AcDbEntity
  8
TEMPLATE
390
1D
100
AcDbMText
 10
1221.761715638392
 20
206.9854013051424
 30
0.0
 40
13.03072916666666
 41
0.0
 46
0.0
 71
     1
 72
     1
  1
容量
  7
ＭＳ ゴシック
 73
     1
 44
0.7828267384257843
  0
LINE
  5
184
330
A
100
AcDbEntity
  8
TEMPLATE
390
1D
100
AcDbLine
 10
1216.161715638392
 20
145.7173388051426
 30
0.0
 11
1216.161715638392
 21
213.7173388051428
 31
0.0
  0
MTEXT
  5
185
330
A
100
AcDbEntity
  8
TEMPLATE
390
1D
100
AcDbMText
 10
1020.961715638392
 20
274.9854013051426
 30
0.0
 40
13.03072916666666
 41
0.0
 46
0.0
 71
     1
 72
     1
  1
品番
  7
ＭＳ ゴシック
 73
     1
 44
0.7828267384257843
  0
MTEXT
  5
186
330
A
100
AcDbEntity
  8
TEMPLATE
390
1D
100
AcDbMText
 10
1020.961715638392
 20
206.9854013051424
 30
0.0
 40
13.03072916666666
 41
0.0
 46
0.0
 71
     1
 72
     1
  1
重量
  7
ＭＳ ゴシック
 73
     1
 44
0.7828267384257843
  0
MTEXT
  5
187
330
A
100
AcDbEntity
  8
TEMPLATE
390
1D
100
AcDbMText
 10
1063.361715638392
 20
252.1194325551426
 30
0.0
 40
19.54609375
 41
0.0
 46
19.54609375
 71
     1
 72
     1
  1
{FLR74-3002}
  7
ＭＳ ゴシック
 73
     1
 44
0.7828267384257843
1001
ACAD
1000
ACAD_MTEXT_DEFINED_HEIGHT_BEGIN
1070
    46
1040
19.54609375
1000
ACAD_MTEXT_DEFINED_HEIGHT_END
  0
LINE
  5
188
330
A
100
AcDbEntity
  8
TEMPLATE
390
1D
100
AcDbLine
 10
1015.361715638392
 20
77.7173388051426
 30
0.0
 11
1015.361715638392
 21
281.7173388051426
 31
0.0
  0
MTEXT
  5
189
330
A
100
AcDbEntity
  8
TEMPLATE
390
1D
100
AcDbMText
 10
105.7617156381846
 20
252.1194325551426
 30
0.0
 40
19.54609375
 41
0.0
 46
22.02937888817682
 71
     1
 72
     1
  1
{バススツール　-KEUCO,AXESS-}
  7
ＭＳ ゴシック
 73
     1
 44
0.7828267384257843
1001
ACAD
1000
ACAD_MTEXT_DEFINED_HEIGHT_BEGIN
1070
    46
1040
22.02937888817682
1000
ACAD_MTEXT_DEFINED_HEIGHT_END
  0
INSERT
  5
68C
330
A
100
AcDbEntity
  8
TEMPLATE
100
AcDbBlockReference
  2
block 2
 10
735.4194414162062
 20
6.698461211469094
 30
0.0
 41
0.3048
 42
0.3048
 43
0.3048
  0
LWPOLYLINE
  5
D69
330
A
100
AcDbEntity
  8
BORDER
100
AcDbPolyline
 90
        4
 70
     1
 43
0.0
 10
0.0
 20
0.0
 10
0.0
 20
2376.0
 10
1680.0
 20
2376.0
 10
1680.0
 20
0.0
  0
INSERT
  5
1343
330
A
100
AcDbEntity
  8
TEMPLATE
100
AcDbBlockReference
  2
block 2
 10
1677.394776693175
 20
19.54825712983655
 30
0.0
 41
0.3048
 42
0.3048
 43
0.3048
  0
HATCH
  5
3CE3
102
{ACAD_REACTORS
330
3CF4
102
}
330
A
100
AcDbEntity
  8
TEMPLATE
100
AcDbHatch
 10
0.0
 20
0.0
 30
0.0
210
0.0
220
0.0
230
1.0
  2
SOLID
 70
     1
 71
     1
 91
        6
 92
        1
 93
        8
 72
     1
 10
1547.654180558225
 20
122.686885999047
 11
1547.654180558225
 21
117.9593598945186
 72
     1
 10
1547.654180558225
 20
117.9593598945186
 11
1540.165707317976
 21
117.9593598945186
 72
     1
 10
1540.165707317976
 20
117.9593598945186
 11
1540.165707317976
 21
98.68688600020374
 72
     1
 10
1540.165707317976
 20
98.68688600020374
 11
1533.579616795355
 21
98.68688600020374
 72
     1
 10
1533.579616795355
 20
98.68688600020374
 11
1533.579616795355
 21
117.9593598945186
 72
     1
 10
1533.579616795355
 20
117.9593598945186
 11
1526.22385564772
 21
117.9593598945186
 72
     1
 10
1526.22385564772
 20
117.9593598945186
 11
1526.22385564772
 21
122.686885999047
 72
     1
 10
1526.22385564772
 20
122.686885999047
 11
1547.654180558225
 21
122.686885999047
 97
        1
330
3CE4
 92
        1
 93
        1
 72
     4
 94
        3
 73
     0
 74
     1
 95
       56
 96
       52
 40
0.0
 40
0.0
 40
0.0
 40
0.0
 40
1.0
 40
1.0
 40
1.0
 40
2.0
 40
2.0
 40
2.0
 40
3.0
 40
3.0
 40
3.0
 40
4.0
 40
4.0
 40
4.0
 40
5.0
 40
5.0
 40
5.0
 40
6.0
 40
6.0
 40
6.0
 40
7.0
 40
7.0
 40
7.0
 40
8.0
 40
8.0
 40
8.0
 40
9.0
 40
9.0
 40
9.0
 40
10.0
 40
10.0
 40
10.0
 40
11.0
 40
11.0
 40
11.0
 40
12.0
 40
12.0
 40
12.0
 40
13.0
 40
13.0
 40
13.0
 40
14.0
 40
14.0
 40
14.0
 40
15.0
 40
15.0
 40
15.0
 40
16.0
 40
16.0
 40
16.0
 40
17.0
 40
17.0
 40
17.0
 40
17.0
 10
1557.687928905659
 20
122.1153908307171
 10
1558.611021851194
 20
122.3752208739253
 10
1559.802693125861
 20
122.1578825052133
 10
1559.802693125861
 20
122.1578825052133
 10
1559.802693125861
 20
122.1578825052133
 10
1559.230186250996
 20
120.4398262712745
 10
1559.230186250996
 20
120.4398262712745
 10
1559.230186250996
 20
120.4398262712745
 10
1558.060296422918
 20
120.710547037778
 10
1557.157973217439
 20
119.9990197824878
 10
1556.456801076102
 20
119.442581187894
 10
1556.002544841606
 20
117.9640613543017
 10
1555.828293268882
 20
117.4019095933891
 10
1555.828293268882
 20
117.4019095933891
 10
1555.051421673821
 20
115.0173768010701
 10
1555.051421673821
 20
115.0173768010701
 10
1555.051421673821
 20
115.0173768010701
 10
1557.598720194077
 20
115.0173768010701
 10
1557.598720194077
 20
115.0173768010701
 10
1557.598720194077
 20
115.0173768010701
 10
1557.202547817156
 20
113.516599423694
 10
1557.202547817156
 20
113.516599423694
 10
1557.202547817156
 20
113.516599423694
 10
1554.634479556845
 20
113.516599423694
 10
1554.634479556845
 20
113.516599423694
 10
1554.634479556845
 20
113.516599423694
 10
1550.03972505708
 20
98.68688600020374
 10
1550.03972505708
 20
98.68688600020374
 10
1550.03972505708
 20
98.68688600020374
 10
1548.60113787557
 20
98.68688600020374
 10
1548.60113787557
 20
98.68688600020374
 10
1548.60113787557
 20
98.68688600020374
 10
1553.200058225776
 20
113.516599423694
 10
1553.200058225776
 20
113.516599423694
 10
1553.200058225776
 20
113.516599423694
 10
1551.305072372401
 20
113.516599423694
 10
1551.305072372401
 20
113.516599423694
 10
1551.305072372401
 20
113.516599423694
 10
1551.702315968007
 20
115.0173768010701
 10
1551.702315968007
 20
115.0173768010701
 10
1551.702315968007
 20
115.0173768010701
 10
1553.617000342751
 20
115.0173768010701
 10
1553.617000342751
 20
115.0173768010701
 10
1553.617000342751
 20
115.0173768010701
 10
1554.294248600129
 20
117.0969693411219
 10
1554.294248600129
 20
117.0969693411219
 10
1554.841879396648
 20
118.8404967748988
 10
1555.306550257245
 20
119.7765633689486
 10
1555.704865071536
 20
120.4823179457708
 10
1556.098954523236
 20
121.1886676440845
 10
1556.878920750054
 20
121.8825197910759
 10
1557.687928905659
 20
122.1153908307171
 97
        1
330
3CEF
 92
        1
 93
        1
 72
     4
 94
        3
 73
     0
 74
     1
 95
       32
 96
       28
 40
0.0
 40
0.0
 40
0.0
 40
0.0
 40
1.0
 40
1.0
 40
1.0
 40
2.0
 40
2.0
 40
2.0
 40
3.0
 40
3.0
 40
3.0
 40
4.0
 40
4.0
 40
4.0
 40
5.0
 40
5.0
 40
5.0
 40
6.0
 40
6.0
 40
6.0
 40
7.0
 40
7.0
 40
7.0
 40
8.0
 40
8.0
 40
8.0
 40
9.0
 40
9.0
 40
9.0
 40
9.0
 10
1561.188374006773
 20
114.1104116479568
 10
1560.322353212278
 20
112.9902144644232
 10
1559.655460068853
 20
111.9820786577475
 10
1558.575790658894
 20
108.813473300319
 10
1557.583187523147
 20
105.9151126122006
 10
1556.951525572023
 20
103.8064781433614
 10
1556.856127596928
 20
101.2384098830501
 10
1556.78352277496
 20
99.32735574940358
 10
1557.947223339525
 20
98.68688600020374
 10
1559.653436655782
 20
98.68688600020374
 10
1560.388768770734
 20
98.68688600020374
 10
1562.244357581369
 20
98.73366254943912
 10
1563.565765341194
 20
100.3671520194295
 10
1564.490822187649
 20
101.5147843037232
 10
1565.343393236436
 20
102.70443216532
 10
1566.486383573095
 20
106.6068818339716
 10
1567.437506740881
 20
109.8693378506166
 10
1568.096068183424
 20
111.9779128073066
 10
1568.047387245416
 20
113.1784513921987
 10
1568.047387245416
 20
113.1784513921987
 10
1568.047387245416
 20
113.1784513921987
 10
1568.047387245416
 20
113.1784513921987
 10
1567.737209924023
 20
115.1812732598413
 10
1566.283090071584
 20
115.6044641524784
 10
1565.452300469388
 20
115.6044641524784
 10
1564.634008418515
 20
115.6044641524784
 10
1562.44134279507
 20
115.7460435553167
 10
1561.188374006773
 20
114.1104116479568
 97
        1
330
3CF2
 92
        1
 93
        1
 72
     4
 94
        3
 73
     0
 74
     1
 95
       38
 96
       34
 40
0.0
 40
0.0
 40
0.0
 40
0.0
 40
1.0
 40
1.0
 40
1.0
 40
2.0
 40
2.0
 40
2.0
 40
3.0
 40
3.0
 40
3.0
 40
4.0
 40
4.0
 40
4.0
 40
5.0
 40
5.0
 40
5.0
 40
6.0
 40
6.0
 40
6.0
 40
7.0
 40
7.0
 40
7.0
 40
8.0
 40
8.0
 40
8.0
 40
9.0
 40
9.0
 40
9.0
 40
10.0
 40
10.0
 40
10.0
 40
11.0
 40
11.0
 40
11.0
 40
11.0
 10
1573.306951963385
 20
114.9598285528377
 10
1573.306951963385
 20
114.9598285528377
 10
1574.78594789417
 20
114.9598285528377
 10
1574.78594789417
 20
114.9598285528377
 10
1574.78594789417
 20
114.9598285528377
 10
1574.125244014258
 20
112.8444692111441
 10
1574.125244014258
 20
112.8444692111441
 10
1574.627288504525
 20
113.4382814354068
 10
1575.419633258367
 20
114.2291383855198
 10
1576.100095171798
 20
114.6279292970036
 10
1577.116562679355
 20
115.2217415212663
 10
1577.697401255102
 20
115.3000595095535
 10
1578.336204664126
 20
115.2844673264751
 10
1578.336204664126
 20
115.2844673264751
 10
1577.711922219496
 20
113.2842639933952
 10
1577.711922219496
 20
113.2842639933952
 10
1577.305335216473
 20
113.4564326408989
 10
1576.052366428176
 20
113.1286992355056
 10
1575.333578690689
 20
112.611657683652
 10
1574.685372362099
 20
112.1454395071763
 10
1574.237245878966
 20
111.748731520913
 10
1573.706278484211
 20
110.7514269253833
 10
1573.179357915597
 20
109.7526345261248
 10
1572.763487017306
 20
108.1600299026035
 10
1572.047793911575
 20
105.8496492481308
 10
1572.047793911575
 20
105.8496492481308
 10
1569.812636613634
 20
98.68688600020374
 10
1569.812636613634
 20
98.68688600020374
 10
1569.812636613634
 20
98.68688600020374
 10
1568.377203576029
 20
98.68688600020374
 10
1568.377203576029
 20
98.68688600020374
 10
1568.377203576029
 20
98.68688600020374
 10
1573.306951963385
 20
114.9598285528377
 10
1573.306951963385
 20
114.9598285528377
 97
        1
330
3CF0
 92
        1
 93
        1
 72
     4
 94
        3
 73
     0
 74
     1
 95
      104
 96
      100
 40
0.0
 40
0.0
 40
0.0
 40
0.0
 40
1.0
 40
1.0
 40
1.0
 40
2.0
 40
2.0
 40
2.0
 40
3.0
 40
3.0
 40
3.0
 40
4.0
 40
4.0
 40
4.0
 40
5.0
 40
5.0
 40
5.0
 40
6.0
 40
6.0
 40
6.0
 40
7.0
 40
7.0
 40
7.0
 40
8.0
 40
8.0
 40
8.0
 40
9.0
 40
9.0
 40
9.0
 40
10.0
 40
10.0
 40
10.0
 40
11.0
 40
11.0
 40
11.0
 40
12.0
 40
12.0
 40
12.0
 40
13.0
 40
13.0
 40
13.0
 40
14.0
 40
14.0
 40
14.0
 40
15.0
 40
15.0
 40
15.0
 40
16.0
 40
16.0
 40
16.0
 40
17.0
 40
17.0
 40
17.0
 40
18.0
 40
18.0
 40
18.0
 40
19.0
 40
19.0
 40
19.0
 40
20.0
 40
20.0
 40
20.0
 40
21.0
 40
21.0
 40
21.0
 40
22.0
 40
22.0
 40
22.0
 40
23.0
 40
23.0
 40
23.0
 40
24.0
 40
24.0
 40
24.0
 40
25.0
 40
25.0
 40
25.0
 40
26.0
 40
26.0
 40
26.0
 40
27.0
 40
27.0
 40
27.0
 40
28.0
 40
28.0
 40
28.0
 40
29.0
 40
29.0
 40
29.0
 40
30.0
 40
30.0
 40
30.0
 40
31.0
 40
31.0
 40
31.0
 40
32.0
 40
32.0
 40
32.0
 40
33.0
 40
33.0
 40
33.0
 40
33.0
 10
1581.447856894813
 20
114.9686363509126
 10
1581.447856894813
 20
114.9686363509126
 10
1582.739151507166
 20
114.9686363509126
 10
1582.739151507166
 20
114.9686363509126
 10
1582.739151507166
 20
114.9686363509126
 10
1582.086779328135
 20
112.8512535961477
 10
1582.086779328135
 20
112.8512535961477
 10
1582.652977915191
 20
113.7390558372332
 10
1583.161211668969
 20
114.134752116961
 10
1583.836436513275
 20
114.6460805024957
 10
1584.513684770653
 20
115.1501484058336
 10
1585.31757488143
 20
115.2528663752741
 10
1585.875560791902
 20
115.2528663752741
 10
1586.566377819287
 20
115.2528663752741
 10
1587.233270962711
 20
115.1164645294122
 10
1587.58379752123
 20
114.3592914557206
 10
1587.852435362513
 20
113.7655387436069
 10
1587.864932913836
 20
113.6954929440522
 10
1587.788162241427
 20
112.5234606786051
 10
1588.490286577151
 20
113.725070482182
 10
1589.008875444882
 20
114.2426476433779
 10
1589.890488422455
 20
114.7399311617122
 10
1590.81566429321
 20
115.2528663752741
 10
1591.354963388847
 20
115.2912517114787
 10
1591.981507295145
 20
115.198888855991
 10
1592.90454072853
 20
115.0625465222783
 10
1593.493711005159
 20
114.7332062888577
 10
1593.801745889182
 20
113.7323309643788
 10
1594.11085199189
 20
112.7345502716558
 10
1593.943860901363
 20
112.1993575143102
 10
1593.562149976686
 20
110.6109187412297
 10
1593.387898403962
 20
109.8874890561087
 10
1593.135804940144
 20
109.0115297327048
 10
1592.80598860953
 20
107.9692339524144
 10
1592.80598860953
 20
107.9692339524144
 10
1589.890488422455
 20
98.68688600020374
 10
1589.890488422455
 20
98.68688600020374
 10
1589.890488422455
 20
98.68688600020374
 10
1588.374118862001
 20
98.68688600020374
 10
1588.374118862001
 20
98.68688600020374
 10
1588.374118862001
 20
98.68688600020374
 10
1590.926713963532
 20
106.8018436346014
 10
1590.926713963532
 20
106.8018436346014
 10
1591.459823795657
 20
108.4997252499769
 10
1591.82070546813
 20
109.7396608776091
 10
1592.007454592176
 20
110.5170680820132
 10
1592.241813435546
 20
111.4868185524844
 10
1592.335128485421
 20
111.8068153784877
 10
1592.224197839397
 20
112.5126294674591
 10
1592.122551088641
 20
113.1696435941238
 10
1591.790592320658
 20
113.5974764343949
 10
1591.222251296233
 20
113.5974764343949
 10
1590.616536642139
 20
113.5974764343949
 10
1590.12591848451
 20
113.5300491694029
 10
1589.439386331865
 20
112.8403628728524
 10
1588.752735154922
 20
112.1454395071763
 10
1588.185346324883
 20
111.3297064787168
 10
1587.740433497805
 20
110.3915569594466
 10
1587.296472865113
 20
109.4476942738576
 10
1586.846322968909
 20
108.2513215394063
 10
1586.389983809193
 20
106.8018436346014
 10
1586.389983809193
 20
106.8018436346014
 10
1583.836436513275
 20
98.68688600020374
 10
1583.836436513275
 20
98.68688600020374
 10
1583.836436513275
 20
98.68688600020374
 10
1582.410287370939
 20
98.68688600020374
 10
1582.410287370939
 20
98.68688600020374
 10
1582.410287370939
 20
98.68688600020374
 10
1585.329953408454
 20
107.9650681019736
 10
1585.329953408454
 20
107.9650681019736
 10
1585.637988292478
 20
108.9524936807437
 10
1585.86937152839
 20
109.757335985908
 10
1586.021841654524
 20
110.3863794024701
 10
1586.28107657624
 20
111.4692029563347
 10
1586.353681398209
 20
112.2014404395306
 10
1586.157648378894
 20
112.8512535961477
 10
1585.964709991335
 20
113.4989838275443
 10
1585.625609765454
 20
113.6644276021936
 10
1585.0592921541
 20
113.6644276021936
 10
1584.58426617955
 20
113.6644276021936
 10
1584.120666537637
 20
113.4605984913397
 10
1583.591722555952
 20
113.0550231948524
 10
1582.925781606914
 20
112.5447660280024
 10
1582.659286203001
 20
112.1257409858062
 10
1582.332564504143
 20
111.6278623459804
 10
1581.891698503207
 20
110.9692413912885
 10
1581.68531036994
 20
110.5258758800881
 10
1581.31300236483
 20
109.5529712657117
 10
1580.940575335421
 20
108.5743534850165
 10
1580.588025363831
 20
107.4355289987976
 10
1580.342121163525
 20
106.6478261925898
 10
1580.342121163525
 20
106.6478261925898
 10
1577.837373829914
 20
98.68688600020374
 10
1577.837373829914
 20
98.68688600020374
 10
1577.837373829914
 20
98.68688600020374
 10
1576.343856934735
 20
98.68688600020374
 10
1576.343856934735
 20
98.68688600020374
 10
1576.343856934735
 20
98.68688600020374
 10
1581.447856894813
 20
114.9686363509126
 10
1581.447856894813
 20
114.9686363509126
 97
        1
330
3CF1
 92
       16
 93
        1
 72
     4
 94
        3
 73
     0
 74
     1
 95
       29
 96
       25
 40
0.0
 40
0.0
 40
0.0
 40
0.0
 40
1.0
 40
1.0
 40
1.0
 40
2.0
 40
2.0
 40
2.0
 40
3.0
 40
3.0
 40
3.0
 40
4.0
 40
4.0
 40
4.0
 40
5.0
 40
5.0
 40
5.0
 40
6.0
 40
6.0
 40
6.0
 40
7.0
 40
7.0
 40
7.0
 40
8.0
 40
8.0
 40
8.0
 40
8.0
 10
1558.405704936611
 20
101.7185539024279
 10
1558.399396648801
 20
102.8522603438195
 10
1558.757302713815
 20
104.8665085440999
 10
1559.674146883688
 20
107.5615757307067
 10
1560.922949821544
 20
111.2109202290046
 10
1561.671850706503
 20
112.5447660280024
 10
1562.327198492992
 20
113.1940435752771
 10
1563.284629948588
 20
114.1394535767441
 10
1564.5717587105
 20
114.1865871988744
 10
1564.951446222105
 20
114.1394535767441
 10
1565.491816536427
 20
114.0745853341658
 10
1566.255119361481
 20
113.7209046317411
 10
1566.300705667734
 20
112.5302450636088
 10
1566.337127103016
 20
111.5112185336377
 10
1566.043494159088
 20
109.6027829345539
 10
1565.015719343191
 20
106.6068818339716
 10
1563.831189526422
 20
103.1255401327366
 10
1563.119662271132
 20
101.7569987507817
 10
1562.549297833636
 20
101.1605679919562
 10
1561.474746468504
 20
100.042453733643
 10
1560.322353212278
 20
100.1498136507176
 10
1560.152267489994
 20
100.1498136507176
 10
1559.931358392333
 20
100.1498136507176
 10
1558.408799568367
 20
100.3895285875116
 10
1558.405704936611
 20
101.7185539024279
 97
        1
330
3CF3
 75
     0
 76
     1
 98
        1
 10
1487.540661136605
 20
58.0166403409717
1001
ACAD
1010
0.0
1020
0.0
1030
0.0
  0
POLYLINE
  5
3CE4
102
{ACAD_REACTORS
330
3CE3
330
3CF4
102
}
330
A
100
AcDbEntity
  8
TEMPLATE
100
AcDb2dPolyline
 66
     1
 10
0.0
 20
0.0
 30
0.0
  0
VERTEX
  5
3CE5
330
3CE4
100
AcDbEntity
  8
TEMPLATE
100
AcDbVertex
100
AcDb2dVertex
 10
1547.654180558225
 20
122.686885999047
 30
0.0
  0
VERTEX
  5
3CE6
330
3CE4
100
AcDbEntity
  8
TEMPLATE
100
AcDbVertex
100
AcDb2dVertex
 10
1547.654180558225
 20
117.9593598945186
 30
0.0
  0
VERTEX
  5
3CE7
330
3CE4
100
AcDbEntity
  8
TEMPLATE
100
AcDbVertex
100
AcDb2dVertex
 10
1540.165707317976
 20
117.9593598945186
 30
0.0
  0
VERTEX
  5
3CE8
330
3CE4
100
AcDbEntity
  8
TEMPLATE
100
AcDbVertex
100
AcDb2dVertex
 10
1540.165707317976
 20
98.68688600020374
 30
0.0
  0
VERTEX
  5
3CE9
330
3CE4
100
AcDbEntity
  8
TEMPLATE
100
AcDbVertex
100
AcDb2dVertex
 10
1533.579616795355
 20
98.68688600020374
 30
0.0
  0
VERTEX
  5
3CEA
330
3CE4
100
AcDbEntity
  8
TEMPLATE
100
AcDbVertex
100
AcDb2dVertex
 10
1533.579616795355
 20
117.9593598945186
 30
0.0
  0
VERTEX
  5
3CEB
330
3CE4
100
AcDbEntity
  8
TEMPLATE
100
AcDbVertex
100
AcDb2dVertex
 10
1526.22385564772
 20
117.9593598945186
 30
0.0
  0
VERTEX
  5
3CEC
330
3CE4
100
AcDbEntity
  8
TEMPLATE
100
AcDbVertex
100
AcDb2dVertex
 10
1526.22385564772
 20
122.686885999047
 30
0.0
  0
VERTEX
  5
3CED
330
3CE4
100
AcDbEntity
  8
TEMPLATE
100
AcDbVertex
100
AcDb2dVertex
 10
1547.654180558225
 20
122.686885999047
 30
0.0
  0
SEQEND
  5
3CEE
330
3CE4
100
AcDbEntity
  8
TEMPLATE
  0
SPLINE
  5
3CEF
102
{ACAD_REACTORS
330
3CE3
330
3CF4
102
}
330
A
100
AcDbEntity
  8
TEMPLATE
100
AcDbSpline
210
0.0
220
0.0
230
1.0
 70
    11
 71
     3
 72
    56
 73
    52
 74
     0
 42
0.000000001
 43
0.0000000001
 40
0.0
 40
0.0
 40
0.0
 40
0.0
 40
1.0
 40
1.0
 40
1.0
 40
2.0
 40
2.0
 40
2.0
 40
3.0
 40
3.0
 40
3.0
 40
4.0
 40
4.0
 40
4.0
 40
5.0
 40
5.0
 40
5.0
 40
6.0
 40
6.0
 40
6.0
 40
7.0
 40
7.0
 40
7.0
 40
8.0
 40
8.0
 40
8.0
 40
9.0
 40
9.0
 40
9.0
 40
10.0
 40
10.0
 40
10.0
 40
11.0
 40
11.0
 40
11.0
 40
12.0
 40
12.0
 40
12.0
 40
13.0
 40
13.0
 40
13.0
 40
14.0
 40
14.0
 40
14.0
 40
15.0
 40
15.0
 40
15.0
 40
16.0
 40
16.0
 40
16.0
 40
17.0
 40
17.0
 40
17.0
 40
17.0
 10
1557.687928905659
 20
122.1153908307171
 30
0.0
 10
1558.611021851194
 20
122.3752208739253
 30
0.0
 10
1559.802693125861
 20
122.1578825052133
 30
0.0
 10
1559.802693125861
 20
122.1578825052133
 30
0.0
 10
1559.802693125861
 20
122.1578825052133
 30
0.0
 10
1559.230186250996
 20
120.4398262712745
 30
0.0
 10
1559.230186250996
 20
120.4398262712745
 30
0.0
 10
1559.230186250996
 20
120.4398262712745
 30
0.0
 10
1558.060296422918
 20
120.710547037778
 30
0.0
 10
1557.157973217439
 20
119.9990197824878
 30
0.0
 10
1556.456801076102
 20
119.442581187894
 30
0.0
 10
1556.002544841606
 20
117.9640613543017
 30
0.0
 10
1555.828293268882
 20
117.4019095933891
 30
0.0
 10
1555.828293268882
 20
117.4019095933891
 30
0.0
 10
1555.051421673821
 20
115.0173768010701
 30
0.0
 10
1555.051421673821
 20
115.0173768010701
 30
0.0
 10
1555.051421673821
 20
115.0173768010701
 30
0.0
 10
1557.598720194077
 20
115.0173768010701
 30
0.0
 10
1557.598720194077
 20
115.0173768010701
 30
0.0
 10
1557.598720194077
 20
115.0173768010701
 30
0.0
 10
1557.202547817156
 20
113.516599423694
 30
0.0
 10
1557.202547817156
 20
113.516599423694
 30
0.0
 10
1557.202547817156
 20
113.516599423694
 30
0.0
 10
1554.634479556845
 20
113.516599423694
 30
0.0
 10
1554.634479556845
 20
113.516599423694
 30
0.0
 10
1554.634479556845
 20
113.516599423694
 30
0.0
 10
1550.03972505708
 20
98.68688600020374
 30
0.0
 10
1550.03972505708
 20
98.68688600020374
 30
0.0
 10
1550.03972505708
 20
98.68688600020374
 30
0.0
 10
1548.60113787557
 20
98.68688600020374
 30
0.0
 10
1548.60113787557
 20
98.68688600020374
 30
0.0
 10
1548.60113787557
 20
98.68688600020374
 30
0.0
 10
1553.200058225776
 20
113.516599423694
 30
0.0
 10
1553.200058225776
 20
113.516599423694
 30
0.0
 10
1553.200058225776
 20
113.516599423694
 30
0.0
 10
1551.305072372401
 20
113.516599423694
 30
0.0
 10
1551.305072372401
 20
113.516599423694
 30
0.0
 10
1551.305072372401
 20
113.516599423694
 30
0.0
 10
1551.702315968007
 20
115.0173768010701
 30
0.0
 10
1551.702315968007
 20
115.0173768010701
 30
0.0
 10
1551.702315968007
 20
115.0173768010701
 30
0.0
 10
1553.617000342751
 20
115.0173768010701
 30
0.0
 10
1553.617000342751
 20
115.0173768010701
 30
0.0
 10
1553.617000342751
 20
115.0173768010701
 30
0.0
 10
1554.294248600129
 20
117.0969693411219
 30
0.0
 10
1554.294248600129
 20
117.0969693411219
 30
0.0
 10
1554.841879396648
 20
118.8404967748988
 30
0.0
 10
1555.306550257245
 20
119.7765633689486
 30
0.0
 10
1555.704865071536
 20
120.4823179457708
 30
0.0
 10
1556.098954523236
 20
121.1886676440845
 30
0.0
 10
1556.878920750054
 20
121.8825197910759
 30
0.0
 10
1557.687928905659
 20
122.1153908307171
 30
0.0
  0
SPLINE
  5
3CF0
102
{ACAD_REACTORS
330
3CE3
330
3CF4
102
}
330
A
100
AcDbEntity
  8
TEMPLATE
100
AcDbSpline
210
0.0
220
0.0
230
1.0
 70
    11
 71
     3
 72
    38
 73
    34
 74
     0
 42
0.000000001
 43
0.0000000001
 40
0.0
 40
0.0
 40
0.0
 40
0.0
 40
1.0
 40
1.0
 40
1.0
 40
2.0
 40
2.0
 40
2.0
 40
3.0
 40
3.0
 40
3.0
 40
4.0
 40
4.0
 40
4.0
 40
5.0
 40
5.0
 40
5.0
 40
6.0
 40
6.0
 40
6.0
 40
7.0
 40
7.0
 40
7.0
 40
8.0
 40
8.0
 40
8.0
 40
9.0
 40
9.0
 40
9.0
 40
10.0
 40
10.0
 40
10.0
 40
11.0
 40
11.0
 40
11.0
 40
11.0
 10
1573.306951963385
 20
114.9598285528377
 30
0.0
 10
1573.306951963385
 20
114.9598285528377
 30
0.0
 10
1574.78594789417
 20
114.9598285528377
 30
0.0
 10
1574.78594789417
 20
114.9598285528377
 30
0.0
 10
1574.78594789417
 20
114.9598285528377
 30
0.0
 10
1574.125244014258
 20
112.8444692111441
 30
0.0
 10
1574.125244014258
 20
112.8444692111441
 30
0.0
 10
1574.627288504525
 20
113.4382814354068
 30
0.0
 10
1575.419633258367
 20
114.2291383855198
 30
0.0
 10
1576.100095171798
 20
114.6279292970036
 30
0.0
 10
1577.116562679355
 20
115.2217415212663
 30
0.0
 10
1577.697401255102
 20
115.3000595095535
 30
0.0
 10
1578.336204664126
 20
115.2844673264751
 30
0.0
 10
1578.336204664126
 20
115.2844673264751
 30
0.0
 10
1577.711922219496
 20
113.2842639933952
 30
0.0
 10
1577.711922219496
 20
113.2842639933952
 30
0.0
 10
1577.305335216473
 20
113.4564326408989
 30
0.0
 10
1576.052366428176
 20
113.1286992355056
 30
0.0
 10
1575.333578690689
 20
112.611657683652
 30
0.0
 10
1574.685372362099
 20
112.1454395071763
 30
0.0
 10
1574.237245878966
 20
111.748731520913
 30
0.0
 10
1573.706278484211
 20
110.7514269253833
 30
0.0
 10
1573.179357915597
 20
109.7526345261248
 30
0.0
 10
1572.763487017306
 20
108.1600299026035
 30
0.0
 10
1572.047793911575
 20
105.8496492481308
 30
0.0
 10
1572.047793911575
 20
105.8496492481308
 30
0.0
 10
1569.812636613634
 20
98.68688600020374
 30
0.0
 10
1569.812636613634
 20
98.68688600020374
 30
0.0
 10
1569.812636613634
 20
98.68688600020374
 30
0.0
 10
1568.377203576029
 20
98.68688600020374
 30
0.0
 10
1568.377203576029
 20
98.68688600020374
 30
0.0
 10
1568.377203576029
 20
98.68688600020374
 30
0.0
 10
1573.306951963385
 20
114.9598285528377
 30
0.0
 10
1573.306951963385
 20
114.9598285528377
 30
0.0
  0
SPLINE
  5
3CF1
102
{ACAD_REACTORS
330
3CE3
330
3CF4
102
}
330
A
100
AcDbEntity
  8
TEMPLATE
100
AcDbSpline
210
0.0
220
0.0
230
1.0
 70
    11
 71
     3
 72
   104
 73
   100
 74
     0
 42
0.000000001
 43
0.0000000001
 40
0.0
 40
0.0
 40
0.0
 40
0.0
 40
1.0
 40
1.0
 40
1.0
 40
2.0
 40
2.0
 40
2.0
 40
3.0
 40
3.0
 40
3.0
 40
4.0
 40
4.0
 40
4.0
 40
5.0
 40
5.0
 40
5.0
 40
6.0
 40
6.0
 40
6.0
 40
7.0
 40
7.0
 40
7.0
 40
8.0
 40
8.0
 40
8.0
 40
9.0
 40
9.0
 40
9.0
 40
10.0
 40
10.0
 40
10.0
 40
11.0
 40
11.0
 40
11.0
 40
12.0
 40
12.0
 40
12.0
 40
13.0
 40
13.0
 40
13.0
 40
14.0
 40
14.0
 40
14.0
 40
15.0
 40
15.0
 40
15.0
 40
16.0
 40
16.0
 40
16.0
 40
17.0
 40
17.0
 40
17.0
 40
18.0
 40
18.0
 40
18.0
 40
19.0
 40
19.0
 40
19.0
 40
20.0
 40
20.0
 40
20.0
 40
21.0
 40
21.0
 40
21.0
 40
22.0
 40
22.0
 40
22.0
 40
23.0
 40
23.0
 40
23.0
 40
24.0
 40
24.0
 40
24.0
 40
25.0
 40
25.0
 40
25.0
 40
26.0
 40
26.0
 40
26.0
 40
27.0
 40
27.0
 40
27.0
 40
28.0
 40
28.0
 40
28.0
 40
29.0
 40
29.0
 40
29.0
 40
30.0
 40
30.0
 40
30.0
 40
31.0
 40
31.0
 40
31.0
 40
32.0
 40
32.0
 40
32.0
 40
33.0
 40
33.0
 40
33.0
 40
33.0
 10
1581.447856894813
 20
114.9686363509126
 30
0.0
 10
1581.447856894813
 20
114.9686363509126
 30
0.0
 10
1582.739151507166
 20
114.9686363509126
 30
0.0
 10
1582.739151507166
 20
114.9686363509126
 30
0.0
 10
1582.739151507166
 20
114.9686363509126
 30
0.0
 10
1582.086779328135
 20
112.8512535961477
 30
0.0
 10
1582.086779328135
 20
112.8512535961477
 30
0.0
 10
1582.652977915191
 20
113.7390558372332
 30
0.0
 10
1583.161211668969
 20
114.134752116961
 30
0.0
 10
1583.836436513275
 20
114.6460805024957
 30
0.0
 10
1584.513684770653
 20
115.1501484058336
 30
0.0
 10
1585.31757488143
 20
115.2528663752741
 30
0.0
 10
1585.875560791902
 20
115.2528663752741
 30
0.0
 10
1586.566377819287
 20
115.2528663752741
 30
0.0
 10
1587.233270962711
 20
115.1164645294122
 30
0.0
 10
1587.58379752123
 20
114.3592914557206
 30
0.0
 10
1587.852435362513
 20
113.7655387436069
 30
0.0
 10
1587.864932913836
 20
113.6954929440522
 30
0.0
 10
1587.788162241427
 20
112.5234606786051
 30
0.0
 10
1588.490286577151
 20
113.725070482182
 30
0.0
 10
1589.008875444882
 20
114.2426476433779
 30
0.0
 10
1589.890488422455
 20
114.7399311617122
 30
0.0
 10
1590.81566429321
 20
115.2528663752741
 30
0.0
 10
1591.354963388847
 20
115.2912517114787
 30
0.0
 10
1591.981507295145
 20
115.198888855991
 30
0.0
 10
1592.90454072853
 20
115.0625465222783
 30
0.0
 10
1593.493711005159
 20
114.7332062888577
 30
0.0
 10
1593.801745889182
 20
113.7323309643788
 30
0.0
 10
1594.11085199189
 20
112.7345502716558
 30
0.0
 10
1593.943860901363
 20
112.1993575143102
 30
0.0
 10
1593.562149976686
 20
110.6109187412297
 30
0.0
 10
1593.387898403962
 20
109.8874890561087
 30
0.0
 10
1593.135804940144
 20
109.0115297327048
 30
0.0
 10
1592.80598860953
 20
107.9692339524144
 30
0.0
 10
1592.80598860953
 20
107.9692339524144
 30
0.0
 10
1589.890488422455
 20
98.68688600020374
 30
0.0
 10
1589.890488422455
 20
98.68688600020374
 30
0.0
 10
1589.890488422455
 20
98.68688600020374
 30
0.0
 10
1588.374118862001
 20
98.68688600020374
 30
0.0
 10
1588.374118862001
 20
98.68688600020374
 30
0.0
 10
1588.374118862001
 20
98.68688600020374
 30
0.0
 10
1590.926713963532
 20
106.8018436346014
 30
0.0
 10
1590.926713963532
 20
106.8018436346014
 30
0.0
 10
1591.459823795657
 20
108.4997252499769
 30
0.0
 10
1591.82070546813
 20
109.7396608776091
 30
0.0
 10
1592.007454592176
 20
110.5170680820132
 30
0.0
 10
1592.241813435546
 20
111.4868185524844
 30
0.0
 10
1592.335128485421
 20
111.8068153784877
 30
0.0
 10
1592.224197839397
 20
112.5126294674591
 30
0.0
 10
1592.122551088641
 20
113.1696435941238
 30
0.0
 10
1591.790592320658
 20
113.5974764343949
 30
0.0
 10
1591.222251296233
 20
113.5974764343949
 30
0.0
 10
1590.616536642139
 20
113.5974764343949
 30
0.0
 10
1590.12591848451
 20
113.5300491694029
 30
0.0
 10
1589.439386331865
 20
112.8403628728524
 30
0.0
 10
1588.752735154922
 20
112.1454395071763
 30
0.0
 10
1588.185346324883
 20
111.3297064787168
 30
0.0
 10
1587.740433497805
 20
110.3915569594466
 30
0.0
 10
1587.296472865113
 20
109.4476942738576
 30
0.0
 10
1586.846322968909
 20
108.2513215394063
 30
0.0
 10
1586.389983809193
 20
106.8018436346014
 30
0.0
 10
1586.389983809193
 20
106.8018436346014
 30
0.0
 10
1583.836436513275
 20
98.68688600020374
 30
0.0
 10
1583.836436513275
 20
98.68688600020374
 30
0.0
 10
1583.836436513275
 20
98.68688600020374
 30
0.0
 10
1582.410287370939
 20
98.68688600020374
 30
0.0
 10
1582.410287370939
 20
98.68688600020374
 30
0.0
 10
1582.410287370939
 20
98.68688600020374
 30
0.0
 10
1585.329953408454
 20
107.9650681019736
 30
0.0
 10
1585.329953408454
 20
107.9650681019736
 30
0.0
 10
1585.637988292478
 20
108.9524936807437
 30
0.0
 10
1585.86937152839
 20
109.757335985908
 30
0.0
 10
1586.021841654524
 20
110.3863794024701
 30
0.0
 10
1586.28107657624
 20
111.4692029563347
 30
0.0
 10
1586.353681398209
 20
112.2014404395306
 30
0.0
 10
1586.157648378894
 20
112.8512535961477
 30
0.0
 10
1585.964709991335
 20
113.4989838275443
 30
0.0
 10
1585.625609765454
 20
113.6644276021936
 30
0.0
 10
1585.0592921541
 20
113.6644276021936
 30
0.0
 10
1584.58426617955
 20
113.6644276021936
 30
0.0
 10
1584.120666537637
 20
113.4605984913397
 30
0.0
 10
1583.591722555952
 20
113.0550231948524
 30
0.0
 10
1582.925781606914
 20
112.5447660280024
 30
0.0
 10
1582.659286203001
 20
112.1257409858062
 30
0.0
 10
1582.332564504143
 20
111.6278623459804
 30
0.0
 10
1581.891698503207
 20
110.9692413912885
 30
0.0
 10
1581.68531036994
 20
110.5258758800881
 30
0.0
 10
1581.31300236483
 20
109.5529712657117
 30
0.0
 10
1580.940575335421
 20
108.5743534850165
 30
0.0
 10
1580.588025363831
 20
107.4355289987976
 30
0.0
 10
1580.342121163525
 20
106.6478261925898
 30
0.0
 10
1580.342121163525
 20
106.6478261925898
 30
0.0
 10
1577.837373829914
 20
98.68688600020374
 30
0.0
 10
1577.837373829914
 20
98.68688600020374
 30
0.0
 10
1577.837373829914
 20
98.68688600020374
 30
0.0
 10
1576.343856934735
 20
98.68688600020374
 30
0.0
 10
1576.343856934735
 20
98.68688600020374
 30
0.0
 10
1576.343856934735
 20
98.68688600020374
 30
0.0
 10
1581.447856894813
 20
114.9686363509126
 30
0.0
 10
1581.447856894813
 20
114.9686363509126
 30
0.0
  0
SPLINE
  5
3CF2
102
{ACAD_REACTORS
330
3CE3
330
3CF4
102
}
330
A
100
AcDbEntity
  8
TEMPLATE
100
AcDbSpline
210
0.0
220
0.0
230
1.0
 70
    11
 71
     3
 72
    32
 73
    28
 74
     0
 42
0.000000001
 43
0.0000000001
 40
0.0
 40
0.0
 40
0.0
 40
0.0
 40
1.0
 40
1.0
 40
1.0
 40
2.0
 40
2.0
 40
2.0
 40
3.0
 40
3.0
 40
3.0
 40
4.0
 40
4.0
 40
4.0
 40
5.0
 40
5.0
 40
5.0
 40
6.0
 40
6.0
 40
6.0
 40
7.0
 40
7.0
 40
7.0
 40
8.0
 40
8.0
 40
8.0
 40
9.0
 40
9.0
 40
9.0
 40
9.0
 10
1561.188374006773
 20
114.1104116479568
 30
0.0
 10
1560.322353212278
 20
112.9902144644232
 30
0.0
 10
1559.655460068853
 20
111.9820786577475
 30
0.0
 10
1558.575790658894
 20
108.813473300319
 30
0.0
 10
1557.583187523147
 20
105.9151126122006
 30
0.0
 10
1556.951525572023
 20
103.8064781433614
 30
0.0
 10
1556.856127596928
 20
101.2384098830501
 30
0.0
 10
1556.78352277496
 20
99.32735574940358
 30
0.0
 10
1557.947223339525
 20
98.68688600020374
 30
0.0
 10
1559.653436655782
 20
98.68688600020374
 30
0.0
 10
1560.388768770734
 20
98.68688600020374
 30
0.0
 10
1562.244357581369
 20
98.73366254943912
 30
0.0
 10
1563.565765341194
 20
100.3671520194295
 30
0.0
 10
1564.490822187649
 20
101.5147843037232
 30
0.0
 10
1565.343393236436
 20
102.70443216532
 30
0.0
 10
1566.486383573095
 20
106.6068818339716
 30
0.0
 10
1567.437506740881
 20
109.8693378506166
 30
0.0
 10
1568.096068183424
 20
111.9779128073066
 30
0.0
 10
1568.047387245416
 20
113.1784513921987
 30
0.0
 10
1568.047387245416
 20
113.1784513921987
 30
0.0
 10
1568.047387245416
 20
113.1784513921987
 30
0.0
 10
1568.047387245416
 20
113.1784513921987
 30
0.0
 10
1567.737209924023
 20
115.1812732598413
 30
0.0
 10
1566.283090071584
 20
115.6044641524784
 30
0.0
 10
1565.452300469388
 20
115.6044641524784
 30
0.0
 10
1564.634008418515
 20
115.6044641524784
 30
0.0
 10
1562.44134279507
 20
115.7460435553167
 30
0.0
 10
1561.188374006773
 20
114.1104116479568
 30
0.0
  0
SPLINE
  5
3CF3
102
{ACAD_REACTORS
330
3CE3
330
3CF4
102
}
330
A
100
AcDbEntity
  8
TEMPLATE
100
AcDbSpline
210
0.0
220
0.0
230
1.0
 70
    11
 71
     3
 72
    29
 73
    25
 74
     0
 42
0.000000001
 43
0.0000000001
 40
0.0
 40
0.0
 40
0.0
 40
0.0
 40
1.0
 40
1.0
 40
1.0
 40
2.0
 40
2.0
 40
2.0
 40
3.0
 40
3.0
 40
3.0
 40
4.0
 40
4.0
 40
4.0
 40
5.0
 40
5.0
 40
5.0
 40
6.0
 40
6.0
 40
6.0
 40
7.0
 40
7.0
 40
7.0
 40
8.0
 40
8.0
 40
8.0
 40
8.0
 10
1558.405704936611
 20
101.7185539024279
 30
0.0
 10
1558.399396648801
 20
102.8522603438195
 30
0.0
 10
1558.757302713815
 20
104.8665085440999
 30
0.0
 10
1559.674146883688
 20
107.5615757307067
 30
0.0
 10
1560.922949821544
 20
111.2109202290046
 30
0.0
 10
1561.671850706503
 20
112.5447660280024
 30
0.0
 10
1562.327198492992
 20
113.1940435752771
 30
0.0
 10
1563.284629948588
 20
114.1394535767441
 30
0.0
 10
1564.5717587105
 20
114.1865871988744
 30
0.0
 10
1564.951446222105
 20
114.1394535767441
 30
0.0
 10
1565.491816536427
 20
114.0745853341658
 30
0.0
 10
1566.255119361481
 20
113.7209046317411
 30
0.0
 10
1566.300705667734
 20
112.5302450636088
 30
0.0
 10
1566.337127103016
 20
111.5112185336377
 30
0.0
 10
1566.043494159088
 20
109.6027829345539
 30
0.0
 10
1565.015719343191
 20
106.6068818339716
 30
0.0
 10
1563.831189526422
 20
103.1255401327366
 30
0.0
 10
1563.119662271132
 20
101.7569987507817
 30
0.0
 10
1562.549297833636
 20
101.1605679919562
 30
0.0
 10
1561.474746468504
 20
100.042453733643
 30
0.0
 10
1560.322353212278
 20
100.1498136507176
 30
0.0
 10
1560.152267489994
 20
100.1498136507176
 30
0.0
 10
1559.931358392333
 20
100.1498136507176
 30
0.0
 10
1558.408799568367
 20
100.3895285875116
 30
0.0
 10
1558.405704936611
 20
101.7185539024279
 30
0.0
  0
MTEXT
  5
3DB7
102
{ACAD_XDICTIONARY
360
3DB8
102
}
330
A
100
AcDbEntity
  8
TEMPLATE
100
AcDbMText
 10
58.76275698768336
 20
71.9342530318656
 30
0.0
 40
16.0
 41
0.0
 46
16.0
 71
     1
 72
     1
  1
{20240125M}
  7
ＭＳ ゴシック
 73
     1
 44
1.0
1001
ACAD
1000
ACAD_MTEXT_DEFINED_HEIGHT_BEGIN
1070
    46
1040
16.0
1000
ACAD_MTEXT_DEFINED_HEIGHT_END
  0
INSERT
  5
5189
330
A
100
AcDbEntity
  8
レイヤー 1
100
AcDbBlockReference
  2
block 2
 10
524.4765883972111
 20
1443.000828970953
 30
0.0
  0
MTEXT
  5
6C13
330
A
100
AcDbEntity
  8
TEMPLATE
390
1D
100
AcDbMText
 10
1063.361715638392
 20
312.7688167384878
 30
0.0
 40
19.54609375
 41
0.0
 46
21.83384462532825
 71
     1
 72
     1
  1
{FLR74-3002-142(ブラック/ブラック)}
  7
ＭＳ ゴシック
 73
     1
 44
0.7828267384257843
1001
ACAD
1000
ACAD_MTEXT_DEFINED_HEIGHT_BEGIN
1070
    46
1040
21.83384462532825
1000
ACAD_MTEXT_DEFINED_HEIGHT_END
  0
MTEXT
  5
6C14
330
A
100
AcDbEntity
  8
TEMPLATE
390
1D
100
AcDbMText
 10
1063.361715638392
 20
339.8559686832738
 30
0.0
 40
19.54609375
 41
0.0
 46
21.83384462532825
 71
     1
 72
     1
  1
{FLR74-3002-141(クローム/ブラック)}
  7
ＭＳ ゴシック
 73
     1
 44
0.7828267384257843
1001
ACAD
1000
ACAD_MTEXT_DEFINED_HEIGHT_BEGIN
1070
    46
1040
21.83384462532825
1000
ACAD_MTEXT_DEFINED_HEIGHT_END
  0
LINE
  5
7292
330
A
100
AcDbEntity
  8
MODEL
100
AcDbLine
 10
617.1746677343465
 20
807.1694000505465
 30
0.0
 11
653.213610391723
 21
807.1694000505465
 31
0.0
  0
LINE
  5
7293
330
A
100
AcDbEntity
  8
MODEL
100
AcDbLine
 10
1002.461555478975
 20
807.1694000505465
 30
0.0
 11
1038.498035114027
 21
807.1694000505465
 31
0.0
  0
LINE
  5
7294
330
A
100
AcDbEntity
  8
MODEL
100
AcDbLine
 10
617.1746677343465
 20
807.1694000505465
 30
0.0
 11
651.5510703224415
 21
1203.111322372528
 31
0.0
  0
LINE
  5
7295
330
A
100
AcDbEntity
  8
MODEL
100
AcDbLine
 10
687.5900129798176
 20
1203.112553883691
 30
0.0
 11
653.213610391723
 21
807.1694000505465
 31
0.0
  0
LINE
  5
7296
330
A
100
AcDbEntity
  8
MODEL
100
AcDbLine
 10
687.5875499574929
 20
1203.124868995313
 30
0.0
 11
688.61955631161
 21
1214.898115708154
 31
0.0
  0
LINE
  5
7297
330
A
100
AcDbEntity
  8
MODEL
100
AcDbLine
 10
968.0851528908809
 20
1203.124868995313
 30
0.0
 11
967.055609559088
 21
1214.898115708154
 31
0.0
  0
LINE
  5
7298
330
A
100
AcDbEntity
  8
MODEL
100
AcDbLine
 10
968.0851528908809
 20
1203.112553883691
 30
0.0
 11
1002.461555478975
 21
807.1694000505465
 31
0.0
  0
LINE
  5
7299
330
A
100
AcDbEntity
  8
MODEL
100
AcDbLine
 10
651.5510703224415
 20
1203.112553883691
 30
0.0
 11
687.5900129798176
 21
1203.112553883691
 31
0.0
  0
LINE
  5
729A
330
A
100
AcDbEntity
  8
MODEL
100
AcDbLine
 10
968.0851528908809
 20
1203.112553883691
 30
0.0
 11
1004.119169503607
 21
1203.112553883691
 31
0.0
  0
LINE
  5
72A7
330
A
100
AcDbEntity
  8
MODEL
100
AcDbLine
 10
1038.498035114027
 20
807.1694000505465
 30
0.0
 11
1004.119169503607
 21
1203.111322372528
 31
0.0
  0
LINE
  5
72B6
330
A
100
AcDbEntity
  8
MODEL
100
AcDbLine
 10
942.1273606091634
 20
1237.662599545689
 30
0.0
 11
713.5478052615347
 21
1237.662599545689
 31
0.0
  0
SPLINE
  5
72C2
330
A
100
AcDbEntity
  8
MODEL
100
AcDbSpline
210
0.0
220
0.0
230
1.0
 70
     8
 71
     3
 72
     8
 73
     4
 74
     0
 42
0.000000001
 43
0.0000000001
 40
0.0
 40
0.0
 40
0.0
 40
0.0
 40
1.0
 40
1.0
 40
1.0
 40
1.0
 10
688.6466495571833
 20
1215.20106745411
 30
0.0
 10
688.6367974678835
 20
1215.100083538793
 30
0.0
 10
688.6269453785847
 20
1214.999099623474
 30
0.0
 10
688.6183248004475
 20
1214.898115708154
 30
0.0
  0
SPLINE
  5
72C3
330
A
100
AcDbEntity
  8
MODEL
100
AcDbSpline
210
0.0
220
0.0
230
1.0
 70
     8
 71
     3
 72
     8
 73
     4
 74
     0
 42
0.000000001
 43
0.0000000001
 40
0.0
 40
0.0
 40
0.0
 40
0.0
 40
1.0
 40
1.0
 40
1.0
 40
1.0
 10
967.055609559088
 20
1214.899347219316
 30
0.0
 10
967.0432944474644
 20
1215.000331134635
 30
0.0
 10
967.0359053804898
 20
1215.101315049955
 30
0.0
 10
967.0260532911905
 20
1215.202298965274
 30
0.0
  0
POLYLINE
  5
73DE
330
A
100
AcDbEntity
  8
MODEL
100
AcDb2dPolyline
 66
     1
 10
0.0
 20
0.0
 30
0.0
  0
VERTEX
  5
73DF
330
73DE
100
AcDbEntity
  8
MODEL
100
AcDbVertex
100
AcDb2dVertex
 10
713.546573750373
 20
1237.662599545689
 30
0.0
  0
VERTEX
  5
73E0
330
73DE
100
AcDbEntity
  8
MODEL
100
AcDbVertex
100
AcDb2dVertex
 10
712.7263873161935
 20
1237.650284434063
 30
0.0
  0
VERTEX
  5
73E1
330
73DE
100
AcDbEntity
  8
MODEL
100
AcDbVertex
100
AcDb2dVertex
 10
711.9074323931775
 20
1237.609644565704
 30
0.0
  0
VERTEX
  5
73E2
330
73DE
100
AcDbEntity
  8
MODEL
100
AcDbVertex
100
AcDb2dVertex
 10
711.40743886123
 20
1237.571467719668
 30
0.0
  0
VERTEX
  5
73E3
330
73DE
100
AcDbEntity
  8
MODEL
100
AcDbVertex
100
AcDb2dVertex
 10
710.5909469605388
 20
1237.488956471785
 30
0.0
  0
VERTEX
  5
73E4
330
73DE
100
AcDbEntity
  8
MODEL
100
AcDbVertex
100
AcDb2dVertex
 10
709.7756865710091
 20
1237.378120467167
 30
0.0
  0
VERTEX
  5
73E5
330
73DE
100
AcDbEntity
  8
MODEL
100
AcDbVertex
100
AcDb2dVertex
 10
708.9690467596172
 20
1237.241422728137
 30
0.0
  0
VERTEX
  5
73E6
330
73DE
100
AcDbEntity
  8
MODEL
100
AcDbVertex
100
AcDb2dVertex
 10
708.1673329928742
 20
1237.080094765859
 30
0.0
  0
VERTEX
  5
73E7
330
73DE
100
AcDbEntity
  8
MODEL
100
AcDbVertex
100
AcDb2dVertex
 10
707.3668507372943
 20
1236.890442046844
 30
0.0
  0
VERTEX
  5
73E8
330
73DE
100
AcDbEntity
  8
MODEL
100
AcDbVertex
100
AcDb2dVertex
 10
706.574989059852
 20
1236.676159104581
 30
0.0
  0
VERTEX
  5
73E9
330
73DE
100
AcDbEntity
  8
MODEL
100
AcDbVertex
100
AcDb2dVertex
 10
706.0934681953415
 20
1236.530840787414
 30
0.0
  0
VERTEX
  5
73EA
330
73DE
100
AcDbEntity
  8
MODEL
100
AcDbVertex
100
AcDb2dVertex
 10
705.3163846518476
 20
1236.275917976791
 30
0.0
  0
VERTEX
  5
73EB
330
73DE
100
AcDbEntity
  8
MODEL
100
AcDbVertex
100
AcDb2dVertex
 10
704.5479216864903
 20
1235.992670409432
 30
0.0
  0
VERTEX
  5
73EC
330
73DE
100
AcDbEntity
  8
MODEL
100
AcDbVertex
100
AcDb2dVertex
 10
703.7856162769456
 20
1235.687255641149
 30
0.0
  0
VERTEX
  5
73ED
330
73DE
100
AcDbEntity
  8
MODEL
100
AcDbVertex
100
AcDb2dVertex
 10
703.0368574901875
 20
1235.354747627292
 30
0.0
  0
VERTEX
  5
73EE
330
73DE
100
AcDbEntity
  8
MODEL
100
AcDbVertex
100
AcDb2dVertex
 10
702.5824298712512
 20
1235.140464685029
 30
0.0
  0
VERTEX
  5
73EF
330
73DE
100
AcDbEntity
  8
MODEL
100
AcDbVertex
100
AcDb2dVertex
 10
701.8509122407675
 20
1234.772242847462
 30
0.0
  0
VERTEX
  5
73F0
330
73DE
100
AcDbEntity
  8
MODEL
100
AcDbVertex
100
AcDb2dVertex
 10
701.1329412330699
 20
1234.379390786647
 30
0.0
  0
VERTEX
  5
73F1
330
73DE
100
AcDbEntity
  8
MODEL
100
AcDbVertex
100
AcDb2dVertex
 10
700.4260538258343
 20
1233.963140013746
 30
0.0
  0
VERTEX
  5
73F2
330
73DE
100
AcDbEntity
  8
MODEL
100
AcDbVertex
100
AcDb2dVertex
 10
699.7351760637105
 20
1233.521027506433
 30
0.0
  0
VERTEX
  5
73F3
330
73DE
100
AcDbEntity
  8
MODEL
100
AcDbVertex
100
AcDb2dVertex
 10
699.0590764355363
 20
1233.05921082052
 30
0.0
  0
VERTEX
  5
73F4
330
73DE
100
AcDbEntity
  8
MODEL
100
AcDbVertex
100
AcDb2dVertex
 10
698.6539092630962
 20
1232.764879652699
 30
0.0
  0
VERTEX
  5
73F5
330
73DE
100
AcDbEntity
  8
MODEL
100
AcDbVertex
100
AcDb2dVertex
 10
697.9999768358459
 20
1232.267349143078
 30
0.0
  0
VERTEX
  5
73F6
330
73DE
100
AcDbEntity
  8
MODEL
100
AcDbVertex
100
AcDb2dVertex
 10
697.366980098356
 20
1231.75134596602
 30
0.0
  0
VERTEX
  5
73F7
330
73DE
100
AcDbEntity
  8
MODEL
100
AcDbVertex
100
AcDb2dVertex
 10
696.7512245171404
 20
1231.213175588038
 30
0.0
  0
VERTEX
  5
73F8
330
73DE
100
AcDbEntity
  8
MODEL
100
AcDbVertex
100
AcDb2dVertex
 10
696.1539416033618
 20
1230.656532542618
 30
0.0
  0
VERTEX
  5
73F9
330
73DE
100
AcDbEntity
  8
MODEL
100
AcDbVertex
100
AcDb2dVertex
 10
695.5738998458567
 20
1230.078953807438
 30
0.0
  0
VERTEX
  5
73FA
330
73DE
100
AcDbEntity
  8
MODEL
100
AcDbVertex
100
AcDb2dVertex
 10
695.2229191645645
 20
1229.713194992197
 30
0.0
  0
VERTEX
  5
73FB
330
73DE
100
AcDbEntity
  8
MODEL
100
AcDbVertex
100
AcDb2dVertex
 10
694.6761282084447
 20
1229.104828477957
 30
0.0
  0
VERTEX
  5
73FC
330
73DE
100
AcDbEntity
  8
MODEL
100
AcDbVertex
100
AcDb2dVertex
 10
694.1490414309244
 20
1228.479220807441
 30
0.0
  0
VERTEX
  5
73FD
330
73DE
100
AcDbEntity
  8
MODEL
100
AcDbVertex
100
AcDb2dVertex
 10
693.6416588320023
 20
1227.838835002976
 30
0.0
  0
VERTEX
  5
73FE
330
73DE
100
AcDbEntity
  8
MODEL
100
AcDbVertex
100
AcDb2dVertex
 10
693.1576749451672
 20
1227.183671064564
 30
0.0
  0
VERTEX
  5
73FF
330
73DE
100
AcDbEntity
  8
MODEL
100
AcDbVertex
100
AcDb2dVertex
 10
692.6909322146064
 20
1226.510034458713
 30
0.0
  0
VERTEX
  5
7400
330
73DE
100
AcDbEntity
  8
MODEL
100
AcDbVertex
100
AcDb2dVertex
 10
692.4163052253841
 20
1226.088857641163
 30
0.0
  0
VERTEX
  5
7401
330
73DE
100
AcDbEntity
  8
MODEL
100
AcDbVertex
100
AcDb2dVertex
 10
691.9902023631832
 20
1225.389359300901
 30
0.0
  0
VERTEX
  5
7402
330
73DE
100
AcDbEntity
  8
MODEL
100
AcDbVertex
100
AcDb2dVertex
 10
691.583803679581
 20
1224.681240382504
 30
0.0
  0
VERTEX
  5
7403
330
73DE
100
AcDbEntity
  8
MODEL
100
AcDbVertex
100
AcDb2dVertex
 10
691.2032667303899
 20
1223.957111818994
 30
0.0
  0
VERTEX
  5
7404
330
73DE
100
AcDbEntity
  8
MODEL
100
AcDbVertex
100
AcDb2dVertex
 10
690.8473600044474
 20
1223.223131166187
 30
0.0
  0
VERTEX
  5
7405
330
73DE
100
AcDbEntity
  8
MODEL
100
AcDbVertex
100
AcDb2dVertex
 10
690.5148519905913
 20
1222.476835401754
 30
0.0
  0
VERTEX
  5
7406
330
73DE
100
AcDbEntity
  8
MODEL
100
AcDbVertex
100
AcDb2dVertex
 10
690.3202732269272
 20
1222.007629648868
 30
0.0
  0
VERTEX
  5
7407
330
73DE
100
AcDbEntity
  8
MODEL
100
AcDbVertex
100
AcDb2dVertex
 10
690.0271735702684
 20
1221.246555750485
 30
0.0
  0
VERTEX
  5
7408
330
73DE
100
AcDbEntity
  8
MODEL
100
AcDbVertex
100
AcDb2dVertex
 10
689.7599356480212
 20
1220.476861273966
 30
0.0
  0
VERTEX
  5
7409
330
73DE
100
AcDbEntity
  8
MODEL
100
AcDbVertex
100
AcDb2dVertex
 10
689.5210224825089
 20
1219.697314708146
 30
0.0
  0
VERTEX
  5
740A
330
73DE
100
AcDbEntity
  8
MODEL
100
AcDbVertex
100
AcDb2dVertex
 10
689.3042765179209
 20
1218.910379075354
 30
0.0
  0
VERTEX
  5
740B
330
73DE
100
AcDbEntity
  8
MODEL
100
AcDbVertex
100
AcDb2dVertex
 10
689.1146237989067
 20
1218.116054375587
 30
0.0
  0
VERTEX
  5
740C
330
73DE
100
AcDbEntity
  8
MODEL
100
AcDbVertex
100
AcDb2dVertex
 10
688.9508328143036
 20
1217.316803631167
 30
0.0
  0
VERTEX
  5
740D
330
73DE
100
AcDbEntity
  8
MODEL
100
AcDbVertex
100
AcDb2dVertex
 10
688.8621640106091
 20
1216.81681009922
 30
0.0
  0
VERTEX
  5
740E
330
73DE
100
AcDbEntity
  8
MODEL
100
AcDbVertex
100
AcDb2dVertex
 10
688.7414759166902
 20
1216.010170287829
 30
0.0
  0
VERTEX
  5
740F
330
73DE
100
AcDbEntity
  8
MODEL
100
AcDbVertex
100
AcDb2dVertex
 10
688.6454180460212
 20
1215.20106745411
 30
0.0
  0
SEQEND
  5
7410
330
73DE
100
AcDbEntity
  8
MODEL
  0
POLYLINE
  5
7411
330
A
100
AcDbEntity
  8
MODEL
100
AcDb2dPolyline
 66
     1
 10
0.0
 20
0.0
 30
0.0
  0
VERTEX
  5
7412
330
7411
100
AcDbEntity
  8
MODEL
100
AcDbVertex
100
AcDb2dVertex
 10
967.0260532911905
 20
1215.20106745411
 30
0.0
  0
VERTEX
  5
7413
330
7411
100
AcDbEntity
  8
MODEL
100
AcDbVertex
100
AcDb2dVertex
 10
966.9324584428452
 20
1216.010170287829
 30
0.0
  0
VERTEX
  5
7414
330
7411
100
AcDbEntity
  8
MODEL
100
AcDbVertex
100
AcDb2dVertex
 10
966.8093073266025
 20
1216.818041610384
 30
0.0
  0
VERTEX
  5
7415
330
7411
100
AcDbEntity
  8
MODEL
100
AcDbVertex
100
AcDb2dVertex
 10
966.7231015452319
 20
1217.314340608844
 30
0.0
  0
VERTEX
  5
7416
330
7411
100
AcDbEntity
  8
MODEL
100
AcDbVertex
100
AcDb2dVertex
 10
966.5580790494666
 20
1218.116054375587
 30
0.0
  0
VERTEX
  5
7417
330
7411
100
AcDbEntity
  8
MODEL
100
AcDbVertex
100
AcDb2dVertex
 10
966.3684263304524
 20
1218.911610586516
 30
0.0
  0
VERTEX
  5
7418
330
7411
100
AcDbEntity
  8
MODEL
100
AcDbVertex
100
AcDb2dVertex
 10
966.1516803658644
 20
1219.698546219309
 30
0.0
  0
VERTEX
  5
7419
330
7411
100
AcDbEntity
  8
MODEL
100
AcDbVertex
100
AcDb2dVertex
 10
965.9127672003522
 20
1220.474398251639
 30
0.0
  0
VERTEX
  5
741A
330
7411
100
AcDbEntity
  8
MODEL
100
AcDbVertex
100
AcDb2dVertex
 10
965.6442977669433
 20
1221.246555750485
 30
0.0
  0
VERTEX
  5
741B
330
7411
100
AcDbEntity
  8
MODEL
100
AcDbVertex
100
AcDb2dVertex
 10
965.3536611326092
 20
1222.008861160029
 30
0.0
  0
VERTEX
  5
741C
330
7411
100
AcDbEntity
  8
MODEL
100
AcDbVertex
100
AcDb2dVertex
 10
965.1590823689451
 20
1222.476835401754
 30
0.0
  0
VERTEX
  5
741D
330
7411
100
AcDbEntity
  8
MODEL
100
AcDbVertex
100
AcDb2dVertex
 10
964.826574355089
 20
1223.224362677349
 30
0.0
  0
VERTEX
  5
741E
330
7411
100
AcDbEntity
  8
MODEL
100
AcDbVertex
100
AcDb2dVertex
 10
964.4669730956587
 20
1223.958343330158
 30
0.0
  0
VERTEX
  5
741F
330
7411
100
AcDbEntity
  8
MODEL
100
AcDbVertex
100
AcDb2dVertex
 10
964.0876676576302
 20
1224.678777360179
 30
0.0
  0
VERTEX
  5
7420
330
7411
100
AcDbEntity
  8
MODEL
100
AcDbVertex
100
AcDb2dVertex
 10
963.6861950186778
 20
1225.390590812065
 30
0.0
  0
VERTEX
  5
7421
330
7411
100
AcDbEntity
  8
MODEL
100
AcDbVertex
100
AcDb2dVertex
 10
963.2576291341518
 20
1226.086394618838
 30
0.0
  0
VERTEX
  5
7422
330
7411
100
AcDbEntity
  8
MODEL
100
AcDbVertex
100
AcDb2dVertex
 10
962.9817706337669
 20
1226.510034458713
 30
0.0
  0
VERTEX
  5
7423
330
7411
100
AcDbEntity
  8
MODEL
100
AcDbVertex
100
AcDb2dVertex
 10
962.518722436693
 20
1227.183671064564
 30
0.0
  0
VERTEX
  5
7424
330
7411
100
AcDbEntity
  8
MODEL
100
AcDbVertex
100
AcDb2dVertex
 10
962.0335070386957
 20
1227.838835002976
 30
0.0
  0
VERTEX
  5
7425
330
7411
100
AcDbEntity
  8
MODEL
100
AcDbVertex
100
AcDb2dVertex
 10
961.5236614174489
 20
1228.480452318603
 30
0.0
  0
VERTEX
  5
7426
330
7411
100
AcDbEntity
  8
MODEL
100
AcDbVertex
100
AcDb2dVertex
 10
960.994111617604
 20
1229.106059989119
 30
0.0
  0
VERTEX
  5
7427
330
7411
100
AcDbEntity
  8
MODEL
100
AcDbVertex
100
AcDb2dVertex
 10
960.4497836838093
 20
1229.710731969871
 30
0.0
  0
VERTEX
  5
7428
330
7411
100
AcDbEntity
  8
MODEL
100
AcDbVertex
100
AcDb2dVertex
 10
960.1000345136792
 20
1230.076490785113
 30
0.0
  0
VERTEX
  5
7429
330
7411
100
AcDbEntity
  8
MODEL
100
AcDbVertex
100
AcDb2dVertex
 10
959.5187612450115
 20
1230.654069520295
 30
0.0
  0
VERTEX
  5
742A
330
7411
100
AcDbEntity
  8
MODEL
100
AcDbVertex
100
AcDb2dVertex
 10
958.9202468200704
 20
1231.2144070992
 30
0.0
  0
VERTEX
  5
742B
330
7411
100
AcDbEntity
  8
MODEL
100
AcDbVertex
100
AcDb2dVertex
 10
958.3044912388548
 20
1231.75134596602
 30
0.0
  0
VERTEX
  5
742C
330
7411
100
AcDbEntity
  8
MODEL
100
AcDbVertex
100
AcDb2dVertex
 10
957.6690314790405
 20
1232.268580654241
 30
0.0
  0
VERTEX
  5
742D
330
7411
100
AcDbEntity
  8
MODEL
100
AcDbVertex
100
AcDb2dVertex
 10
957.0187935852775
 20
1232.764879652699
 30
0.0
  0
VERTEX
  5
742E
330
7411
100
AcDbEntity
  8
MODEL
100
AcDbVertex
100
AcDb2dVertex
 10
956.6099318793501
 20
1233.060442331683
 30
0.0
  0
VERTEX
  5
742F
330
7411
100
AcDbEntity
  8
MODEL
100
AcDbVertex
100
AcDb2dVertex
 10
955.9375267846629
 20
1233.522259017596
 30
0.0
  0
VERTEX
  5
7430
330
7411
100
AcDbEntity
  8
MODEL
100
AcDbVertex
100
AcDb2dVertex
 10
955.2429544890517
 20
1233.960676991421
 30
0.0
  0
VERTEX
  5
7431
330
7411
100
AcDbEntity
  8
MODEL
100
AcDbVertex
100
AcDb2dVertex
 10
954.5409931264664
 20
1234.379390786647
 30
0.0
  0
VERTEX
  5
7432
330
7411
100
AcDbEntity
  8
MODEL
100
AcDbVertex
100
AcDb2dVertex
 10
953.824253629932
 20
1234.769779825137
 30
0.0
  0
VERTEX
  5
7433
330
7411
100
AcDbEntity
  8
MODEL
100
AcDbVertex
100
AcDb2dVertex
 10
953.0902729771221
 20
1235.140464685029
 30
0.0
  0
VERTEX
  5
7434
330
7411
100
AcDbEntity
  8
MODEL
100
AcDbVertex
100
AcDb2dVertex
 10
952.6346138470228
 20
1235.355979138456
 30
0.0
  0
VERTEX
  5
7435
330
7411
100
AcDbEntity
  8
MODEL
100
AcDbVertex
100
AcDb2dVertex
 10
951.8858550602647
 20
1235.68848715231
 30
0.0
  0
VERTEX
  5
7436
330
7411
100
AcDbEntity
  8
MODEL
100
AcDbVertex
100
AcDb2dVertex
 10
951.124781161883
 20
1235.993901920594
 30
0.0
  0
VERTEX
  5
7437
330
7411
100
AcDbEntity
  8
MODEL
100
AcDbVertex
100
AcDb2dVertex
 10
950.3587812188509
 20
1236.273454954465
 30
0.0
  0
VERTEX
  5
7438
330
7411
100
AcDbEntity
  8
MODEL
100
AcDbVertex
100
AcDb2dVertex
 10
949.5755401195449
 20
1236.530840787414
 30
0.0
  0
VERTEX
  5
7439
330
7411
100
AcDbEntity
  8
MODEL
100
AcDbVertex
100
AcDb2dVertex
 10
949.0977137885218
 20
1236.677390615743
 30
0.0
  0
VERTEX
  5
743A
330
7411
100
AcDbEntity
  8
MODEL
100
AcDbVertex
100
AcDb2dVertex
 10
948.3021575775913
 20
1236.891673558006
 30
0.0
  0
VERTEX
  5
743B
330
7411
100
AcDbEntity
  8
MODEL
100
AcDbVertex
100
AcDb2dVertex
 10
947.5066013666612
 20
1237.077631743534
 30
0.0
  0
VERTEX
  5
743C
330
7411
100
AcDbEntity
  8
MODEL
100
AcDbVertex
100
AcDb2dVertex
 10
946.7011930664314
 20
1237.241422728137
 30
0.0
  0
VERTEX
  5
743D
330
7411
100
AcDbEntity
  8
MODEL
100
AcDbVertex
100
AcDb2dVertex
 10
945.8933217438764
 20
1237.378120467167
 30
0.0
  0
VERTEX
  5
743E
330
7411
100
AcDbEntity
  8
MODEL
100
AcDbVertex
100
AcDb2dVertex
 10
945.0829873989971
 20
1237.486493449461
 30
0.0
  0
VERTEX
  5
743F
330
7411
100
AcDbEntity
  8
MODEL
100
AcDbVertex
100
AcDb2dVertex
 10
944.2652639871437
 20
1237.57269923083
 30
0.0
  0
VERTEX
  5
7440
330
7411
100
AcDbEntity
  8
MODEL
100
AcDbVertex
100
AcDb2dVertex
 10
943.7628074328711
 20
1237.607181543379
 30
0.0
  0
VERTEX
  5
7441
330
7411
100
AcDbEntity
  8
MODEL
100
AcDbVertex
100
AcDb2dVertex
 10
942.9426209986921
 20
1237.647821411739
 30
0.0
  0
VERTEX
  5
7442
330
7411
100
AcDbEntity
  8
MODEL
100
AcDbVertex
100
AcDb2dVertex
 10
942.1273606091634
 20
1237.662599545689
 30
0.0
  0
SEQEND
  5
7443
330
7411
100
AcDbEntity
  8
MODEL
  0
POLYLINE
  5
75FE
330
A
100
AcDbEntity
  8
MODEL
100
AcDb2dPolyline
 66
     1
 10
0.0
 20
0.0
 30
0.0
  0
VERTEX
  5
75FF
330
75FE
100
AcDbEntity
  8
MODEL
100
AcDbVertex
100
AcDb2dVertex
 10
616.2005424048637
 20
797.6375036533334
 30
0.0
  0
VERTEX
  5
7600
330
75FE
100
AcDbEntity
  8
MODEL
100
AcDbVertex
100
AcDb2dVertex
 10
617.1488059999353
 20
806.7211299874232
 30
0.0
  0
SEQEND
  5
7601
330
75FE
100
AcDbEntity
  8
MODEL
  0
POLYLINE
  5
7602
330
A
100
AcDbEntity
  8
MODEL
100
AcDb2dPolyline
 66
     1
 10
0.0
 20
0.0
 30
0.0
  0
VERTEX
  5
7603
330
7602
100
AcDbEntity
  8
MODEL
100
AcDbVertex
100
AcDb2dVertex
 10
1039.473391954672
 20
797.6375036533334
 30
0.0
  0
VERTEX
  5
7604
330
7602
100
AcDbEntity
  8
MODEL
100
AcDbVertex
100
AcDb2dVertex
 10
1038.522665337275
 20
806.7211299874232
 30
0.0
  0
SEQEND
  5
7605
330
7602
100
AcDbEntity
  8
MODEL
  0
POLYLINE
  5
7606
330
A
100
AcDbEntity
  8
MODEL
100
AcDb2dPolyline
 66
     1
 10
0.0
 20
0.0
 30
0.0
  0
VERTEX
  5
7607
330
7606
100
AcDbEntity
  8
MODEL
100
AcDbVertex
100
AcDb2dVertex
 10
814.3235951944141
 20
1237.644126878251
 30
0.0
  0
VERTEX
  5
7608
330
7606
100
AcDbEntity
  8
MODEL
100
AcDbVertex
100
AcDb2dVertex
 10
841.3478761427966
 20
1237.644126878251
 30
0.0
  0
SEQEND
  5
7609
330
7606
100
AcDbEntity
  8
MODEL
  0
POLYLINE
  5
760A
330
A
100
AcDbEntity
  8
MODEL
100
AcDb2dPolyline
 66
     1
 10
0.0
 20
0.0
 30
0.0
  0
VERTEX
  5
760B
330
760A
100
AcDbEntity
  8
MODEL
100
AcDbVertex
100
AcDb2dVertex
 10
1038.973398422726
 20
797.0857866525637
 30
0.0
  0
VERTEX
  5
760C
330
760A
100
AcDbEntity
  8
MODEL
100
AcDbVertex
100
AcDb2dVertex
 10
1003.555137391214
 20
797.0857866525637
 30
0.0
  0
SEQEND
  5
760D
330
760A
100
AcDbEntity
  8
MODEL
  0
POLYLINE
  5
760E
330
A
100
AcDbEntity
  8
MODEL
100
AcDb2dPolyline
 66
     1
 10
0.0
 20
0.0
 30
0.0
  0
VERTEX
  5
760F
330
760E
100
AcDbEntity
  8
MODEL
100
AcDbVertex
100
AcDb2dVertex
 10
652.1175654571591
 20
797.0857866525637
 30
0.0
  0
VERTEX
  5
7610
330
760E
100
AcDbEntity
  8
MODEL
100
AcDbVertex
100
AcDb2dVertex
 10
616.699304425648
 20
797.0857866525637
 30
0.0
  0
SEQEND
  5
7611
330
760E
100
AcDbEntity
  8
MODEL
  0
POLYLINE
  5
7612
330
A
100
AcDbEntity
  8
MODEL
100
AcDb2dPolyline
 66
     1
 10
0.0
 20
0.0
 30
0.0
  0
VERTEX
  5
7613
330
7612
100
AcDbEntity
  8
MODEL
100
AcDbVertex
100
AcDb2dVertex
 10
651.5523018336037
 20
1203.112553883691
 30
0.0
  0
VERTEX
  5
7614
330
7612
100
AcDbEntity
  8
MODEL
100
AcDbVertex
100
AcDb2dVertex
 10
657.27513420542
 20
1268.511954164582
 30
0.0
  0
SEQEND
  5
7615
330
7612
100
AcDbEntity
  8
MODEL
  0
POLYLINE
  5
7616
330
A
100
AcDbEntity
  8
MODEL
100
AcDb2dPolyline
 66
     1
 10
0.0
 20
0.0
 30
0.0
  0
VERTEX
  5
7617
330
7616
100
AcDbEntity
  8
MODEL
100
AcDbVertex
100
AcDb2dVertex
 10
653.2443981707836
 20
806.634924206053
 30
0.0
  0
VERTEX
  5
7618
330
7616
100
AcDbEntity
  8
MODEL
100
AcDbVertex
100
AcDb2dVertex
 10
652.6163274779435
 20
797.5512978719614
 30
0.0
  0
SEQEND
  5
7619
330
7616
100
AcDbEntity
  8
MODEL
  0
POLYLINE
  5
761A
330
A
100
AcDbEntity
  8
MODEL
100
AcDb2dPolyline
 66
     1
 10
0.0
 20
0.0
 30
0.0
  0
VERTEX
  5
761B
330
761A
100
AcDbEntity
  8
MODEL
100
AcDbVertex
100
AcDb2dVertex
 10
688.6183248004475
 20
1215.204761987599
 30
0.0
  0
VERTEX
  5
761C
330
761A
100
AcDbEntity
  8
MODEL
100
AcDbVertex
100
AcDb2dVertex
 10
688.6183248004475
 20
1214.899347219316
 30
0.0
  0
SEQEND
  5
761D
330
761A
100
AcDbEntity
  8
MODEL
  0
POLYLINE
  5
761E
330
A
100
AcDbEntity
  8
MODEL
100
AcDb2dPolyline
 66
     1
 10
0.0
 20
0.0
 30
0.0
  0
VERTEX
  5
761F
330
761E
100
AcDbEntity
  8
MODEL
100
AcDbVertex
100
AcDb2dVertex
 10
814.3235951944141
 20
1237.644126878251
 30
0.0
  0
VERTEX
  5
7620
330
761E
100
AcDbEntity
  8
MODEL
100
AcDbVertex
100
AcDb2dVertex
 10
814.3235951944141
 20
1237.661368034525
 30
0.0
  0
SEQEND
  5
7621
330
761E
100
AcDbEntity
  8
MODEL
  0
POLYLINE
  5
7622
330
A
100
AcDbEntity
  8
MODEL
100
AcDb2dPolyline
 66
     1
 10
0.0
 20
0.0
 30
0.0
  0
VERTEX
  5
7623
330
7622
100
AcDbEntity
  8
MODEL
100
AcDbVertex
100
AcDb2dVertex
 10
821.3308937086456
 20
1237.644126878251
 30
0.0
  0
VERTEX
  5
7624
330
7622
100
AcDbEntity
  8
MODEL
100
AcDbVertex
100
AcDb2dVertex
 10
821.3308937086456
 20
1237.661368034525
 30
0.0
  0
SEQEND
  5
7625
330
7622
100
AcDbEntity
  8
MODEL
  0
POLYLINE
  5
7626
330
A
100
AcDbEntity
  8
MODEL
100
AcDb2dPolyline
 66
     1
 10
0.0
 20
0.0
 30
0.0
  0
VERTEX
  5
7627
330
7626
100
AcDbEntity
  8
MODEL
100
AcDbVertex
100
AcDb2dVertex
 10
834.3418091397277
 20
1237.644126878251
 30
0.0
  0
VERTEX
  5
7628
330
7626
100
AcDbEntity
  8
MODEL
100
AcDbVertex
100
AcDb2dVertex
 10
834.3418091397277
 20
1237.661368034525
 30
0.0
  0
SEQEND
  5
7629
330
7626
100
AcDbEntity
  8
MODEL
  0
POLYLINE
  5
762A
330
A
100
AcDbEntity
  8
MODEL
100
AcDb2dPolyline
 66
     1
 10
0.0
 20
0.0
 30
0.0
  0
VERTEX
  5
762B
330
762A
100
AcDbEntity
  8
MODEL
100
AcDbVertex
100
AcDb2dVertex
 10
841.3491076539592
 20
1237.644126878251
 30
0.0
  0
VERTEX
  5
762C
330
762A
100
AcDbEntity
  8
MODEL
100
AcDbVertex
100
AcDb2dVertex
 10
841.3491076539592
 20
1237.661368034525
 30
0.0
  0
SEQEND
  5
762D
330
762A
100
AcDbEntity
  8
MODEL
  0
POLYLINE
  5
762E
330
A
100
AcDbEntity
  8
MODEL
100
AcDb2dPolyline
 66
     1
 10
0.0
 20
0.0
 30
0.0
  0
VERTEX
  5
762F
330
762E
100
AcDbEntity
  8
MODEL
100
AcDbVertex
100
AcDb2dVertex
 10
1002.429536188752
 20
806.634924206053
 30
0.0
  0
VERTEX
  5
7630
330
762E
100
AcDbEntity
  8
MODEL
100
AcDbVertex
100
AcDb2dVertex
 10
1003.055143859267
 20
797.5512978719614
 30
0.0
  0
SEQEND
  5
7631
330
762E
100
AcDbEntity
  8
MODEL
  0
POLYLINE
  5
7632
330
A
100
AcDbEntity
  8
MODEL
100
AcDb2dPolyline
 66
     1
 10
0.0
 20
0.0
 30
0.0
  0
VERTEX
  5
7633
330
7632
100
AcDbEntity
  8
MODEL
100
AcDbVertex
100
AcDb2dVertex
 10
651.5880156573141
 20
1203.112553883691
 30
0.0
  0
VERTEX
  5
7634
330
7632
100
AcDbEntity
  8
MODEL
100
AcDbVertex
100
AcDb2dVertex
 10
687.4102123501032
 20
1203.112553883691
 30
0.0
  0
SEQEND
  5
7635
330
7632
100
AcDbEntity
  8
MODEL
  0
POLYLINE
  5
7636
330
A
100
AcDbEntity
  8
MODEL
100
AcDb2dPolyline
 66
     1
 10
0.0
 20
0.0
 30
0.0
  0
VERTEX
  5
7637
330
7636
100
AcDbEntity
  8
MODEL
100
AcDbVertex
100
AcDb2dVertex
 10
968.2600274759454
 20
1203.112553883691
 30
0.0
  0
VERTEX
  5
7638
330
7636
100
AcDbEntity
  8
MODEL
100
AcDbVertex
100
AcDb2dVertex
 10
1004.082224168734
 20
1203.112553883691
 30
0.0
  0
SEQEND
  5
7639
330
7636
100
AcDbEntity
  8
MODEL
  0
POLYLINE
  5
763A
330
A
100
AcDbEntity
  8
MODEL
100
AcDb2dPolyline
 66
     1
 10
0.0
 20
0.0
 30
0.0
  0
VERTEX
  5
763B
330
763A
100
AcDbEntity
  8
MODEL
100
AcDbVertex
100
AcDb2dVertex
 10
998.3975686429537
 20
1268.511954164582
 30
0.0
  0
VERTEX
  5
763C
330
763A
100
AcDbEntity
  8
MODEL
100
AcDbVertex
100
AcDb2dVertex
 10
998.3926425983038
 20
1268.564909144565
 30
0.0
  0
VERTEX
  5
763D
330
763A
100
AcDbEntity
  8
MODEL
100
AcDbVertex
100
AcDb2dVertex
 10
998.37047539738
 20
1268.76441395288
 30
0.0
  0
VERTEX
  5
763E
330
763A
100
AcDbEntity
  8
MODEL
100
AcDbVertex
100
AcDb2dVertex
 10
998.340919129482
 20
1268.95776120538
 30
0.0
  0
VERTEX
  5
763F
330
763A
100
AcDbEntity
  8
MODEL
100
AcDbVertex
100
AcDb2dVertex
 10
998.3039737946085
 20
1269.147413924394
 30
0.0
  0
VERTEX
  5
7640
330
763A
100
AcDbEntity
  8
MODEL
100
AcDbVertex
100
AcDb2dVertex
 10
998.2571763704366
 20
1269.334603621084
 30
0.0
  0
VERTEX
  5
7641
330
763A
100
AcDbEntity
  8
MODEL
100
AcDbVertex
100
AcDb2dVertex
 10
998.2079159239395
 20
1269.515635761961
 30
0.0
  0
VERTEX
  5
7642
330
763A
100
AcDbEntity
  8
MODEL
100
AcDbVertex
100
AcDb2dVertex
 10
998.1488033881426
 20
1269.69174185819
 30
0.0
  0
VERTEX
  5
7643
330
763A
100
AcDbEntity
  8
MODEL
100
AcDbVertex
100
AcDb2dVertex
 10
998.0847648076963
 20
1269.866616443254
 30
0.0
  0
VERTEX
  5
7644
330
763A
100
AcDbEntity
  8
MODEL
100
AcDbVertex
100
AcDb2dVertex
 10
998.02072622725
 20
1270.035333472508
 30
0.0
  0
VERTEX
  5
7645
330
763A
100
AcDbEntity
  8
MODEL
100
AcDbVertex
100
AcDb2dVertex
 10
997.9443725351791
 20
1270.199124457111
 30
0.0
  0
VERTEX
  5
7646
330
763A
100
AcDbEntity
  8
MODEL
100
AcDbVertex
100
AcDb2dVertex
 10
997.8655558207836
 20
1270.357989397063
 30
0.0
  0
VERTEX
  5
7647
330
763A
100
AcDbEntity
  8
MODEL
100
AcDbVertex
100
AcDb2dVertex
 10
997.7867391063876
 20
1270.511928292368
 30
0.0
  0
VERTEX
  5
7648
330
763A
100
AcDbEntity
  8
MODEL
100
AcDbVertex
100
AcDb2dVertex
 10
997.7005333250183
 20
1270.660941143023
 30
0.0
  0
VERTEX
  5
7649
330
763A
100
AcDbEntity
  8
MODEL
100
AcDbVertex
100
AcDb2dVertex
 10
997.6094014989978
 20
1270.807490971352
 30
0.0
  0
VERTEX
  5
764A
330
763A
100
AcDbEntity
  8
MODEL
100
AcDbVertex
100
AcDb2dVertex
 10
997.5133436283279
 20
1270.945420221544
 30
0.0
  0
VERTEX
  5
764B
330
763A
100
AcDbEntity
  8
MODEL
100
AcDbVertex
100
AcDb2dVertex
 10
997.4148227353342
 20
1271.07965493825
 30
0.0
  0
VERTEX
  5
764C
330
763A
100
AcDbEntity
  8
MODEL
100
AcDbVertex
100
AcDb2dVertex
 10
997.3138388200143
 20
1271.210195121466
 30
0.0
  0
VERTEX
  5
764D
330
763A
100
AcDbEntity
  8
MODEL
100
AcDbVertex
100
AcDb2dVertex
 10
997.2103918823702
 20
1271.334577748872
 30
0.0
  0
VERTEX
  5
764E
330
763A
100
AcDbEntity
  8
MODEL
100
AcDbVertex
100
AcDb2dVertex
 10
997.1044819224019
 20
1271.455265842789
 30
0.0
  0
VERTEX
  5
764F
330
763A
100
AcDbEntity
  8
MODEL
100
AcDbVertex
100
AcDb2dVertex
 10
996.9936459177823
 20
1271.571027892059
 30
0.0
  0
VERTEX
  5
7650
330
763A
100
AcDbEntity
  8
MODEL
100
AcDbVertex
100
AcDb2dVertex
 10
996.882809913164
 20
1271.679400874352
 30
0.0
  0
VERTEX
  5
7651
330
763A
100
AcDbEntity
  8
MODEL
100
AcDbVertex
100
AcDb2dVertex
 10
996.7695108862197
 20
1271.785310834322
 30
0.0
  0
VERTEX
  5
7652
330
763A
100
AcDbEntity
  8
MODEL
100
AcDbVertex
100
AcDb2dVertex
 10
996.6562118592763
 20
1271.888757771965
 30
0.0
  0
VERTEX
  5
7653
330
763A
100
AcDbEntity
  8
MODEL
100
AcDbVertex
100
AcDb2dVertex
 10
996.5404498100081
 20
1271.984815642636
 30
0.0
  0
VERTEX
  5
7654
330
763A
100
AcDbEntity
  8
MODEL
100
AcDbVertex
100
AcDb2dVertex
 10
996.4197617160901
 20
1272.07841049098
 30
0.0
  0
VERTEX
  5
7655
330
763A
100
AcDbEntity
  8
MODEL
100
AcDbVertex
100
AcDb2dVertex
 10
996.299073622172
 20
1272.163384761188
 30
0.0
  0
VERTEX
  5
7656
330
763A
100
AcDbEntity
  8
MODEL
100
AcDbVertex
100
AcDb2dVertex
 10
996.1759225059279
 20
1272.247127520233
 30
0.0
  0
VERTEX
  5
7657
330
763A
100
AcDbEntity
  8
MODEL
100
AcDbVertex
100
AcDb2dVertex
 10
996.0552344120099
 20
1272.32594423463
 30
0.0
  0
VERTEX
  5
7658
330
763A
100
AcDbEntity
  8
MODEL
100
AcDbVertex
100
AcDb2dVertex
 10
995.9320832957671
 20
1272.401066415537
 30
0.0
  0
VERTEX
  5
7659
330
763A
100
AcDbEntity
  8
MODEL
100
AcDbVertex
100
AcDb2dVertex
 10
995.8089321795239
 20
1272.468799529471
 30
0.0
  0
VERTEX
  5
765A
330
763A
100
AcDbEntity
  8
MODEL
100
AcDbVertex
100
AcDb2dVertex
 10
995.6857810632812
 20
1272.535301132242
 30
0.0
  0
VERTEX
  5
765B
330
763A
100
AcDbEntity
  8
MODEL
100
AcDbVertex
100
AcDb2dVertex
 10
995.5577039023885
 20
1272.598108201526
 30
0.0
  0
VERTEX
  5
765C
330
763A
100
AcDbEntity
  8
MODEL
100
AcDbVertex
100
AcDb2dVertex
 10
995.4320897638206
 20
1272.655989226161
 30
0.0
  0
VERTEX
  5
765D
330
763A
100
AcDbEntity
  8
MODEL
100
AcDbVertex
100
AcDb2dVertex
 10
995.3064756252518
 20
1272.708944206146
 30
0.0
  0
VERTEX
  5
765E
330
763A
100
AcDbEntity
  8
MODEL
100
AcDbVertex
100
AcDb2dVertex
 10
995.183324509009
 20
1272.75697314148
 30
0.0
  0
VERTEX
  5
765F
330
763A
100
AcDbEntity
  8
MODEL
100
AcDbVertex
100
AcDb2dVertex
 10
995.0577103704411
 20
1272.805002076815
 30
0.0
  0
VERTEX
  5
7660
330
763A
100
AcDbEntity
  8
MODEL
100
AcDbVertex
100
AcDb2dVertex
 10
994.9271701872233
 20
1272.844410434012
 30
0.0
  0
VERTEX
  5
7661
330
763A
100
AcDbEntity
  8
MODEL
100
AcDbVertex
100
AcDb2dVertex
 10
994.8040190709805
 20
1272.882587280048
 30
0.0
  0
VERTEX
  5
7662
330
763A
100
AcDbEntity
  8
MODEL
100
AcDbVertex
100
AcDb2dVertex
 10
994.6808679547378
 20
1272.918301103758
 30
0.0
  0
VERTEX
  5
7663
330
763A
100
AcDbEntity
  8
MODEL
100
AcDbVertex
100
AcDb2dVertex
 10
994.5626428831445
 20
1272.945394349332
 30
0.0
  0
VERTEX
  5
7664
330
763A
100
AcDbEntity
  8
MODEL
100
AcDbVertex
100
AcDb2dVertex
 10
994.4468808338754
 20
1272.973719106068
 30
0.0
  0
VERTEX
  5
7665
330
763A
100
AcDbEntity
  8
MODEL
100
AcDbVertex
100
AcDb2dVertex
 10
994.333581806932
 20
1272.993423284668
 30
0.0
  0
VERTEX
  5
7666
330
763A
100
AcDbEntity
  8
MODEL
100
AcDbVertex
100
AcDb2dVertex
 10
994.2301348692879
 20
1273.014358974427
 30
0.0
  0
VERTEX
  5
7667
330
763A
100
AcDbEntity
  8
MODEL
100
AcDbVertex
100
AcDb2dVertex
 10
994.1316139762932
 20
1273.029137108377
 30
0.0
  0
VERTEX
  5
7668
330
763A
100
AcDbEntity
  8
MODEL
100
AcDbVertex
100
AcDb2dVertex
 10
994.0404821502732
 20
1273.041452220002
 30
0.0
  0
VERTEX
  5
7669
330
763A
100
AcDbEntity
  8
MODEL
100
AcDbVertex
100
AcDb2dVertex
 10
993.9592024135534
 20
1273.048841286976
 30
0.0
  0
VERTEX
  5
766A
330
763A
100
AcDbEntity
  8
MODEL
100
AcDbVertex
100
AcDb2dVertex
 10
993.8902377884572
 20
1273.059924887438
 30
0.0
  0
VERTEX
  5
766B
330
763A
100
AcDbEntity
  8
MODEL
100
AcDbVertex
100
AcDb2dVertex
 10
993.8237361856857
 20
1273.064850932089
 30
0.0
  0
VERTEX
  5
766C
330
763A
100
AcDbEntity
  8
MODEL
100
AcDbVertex
100
AcDb2dVertex
 10
993.7621606275636
 20
1273.069776976737
 30
0.0
  0
VERTEX
  5
766D
330
763A
100
AcDbEntity
  8
MODEL
100
AcDbVertex
100
AcDb2dVertex
 10
993.7104371587418
 20
1273.072239999063
 30
0.0
  0
VERTEX
  5
766E
330
763A
100
AcDbEntity
  8
MODEL
100
AcDbVertex
100
AcDb2dVertex
 10
993.6636397345694
 20
1273.074703021388
 30
0.0
  0
VERTEX
  5
766F
330
763A
100
AcDbEntity
  8
MODEL
100
AcDbVertex
100
AcDb2dVertex
 10
993.6217683550474
 20
1273.077166043711
 30
0.0
  0
VERTEX
  5
7670
330
763A
100
AcDbEntity
  8
MODEL
100
AcDbVertex
100
AcDb2dVertex
 10
993.5872860424986
 20
1273.079629066038
 30
0.0
  0
VERTEX
  5
7671
330
763A
100
AcDbEntity
  8
MODEL
100
AcDbVertex
100
AcDb2dVertex
 10
993.5528037299512
 20
1273.079629066038
 30
0.0
  0
VERTEX
  5
7672
330
763A
100
AcDbEntity
  8
MODEL
100
AcDbVertex
100
AcDb2dVertex
 10
993.525710484377
 20
1273.082092088361
 30
0.0
  0
VERTEX
  5
7673
330
763A
100
AcDbEntity
  8
MODEL
100
AcDbVertex
100
AcDb2dVertex
 10
993.4764500378803
 20
1273.082092088361
 30
0.0
  0
SEQEND
  5
7674
330
763A
100
AcDbEntity
  8
MODEL
  0
POLYLINE
  5
7675
330
A
100
AcDbEntity
  8
MODEL
100
AcDb2dPolyline
 66
     1
 10
0.0
 20
0.0
 30
0.0
  0
VERTEX
  5
7676
330
7675
100
AcDbEntity
  8
MODEL
100
AcDbVertex
100
AcDb2dVertex
 10
1004.121632525933
 20
1203.112553883691
 30
0.0
  0
VERTEX
  5
7677
330
7675
100
AcDbEntity
  8
MODEL
100
AcDbVertex
100
AcDb2dVertex
 10
998.3975686429537
 20
1268.511954164582
 30
0.0
  0
SEQEND
  5
7678
330
7675
100
AcDbEntity
  8
MODEL
  0
POLYLINE
  5
7679
330
A
100
AcDbEntity
  8
MODEL
100
AcDb2dPolyline
 66
     1
 10
0.0
 20
0.0
 30
0.0
  0
VERTEX
  5
767A
330
7679
100
AcDbEntity
  8
MODEL
100
AcDbVertex
100
AcDb2dVertex
 10
662.1211306295852
 20
1273.079629066038
 30
0.0
  0
VERTEX
  5
767B
330
7679
100
AcDbEntity
  8
MODEL
100
AcDbVertex
100
AcDb2dVertex
 10
662.0878798281994
 20
1273.079629066038
 30
0.0
  0
VERTEX
  5
767C
330
7679
100
AcDbEntity
  8
MODEL
100
AcDbVertex
100
AcDb2dVertex
 10
662.0509344933273
 20
1273.077166043711
 30
0.0
  0
VERTEX
  5
767D
330
7679
100
AcDbEntity
  8
MODEL
100
AcDbVertex
100
AcDb2dVertex
 10
662.0078316026418
 20
1273.074703021388
 30
0.0
  0
VERTEX
  5
767E
330
7679
100
AcDbEntity
  8
MODEL
100
AcDbVertex
100
AcDb2dVertex
 10
661.9598026673068
 20
1273.072239999063
 30
0.0
  0
VERTEX
  5
767F
330
7679
100
AcDbEntity
  8
MODEL
100
AcDbVertex
100
AcDb2dVertex
 10
661.9019216426725
 20
1273.069776976737
 30
0.0
  0
VERTEX
  5
7680
330
7679
100
AcDbEntity
  8
MODEL
100
AcDbVertex
100
AcDb2dVertex
 10
661.836651551064
 20
1273.062387909762
 30
0.0
  0
VERTEX
  5
7681
330
7679
100
AcDbEntity
  8
MODEL
100
AcDbVertex
100
AcDb2dVertex
 10
661.757834836668
 20
1273.057461865113
 30
0.0
  0
VERTEX
  5
7682
330
7679
100
AcDbEntity
  8
MODEL
100
AcDbVertex
100
AcDb2dVertex
 10
661.6753235887857
 20
1273.046378264651
 30
0.0
  0
VERTEX
  5
7683
330
7679
100
AcDbEntity
  8
MODEL
100
AcDbVertex
100
AcDb2dVertex
 10
661.5817287404404
 20
1273.034063153027
 30
0.0
  0
VERTEX
  5
7684
330
7679
100
AcDbEntity
  8
MODEL
100
AcDbVertex
100
AcDb2dVertex
 10
661.4807448251206
 20
1273.019285019078
 30
0.0
  0
VERTEX
  5
7685
330
7679
100
AcDbEntity
  8
MODEL
100
AcDbVertex
100
AcDb2dVertex
 10
661.3723718428271
 20
1273.002043862803
 30
0.0
  0
VERTEX
  5
7686
330
7679
100
AcDbEntity
  8
MODEL
100
AcDbVertex
100
AcDb2dVertex
 10
661.2590728158837
 20
1272.978645150717
 30
0.0
  0
VERTEX
  5
7687
330
7679
100
AcDbEntity
  8
MODEL
100
AcDbVertex
100
AcDb2dVertex
 10
661.1420792554525
 20
1272.954014927469
 30
0.0
  0
VERTEX
  5
7688
330
7679
100
AcDbEntity
  8
MODEL
100
AcDbVertex
100
AcDb2dVertex
 10
661.0213911615344
 20
1272.923227148409
 30
0.0
  0
VERTEX
  5
7689
330
7679
100
AcDbEntity
  8
MODEL
100
AcDbVertex
100
AcDb2dVertex
 10
660.8982400452917
 20
1272.889976347023
 30
0.0
  0
VERTEX
  5
768A
330
7679
100
AcDbEntity
  8
MODEL
100
AcDbVertex
100
AcDb2dVertex
 10
660.7713943955607
 20
1272.855494034475
 30
0.0
  0
VERTEX
  5
768B
330
7679
100
AcDbEntity
  8
MODEL
100
AcDbVertex
100
AcDb2dVertex
 10
660.6433172346681
 20
1272.81239114379
 30
0.0
  0
VERTEX
  5
768C
330
7679
100
AcDbEntity
  8
MODEL
100
AcDbVertex
100
AcDb2dVertex
 10
660.5090825179634
 20
1272.764362208454
 30
0.0
  0
VERTEX
  5
768D
330
7679
100
AcDbEntity
  8
MODEL
100
AcDbVertex
100
AcDb2dVertex
 10
660.378542334746
 20
1272.711407228469
 30
0.0
  0
VERTEX
  5
768E
330
7679
100
AcDbEntity
  8
MODEL
100
AcDbVertex
100
AcDb2dVertex
 10
660.2443076180405
 20
1272.658452248484
 30
0.0
  0
VERTEX
  5
768F
330
7679
100
AcDbEntity
  8
MODEL
100
AcDbVertex
100
AcDb2dVertex
 10
660.1113044124979
 20
1272.595645179201
 30
0.0
  0
VERTEX
  5
7690
330
7679
100
AcDbEntity
  8
MODEL
100
AcDbVertex
100
AcDb2dVertex
 10
659.9746066734685
 20
1272.530375087592
 30
0.0
  0
VERTEX
  5
7691
330
7679
100
AcDbEntity
  8
MODEL
100
AcDbVertex
100
AcDb2dVertex
 10
659.841603467926
 20
1272.456484417847
 30
0.0
  0
VERTEX
  5
7692
330
7679
100
AcDbEntity
  8
MODEL
100
AcDbVertex
100
AcDb2dVertex
 10
659.7073687512209
 20
1272.38136223694
 30
0.0
  0
VERTEX
  5
7693
330
7679
100
AcDbEntity
  8
MODEL
100
AcDbVertex
100
AcDb2dVertex
 10
659.5768285680031
 20
1272.300082500218
 30
0.0
  0
VERTEX
  5
7694
330
7679
100
AcDbEntity
  8
MODEL
100
AcDbVertex
100
AcDb2dVertex
 10
659.4425938512984
 20
1272.212645207686
 30
0.0
  0
VERTEX
  5
7695
330
7679
100
AcDbEntity
  8
MODEL
100
AcDbVertex
100
AcDb2dVertex
 10
659.3120536680801
 20
1272.121513381666
 30
0.0
  0
VERTEX
  5
7696
330
7679
100
AcDbEntity
  8
MODEL
100
AcDbVertex
100
AcDb2dVertex
 10
659.1802819737002
 20
1272.022992488671
 30
0.0
  0
VERTEX
  5
7697
330
7679
100
AcDbEntity
  8
MODEL
100
AcDbVertex
100
AcDb2dVertex
 10
659.0546678351327
 20
1271.919545551027
 30
0.0
  0
VERTEX
  5
7698
330
7679
100
AcDbEntity
  8
MODEL
100
AcDbVertex
100
AcDb2dVertex
 10
658.925359163077
 20
1271.808709546409
 30
0.0
  0
VERTEX
  5
7699
330
7679
100
AcDbEntity
  8
MODEL
100
AcDbVertex
100
AcDb2dVertex
 10
658.8022080468338
 20
1271.69294749714
 30
0.0
  0
VERTEX
  5
769A
330
7679
100
AcDbEntity
  8
MODEL
100
AcDbVertex
100
AcDb2dVertex
 10
658.6790569305911
 20
1271.571027892059
 30
0.0
  0
VERTEX
  5
769B
330
7679
100
AcDbEntity
  8
MODEL
100
AcDbVertex
100
AcDb2dVertex
 10
658.55713732551
 20
1271.442950731167
 30
0.0
  0
VERTEX
  5
769C
330
7679
100
AcDbEntity
  8
MODEL
100
AcDbVertex
100
AcDb2dVertex
 10
658.4389122539171
 20
1271.30871601446
 30
0.0
  0
VERTEX
  5
769D
330
7679
100
AcDbEntity
  8
MODEL
100
AcDbVertex
100
AcDb2dVertex
 10
658.3256132269737
 20
1271.168323741944
 30
0.0
  0
VERTEX
  5
769E
330
7679
100
AcDbEntity
  8
MODEL
100
AcDbVertex
100
AcDb2dVertex
 10
658.2147772223541
 20
1271.02423693594
 30
0.0
  0
VERTEX
  5
769F
330
7679
100
AcDbEntity
  8
MODEL
100
AcDbVertex
100
AcDb2dVertex
 10
658.1088672623857
 20
1270.870298040636
 30
0.0
  0
VERTEX
  5
76A0
330
7679
100
AcDbEntity
  8
MODEL
100
AcDbVertex
100
AcDb2dVertex
 10
658.0054203247416
 20
1270.711433100681
 30
0.0
  0
VERTEX
  5
76A1
330
7679
100
AcDbEntity
  8
MODEL
100
AcDbVertex
100
AcDb2dVertex
 10
657.906899431747
 20
1270.545179093755
 30
0.0
  0
VERTEX
  5
76A2
330
7679
100
AcDbEntity
  8
MODEL
100
AcDbVertex
100
AcDb2dVertex
 10
657.8133045834018
 20
1270.376462064501
 30
0.0
  0
VERTEX
  5
76A3
330
7679
100
AcDbEntity
  8
MODEL
100
AcDbVertex
100
AcDb2dVertex
 10
657.7270988020321
 20
1270.196661434785
 30
0.0
  0
VERTEX
  5
76A4
330
7679
100
AcDbEntity
  8
MODEL
100
AcDbVertex
100
AcDb2dVertex
 10
657.6470505764735
 20
1270.01562929391
 30
0.0
  0
VERTEX
  5
76A5
330
7679
100
AcDbEntity
  8
MODEL
100
AcDbVertex
100
AcDb2dVertex
 10
657.5706968844036
 20
1269.825976574893
 30
0.0
  0
VERTEX
  5
76A6
330
7679
100
AcDbEntity
  8
MODEL
100
AcDbVertex
100
AcDb2dVertex
 10
657.5029637704695
 20
1269.63139781123
 30
0.0
  0
VERTEX
  5
76A7
330
7679
100
AcDbEntity
  8
MODEL
100
AcDbVertex
100
AcDb2dVertex
 10
657.44261972351
 20
1269.433124514078
 30
0.0
  0
VERTEX
  5
76A8
330
7679
100
AcDbEntity
  8
MODEL
100
AcDbVertex
100
AcDb2dVertex
 10
657.389664743526
 20
1269.228693661116
 30
0.0
  0
VERTEX
  5
76A9
330
7679
100
AcDbEntity
  8
MODEL
100
AcDbVertex
100
AcDb2dVertex
 10
657.3440988305158
 20
1269.019336763502
 30
0.0
  0
VERTEX
  5
76AA
330
7679
100
AcDbEntity
  8
MODEL
100
AcDbVertex
100
AcDb2dVertex
 10
657.3059219844806
 20
1268.805053821239
 30
0.0
  0
VERTEX
  5
76AB
330
7679
100
AcDbEntity
  8
MODEL
100
AcDbVertex
100
AcDb2dVertex
 10
657.2812917612316
 20
1268.585844834326
 30
0.0
  0
VERTEX
  5
76AC
330
7679
100
AcDbEntity
  8
MODEL
100
AcDbVertex
100
AcDb2dVertex
 10
657.2739026942579
 20
1268.511954164582
 30
0.0
  0
SEQEND
  5
76AD
330
7679
100
AcDbEntity
  8
MODEL
  0
POLYLINE
  5
76AE
330
A
100
AcDbEntity
  8
MODEL
100
AcDb2dPolyline
 66
     1
 10
0.0
 20
0.0
 30
0.0
  0
VERTEX
  5
76AF
330
76AE
100
AcDbEntity
  8
MODEL
100
AcDbVertex
100
AcDb2dVertex
 10
662.17901165422
 20
1273.082092088361
 30
0.0
  0
VERTEX
  5
76B0
330
76AE
100
AcDbEntity
  8
MODEL
100
AcDbVertex
100
AcDb2dVertex
 10
662.1211306295852
 20
1273.079629066038
 30
0.0
  0
SEQEND
  5
76B1
330
76AE
100
AcDbEntity
  8
MODEL
  0
POLYLINE
  5
76B2
330
A
100
AcDbEntity
  8
MODEL
100
AcDb2dPolyline
 66
     1
 10
0.0
 20
0.0
 30
0.0
  0
VERTEX
  5
76B3
330
76B2
100
AcDbEntity
  8
MODEL
100
AcDbVertex
100
AcDb2dVertex
 10
662.2295036118787
 20
1273.083323599525
 30
0.0
  0
VERTEX
  5
76B4
330
76B2
100
AcDbEntity
  8
MODEL
100
AcDbVertex
100
AcDb2dVertex
 10
662.17901165422
 20
1273.083323599525
 30
0.0
  0
SEQEND
  5
76B5
330
76B2
100
AcDbEntity
  8
MODEL
  0
POLYLINE
  5
76B6
330
A
100
AcDbEntity
  8
MODEL
100
AcDb2dPolyline
 66
     1
 10
0.0
 20
0.0
 30
0.0
  0
VERTEX
  5
76B7
330
76B6
100
AcDbEntity
  8
MODEL
100
AcDbVertex
100
AcDb2dVertex
 10
662.276301036052
 20
1273.084555110687
 30
0.0
  0
VERTEX
  5
76B8
330
76B6
100
AcDbEntity
  8
MODEL
100
AcDbVertex
100
AcDb2dVertex
 10
662.228272100717
 20
1273.084555110687
 30
0.0
  0
SEQEND
  5
76B9
330
76B6
100
AcDbEntity
  8
MODEL
  0
POLYLINE
  5
76BA
330
A
100
AcDbEntity
  8
MODEL
100
AcDb2dPolyline
 66
     1
 10
0.0
 20
0.0
 30
0.0
  0
VERTEX
  5
76BB
330
76BA
100
AcDbEntity
  8
MODEL
100
AcDbVertex
100
AcDb2dVertex
 10
662.3440341499852
 20
1273.084555110687
 30
0.0
  0
VERTEX
  5
76BC
330
76BA
100
AcDbEntity
  8
MODEL
100
AcDbVertex
100
AcDb2dVertex
 10
662.276301036052
 20
1273.084555110687
 30
0.0
  0
SEQEND
  5
76BD
330
76BA
100
AcDbEntity
  8
MODEL
  0
POLYLINE
  5
76BE
330
A
100
AcDbEntity
  8
MODEL
100
AcDb2dPolyline
 66
     1
 10
0.0
 20
0.0
 30
0.0
  0
VERTEX
  5
76BF
330
76BE
100
AcDbEntity
  8
MODEL
100
AcDbVertex
100
AcDb2dVertex
 10
662.4376289983304
 20
1273.085786621848
 30
0.0
  0
VERTEX
  5
76C0
330
76BE
100
AcDbEntity
  8
MODEL
100
AcDbVertex
100
AcDb2dVertex
 10
662.3440341499852
 20
1273.085786621848
 30
0.0
  0
SEQEND
  5
76C1
330
76BE
100
AcDbEntity
  8
MODEL
  0
POLYLINE
  5
76C2
330
A
100
AcDbEntity
  8
MODEL
100
AcDb2dPolyline
 66
     1
 10
0.0
 20
0.0
 30
0.0
  0
VERTEX
  5
76C3
330
76C2
100
AcDbEntity
  8
MODEL
100
AcDbVertex
100
AcDb2dVertex
 10
991.5577556468122
 20
1273.082092088361
 30
0.0
  0
VERTEX
  5
76C4
330
76C2
100
AcDbEntity
  8
MODEL
100
AcDbVertex
100
AcDb2dVertex
 10
991.4887910217169
 20
1273.082092088361
 30
0.0
  0
VERTEX
  5
76C5
330
76C2
100
AcDbEntity
  8
MODEL
100
AcDbVertex
100
AcDb2dVertex
 10
991.4149003519713
 20
1273.082092088361
 30
0.0
  0
VERTEX
  5
76C6
330
76C2
100
AcDbEntity
  8
MODEL
100
AcDbVertex
100
AcDb2dVertex
 10
991.3385466599004
 20
1273.082092088361
 30
0.0
  0
SEQEND
  5
76C7
330
76C2
100
AcDbEntity
  8
MODEL
  0
POLYLINE
  5
76C8
330
A
100
AcDbEntity
  8
MODEL
100
AcDb2dPolyline
 66
     1
 10
0.0
 20
0.0
 30
0.0
  0
VERTEX
  5
76C9
330
76C8
100
AcDbEntity
  8
MODEL
100
AcDbVertex
100
AcDb2dVertex
 10
991.8902636606692
 20
1273.083323599525
 30
0.0
  0
VERTEX
  5
76CA
330
76C8
100
AcDbEntity
  8
MODEL
100
AcDbVertex
100
AcDb2dVertex
 10
991.8286881025472
 20
1273.083323599525
 30
0.0
  0
VERTEX
  5
76CB
330
76C8
100
AcDbEntity
  8
MODEL
100
AcDbVertex
100
AcDb2dVertex
 10
991.7621864997757
 20
1273.083323599525
 30
0.0
  0
VERTEX
  5
76CC
330
76C8
100
AcDbEntity
  8
MODEL
100
AcDbVertex
100
AcDb2dVertex
 10
991.5577556468122
 20
1273.083323599525
 30
0.0
  0
SEQEND
  5
76CD
330
76C8
100
AcDbEntity
  8
MODEL
  0
POLYLINE
  5
76CE
330
A
100
AcDbEntity
  8
MODEL
100
AcDb2dPolyline
 66
     1
 10
0.0
 20
0.0
 30
0.0
  0
VERTEX
  5
76CF
330
76CE
100
AcDbEntity
  8
MODEL
100
AcDbVertex
100
AcDb2dVertex
 10
991.3385466599004
 20
1273.080860577198
 30
0.0
  0
VERTEX
  5
76D0
330
76CE
100
AcDbEntity
  8
MODEL
100
AcDbVertex
100
AcDb2dVertex
 10
991.1833762534336
 20
1273.080860577198
 30
0.0
  0
VERTEX
  5
76D1
330
76CE
100
AcDbEntity
  8
MODEL
100
AcDbVertex
100
AcDb2dVertex
 10
991.0996334943882
 20
1273.080860577198
 30
0.0
  0
VERTEX
  5
76D2
330
76CE
100
AcDbEntity
  8
MODEL
100
AcDbVertex
100
AcDb2dVertex
 10
991.0158907353436
 20
1273.080860577198
 30
0.0
  0
SEQEND
  5
76D3
330
76CE
100
AcDbEntity
  8
MODEL
  0
POLYLINE
  5
76D4
330
A
100
AcDbEntity
  8
MODEL
100
AcDb2dPolyline
 66
     1
 10
0.0
 20
0.0
 30
0.0
  0
VERTEX
  5
76D5
330
76D4
100
AcDbEntity
  8
MODEL
100
AcDbVertex
100
AcDb2dVertex
 10
992.1242507815307
 20
1273.084555110687
 30
0.0
  0
VERTEX
  5
76D6
330
76D4
100
AcDbEntity
  8
MODEL
100
AcDbVertex
100
AcDb2dVertex
 10
992.0725273127089
 20
1273.084555110687
 30
0.0
  0
VERTEX
  5
76D7
330
76D4
100
AcDbEntity
  8
MODEL
100
AcDbVertex
100
AcDb2dVertex
 10
992.0109517545877
 20
1273.084555110687
 30
0.0
  0
VERTEX
  5
76D8
330
76D4
100
AcDbEntity
  8
MODEL
100
AcDbVertex
100
AcDb2dVertex
 10
991.8902636606692
 20
1273.084555110687
 30
0.0
  0
SEQEND
  5
76D9
330
76D4
100
AcDbEntity
  8
MODEL
  0
POLYLINE
  5
76DA
330
A
100
AcDbEntity
  8
MODEL
100
AcDb2dPolyline
 66
     1
 10
0.0
 20
0.0
 30
0.0
  0
VERTEX
  5
76DB
330
76DA
100
AcDbEntity
  8
MODEL
100
AcDbVertex
100
AcDb2dVertex
 10
991.0183537576684
 20
1273.079629066038
 30
0.0
  0
VERTEX
  5
76DC
330
76DA
100
AcDbEntity
  8
MODEL
100
AcDbVertex
100
AcDb2dVertex
 10
990.8434791726029
 20
1273.079629066038
 30
0.0
  0
VERTEX
  5
76DD
330
76DA
100
AcDbEntity
  8
MODEL
100
AcDbVertex
100
AcDb2dVertex
 10
990.7523473465833
 20
1273.079629066038
 30
0.0
  0
VERTEX
  5
76DE
330
76DA
100
AcDbEntity
  8
MODEL
100
AcDbVertex
100
AcDb2dVertex
 10
990.6562894759134
 20
1273.079629066038
 30
0.0
  0
SEQEND
  5
76DF
330
76DA
100
AcDbEntity
  8
MODEL
  0
POLYLINE
  5
76E0
330
A
100
AcDbEntity
  8
MODEL
100
AcDb2dPolyline
 66
     1
 10
0.0
 20
0.0
 30
0.0
  0
VERTEX
  5
76E1
330
76E0
100
AcDbEntity
  8
MODEL
100
AcDbVertex
100
AcDb2dVertex
 10
992.2350867861494
 20
1273.084555110687
 30
0.0
  0
VERTEX
  5
76E2
330
76E0
100
AcDbEntity
  8
MODEL
100
AcDbVertex
100
AcDb2dVertex
 10
992.1242507815307
 20
1273.084555110687
 30
0.0
  0
SEQEND
  5
76E3
330
76E0
100
AcDbEntity
  8
MODEL
  0
POLYLINE
  5
76E4
330
A
100
AcDbEntity
  8
MODEL
100
AcDb2dPolyline
 66
     1
 10
0.0
 20
0.0
 30
0.0
  0
VERTEX
  5
76E5
330
76E4
100
AcDbEntity
  8
MODEL
100
AcDbVertex
100
AcDb2dVertex
 10
992.338533723794
 20
1273.084555110687
 30
0.0
  0
VERTEX
  5
76E6
330
76E4
100
AcDbEntity
  8
MODEL
100
AcDbVertex
100
AcDb2dVertex
 10
992.2350867861494
 20
1273.084555110687
 30
0.0
  0
SEQEND
  5
76E7
330
76E4
100
AcDbEntity
  8
MODEL
  0
POLYLINE
  5
76E8
330
A
100
AcDbEntity
  8
MODEL
100
AcDb2dPolyline
 66
     1
 10
0.0
 20
0.0
 30
0.0
  0
VERTEX
  5
76E9
330
76E8
100
AcDbEntity
  8
MODEL
100
AcDbVertex
100
AcDb2dVertex
 10
990.6587524982381
 20
1273.078397554875
 30
0.0
  0
VERTEX
  5
76EA
330
76E8
100
AcDbEntity
  8
MODEL
100
AcDbVertex
100
AcDb2dVertex
 10
990.4617107122492
 20
1273.078397554875
 30
0.0
  0
SEQEND
  5
76EB
330
76E8
100
AcDbEntity
  8
MODEL
  0
POLYLINE
  5
76EC
330
A
100
AcDbEntity
  8
MODEL
100
AcDb2dPolyline
 66
     1
 10
0.0
 20
0.0
 30
0.0
  0
VERTEX
  5
76ED
330
76EC
100
AcDbEntity
  8
MODEL
100
AcDbVertex
100
AcDb2dVertex
 10
990.4617107122492
 20
1273.077166043711
 30
0.0
  0
VERTEX
  5
76EE
330
76EC
100
AcDbEntity
  8
MODEL
100
AcDbVertex
100
AcDb2dVertex
 10
990.254816836961
 20
1273.077166043711
 30
0.0
  0
VERTEX
  5
76EF
330
76EC
100
AcDbEntity
  8
MODEL
100
AcDbVertex
100
AcDb2dVertex
 10
990.1464438546675
 20
1273.077166043711
 30
0.0
  0
SEQEND
  5
76F0
330
76EC
100
AcDbEntity
  8
MODEL
  0
POLYLINE
  5
76F1
330
A
100
AcDbEntity
  8
MODEL
100
AcDb2dPolyline
 66
     1
 10
0.0
 20
0.0
 30
0.0
  0
VERTEX
  5
76F2
330
76F1
100
AcDbEntity
  8
MODEL
100
AcDbVertex
100
AcDb2dVertex
 10
992.434591594463
 20
1273.084555110687
 30
0.0
  0
VERTEX
  5
76F3
330
76F1
100
AcDbEntity
  8
MODEL
100
AcDbVertex
100
AcDb2dVertex
 10
992.338533723794
 20
1273.084555110687
 30
0.0
  0
SEQEND
  5
76F4
330
76F1
100
AcDbEntity
  8
MODEL
  0
POLYLINE
  5
76F5
330
A
100
AcDbEntity
  8
MODEL
100
AcDb2dPolyline
 66
     1
 10
0.0
 20
0.0
 30
0.0
  0
VERTEX
  5
76F6
330
76F5
100
AcDbEntity
  8
MODEL
100
AcDbVertex
100
AcDb2dVertex
 10
990.1464438546675
 20
1273.075934532549
 30
0.0
  0
VERTEX
  5
76F7
330
76F5
100
AcDbEntity
  8
MODEL
100
AcDbVertex
100
AcDb2dVertex
 10
989.9198458007797
 20
1273.075934532549
 30
0.0
  0
SEQEND
  5
76F8
330
76F5
100
AcDbEntity
  8
MODEL
  0
POLYLINE
  5
76F9
330
A
100
AcDbEntity
  8
MODEL
100
AcDb2dPolyline
 66
     1
 10
0.0
 20
0.0
 30
0.0
  0
VERTEX
  5
76FA
330
76F9
100
AcDbEntity
  8
MODEL
100
AcDbVertex
100
AcDb2dVertex
 10
989.9198458007797
 20
1273.075934532549
 30
0.0
  0
VERTEX
  5
76FB
330
76F9
100
AcDbEntity
  8
MODEL
100
AcDbVertex
100
AcDb2dVertex
 10
989.6784696129437
 20
1273.075934532549
 30
0.0
  0
SEQEND
  5
76FC
330
76F9
100
AcDbEntity
  8
MODEL
  0
POLYLINE
  5
76FD
330
A
100
AcDbEntity
  8
MODEL
100
AcDb2dPolyline
 66
     1
 10
0.0
 20
0.0
 30
0.0
  0
VERTEX
  5
76FE
330
76FD
100
AcDbEntity
  8
MODEL
100
AcDbVertex
100
AcDb2dVertex
 10
989.6809326352684
 20
1273.074703021388
 30
0.0
  0
VERTEX
  5
76FF
330
76FD
100
AcDbEntity
  8
MODEL
100
AcDbVertex
100
AcDb2dVertex
 10
989.4223152911579
 20
1273.074703021388
 30
0.0
  0
SEQEND
  5
7700
330
76FD
100
AcDbEntity
  8
MODEL
  0
POLYLINE
  5
7701
330
A
100
AcDbEntity
  8
MODEL
100
AcDb2dPolyline
 66
     1
 10
0.0
 20
0.0
 30
0.0
  0
VERTEX
  5
7702
330
7701
100
AcDbEntity
  8
MODEL
100
AcDbVertex
100
AcDb2dVertex
 10
989.4223152911579
 20
1273.074703021388
 30
0.0
  0
VERTEX
  5
7703
330
7701
100
AcDbEntity
  8
MODEL
100
AcDbVertex
100
AcDb2dVertex
 10
989.1538458577472
 20
1273.074703021388
 30
0.0
  0
SEQEND
  5
7704
330
7701
100
AcDbEntity
  8
MODEL
  0
POLYLINE
  5
7705
330
A
100
AcDbEntity
  8
MODEL
100
AcDb2dPolyline
 66
     1
 10
0.0
 20
0.0
 30
0.0
  0
VERTEX
  5
7706
330
7705
100
AcDbEntity
  8
MODEL
100
AcDbVertex
100
AcDb2dVertex
 10
963.4866902103643
 20
1273.079629066038
 30
0.0
  0
VERTEX
  5
7707
330
7705
100
AcDbEntity
  8
MODEL
100
AcDbVertex
100
AcDb2dVertex
 10
938.3269171619011
 20
1273.014358974427
 30
0.0
  0
VERTEX
  5
7708
330
7705
100
AcDbEntity
  8
MODEL
100
AcDbVertex
100
AcDb2dVertex
 10
914.0759993513136
 20
1272.954014927469
 30
0.0
  0
SEQEND
  5
7709
330
7705
100
AcDbEntity
  8
MODEL
  0
POLYLINE
  5
770A
330
A
100
AcDbEntity
  8
MODEL
100
AcDb2dPolyline
 66
     1
 10
0.0
 20
0.0
 30
0.0
  0
VERTEX
  5
770B
330
770A
100
AcDbEntity
  8
MODEL
100
AcDbVertex
100
AcDb2dVertex
 10
989.1513828354234
 20
1273.073471510224
 30
0.0
  0
VERTEX
  5
770C
330
770A
100
AcDbEntity
  8
MODEL
100
AcDbVertex
100
AcDb2dVertex
 10
988.7080388169477
 20
1273.073471510224
 30
0.0
  0
SEQEND
  5
770D
330
770A
100
AcDbEntity
  8
MODEL
  0
POLYLINE
  5
770E
330
A
100
AcDbEntity
  8
MODEL
100
AcDb2dPolyline
 66
     1
 10
0.0
 20
0.0
 30
0.0
  0
VERTEX
  5
770F
330
770E
100
AcDbEntity
  8
MODEL
100
AcDbVertex
100
AcDb2dVertex
 10
964.5679570109785
 20
1273.082092088361
 30
0.0
  0
VERTEX
  5
7710
330
770E
100
AcDbEntity
  8
MODEL
100
AcDbVertex
100
AcDb2dVertex
 10
963.4866902103643
 20
1273.079629066038
 30
0.0
  0
SEQEND
  5
7711
330
770E
100
AcDbEntity
  8
MODEL
  0
POLYLINE
  5
7712
330
A
100
AcDbEntity
  8
MODEL
100
AcDb2dPolyline
 66
     1
 10
0.0
 20
0.0
 30
0.0
  0
VERTEX
  5
7713
330
7712
100
AcDbEntity
  8
MODEL
100
AcDbVertex
100
AcDb2dVertex
 10
988.7080388169477
 20
1273.072239999063
 30
0.0
  0
VERTEX
  5
7714
330
7712
100
AcDbEntity
  8
MODEL
100
AcDbVertex
100
AcDb2dVertex
 10
988.3927719593655
 20
1273.072239999063
 30
0.0
  0
SEQEND
  5
7715
330
7712
100
AcDbEntity
  8
MODEL
  0
POLYLINE
  5
7716
330
A
100
AcDbEntity
  8
MODEL
100
AcDb2dPolyline
 66
     1
 10
0.0
 20
0.0
 30
0.0
  0
VERTEX
  5
7717
330
7716
100
AcDbEntity
  8
MODEL
100
AcDbVertex
100
AcDb2dVertex
 10
914.0932405075871
 20
1272.954014927469
 30
0.0
  0
VERTEX
  5
7718
330
7716
100
AcDbEntity
  8
MODEL
100
AcDbVertex
100
AcDb2dVertex
 10
890.8891071850655
 20
1272.905985992134
 30
0.0
  0
VERTEX
  5
7719
330
7716
100
AcDbEntity
  8
MODEL
100
AcDbVertex
100
AcDb2dVertex
 10
868.7588515961827
 20
1272.872735190749
 30
0.0
  0
SEQEND
  5
771A
330
7716
100
AcDbEntity
  8
MODEL
  0
POLYLINE
  5
771B
330
A
100
AcDbEntity
  8
MODEL
100
AcDb2dPolyline
 66
     1
 10
0.0
 20
0.0
 30
0.0
  0
VERTEX
  5
771C
330
771B
100
AcDbEntity
  8
MODEL
100
AcDbVertex
100
AcDb2dVertex
 10
988.3927719593655
 20
1273.072239999063
 30
0.0
  0
VERTEX
  5
771D
330
771B
100
AcDbEntity
  8
MODEL
100
AcDbVertex
100
AcDb2dVertex
 10
987.8927784274181
 20
1273.072239999063
 30
0.0
  0
SEQEND
  5
771E
330
771B
100
AcDbEntity
  8
MODEL
  0
POLYLINE
  5
771F
330
A
100
AcDbEntity
  8
MODEL
100
AcDb2dPolyline
 66
     1
 10
0.0
 20
0.0
 30
0.0
  0
VERTEX
  5
7720
330
771F
100
AcDbEntity
  8
MODEL
100
AcDbVertex
100
AcDb2dVertex
 10
987.8903154050934
 20
1273.071008487899
 30
0.0
  0
VERTEX
  5
7721
330
771F
100
AcDbEntity
  8
MODEL
100
AcDbVertex
100
AcDb2dVertex
 10
987.3533765382733
 20
1273.071008487899
 30
0.0
  0
SEQEND
  5
7722
330
771F
100
AcDbEntity
  8
MODEL
  0
POLYLINE
  5
7723
330
A
100
AcDbEntity
  8
MODEL
100
AcDb2dPolyline
 66
     1
 10
0.0
 20
0.0
 30
0.0
  0
VERTEX
  5
7724
330
7723
100
AcDbEntity
  8
MODEL
100
AcDbVertex
100
AcDb2dVertex
 10
965.7551337715615
 20
1273.084555110687
 30
0.0
  0
VERTEX
  5
7725
330
7723
100
AcDbEntity
  8
MODEL
100
AcDbVertex
100
AcDb2dVertex
 10
964.5679570109785
 20
1273.082092088361
 30
0.0
  0
SEQEND
  5
7726
330
7723
100
AcDbEntity
  8
MODEL
  0
POLYLINE
  5
7727
330
A
100
AcDbEntity
  8
MODEL
100
AcDb2dPolyline
 66
     1
 10
0.0
 20
0.0
 30
0.0
  0
VERTEX
  5
7728
330
7727
100
AcDbEntity
  8
MODEL
100
AcDbVertex
100
AcDb2dVertex
 10
681.7501870475701
 20
1273.082092088361
 30
0.0
  0
VERTEX
  5
7729
330
7727
100
AcDbEntity
  8
MODEL
100
AcDbVertex
100
AcDb2dVertex
 10
678.2822516141648
 20
1273.077166043711
 30
0.0
  0
SEQEND
  5
772A
330
7727
100
AcDbEntity
  8
MODEL
  0
POLYLINE
  5
772B
330
A
100
AcDbEntity
  8
MODEL
100
AcDb2dPolyline
 66
     1
 10
0.0
 20
0.0
 30
0.0
  0
VERTEX
  5
772C
330
772B
100
AcDbEntity
  8
MODEL
100
AcDbVertex
100
AcDb2dVertex
 10
678.2822516141648
 20
1273.075934532549
 30
0.0
  0
VERTEX
  5
772D
330
772B
100
AcDbEntity
  8
MODEL
100
AcDbVertex
100
AcDb2dVertex
 10
674.9990428551248
 20
1273.071008487899
 30
0.0
  0
SEQEND
  5
772E
330
772B
100
AcDbEntity
  8
MODEL
  0
POLYLINE
  5
772F
330
A
100
AcDbEntity
  8
MODEL
100
AcDb2dPolyline
 66
     1
 10
0.0
 20
0.0
 30
0.0
  0
VERTEX
  5
7730
330
772F
100
AcDbEntity
  8
MODEL
100
AcDbVertex
100
AcDb2dVertex
 10
987.3533765382733
 20
1273.069776976737
 30
0.0
  0
VERTEX
  5
7731
330
772F
100
AcDbEntity
  8
MODEL
100
AcDbVertex
100
AcDb2dVertex
 10
986.7844183812306
 20
1273.069776976737
 30
0.0
  0
SEQEND
  5
7732
330
772F
100
AcDbEntity
  8
MODEL
  0
POLYLINE
  5
7733
330
A
100
AcDbEntity
  8
MODEL
100
AcDb2dPolyline
 66
     1
 10
0.0
 20
0.0
 30
0.0
  0
VERTEX
  5
7734
330
7733
100
AcDbEntity
  8
MODEL
100
AcDbVertex
100
AcDb2dVertex
 10
683.647945748877
 20
1273.084555110687
 30
0.0
  0
VERTEX
  5
7735
330
7733
100
AcDbEntity
  8
MODEL
100
AcDbVertex
100
AcDb2dVertex
 10
681.7514185587331
 20
1273.082092088361
 30
0.0
  0
SEQEND
  5
7736
330
7733
100
AcDbEntity
  8
MODEL
  0
POLYLINE
  5
7737
330
A
100
AcDbEntity
  8
MODEL
100
AcDb2dPolyline
 66
     1
 10
0.0
 20
0.0
 30
0.0
  0
VERTEX
  5
7738
330
7737
100
AcDbEntity
  8
MODEL
100
AcDbVertex
100
AcDb2dVertex
 10
662.6260502061816
 20
1273.085786621848
 30
0.0
  0
VERTEX
  5
7739
330
7737
100
AcDbEntity
  8
MODEL
100
AcDbVertex
100
AcDb2dVertex
 10
662.4363974871674
 20
1273.085786621848
 30
0.0
  0
SEQEND
  5
773A
330
7737
100
AcDbEntity
  8
MODEL
  0
POLYLINE
  5
773B
330
A
100
AcDbEntity
  8
MODEL
100
AcDb2dPolyline
 66
     1
 10
0.0
 20
0.0
 30
0.0
  0
VERTEX
  5
773C
330
773B
100
AcDbEntity
  8
MODEL
100
AcDbVertex
100
AcDb2dVertex
 10
868.7723982189693
 20
1272.872735190749
 30
0.0
  0
VERTEX
  5
773D
330
773B
100
AcDbEntity
  8
MODEL
100
AcDbVertex
100
AcDb2dVertex
 10
847.6876956069912
 20
1272.853031012149
 30
0.0
  0
VERTEX
  5
773E
330
773B
100
AcDbEntity
  8
MODEL
100
AcDbVertex
100
AcDb2dVertex
 10
827.8357356686058
 20
1272.846873456337
 30
0.0
  0
SEQEND
  5
773F
330
773B
100
AcDbEntity
  8
MODEL
  0
POLYLINE
  5
7740
330
A
100
AcDbEntity
  8
MODEL
100
AcDb2dPolyline
 66
     1
 10
0.0
 20
0.0
 30
0.0
  0
VERTEX
  5
7741
330
7740
100
AcDbEntity
  8
MODEL
100
AcDbVertex
100
AcDb2dVertex
 10
986.7844183812306
 20
1273.068545465576
 30
0.0
  0
VERTEX
  5
7742
330
7740
100
AcDbEntity
  8
MODEL
100
AcDbVertex
100
AcDb2dVertex
 10
986.1834409339647
 20
1273.068545465576
 30
0.0
  0
SEQEND
  5
7743
330
7740
100
AcDbEntity
  8
MODEL
  0
POLYLINE
  5
7744
330
A
100
AcDbEntity
  8
MODEL
100
AcDb2dPolyline
 66
     1
 10
0.0
 20
0.0
 30
0.0
  0
VERTEX
  5
7745
330
7744
100
AcDbEntity
  8
MODEL
100
AcDbVertex
100
AcDb2dVertex
 10
674.9990428551248
 20
1273.071008487899
 30
0.0
  0
VERTEX
  5
7746
330
7744
100
AcDbEntity
  8
MODEL
100
AcDbVertex
100
AcDb2dVertex
 10
673.001531749662
 20
1273.068545465576
 30
0.0
  0
SEQEND
  5
7747
330
7744
100
AcDbEntity
  8
MODEL
  0
POLYLINE
  5
7748
330
A
100
AcDbEntity
  8
MODEL
100
AcDb2dPolyline
 66
     1
 10
0.0
 20
0.0
 30
0.0
  0
VERTEX
  5
7749
330
7748
100
AcDbEntity
  8
MODEL
100
AcDbVertex
100
AcDb2dVertex
 10
967.4620082426907
 20
1273.085786621848
 30
0.0
  0
VERTEX
  5
774A
330
7748
100
AcDbEntity
  8
MODEL
100
AcDbVertex
100
AcDb2dVertex
 10
965.7551337715615
 20
1273.085786621848
 30
0.0
  0
SEQEND
  5
774B
330
7748
100
AcDbEntity
  8
MODEL
  0
POLYLINE
  5
774C
330
A
100
AcDbEntity
  8
MODEL
100
AcDb2dPolyline
 66
     1
 10
0.0
 20
0.0
 30
0.0
  0
VERTEX
  5
774D
330
774C
100
AcDbEntity
  8
MODEL
100
AcDbVertex
100
AcDb2dVertex
 10
685.655308943639
 20
1273.085786621848
 30
0.0
  0
VERTEX
  5
774E
330
774C
100
AcDbEntity
  8
MODEL
100
AcDbVertex
100
AcDb2dVertex
 10
683.647945748877
 20
1273.085786621848
 30
0.0
  0
SEQEND
  5
774F
330
774C
100
AcDbEntity
  8
MODEL
  0
POLYLINE
  5
7750
330
A
100
AcDbEntity
  8
MODEL
100
AcDb2dPolyline
 66
     1
 10
0.0
 20
0.0
 30
0.0
  0
VERTEX
  5
7751
330
7750
100
AcDbEntity
  8
MODEL
100
AcDbVertex
100
AcDb2dVertex
 10
986.1834409339647
 20
1273.068545465576
 30
0.0
  0
VERTEX
  5
7752
330
7750
100
AcDbEntity
  8
MODEL
100
AcDbVertex
100
AcDb2dVertex
 10
985.543055129501
 20
1273.068545465576
 30
0.0
  0
SEQEND
  5
7753
330
7750
100
AcDbEntity
  8
MODEL
  0
POLYLINE
  5
7754
330
A
100
AcDbEntity
  8
MODEL
100
AcDb2dPolyline
 66
     1
 10
0.0
 20
0.0
 30
0.0
  0
VERTEX
  5
7755
330
7754
100
AcDbEntity
  8
MODEL
100
AcDbVertex
100
AcDb2dVertex
 10
985.543055129501
 20
1273.068545465576
 30
0.0
  0
VERTEX
  5
7756
330
7754
100
AcDbEntity
  8
MODEL
100
AcDbVertex
100
AcDb2dVertex
 10
985.0972480887001
 20
1273.068545465576
 30
0.0
  0
SEQEND
  5
7757
330
7754
100
AcDbEntity
  8
MODEL
  0
POLYLINE
  5
7758
330
A
100
AcDbEntity
  8
MODEL
100
AcDb2dPolyline
 66
     1
 10
0.0
 20
0.0
 30
0.0
  0
VERTEX
  5
7759
330
7758
100
AcDbEntity
  8
MODEL
100
AcDbVertex
100
AcDb2dVertex
 10
673.001531749662
 20
1273.068545465576
 30
0.0
  0
VERTEX
  5
775A
330
7758
100
AcDbEntity
  8
MODEL
100
AcDbVertex
100
AcDb2dVertex
 10
671.5939144910033
 20
1273.068545465576
 30
0.0
  0
SEQEND
  5
775B
330
7758
100
AcDbEntity
  8
MODEL
  0
POLYLINE
  5
775C
330
A
100
AcDbEntity
  8
MODEL
100
AcDb2dPolyline
 66
     1
 10
0.0
 20
0.0
 30
0.0
  0
VERTEX
  5
775D
330
775C
100
AcDbEntity
  8
MODEL
100
AcDbVertex
100
AcDb2dVertex
 10
687.0543056241606
 20
1273.085786621848
 30
0.0
  0
VERTEX
  5
775E
330
775C
100
AcDbEntity
  8
MODEL
100
AcDbVertex
100
AcDb2dVertex
 10
685.6540774324765
 20
1273.085786621848
 30
0.0
  0
SEQEND
  5
775F
330
775C
100
AcDbEntity
  8
MODEL
  0
POLYLINE
  5
7760
330
A
100
AcDbEntity
  8
MODEL
100
AcDb2dPolyline
 66
     1
 10
0.0
 20
0.0
 30
0.0
  0
VERTEX
  5
7761
330
7760
100
AcDbEntity
  8
MODEL
100
AcDbVertex
100
AcDb2dVertex
 10
985.0997111110253
 20
1273.068545465576
 30
0.0
  0
VERTEX
  5
7762
330
7760
100
AcDbEntity
  8
MODEL
100
AcDbVertex
100
AcDb2dVertex
 10
984.4002127707647
 20
1273.068545465576
 30
0.0
  0
SEQEND
  5
7763
330
7760
100
AcDbEntity
  8
MODEL
  0
POLYLINE
  5
7764
330
A
100
AcDbEntity
  8
MODEL
100
AcDb2dPolyline
 66
     1
 10
0.0
 20
0.0
 30
0.0
  0
VERTEX
  5
7765
330
7764
100
AcDbEntity
  8
MODEL
100
AcDbVertex
100
AcDb2dVertex
 10
969.0826769324497
 20
1273.085786621848
 30
0.0
  0
VERTEX
  5
7766
330
7764
100
AcDbEntity
  8
MODEL
100
AcDbVertex
100
AcDb2dVertex
 10
967.4620082426907
 20
1273.085786621848
 30
0.0
  0
SEQEND
  5
7767
330
7764
100
AcDbEntity
  8
MODEL
  0
POLYLINE
  5
7768
330
A
100
AcDbEntity
  8
MODEL
100
AcDb2dPolyline
 66
     1
 10
0.0
 20
0.0
 30
0.0
  0
VERTEX
  5
7769
330
7768
100
AcDbEntity
  8
MODEL
100
AcDbVertex
100
AcDb2dVertex
 10
827.8357356686058
 20
1272.846873456337
 30
0.0
  0
VERTEX
  5
776A
330
7768
100
AcDbEntity
  8
MODEL
100
AcDbVertex
100
AcDb2dVertex
 10
807.9714606185955
 20
1272.851799500988
 30
0.0
  0
SEQEND
  5
776B
330
7768
100
AcDbEntity
  8
MODEL
  0
POLYLINE
  5
776C
330
A
100
AcDbEntity
  8
MODEL
100
AcDb2dPolyline
 66
     1
 10
0.0
 20
0.0
 30
0.0
  0
VERTEX
  5
776D
330
776C
100
AcDbEntity
  8
MODEL
100
AcDbVertex
100
AcDb2dVertex
 10
671.5951460021663
 20
1273.068545465576
 30
0.0
  0
VERTEX
  5
776E
330
776C
100
AcDbEntity
  8
MODEL
100
AcDbVertex
100
AcDb2dVertex
 10
670.314374393238
 20
1273.068545465576
 30
0.0
  0
SEQEND
  5
776F
330
776C
100
AcDbEntity
  8
MODEL
  0
POLYLINE
  5
7770
330
A
100
AcDbEntity
  8
MODEL
100
AcDb2dPolyline
 66
     1
 10
0.0
 20
0.0
 30
0.0
  0
VERTEX
  5
7771
330
7770
100
AcDbEntity
  8
MODEL
100
AcDbVertex
100
AcDb2dVertex
 10
984.39774974844
 20
1273.068545465576
 30
0.0
  0
VERTEX
  5
7772
330
7770
100
AcDbEntity
  8
MODEL
100
AcDbVertex
100
AcDb2dVertex
 10
983.9125343504422
 20
1273.068545465576
 30
0.0
  0
SEQEND
  5
7773
330
7770
100
AcDbEntity
  8
MODEL
  0
POLYLINE
  5
7774
330
A
100
AcDbEntity
  8
MODEL
100
AcDb2dPolyline
 66
     1
 10
0.0
 20
0.0
 30
0.0
  0
VERTEX
  5
7775
330
7774
100
AcDbEntity
  8
MODEL
100
AcDbVertex
100
AcDb2dVertex
 10
983.9125343504422
 20
1273.068545465576
 30
0.0
  0
VERTEX
  5
7776
330
7774
100
AcDbEntity
  8
MODEL
100
AcDbVertex
100
AcDb2dVertex
 10
983.4051517515206
 20
1273.068545465576
 30
0.0
  0
SEQEND
  5
7777
330
7774
100
AcDbEntity
  8
MODEL
  0
POLYLINE
  5
7778
330
A
100
AcDbEntity
  8
MODEL
100
AcDb2dPolyline
 66
     1
 10
0.0
 20
0.0
 30
0.0
  0
VERTEX
  5
7779
330
7778
100
AcDbEntity
  8
MODEL
100
AcDbVertex
100
AcDb2dVertex
 10
983.4026887291959
 20
1273.068545465576
 30
0.0
  0
VERTEX
  5
777A
330
7778
100
AcDbEntity
  8
MODEL
100
AcDbVertex
100
AcDb2dVertex
 10
982.8780649739999
 20
1273.068545465576
 30
0.0
  0
SEQEND
  5
777B
330
7778
100
AcDbEntity
  8
MODEL
  0
POLYLINE
  5
777C
330
A
100
AcDbEntity
  8
MODEL
100
AcDb2dPolyline
 66
     1
 10
0.0
 20
0.0
 30
0.0
  0
VERTEX
  5
777D
330
777C
100
AcDbEntity
  8
MODEL
100
AcDbVertex
100
AcDb2dVertex
 10
689.2427009597998
 20
1273.085786621848
 30
0.0
  0
VERTEX
  5
777E
330
777C
100
AcDbEntity
  8
MODEL
100
AcDbVertex
100
AcDb2dVertex
 10
687.0530741129976
 20
1273.085786621848
 30
0.0
  0
SEQEND
  5
777F
330
777C
100
AcDbEntity
  8
MODEL
  0
POLYLINE
  5
7780
330
A
100
AcDbEntity
  8
MODEL
100
AcDb2dPolyline
 66
     1
 10
0.0
 20
0.0
 30
0.0
  0
VERTEX
  5
7781
330
7780
100
AcDbEntity
  8
MODEL
100
AcDbVertex
100
AcDb2dVertex
 10
982.8805279963256
 20
1273.068545465576
 30
0.0
  0
VERTEX
  5
7782
330
7780
100
AcDbEntity
  8
MODEL
100
AcDbVertex
100
AcDb2dVertex
 10
982.3362000625309
 20
1273.068545465576
 30
0.0
  0
SEQEND
  5
7783
330
7780
100
AcDbEntity
  8
MODEL
  0
POLYLINE
  5
7784
330
A
100
AcDbEntity
  8
MODEL
100
AcDb2dPolyline
 66
     1
 10
0.0
 20
0.0
 30
0.0
  0
VERTEX
  5
7785
330
7784
100
AcDbEntity
  8
MODEL
100
AcDbVertex
100
AcDb2dVertex
 10
993.0577362426536
 20
1273.085786621848
 30
0.0
  0
VERTEX
  5
7786
330
7784
100
AcDbEntity
  8
MODEL
100
AcDbVertex
100
AcDb2dVertex
 10
992.434591594463
 20
1273.085786621848
 30
0.0
  0
SEQEND
  5
7787
330
7784
100
AcDbEntity
  8
MODEL
  0
POLYLINE
  5
7788
330
A
100
AcDbEntity
  8
MODEL
100
AcDb2dPolyline
 66
     1
 10
0.0
 20
0.0
 30
0.0
  0
VERTEX
  5
7789
330
7788
100
AcDbEntity
  8
MODEL
100
AcDbVertex
100
AcDb2dVertex
 10
807.9850072413822
 20
1272.853031012149
 30
0.0
  0
VERTEX
  5
778A
330
7788
100
AcDbEntity
  8
MODEL
100
AcDbVertex
100
AcDb2dVertex
 10
786.9003046294044
 20
1272.872735190749
 30
0.0
  0
SEQEND
  5
778B
330
7788
100
AcDbEntity
  8
MODEL
  0
POLYLINE
  5
778C
330
A
100
AcDbEntity
  8
MODEL
100
AcDb2dPolyline
 66
     1
 10
0.0
 20
0.0
 30
0.0
  0
VERTEX
  5
778D
330
778C
100
AcDbEntity
  8
MODEL
100
AcDbVertex
100
AcDb2dVertex
 10
670.314374393238
 20
1273.068545465576
 30
0.0
  0
VERTEX
  5
778E
330
778C
100
AcDbEntity
  8
MODEL
100
AcDbVertex
100
AcDb2dVertex
 10
668.9929629159494
 20
1273.068545465576
 30
0.0
  0
SEQEND
  5
778F
330
778C
100
AcDbEntity
  8
MODEL
  0
POLYLINE
  5
7790
330
A
100
AcDbEntity
  8
MODEL
100
AcDb2dPolyline
 66
     1
 10
0.0
 20
0.0
 30
0.0
  0
VERTEX
  5
7791
330
7790
100
AcDbEntity
  8
MODEL
100
AcDbVertex
100
AcDb2dVertex
 10
971.5974227261333
 20
1273.084555110687
 30
0.0
  0
VERTEX
  5
7792
330
7790
100
AcDbEntity
  8
MODEL
100
AcDbVertex
100
AcDb2dVertex
 10
969.0826769324497
 20
1273.084555110687
 30
0.0
  0
SEQEND
  5
7793
330
7790
100
AcDbEntity
  8
MODEL
  0
POLYLINE
  5
7794
330
A
100
AcDbEntity
  8
MODEL
100
AcDb2dPolyline
 66
     1
 10
0.0
 20
0.0
 30
0.0
  0
VERTEX
  5
7795
330
7794
100
AcDbEntity
  8
MODEL
100
AcDbVertex
100
AcDb2dVertex
 10
982.3386630848556
 20
1273.068545465576
 30
0.0
  0
VERTEX
  5
7796
330
7794
100
AcDbEntity
  8
MODEL
100
AcDbVertex
100
AcDb2dVertex
 10
981.7746309724619
 20
1273.068545465576
 30
0.0
  0
SEQEND
  5
7797
330
7794
100
AcDbEntity
  8
MODEL
  0
POLYLINE
  5
7798
330
A
100
AcDbEntity
  8
MODEL
100
AcDb2dPolyline
 66
     1
 10
0.0
 20
0.0
 30
0.0
  0
VERTEX
  5
7799
330
7798
100
AcDbEntity
  8
MODEL
100
AcDbVertex
100
AcDb2dVertex
 10
981.777093994787
 20
1273.069776976737
 30
0.0
  0
VERTEX
  5
779A
330
7798
100
AcDbEntity
  8
MODEL
100
AcDbVertex
100
AcDb2dVertex
 10
981.1933577037951
 20
1273.069776976737
 30
0.0
  0
SEQEND
  5
779B
330
7798
100
AcDbEntity
  8
MODEL
  0
POLYLINE
  5
779C
330
A
100
AcDbEntity
  8
MODEL
100
AcDb2dPolyline
 66
     1
 10
0.0
 20
0.0
 30
0.0
  0
VERTEX
  5
779D
330
779C
100
AcDbEntity
  8
MODEL
100
AcDbVertex
100
AcDb2dVertex
 10
981.1933577037951
 20
1273.069776976737
 30
0.0
  0
VERTEX
  5
779E
330
779C
100
AcDbEntity
  8
MODEL
100
AcDbVertex
100
AcDb2dVertex
 10
980.5923802565287
 20
1273.069776976737
 30
0.0
  0
VERTEX
  5
779F
330
779C
100
AcDbEntity
  8
MODEL
100
AcDbVertex
100
AcDb2dVertex
 10
980.2820394435955
 20
1273.069776976737
 30
0.0
  0
SEQEND
  5
77A0
330
779C
100
AcDbEntity
  8
MODEL
  0
POLYLINE
  5
77A1
330
A
100
AcDbEntity
  8
MODEL
100
AcDb2dPolyline
 66
     1
 10
0.0
 20
0.0
 30
0.0
  0
VERTEX
  5
77A2
330
77A1
100
AcDbEntity
  8
MODEL
100
AcDbVertex
100
AcDb2dVertex
 10
973.0038084736291
 20
1273.083323599525
 30
0.0
  0
VERTEX
  5
77A3
330
77A1
100
AcDbEntity
  8
MODEL
100
AcDbVertex
100
AcDb2dVertex
 10
971.5974227261333
 20
1273.083323599525
 30
0.0
  0
SEQEND
  5
77A4
330
77A1
100
AcDbEntity
  8
MODEL
  0
POLYLINE
  5
77A5
330
A
100
AcDbEntity
  8
MODEL
100
AcDb2dPolyline
 66
     1
 10
0.0
 20
0.0
 30
0.0
  0
VERTEX
  5
77A6
330
77A5
100
AcDbEntity
  8
MODEL
100
AcDbVertex
100
AcDb2dVertex
 10
786.9003046294044
 20
1272.872735190749
 30
0.0
  0
VERTEX
  5
77A7
330
77A5
100
AcDbEntity
  8
MODEL
100
AcDbVertex
100
AcDb2dVertex
 10
764.7712805516837
 20
1272.908449014459
 30
0.0
  0
SEQEND
  5
77A8
330
77A5
100
AcDbEntity
  8
MODEL
  0
POLYLINE
  5
77A9
330
A
100
AcDbEntity
  8
MODEL
100
AcDb2dPolyline
 66
     1
 10
0.0
 20
0.0
 30
0.0
  0
VERTEX
  5
77AA
330
77A9
100
AcDbEntity
  8
MODEL
100
AcDbVertex
100
AcDb2dVertex
 10
980.2795764212708
 20
1273.071008487899
 30
0.0
  0
VERTEX
  5
77AB
330
77A9
100
AcDbEntity
  8
MODEL
100
AcDbVertex
100
AcDb2dVertex
 10
979.6391906168071
 20
1273.071008487899
 30
0.0
  0
VERTEX
  5
77AC
330
77A9
100
AcDbEntity
  8
MODEL
100
AcDbVertex
100
AcDb2dVertex
 10
979.3116086476005
 20
1273.071008487899
 30
0.0
  0
VERTEX
  5
77AD
330
77A9
100
AcDbEntity
  8
MODEL
100
AcDbVertex
100
AcDb2dVertex
 10
978.9741745890944
 20
1273.073471510224
 30
0.0
  0
SEQEND
  5
77AE
330
77A9
100
AcDbEntity
  8
MODEL
  0
POLYLINE
  5
77AF
330
A
100
AcDbEntity
  8
MODEL
100
AcDb2dPolyline
 66
     1
 10
0.0
 20
0.0
 30
0.0
  0
VERTEX
  5
77B0
330
77AF
100
AcDbEntity
  8
MODEL
100
AcDbVertex
100
AcDb2dVertex
 10
974.7697954805556
 20
1273.080860577198
 30
0.0
  0
VERTEX
  5
77B1
330
77AF
100
AcDbEntity
  8
MODEL
100
AcDbVertex
100
AcDb2dVertex
 10
974.3363035513796
 20
1273.080860577198
 30
0.0
  0
VERTEX
  5
77B2
330
77AF
100
AcDbEntity
  8
MODEL
100
AcDbVertex
100
AcDb2dVertex
 10
973.9003485998794
 20
1273.080860577198
 30
0.0
  0
VERTEX
  5
77B3
330
77AF
100
AcDbEntity
  8
MODEL
100
AcDbVertex
100
AcDb2dVertex
 10
973.0038084736291
 20
1273.083323599525
 30
0.0
  0
SEQEND
  5
77B4
330
77AF
100
AcDbEntity
  8
MODEL
  0
POLYLINE
  5
77B5
330
A
100
AcDbEntity
  8
MODEL
100
AcDb2dPolyline
 66
     1
 10
0.0
 20
0.0
 30
0.0
  0
VERTEX
  5
77B6
330
77B5
100
AcDbEntity
  8
MODEL
100
AcDbVertex
100
AcDb2dVertex
 10
668.9929629159494
 20
1273.068545465576
 30
0.0
  0
VERTEX
  5
77B7
330
77B5
100
AcDbEntity
  8
MODEL
100
AcDbVertex
100
AcDb2dVertex
 10
667.8181012669909
 20
1273.071008487899
 30
0.0
  0
SEQEND
  5
77B8
330
77B5
100
AcDbEntity
  8
MODEL
  0
POLYLINE
  5
77B9
330
A
100
AcDbEntity
  8
MODEL
100
AcDb2dPolyline
 66
     1
 10
0.0
 20
0.0
 30
0.0
  0
VERTEX
  5
77BA
330
77B9
100
AcDbEntity
  8
MODEL
100
AcDbVertex
100
AcDb2dVertex
 10
690.7586912007521
 20
1273.083323599525
 30
0.0
  0
VERTEX
  5
77BB
330
77B9
100
AcDbEntity
  8
MODEL
100
AcDbVertex
100
AcDb2dVertex
 10
689.2427009597998
 20
1273.085786621848
 30
0.0
  0
SEQEND
  5
77BC
330
77B9
100
AcDbEntity
  8
MODEL
  0
POLYLINE
  5
77BD
330
A
100
AcDbEntity
  8
MODEL
100
AcDb2dPolyline
 66
     1
 10
0.0
 20
0.0
 30
0.0
  0
VERTEX
  5
77BE
330
77BD
100
AcDbEntity
  8
MODEL
100
AcDbVertex
100
AcDb2dVertex
 10
978.9766376114192
 20
1273.073471510224
 30
0.0
  0
VERTEX
  5
77BF
330
77BD
100
AcDbEntity
  8
MODEL
100
AcDbVertex
100
AcDb2dVertex
 10
978.282065315808
 20
1273.073471510224
 30
0.0
  0
VERTEX
  5
77C0
330
77BD
100
AcDbEntity
  8
MODEL
100
AcDbVertex
100
AcDb2dVertex
 10
977.9249270787034
 20
1273.073471510224
 30
0.0
  0
VERTEX
  5
77C1
330
77BD
100
AcDbEntity
  8
MODEL
100
AcDbVertex
100
AcDb2dVertex
 10
977.5579367522989
 20
1273.075934532549
 30
0.0
  0
VERTEX
  5
77C2
330
77BD
100
AcDbEntity
  8
MODEL
100
AcDbVertex
100
AcDb2dVertex
 10
977.1786313142704
 20
1273.075934532549
 30
0.0
  0
SEQEND
  5
77C3
330
77BD
100
AcDbEntity
  8
MODEL
  0
POLYLINE
  5
77C4
330
A
100
AcDbEntity
  8
MODEL
100
AcDb2dPolyline
 66
     1
 10
0.0
 20
0.0
 30
0.0
  0
VERTEX
  5
77C5
330
77C4
100
AcDbEntity
  8
MODEL
100
AcDbVertex
100
AcDb2dVertex
 10
977.1786313142704
 20
1273.075934532549
 30
0.0
  0
VERTEX
  5
77C6
330
77C4
100
AcDbEntity
  8
MODEL
100
AcDbVertex
100
AcDb2dVertex
 10
976.407705326588
 20
1273.075934532549
 30
0.0
  0
VERTEX
  5
77C7
330
77C4
100
AcDbEntity
  8
MODEL
100
AcDbVertex
100
AcDb2dVertex
 10
976.0086957099604
 20
1273.078397554875
 30
0.0
  0
VERTEX
  5
77C8
330
77C4
100
AcDbEntity
  8
MODEL
100
AcDbVertex
100
AcDb2dVertex
 10
975.6022970263591
 20
1273.078397554875
 30
0.0
  0
VERTEX
  5
77C9
330
77C4
100
AcDbEntity
  8
MODEL
100
AcDbVertex
100
AcDb2dVertex
 10
974.7697954805556
 20
1273.080860577198
 30
0.0
  0
SEQEND
  5
77CA
330
77C4
100
AcDbEntity
  8
MODEL
  0
POLYLINE
  5
77CB
330
A
100
AcDbEntity
  8
MODEL
100
AcDb2dPolyline
 66
     1
 10
0.0
 20
0.0
 30
0.0
  0
VERTEX
  5
77CC
330
77CB
100
AcDbEntity
  8
MODEL
100
AcDbVertex
100
AcDb2dVertex
 10
764.7835956633082
 20
1272.907217503296
 30
0.0
  0
VERTEX
  5
77CD
330
77CB
100
AcDbEntity
  8
MODEL
100
AcDbVertex
100
AcDb2dVertex
 10
741.5794623407862
 20
1272.955246438632
 30
0.0
  0
SEQEND
  5
77CE
330
77CB
100
AcDbEntity
  8
MODEL
  0
POLYLINE
  5
77CF
330
A
100
AcDbEntity
  8
MODEL
100
AcDb2dPolyline
 66
     1
 10
0.0
 20
0.0
 30
0.0
  0
VERTEX
  5
77D0
330
77CF
100
AcDbEntity
  8
MODEL
100
AcDbVertex
100
AcDb2dVertex
 10
741.5806938519484
 20
1272.954014927469
 30
0.0
  0
VERTEX
  5
77D1
330
77CF
100
AcDbEntity
  8
MODEL
100
AcDbVertex
100
AcDb2dVertex
 10
717.3322390636852
 20
1273.011895952104
 30
0.0
  0
SEQEND
  5
77D2
330
77CF
100
AcDbEntity
  8
MODEL
  0
POLYLINE
  5
77D3
330
A
100
AcDbEntity
  8
MODEL
100
AcDb2dPolyline
 66
     1
 10
0.0
 20
0.0
 30
0.0
  0
VERTEX
  5
77D4
330
77D3
100
AcDbEntity
  8
MODEL
100
AcDbVertex
100
AcDb2dVertex
 10
667.8181012669909
 20
1273.071008487899
 30
0.0
  0
VERTEX
  5
77D5
330
77D3
100
AcDbEntity
  8
MODEL
100
AcDbVertex
100
AcDb2dVertex
 10
666.6604807743054
 20
1273.073471510224
 30
0.0
  0
SEQEND
  5
77D6
330
77D3
100
AcDbEntity
  8
MODEL
  0
POLYLINE
  5
77D7
330
A
100
AcDbEntity
  8
MODEL
100
AcDb2dPolyline
 66
     1
 10
0.0
 20
0.0
 30
0.0
  0
VERTEX
  5
77D8
330
77D7
100
AcDbEntity
  8
MODEL
100
AcDbVertex
100
AcDb2dVertex
 10
717.3457856864723
 20
1273.013127463266
 30
0.0
  0
VERTEX
  5
77D9
330
77D7
100
AcDbEntity
  8
MODEL
100
AcDbVertex
100
AcDb2dVertex
 10
692.1847811268474
 20
1273.078397554875
 30
0.0
  0
SEQEND
  5
77DA
330
77D7
100
AcDbEntity
  8
MODEL
  0
POLYLINE
  5
77DB
330
A
100
AcDbEntity
  8
MODEL
100
AcDb2dPolyline
 66
     1
 10
0.0
 20
0.0
 30
0.0
  0
VERTEX
  5
77DC
330
77DB
100
AcDbEntity
  8
MODEL
100
AcDbVertex
100
AcDb2dVertex
 10
692.1860126380095
 20
1273.079629066038
 30
0.0
  0
VERTEX
  5
77DD
330
77DB
100
AcDbEntity
  8
MODEL
100
AcDbVertex
100
AcDb2dVertex
 10
690.7586912007521
 20
1273.082092088361
 30
0.0
  0
SEQEND
  5
77DE
330
77DB
100
AcDbEntity
  8
MODEL
  0
POLYLINE
  5
77DF
330
A
100
AcDbEntity
  8
MODEL
100
AcDb2dPolyline
 66
     1
 10
0.0
 20
0.0
 30
0.0
  0
VERTEX
  5
77E0
330
77DF
100
AcDbEntity
  8
MODEL
100
AcDbVertex
100
AcDb2dVertex
 10
666.6592492631432
 20
1273.073471510224
 30
0.0
  0
VERTEX
  5
77E1
330
77DF
100
AcDbEntity
  8
MODEL
100
AcDbVertex
100
AcDb2dVertex
 10
665.6604937104114
 20
1273.075934532549
 30
0.0
  0
SEQEND
  5
77E2
330
77DF
100
AcDbEntity
  8
MODEL
  0
POLYLINE
  5
77E3
330
A
100
AcDbEntity
  8
MODEL
100
AcDb2dPolyline
 66
     1
 10
0.0
 20
0.0
 30
0.0
  0
VERTEX
  5
77E4
330
77E3
100
AcDbEntity
  8
MODEL
100
AcDbVertex
100
AcDb2dVertex
 10
663.2615099659963
 20
1273.084555110687
 30
0.0
  0
VERTEX
  5
77E5
330
77E3
100
AcDbEntity
  8
MODEL
100
AcDbVertex
100
AcDb2dVertex
 10
662.6260502061816
 20
1273.084555110687
 30
0.0
  0
SEQEND
  5
77E6
330
77E3
100
AcDbEntity
  8
MODEL
  0
POLYLINE
  5
77E7
330
A
100
AcDbEntity
  8
MODEL
100
AcDb2dPolyline
 66
     1
 10
0.0
 20
0.0
 30
0.0
  0
VERTEX
  5
77E8
330
77E7
100
AcDbEntity
  8
MODEL
100
AcDbVertex
100
AcDb2dVertex
 10
664.1050951122618
 20
1273.082092088361
 30
0.0
  0
VERTEX
  5
77E9
330
77E7
100
AcDbEntity
  8
MODEL
100
AcDbVertex
100
AcDb2dVertex
 10
663.8982012369731
 20
1273.082092088361
 30
0.0
  0
VERTEX
  5
77EA
330
77E7
100
AcDbEntity
  8
MODEL
100
AcDbVertex
100
AcDb2dVertex
 10
663.835394167689
 20
1273.082092088361
 30
0.0
  0
VERTEX
  5
77EB
330
77E7
100
AcDbEntity
  8
MODEL
100
AcDbVertex
100
AcDb2dVertex
 10
663.7701240760805
 20
1273.082092088361
 30
0.0
  0
VERTEX
  5
77EC
330
77E7
100
AcDbEntity
  8
MODEL
100
AcDbVertex
100
AcDb2dVertex
 10
663.7060854956342
 20
1273.082092088361
 30
0.0
  0
VERTEX
  5
77ED
330
77E7
100
AcDbEntity
  8
MODEL
100
AcDbVertex
100
AcDb2dVertex
 10
663.6457414486747
 20
1273.082092088361
 30
0.0
  0
VERTEX
  5
77EE
330
77E7
100
AcDbEntity
  8
MODEL
100
AcDbVertex
100
AcDb2dVertex
 10
663.2627414771584
 20
1273.084555110687
 30
0.0
  0
SEQEND
  5
77EF
330
77E7
100
AcDbEntity
  8
MODEL
  0
POLYLINE
  5
77F0
330
A
100
AcDbEntity
  8
MODEL
100
AcDb2dPolyline
 66
     1
 10
0.0
 20
0.0
 30
0.0
  0
VERTEX
  5
77F1
330
77F0
100
AcDbEntity
  8
MODEL
100
AcDbVertex
100
AcDb2dVertex
 10
665.6604937104114
 20
1273.075934532549
 30
0.0
  0
VERTEX
  5
77F2
330
77F0
100
AcDbEntity
  8
MODEL
100
AcDbVertex
100
AcDb2dVertex
 10
664.4831690391281
 20
1273.078397554875
 30
0.0
  0
VERTEX
  5
77F3
330
77F0
100
AcDbEntity
  8
MODEL
100
AcDbVertex
100
AcDb2dVertex
 10
664.4018893024074
 20
1273.080860577198
 30
0.0
  0
VERTEX
  5
77F4
330
77F0
100
AcDbEntity
  8
MODEL
100
AcDbVertex
100
AcDb2dVertex
 10
664.3267671214987
 20
1273.080860577198
 30
0.0
  0
VERTEX
  5
77F5
330
77F0
100
AcDbEntity
  8
MODEL
100
AcDbVertex
100
AcDb2dVertex
 10
664.2504134294284
 20
1273.080860577198
 30
0.0
  0
VERTEX
  5
77F6
330
77F0
100
AcDbEntity
  8
MODEL
100
AcDbVertex
100
AcDb2dVertex
 10
664.1777542708448
 20
1273.080860577198
 30
0.0
  0
VERTEX
  5
77F7
330
77F0
100
AcDbEntity
  8
MODEL
100
AcDbVertex
100
AcDb2dVertex
 10
664.1038636010987
 20
1273.080860577198
 30
0.0
  0
SEQEND
  5
77F8
330
77F0
100
AcDbEntity
  8
MODEL
  0
POLYLINE
  5
77F9
330
A
100
AcDbEntity
  8
MODEL
100
AcDb2dPolyline
 66
     1
 10
0.0
 20
0.0
 30
0.0
  0
VERTEX
  5
77FA
330
77F9
100
AcDbEntity
  8
MODEL
100
AcDbVertex
100
AcDb2dVertex
 10
993.2350738500434
 20
1273.085786621848
 30
0.0
  0
VERTEX
  5
77FB
330
77F9
100
AcDbEntity
  8
MODEL
100
AcDbVertex
100
AcDb2dVertex
 10
993.0577362426536
 20
1273.085786621848
 30
0.0
  0
SEQEND
  5
77FC
330
77F9
100
AcDbEntity
  8
MODEL
  0
POLYLINE
  5
77FD
330
A
100
AcDbEntity
  8
MODEL
100
AcDb2dPolyline
 66
     1
 10
0.0
 20
0.0
 30
0.0
  0
VERTEX
  5
77FE
330
77FD
100
AcDbEntity
  8
MODEL
100
AcDbVertex
100
AcDb2dVertex
 10
993.3212796314135
 20
1273.084555110687
 30
0.0
  0
VERTEX
  5
77FF
330
77FD
100
AcDbEntity
  8
MODEL
100
AcDbVertex
100
AcDb2dVertex
 10
993.2350738500434
 20
1273.084555110687
 30
0.0
  0
SEQEND
  5
7800
330
77FD
100
AcDbEntity
  8
MODEL
  0
POLYLINE
  5
7801
330
A
100
AcDbEntity
  8
MODEL
100
AcDb2dPolyline
 66
     1
 10
0.0
 20
0.0
 30
0.0
  0
VERTEX
  5
7802
330
7801
100
AcDbEntity
  8
MODEL
100
AcDbVertex
100
AcDb2dVertex
 10
993.3828551895351
 20
1273.084555110687
 30
0.0
  0
VERTEX
  5
7803
330
7801
100
AcDbEntity
  8
MODEL
100
AcDbVertex
100
AcDb2dVertex
 10
993.3212796314135
 20
1273.084555110687
 30
0.0
  0
SEQEND
  5
7804
330
7801
100
AcDbEntity
  8
MODEL
  0
POLYLINE
  5
7805
330
A
100
AcDbEntity
  8
MODEL
100
AcDb2dPolyline
 66
     1
 10
0.0
 20
0.0
 30
0.0
  0
VERTEX
  5
7806
330
7805
100
AcDbEntity
  8
MODEL
100
AcDbVertex
100
AcDb2dVertex
 10
993.4271895913832
 20
1273.083323599525
 30
0.0
  0
VERTEX
  5
7807
330
7805
100
AcDbEntity
  8
MODEL
100
AcDbVertex
100
AcDb2dVertex
 10
993.3828551895351
 20
1273.083323599525
 30
0.0
  0
SEQEND
  5
7808
330
7805
100
AcDbEntity
  8
MODEL
  0
POLYLINE
  5
7809
330
A
100
AcDbEntity
  8
MODEL
100
AcDb2dPolyline
 66
     1
 10
0.0
 20
0.0
 30
0.0
  0
VERTEX
  5
780A
330
7809
100
AcDbEntity
  8
MODEL
100
AcDbVertex
100
AcDb2dVertex
 10
993.4764500378803
 20
1273.082092088361
 30
0.0
  0
VERTEX
  5
780B
330
7809
100
AcDbEntity
  8
MODEL
100
AcDbVertex
100
AcDb2dVertex
 10
993.4271895913832
 20
1273.082092088361
 30
0.0
  0
SEQEND
  5
780C
330
7809
100
AcDbEntity
  8
MODEL
  0
SPLINE
  5
780D
330
A
100
AcDbEntity
  8
MODEL
100
AcDbSpline
210
0.0
220
0.0
230
1.0
 70
     8
 71
     3
 72
     8
 73
     4
 74
     0
 42
0.000000001
 43
0.0000000001
 40
0.0
 40
0.0
 40
0.0
 40
0.0
 40
1.0
 40
1.0
 40
1.0
 40
1.0
 10
1002.427073166428
 20
806.6940367418481
 30
0.0
 10
1002.427073166428
 20
806.6743325632503
 30
0.0
 10
1002.427073166428
 20
806.6546283846508
 30
0.0
 10
1002.429536188752
 20
806.634924206053
 30
0.0
  0
SPLINE
  5
780E
330
A
100
AcDbEntity
  8
MODEL
100
AcDbSpline
210
0.0
220
0.0
230
1.0
 70
     8
 71
     3
 72
     8
 73
     4
 74
     0
 42
0.000000001
 43
0.0000000001
 40
0.0
 40
0.0
 40
0.0
 40
0.0
 40
1.0
 40
1.0
 40
1.0
 40
1.0
 10
1039.473391954672
 20
797.6375036533334
 30
0.0
 10
1039.488170088621
 20
797.4971113808149
 30
0.0
 10
1039.438909642124
 20
797.3567191082982
 30
0.0
 10
1039.347777816104
 20
797.2508091483285
 30
0.0
  0
SPLINE
  5
780F
330
A
100
AcDbEntity
  8
MODEL
100
AcDbSpline
210
0.0
220
0.0
230
1.0
 70
     8
 71
     3
 72
     8
 73
     4
 74
     0
 42
0.000000001
 43
0.0000000001
 40
0.0
 40
0.0
 40
0.0
 40
0.0
 40
1.0
 40
1.0
 40
1.0
 40
1.0
 10
1039.347777816104
 20
797.2508091483285
 30
0.0
 10
1039.251719945434
 20
797.1448991883587
 30
0.0
 10
1039.116253717568
 20
797.0857866525637
 30
0.0
 10
1038.97586144505
 20
797.0857866525637
 30
0.0
  0
SPLINE
  5
7810
330
A
100
AcDbEntity
  8
MODEL
100
AcDbSpline
210
0.0
220
0.0
230
1.0
 70
     8
 71
     3
 72
     8
 73
     4
 74
     0
 42
0.000000001
 43
0.0000000001
 40
0.0
 40
0.0
 40
0.0
 40
0.0
 40
1.0
 40
1.0
 40
1.0
 40
1.0
 10
1038.525128359601
 20
806.7211299874232
 30
0.0
 10
1038.495572091703
 20
806.9748212868815
 30
0.0
 10
1038.281289149439
 20
807.1694000505465
 30
0.0
 10
1038.027597849979
 20
807.1694000505465
 30
0.0
  0
SPLINE
  5
7811
330
A
100
AcDbEntity
  8
MODEL
100
AcDbSpline
210
0.0
220
0.0
230
1.0
 70
     8
 71
     3
 72
     8
 73
     4
 74
     0
 42
0.000000001
 43
0.0000000001
 40
0.0
 40
0.0
 40
0.0
 40
0.0
 40
1.0
 40
1.0
 40
1.0
 40
1.0
 10
616.3261565434316
 20
797.2508091483285
 30
0.0
 10
616.4197513917763
 20
797.1448991883587
 30
0.0
 10
616.5564491308062
 20
797.0857866525637
 30
0.0
 10
616.6968414033233
 20
797.0857866525637
 30
0.0
  0
SPLINE
  5
7812
330
A
100
AcDbEntity
  8
MODEL
100
AcDbSpline
210
0.0
220
0.0
230
1.0
 70
     8
 71
     3
 72
     8
 73
     4
 74
     0
 42
0.000000001
 43
0.0000000001
 40
0.0
 40
0.0
 40
0.0
 40
0.0
 40
1.0
 40
1.0
 40
1.0
 40
1.0
 10
616.2005424048637
 20
797.6375036533334
 30
0.0
 10
616.1857642709144
 20
797.4971113808149
 30
0.0
 10
616.2313301839242
 20
797.3567191082982
 30
0.0
 10
616.3261565434316
 20
797.2508091483285
 30
0.0
  0
SPLINE
  5
7813
330
A
100
AcDbEntity
  8
MODEL
100
AcDbSpline
210
0.0
220
0.0
230
1.0
 70
     8
 71
     3
 72
     8
 73
     4
 74
     0
 42
0.000000001
 43
0.0000000001
 40
0.0
 40
0.0
 40
0.0
 40
0.0
 40
1.0
 40
1.0
 40
1.0
 40
1.0
 10
617.6475680207197
 20
807.1694000505465
 30
0.0
 10
617.3901821877719
 20
807.1694000505465
 30
0.0
 10
617.1758992455091
 20
806.9748212868815
 30
0.0
 10
617.1488059999353
 20
806.7211299874232
 30
0.0
  0
SPLINE
  5
7814
330
A
100
AcDbEntity
  8
MODEL
100
AcDbSpline
210
0.0
220
0.0
230
1.0
 70
     8
 71
     3
 72
     8
 73
     4
 74
     0
 42
0.000000001
 43
0.0000000001
 40
0.0
 40
0.0
 40
0.0
 40
0.0
 40
1.0
 40
1.0
 40
1.0
 40
1.0
 10
653.021494650384
 20
807.0856572915015
 30
0.0
 10
653.1729705233627
 20
806.9871363985073
 30
0.0
 10
653.2554817712455
 20
806.814724835767
 30
0.0
 10
653.243166659621
 20
806.634924206053
 30
0.0
  0
SPLINE
  5
7815
330
A
100
AcDbEntity
  8
MODEL
100
AcDbSpline
210
0.0
220
0.0
230
1.0
 70
     8
 71
     3
 72
     8
 73
     4
 74
     0
 42
0.000000001
 43
0.0000000001
 40
0.0
 40
0.0
 40
0.0
 40
0.0
 40
1.0
 40
1.0
 40
1.0
 40
1.0
 10
1002.65120819799
 20
807.0856572915015
 30
0.0
 10
1002.515741970123
 20
806.996988487808
 30
0.0
 10
1002.434462233402
 20
806.8516701706392
 30
0.0
 10
1002.424610144103
 20
806.6940367418481
 30
0.0
  0
SPLINE
  5
7816
330
A
100
AcDbEntity
  8
MODEL
100
AcDbSpline
210
0.0
220
0.0
230
1.0
 70
    24
 71
     3
 72
     8
 73
     4
 74
     0
 42
0.000000001
 43
0.0000000001
 40
0.0
 40
0.0
 40
0.0
 40
0.0
 40
1.0
 40
1.0
 40
1.0
 40
1.0
 10
652.6150959667818
 20
797.5365197380122
 30
0.0
 10
652.6150959667818
 20
797.5414457826625
 30
0.0
 10
652.6150959667818
 20
797.5463718273129
 30
0.0
 10
652.6150959667818
 20
797.5512978719614
 30
0.0
  0
POLYLINE
  5
7817
330
A
100
AcDbEntity
  8
MODEL
100
AcDb2dPolyline
 66
     1
 10
0.0
 20
0.0
 30
0.0
  0
VERTEX
  5
7818
330
7817
100
AcDbEntity
  8
MODEL
100
AcDbVertex
100
AcDb2dVertex
 10
1003.057606881592
 20
797.5512978719614
 30
0.0
  0
VERTEX
  5
7819
330
7817
100
AcDbEntity
  8
MODEL
100
AcDbVertex
100
AcDb2dVertex
 10
1003.057606881592
 20
797.5365197380122
 30
0.0
  0
SEQEND
  5
781A
330
7817
100
AcDbEntity
  8
MODEL
  0
POLYLINE
  5
781B
330
A
100
AcDbEntity
  8
MODEL
100
AcDb2dPolyline
 66
     1
 10
0.0
 20
0.0
 30
0.0
  0
VERTEX
  5
781C
330
781B
100
AcDbEntity
  8
MODEL
100
AcDbVertex
100
AcDb2dVertex
 10
1003.555137391214
 20
797.0857866525637
 30
0.0
  0
VERTEX
  5
781D
330
781B
100
AcDbEntity
  8
MODEL
100
AcDbVertex
100
AcDb2dVertex
 10
1003.518192056342
 20
797.0857866525637
 30
0.0
  0
VERTEX
  5
781E
330
781B
100
AcDbEntity
  8
MODEL
100
AcDbVertex
100
AcDb2dVertex
 10
1003.486172766118
 20
797.090712697214
 30
0.0
  0
VERTEX
  5
781F
330
781B
100
AcDbEntity
  8
MODEL
100
AcDbVertex
100
AcDb2dVertex
 10
1003.446764408921
 20
797.0956387418626
 30
0.0
  0
VERTEX
  5
7820
330
781B
100
AcDbEntity
  8
MODEL
100
AcDbVertex
100
AcDb2dVertex
 10
1003.412282096372
 20
797.1054908311633
 30
0.0
  0
VERTEX
  5
7821
330
781B
100
AcDbEntity
  8
MODEL
100
AcDbVertex
100
AcDb2dVertex
 10
1003.407356051722
 20
797.1079538534866
 30
0.0
  0
VERTEX
  5
7822
330
781B
100
AcDbEntity
  8
MODEL
100
AcDbVertex
100
AcDb2dVertex
 10
1003.3753367615
 20
797.1202689651125
 30
0.0
  0
VERTEX
  5
7823
330
781B
100
AcDbEntity
  8
MODEL
100
AcDbVertex
100
AcDb2dVertex
 10
1003.338391426626
 20
797.1350470990617
 30
0.0
  0
VERTEX
  5
7824
330
781B
100
AcDbEntity
  8
MODEL
100
AcDbVertex
100
AcDb2dVertex
 10
1003.306372136404
 20
797.1522882553343
 30
0.0
  0
VERTEX
  5
7825
330
781B
100
AcDbEntity
  8
MODEL
100
AcDbVertex
100
AcDb2dVertex
 10
1003.276815868505
 20
797.1695294116087
 30
0.0
  0
VERTEX
  5
7826
330
781B
100
AcDbEntity
  8
MODEL
100
AcDbVertex
100
AcDb2dVertex
 10
1003.244796578282
 20
797.1916966125334
 30
0.0
  0
VERTEX
  5
7827
330
781B
100
AcDbEntity
  8
MODEL
100
AcDbVertex
100
AcDb2dVertex
 10
1003.217703332708
 20
797.2138638134563
 30
0.0
  0
VERTEX
  5
7828
330
781B
100
AcDbEntity
  8
MODEL
100
AcDbVertex
100
AcDb2dVertex
 10
1003.193073109459
 20
797.2384940367044
 30
0.0
  0
VERTEX
  5
7829
330
781B
100
AcDbEntity
  8
MODEL
100
AcDbVertex
100
AcDb2dVertex
 10
1003.170905908536
 20
797.2655872822777
 30
0.0
  0
VERTEX
  5
782A
330
781B
100
AcDbEntity
  8
MODEL
100
AcDbVertex
100
AcDb2dVertex
 10
1003.148738707612
 20
797.2951435501761
 30
0.0
  0
VERTEX
  5
782B
330
781B
100
AcDbEntity
  8
MODEL
100
AcDbVertex
100
AcDb2dVertex
 10
1003.126571506688
 20
797.3246998180746
 30
0.0
  0
VERTEX
  5
782C
330
781B
100
AcDbEntity
  8
MODEL
100
AcDbVertex
100
AcDb2dVertex
 10
1003.109330350415
 20
797.3567191082982
 30
0.0
  0
VERTEX
  5
782D
330
781B
100
AcDbEntity
  8
MODEL
100
AcDbVertex
100
AcDb2dVertex
 10
1003.094552216465
 20
797.391201420847
 30
0.0
  0
VERTEX
  5
782E
330
781B
100
AcDbEntity
  8
MODEL
100
AcDbVertex
100
AcDb2dVertex
 10
1003.09208919414
 20
797.3961274654973
 30
0.0
  0
VERTEX
  5
782F
330
781B
100
AcDbEntity
  8
MODEL
100
AcDbVertex
100
AcDb2dVertex
 10
1003.08223710484
 20
797.4306097780425
 30
0.0
  0
VERTEX
  5
7830
330
781B
100
AcDbEntity
  8
MODEL
100
AcDbVertex
100
AcDb2dVertex
 10
1003.072385015541
 20
797.4650920905913
 30
0.0
  0
VERTEX
  5
7831
330
781B
100
AcDbEntity
  8
MODEL
100
AcDbVertex
100
AcDb2dVertex
 10
1003.062532926241
 20
797.4995744031401
 30
0.0
  0
VERTEX
  5
7832
330
781B
100
AcDbEntity
  8
MODEL
100
AcDbVertex
100
AcDb2dVertex
 10
1003.057606881592
 20
797.5365197380122
 30
0.0
  0
SEQEND
  5
7833
330
781B
100
AcDbEntity
  8
MODEL
  0
POLYLINE
  5
7834
330
A
100
AcDbEntity
  8
MODEL
100
AcDb2dPolyline
 66
     1
 10
0.0
 20
0.0
 30
0.0
  0
VERTEX
  5
7835
330
7834
100
AcDbEntity
  8
MODEL
100
AcDbVertex
100
AcDb2dVertex
 10
1002.65120819799
 20
807.0856572915015
 30
0.0
  0
VERTEX
  5
7836
330
7834
100
AcDbEntity
  8
MODEL
100
AcDbVertex
100
AcDb2dVertex
 10
1002.665986331939
 20
807.0955093808004
 30
0.0
  0
VERTEX
  5
7837
330
7834
100
AcDbEntity
  8
MODEL
100
AcDbVertex
100
AcDb2dVertex
 10
1002.680764465888
 20
807.1028984477759
 30
0.0
  0
VERTEX
  5
7838
330
7834
100
AcDbEntity
  8
MODEL
100
AcDbVertex
100
AcDb2dVertex
 10
1002.698005622163
 20
807.1127505370748
 30
0.0
  0
VERTEX
  5
7839
330
7834
100
AcDbEntity
  8
MODEL
100
AcDbVertex
100
AcDb2dVertex
 10
1002.710320733787
 20
807.1201396040503
 30
0.0
  0
VERTEX
  5
783A
330
7834
100
AcDbEntity
  8
MODEL
100
AcDbVertex
100
AcDb2dVertex
 10
1002.727561890061
 20
807.127528671024
 30
0.0
  0
VERTEX
  5
783B
330
7834
100
AcDbEntity
  8
MODEL
100
AcDbVertex
100
AcDb2dVertex
 10
1002.74234002401
 20
807.1349177379996
 30
0.0
  0
VERTEX
  5
783C
330
7834
100
AcDbEntity
  8
MODEL
100
AcDbVertex
100
AcDb2dVertex
 10
1002.762044202609
 20
807.1373807603229
 30
0.0
  0
VERTEX
  5
783D
330
7834
100
AcDbEntity
  8
MODEL
100
AcDbVertex
100
AcDb2dVertex
 10
1002.779285358882
 20
807.1472328496236
 30
0.0
  0
VERTEX
  5
783E
330
7834
100
AcDbEntity
  8
MODEL
100
AcDbVertex
100
AcDb2dVertex
 10
1002.796526515156
 20
807.1521588942721
 30
0.0
  0
VERTEX
  5
783F
330
7834
100
AcDbEntity
  8
MODEL
100
AcDbVertex
100
AcDb2dVertex
 10
1002.808841626781
 20
807.1546219165991
 30
0.0
  0
SEQEND
  5
7840
330
7834
100
AcDbEntity
  8
MODEL
  0
POLYLINE
  5
7841
330
A
100
AcDbEntity
  8
MODEL
100
AcDb2dPolyline
 66
     1
 10
0.0
 20
0.0
 30
0.0
  0
VERTEX
  5
7842
330
7841
100
AcDbEntity
  8
MODEL
100
AcDbVertex
100
AcDb2dVertex
 10
652.1175654571591
 20
797.0857866525637
 30
0.0
  0
VERTEX
  5
7843
330
7841
100
AcDbEntity
  8
MODEL
100
AcDbVertex
100
AcDb2dVertex
 10
652.1532792808696
 20
797.0857866525637
 30
0.0
  0
VERTEX
  5
7844
330
7841
100
AcDbEntity
  8
MODEL
100
AcDbVertex
100
AcDb2dVertex
 10
652.1877615934184
 20
797.090712697214
 30
0.0
  0
VERTEX
  5
7845
330
7841
100
AcDbEntity
  8
MODEL
100
AcDbVertex
100
AcDb2dVertex
 10
652.2234754171288
 20
797.0956387418626
 30
0.0
  0
VERTEX
  5
7846
330
7841
100
AcDbEntity
  8
MODEL
100
AcDbVertex
100
AcDb2dVertex
 10
652.2591892408393
 20
797.1054908311633
 30
0.0
  0
VERTEX
  5
7847
330
7841
100
AcDbEntity
  8
MODEL
100
AcDbVertex
100
AcDb2dVertex
 10
652.2641152854892
 20
797.1079538534866
 30
0.0
  0
VERTEX
  5
7848
330
7841
100
AcDbEntity
  8
MODEL
100
AcDbVertex
100
AcDb2dVertex
 10
652.2985975980366
 20
797.1202689651125
 30
0.0
  0
VERTEX
  5
7849
330
7841
100
AcDbEntity
  8
MODEL
100
AcDbVertex
100
AcDb2dVertex
 10
652.3318483994224
 20
797.1350470990617
 30
0.0
  0
VERTEX
  5
784A
330
7841
100
AcDbEntity
  8
MODEL
100
AcDbVertex
100
AcDb2dVertex
 10
652.3675622231328
 20
797.1522882553343
 30
0.0
  0
VERTEX
  5
784B
330
7841
100
AcDbEntity
  8
MODEL
100
AcDbVertex
100
AcDb2dVertex
 10
652.3971184910317
 20
797.1695294116087
 30
0.0
  0
VERTEX
  5
784C
330
7841
100
AcDbEntity
  8
MODEL
100
AcDbVertex
100
AcDb2dVertex
 10
652.4254432477676
 20
797.1916966125334
 30
0.0
  0
VERTEX
  5
784D
330
7841
100
AcDbEntity
  8
MODEL
100
AcDbVertex
100
AcDb2dVertex
 10
652.4525364933404
 20
797.2138638134563
 30
0.0
  0
VERTEX
  5
784E
330
7841
100
AcDbEntity
  8
MODEL
100
AcDbVertex
100
AcDb2dVertex
 10
652.4783982277515
 20
797.2384940367044
 30
0.0
  0
VERTEX
  5
784F
330
7841
100
AcDbEntity
  8
MODEL
100
AcDbVertex
100
AcDb2dVertex
 10
652.5005654286754
 20
797.2655872822777
 30
0.0
  0
VERTEX
  5
7850
330
7841
100
AcDbEntity
  8
MODEL
100
AcDbVertex
100
AcDb2dVertex
 10
652.5239641407613
 20
797.2951435501761
 30
0.0
  0
VERTEX
  5
7851
330
7841
100
AcDbEntity
  8
MODEL
100
AcDbVertex
100
AcDb2dVertex
 10
652.5436683193604
 20
797.3246998180746
 30
0.0
  0
VERTEX
  5
7852
330
7841
100
AcDbEntity
  8
MODEL
100
AcDbVertex
100
AcDb2dVertex
 10
652.5609094756348
 20
797.3567191082982
 30
0.0
  0
VERTEX
  5
7853
330
7841
100
AcDbEntity
  8
MODEL
100
AcDbVertex
100
AcDb2dVertex
 10
652.5793821430714
 20
797.391201420847
 30
0.0
  0
VERTEX
  5
7854
330
7841
100
AcDbEntity
  8
MODEL
100
AcDbVertex
100
AcDb2dVertex
 10
652.5793821430714
 20
797.3961274654973
 30
0.0
  0
VERTEX
  5
7855
330
7841
100
AcDbEntity
  8
MODEL
100
AcDbVertex
100
AcDb2dVertex
 10
652.5916972546954
 20
797.4306097780425
 30
0.0
  0
VERTEX
  5
7856
330
7841
100
AcDbEntity
  8
MODEL
100
AcDbVertex
100
AcDb2dVertex
 10
652.6015493439943
 20
797.4650920905913
 30
0.0
  0
VERTEX
  5
7857
330
7841
100
AcDbEntity
  8
MODEL
100
AcDbVertex
100
AcDb2dVertex
 10
652.6089384109689
 20
797.4995744031401
 30
0.0
  0
VERTEX
  5
7858
330
7841
100
AcDbEntity
  8
MODEL
100
AcDbVertex
100
AcDb2dVertex
 10
652.6138644556188
 20
797.5365197380122
 30
0.0
  0
SEQEND
  5
7859
330
7841
100
AcDbEntity
  8
MODEL
  0
POLYLINE
  5
785A
330
A
100
AcDbEntity
  8
MODEL
100
AcDb2dPolyline
 66
     1
 10
0.0
 20
0.0
 30
0.0
  0
VERTEX
  5
785B
330
785A
100
AcDbEntity
  8
MODEL
100
AcDbVertex
100
AcDb2dVertex
 10
652.8613981992678
 20
807.1546219165991
 30
0.0
  0
VERTEX
  5
785C
330
785A
100
AcDbEntity
  8
MODEL
100
AcDbVertex
100
AcDb2dVertex
 10
652.8786393555417
 20
807.1521588942721
 30
0.0
  0
VERTEX
  5
785D
330
785A
100
AcDbEntity
  8
MODEL
100
AcDbVertex
100
AcDb2dVertex
 10
652.8946490006531
 20
807.1472328496236
 30
0.0
  0
VERTEX
  5
785E
330
785A
100
AcDbEntity
  8
MODEL
100
AcDbVertex
100
AcDb2dVertex
 10
652.9118901569275
 20
807.1398437826499
 30
0.0
  0
VERTEX
  5
785F
330
785A
100
AcDbEntity
  8
MODEL
100
AcDbVertex
100
AcDb2dVertex
 10
652.9266682908767
 20
807.1349177379996
 30
0.0
  0
VERTEX
  5
7860
330
785A
100
AcDbEntity
  8
MODEL
100
AcDbVertex
100
AcDb2dVertex
 10
652.9451409583132
 20
807.127528671024
 30
0.0
  0
VERTEX
  5
7861
330
785A
100
AcDbEntity
  8
MODEL
100
AcDbVertex
100
AcDb2dVertex
 10
652.9623821145872
 20
807.1201396040503
 30
0.0
  0
VERTEX
  5
7862
330
785A
100
AcDbEntity
  8
MODEL
100
AcDbVertex
100
AcDb2dVertex
 10
652.9746972262112
 20
807.1127505370748
 30
0.0
  0
VERTEX
  5
7863
330
785A
100
AcDbEntity
  8
MODEL
100
AcDbVertex
100
AcDb2dVertex
 10
652.9931698936482
 20
807.1028984477759
 30
0.0
  0
VERTEX
  5
7864
330
785A
100
AcDbEntity
  8
MODEL
100
AcDbVertex
100
AcDb2dVertex
 10
653.0079480275965
 20
807.0955093808004
 30
0.0
  0
VERTEX
  5
7865
330
785A
100
AcDbEntity
  8
MODEL
100
AcDbVertex
100
AcDb2dVertex
 10
653.020263139221
 20
807.0856572915015
 30
0.0
  0
SEQEND
  5
7866
330
785A
100
AcDbEntity
  8
MODEL
  0
DIMENSION
  5
78FF
102
{ACAD_XDICTIONARY
360
7900
102
}
330
A
100
AcDbEntity
  8
DIM
100
AcDbDimension
  2
*D26
 10
1181.993676494086
 20
797.0857866525637
 30
0.0
 11
1181.993676494086
 21
1035.085786637206
 31
0.0
 70
   160
 71
     5
 42
475.9999999692845
 73
     0
 74
     0
 75
     0
  3
tfrom線あり
100
AcDbAlignedDimension
 13
1059.222632151471
 23
1273.085786621848
 33
0.0
 14
1073.243891050851
 24
797.0857866525637
 34
0.0
 50
90.0
100
AcDbRotatedDimension
1001
ACAD
1000
DSTYLE
1002
{
1070
   271
1070
     0
1002
}
  0
DIMENSION
  5
790F
102
{ACAD_XDICTIONARY
360
7910
102
}
330
A
100
AcDbEntity
  8
DIM
100
AcDbDimension
  2
*D27
 10
1039.466002887698
 20
606.9757274367388
 30
0.0
 11
827.831425379537
 21
632.9794788435163
 31
0.0
 70
    32
 71
     5
 42
423.2691550163213
 73
     0
 74
     0
 75
     0
  3
tfrom線あり
100
AcDbAlignedDimension
 13
616.1968478713763
 23
773.960171600058
 33
0.0
 14
1039.466002887698
 24
772.7199593092687
 34
0.0
100
AcDbRotatedDimension
  0
LINE
  5
7934
330
A
100
AcDbEntity
  8
0
100
AcDbLine
 10
658.9167385849402
 20
1581.489184638667
 30
0.0
 11
658.91673858494
 21
1819.329641828323
 31
0.0
  0
LINE
  5
7935
330
A
100
AcDbEntity
  8
0
100
AcDbLine
 10
996.7571957745962
 20
1581.489184638667
 30
0.0
 11
996.7571957745963
 21
1819.329641828323
 31
0.0
  0
LINE
  5
7936
330
A
100
AcDbEntity
  8
0
100
AcDbLine
 10
708.9167385849388
 20
1869.329641828324
 30
0.0
 11
946.757195774595
 21
1869.329641828323
 31
0.0
  0
LINE
  5
7937
330
A
100
AcDbEntity
  8
0
100
AcDbLine
 10
708.9167385849388
 20
1531.489184638667
 30
0.0
 11
946.757195774595
 21
1531.489184638667
 31
0.0
  0
ARC
  5
793C
330
A
100
AcDbEntity
  8
0
100
AcDbCircle
 10
708.9167385849388
 20
1581.489184638667
 30
0.0
 40
50.0
100
AcDbArc
 50
180.0
 51
270.0
  0
ARC
  5
793D
330
A
100
AcDbEntity
  8
0
100
AcDbCircle
 10
946.757195774595
 20
1581.489184638667
 30
0.0
 40
50.0
100
AcDbArc
 50
270.0
 51
0.0
  0
ARC
  5
793E
330
A
100
AcDbEntity
  8
0
100
AcDbCircle
 10
708.9167385849388
 20
1819.329641828323
 30
0.0
 40
50.0
100
AcDbArc
 50
90.0
 51
180.0
  0
ARC
  5
793F
330
A
100
AcDbEntity
  8
0
100
AcDbCircle
 10
946.757195774595
 20
1819.329641828323
 30
0.0
 40
50.0
100
AcDbArc
 50
0.0
 51
90.0
  0
DIMENSION
  5
7941
102
{ACAD_XDICTIONARY
360
7942
102
}
330
A
100
AcDbEntity
  8
DIM
100
AcDbDimension
  2
*D29
 10
996.757195774595
 20
1972.758089808221
 30
0.0
 11
827.8369671797668
 21
1998.761841214999
 31
0.0
 70
    32
 71
     5
 42
337.8404571896561
 73
     0
 74
     0
 75
     0
  3
tfrom線あり
100
AcDbAlignedDimension
 13
658.9167385849388
 23
1874.907258249457
 33
0.0
 14
996.757195774595
 24
1880.300611170019
 34
0.0
100
AcDbRotatedDimension
  0
DIMENSION
  5
7950
102
{ACAD_XDICTIONARY
360
7951
102
}
330
A
100
AcDbEntity
  8
DIM
100
AcDbDimension
  2
*D30
 10
1109.255234819992
 20
1869.329641828323
 30
0.0
 11
1083.251483413214
 21
1700.409413233495
 31
0.0
 70
    32
 71
     5
 42
337.840457189656
 73
     0
 74
     0
 75
     0
  3
tfrom線あり
100
AcDbAlignedDimension
 13
999.1165693541185
 23
1531.489184638667
 33
0.0
 14
1023.331418005556
 24
1869.329641828323
 34
0.0
 50
90.0
100
AcDbRotatedDimension
  0
VIEWPORT
  5
349
330
B
100
AcDbEntity
 67
     1
  8
0
100
AcDbViewport
 10
202.5
 20
128.5
 30
0.0
 40
486.0
 41
308.4
 68
     1
 69
     1
 12
202.5
 22
128.5
 13
0.0
 23
0.0
 14
0.5
 24
0.5
 15
0.0
 25
0.0
 16
0.0
 26
0.0
 36
1.0
 17
0.0
 27
0.0
 37
0.0
 42
50.0
 43
0.0
 44
0.0
 45
308.4
 50
0.0
 51
0.0
 72
   100
 90
   557152
  1

281
     0
 71
     1
 74
     0
110
0.0
120
0.0
130
0.0
111
1.0
121
0.0
131
0.0
112
0.0
122
1.0
132
0.0
 79
     0
146
0.0
170
     0
 61
     5
348
26C
292
     1
282
     1
141
0.0
142
0.0
 63
   256
  0
VIEWPORT
  5
34A
330
B
100
AcDbEntity
 67
     1
  8
0
100
AcDbViewport
 10
202.5
 20
128.5
 30
0.0
 40
324.0
 41
205.6
 68
     2
 69
     2
 12
986.6781359294573
 22
1427.077061889956
 13
0.0
 23
0.0
 14
0.5
 24
0.5
 15
0.0
 25
0.0
 16
0.0
 26
0.0
 36
1.0
 17
0.0
 27
0.0
 37
0.0
 42
50.0
 43
0.0
 44
0.0
 45
2890.021615685494
 50
0.0
 51
0.0
 72
   100
 90
   557152
  1

281
     0
 71
     1
 74
     0
110
0.0
120
0.0
130
0.0
111
1.0
121
0.0
131
0.0
112
0.0
122
1.0
132
0.0
 79
     0
146
0.0
170
     0
 61
     5
348
26C
292
     1
282
     1
141
0.0
142
0.0
 63
   256
  0
ENDSEC
  0
SECTION
  2
OBJECTS
  0
DICTIONARY
  5
19
330
0
100
AcDbDictionary
281
     1
  3
ACAD_COLOR
350
674
  3
ACAD_DETAILVIEWSTYLE
350
BBF
  3
ACAD_FIELDLIST
350
3BE4
  3
ACAD_GROUP
350
1A
  3
ACAD_IMAGE_VARS
350
27B
  3
ACAD_LAYOUT
350
1E
  3
ACAD_MATERIAL
350
263
  3
ACAD_MLEADERSTYLE
350
336
  3
ACAD_MLINESTYLE
350
1B
  3
ACAD_PLOTSETTINGS
350
22
  3
ACAD_PLOTSTYLENAME
350
1F
  3
ACAD_SCALELIST
350
241
  3
ACAD_SECTIONVIEWSTYLE
350
BC0
  3
ACAD_TABLESTYLE
350
278
  3
ACAD_VISUALSTYLE
350
267
  3
ACDB_RECOMPOSE_DATA
350
7963
  3
AcDbVariableDictionary
350
330
  3
APPDATA
350
27A
  3
DimOffsetDictionary
350
E38
  0
SUN
  5
904
330
15
100
AcDbSun
 90
        1
290
     0
 63
     7
421
 16777215
 40
1.0
291
     1
 91
  2455826
 92
 54000000
292
     0
 70
     2
 71
   256
280
     1
  0
DICTIONARY
  5
2E1
330
2
100
AcDbDictionary
280
     1
281
     1
  3
ACAD_LAYERSTATES
360
2E2
  3
ACLYDICTIONARY
360
DDE
  0
DICTIONARY
  5
3E3E
330
A
100
AcDbDictionary
280
     1
281
     1
  3
ACAD_SORTENTS
360
3E3F
  0
DICTIONARY
  5
3DB8
330
3DB7
100
AcDbDictionary
280
     1
281
     1
  0
DICTIONARY
  5
7900
330
78FF
100
AcDbDictionary
280
     1
281
     1
  0
DICTIONARY
  5
7910
330
790F
100
AcDbDictionary
280
     1
281
     1
  0
DICTIONARY
  5
7942
330
7941
100
AcDbDictionary
280
     1
281
     1
  0
DICTIONARY
  5
7951
330
7950
100
AcDbDictionary
280
     1
281
     1
  0
DICTIONARY
  5
674
102
{ACAD_REACTORS
330
19
102
}
330
19
100
AcDbDictionary
281
     1
  0
DICTIONARY
  5
BBF
102
{ACAD_REACTORS
330
19
102
}
330
19
100
AcDbDictionary
281
     1
  0
FIELDLIST
  5
3BE4
102
{ACAD_REACTORS
330
19
102
}
330
19
100
AcDbIdSet
 90
        0
100
AcDbFieldList
  0
DICTIONARY
  5
1A
102
{ACAD_REACTORS
330
19
102
}
330
19
100
AcDbDictionary
281
     1
  3
*A1
350
3CF4
  3
*A2
350
6BF6
  0
RASTERVARIABLES
  5
27B
102
{ACAD_REACTORS
330
19
102
}
330
19
100
AcDbRasterVariables
 90
        0
 70
     1
 71
     1
 72
     1
  0
DICTIONARY
  5
1E
102
{ACAD_REACTORS
330
19
102
}
330
19
100
AcDbDictionary
281
     1
  3
Layout1
350
21
  3
Model
350
20
  0
DICTIONARY
  5
263
102
{ACAD_REACTORS
330
19
102
}
330
19
100
AcDbDictionary
281
     1
  3
ByBlock
350
265
  3
ByLayer
350
264
  3
Global
350
266
  0
DICTIONARY
  5
336
102
{ACAD_REACTORS
330
19
102
}
330
19
100
AcDbDictionary
281
     1
  3
Standard
350
D59
  0
DICTIONARY
  5
1B
102
{ACAD_REACTORS
330
19
102
}
330
19
100
AcDbDictionary
281
     1
  3
Standard
350
1C
  0
DICTIONARY
  5
22
102
{ACAD_REACTORS
330
19
102
}
330
19
100
AcDbDictionary
281
     1
  0
ACDBDICTIONARYWDFLT
  5
1F
102
{ACAD_REACTORS
330
19
102
}
330
19
100
AcDbDictionary
281
     1
  3
Normal
350
1D
100
AcDbDictionaryWithDefault
340
1D
  0
DICTIONARY
  5
241
102
{ACAD_REACTORS
330
19
102
}
330
19
100
AcDbDictionary
281
     1
  3
A0
350
242
  3
A1
350
243
  3
A2
350
244
  3
A3
350
245
  3
A4
350
246
  3
A5
350
247
  3
A6
350
248
  3
A7
350
249
  3
A8
350
24A
  3
A9
350
24B
  3
B0
350
24C
  3
B1
350
24D
  3
B2
350
24E
  3
B3
350
24F
  3
B4
350
250
  3
B5
350
251
  3
B6
350
252
  3
B7
350
253
  3
B8
350
254
  3
B9
350
255
  3
C0
350
256
  3
C1
350
257
  3
C2
350
258
  3
C3
350
259
  3
C4
350
25A
  3
C5
350
25B
  3
C6
350
25C
  3
C7
350
25D
  3
C8
350
25E
  3
C9
350
25F
  3
D0
350
260
  3
D1
350
261
  3
D2
350
262
  0
DICTIONARY
  5
BC0
102
{ACAD_REACTORS
330
19
102
}
330
19
100
AcDbDictionary
281
     1
  0
DICTIONARY
  5
278
102
{ACAD_REACTORS
330
19
102
}
330
19
100
AcDbDictionary
281
     1
  3
Standard
350
279
  0
DICTIONARY
  5
267
102
{ACAD_REACTORS
330
19
102
}
330
19
100
AcDbDictionary
281
     1
  3
2dWireframe
350
26C
  3
3D Hidden
350
26E
  3
3dWireframe
350
26D
  3
Basic
350
26F
  3
Brighten
350
273
  3
ColorChange
350
277
  3
Conceptual
350
271
  3
Dim
350
272
  3
EdgeColorOff
350
8FE
  3
Facepattern
350
276
  3
Flat
350
268
  3
FlatWithEdges
350
269
  3
Gouraud
350
26A
  3
GouraudWithEdges
350
26B
  3
Hidden
350
8FB
  3
JitterOff
350
8FC
  3
Linepattern
350
275
  3
OverhangOff
350
8FD
  3
Realistic
350
270
  3
Shaded
350
903
  3
Shaded with edges
350
902
  3
Shades of Gray
350
8FF
  3
Sketchy
350
900
  3
Thicken
350
274
  3
Wireframe
350
8FA
  3
X-Ray
350
901
  0
XRECORD
  5
7963
102
{ACAD_REACTORS
330
19
102
}
330
19
100
AcDbXrecord
280
     1
 90
        1
330
279
  0
DICTIONARY
  5
330
102
{ACAD_REACTORS
330
19
102
}
330
19
100
AcDbDictionary
281
     1
  3
CANNOSCALE
350
331
  3
CMLEADERSTYLE
350
D5E
  3
CTABLESTYLE
350
335
  3
HPTRANSPARENCY
350
D52
  3
XCLIPFRAME
350
896
  0
DICTIONARY
  5
27A
102
{ACAD_REACTORS
330
19
102
}
330
19
100
AcDbDictionary
281
     1
  0
DICTIONARY
  5
E38
102
{ACAD_REACTORS
330
19
102
}
330
19
100
AcDbDictionary
281
     1
  3
DIMRAILANGLE
350
246C
  3
DIMRAILFIRSTOFFSET
350
246A
  3
DIMRAILOFFSET
350
246B
  3
DIMRAILSENABLED
350
246D
  0
DICTIONARY
  5
2E2
102
{ACAD_REACTORS
330
2E1
102
}
330
2E1
100
AcDbDictionary
281
     1
  0
DICTIONARY
  5
DDE
102
{ACAD_REACTORS
330
2E1
102
}
330
2E1
100
AcDbDictionary
281
     1
1001
ACAD
1000
<All
  0
SORTENTSTABLE
  5
3E3F
102
{ACAD_REACTORS
330
3E3E
102
}
330
3E3E
100
AcDbSortentsTable
330
A
331
3CE3
  5
3C4B
331
3CE4
  5
3CE2
331
3CEF
  5
3CE3
331
3CF0
  5
3CE4
331
3CF1
  5
3CEF
331
3CF2
  5
3CF0
331
3CF3
  5
3CF1
331
0
  5
3CF3
331
3DB7
  5
3D2F
  0
GROUP
  5
3CF4
102
{ACAD_REACTORS
330
1A
102
}
330
1A
100
AcDbGroup
300

 70
     1
 71
     1
340
3CE3
340
3CE4
340
3CEF
340
3CF0
340
3CF1
340
3CF2
340
3CF3
  0
GROUP
  5
6BF6
102
{ACAD_REACTORS
330
1A
102
}
330
1A
100
AcDbGroup
300

 70
     1
 71
     1
  0
LAYOUT
  5
21
102
{ACAD_REACTORS
330
1E
102
}
330
1E
100
AcDbPlotSettings
  1

  2
none_device
  4
ISO_A3_(420.00_x_297.00_MM)
  6

 40
7.5
 41
20.0
 42
7.5
 43
20.0
 44
420.0
 45
297.0
 46
0.0
 47
0.0
 48
0.0
 49
0.0
140
0.0
141
0.0
142
1.0
143
1.0
 70
     0
 72
     1
 73
     0
 74
     0
  7

 75
     0
 76
     0
 77
     2
 78
   300
147
1.0
148
0.0
149
0.0
100
AcDbLayout
  1
Layout1
 70
     0
 71
     0
 10
-7.5
 20
-20.0
 11
412.5
 21
277.0
 12
0.0
 22
0.0
 32
0.0
 14
0.0
 24
0.0
 34
0.0
 15
0.0
 25
0.0
 35
0.0
146
0.0
 13
0.0
 23
0.0
 33
0.0
 16
0.0
 26
0.0
 36
0.0
 17
0.0
 27
0.0
 37
0.0
 76
     0
330
B
331
349
  0
LAYOUT
  5
20
102
{ACAD_REACTORS
330
1E
102
}
330
1E
100
AcDbPlotSettings
  1

  2
Adobe PDF
  4
A4
  6

 40
0.0600000000000023
 41
0.0000000000000205
 42
0.0
 43
0.04
 44
210.0
 45
297.0
 46
0.0
 47
0.0
 48
0.0
 49
0.0
140
0.0
141
0.0
142
1.0
143
8.00228636753358
 70
  1712
 72
     1
 73
     0
 74
     1
  7
monochrome.ctb
 75
     0
 76
   440
 77
     2
 78
   300
147
0.1249642857142857
148
-91.0201356709008
149
73.59871453016603
100
AcDbLayout
  1
Model
 70
     0
 71
     1
 10
0.0
 20
0.0
 11
1680.0
 21
2376.0
 12
0.0
 22
0.0
 32
0.0
 14
0.0
 24
0.0
 34
-0.0000000000000071
 15
1680.0
 25
2376.0
 35
0.0000000000000071
146
0.0
 13
0.0
 23
0.0
 33
0.0
 16
0.0
 26
0.0
 36
0.0
 17
0.0
 27
0.0
 37
0.0
 76
     0
330
A
331
15
1001
PLOTTRANSPARENCY
1071
        0
  0
MATERIAL
  5
265
102
{ACAD_REACTORS
330
263
102
}
330
263
100
AcDbMaterial
  1
ByBlock
 72
     1
 94
      127
  0
MATERIAL
  5
264
102
{ACAD_REACTORS
330
263
102
}
330
263
100
AcDbMaterial
  1
ByLayer
 72
     1
 94
      127
  0
MATERIAL
  5
266
102
{ACAD_REACTORS
330
263
102
}
330
263
100
AcDbMaterial
  1
Global
 72
     1
 94
      127
  0
MLEADERSTYLE
  5
D59
102
{ACAD_REACTORS
330
336
102
}
330
336
100
AcDbMLeaderStyle
170
     2
171
     1
172
     0
 90
        2
 40
0.0
 41
0.0
173
     1
 91
-1056964608
340
11
 92
       -2
290
     1
 42
2.0
291
     1
 43
8.0
  3
Standard
341
0
 44
4.0
300

342
17
174
     1
178
     6
175
     1
176
     0
 93
-1056964608
 45
4.0
292
     0
297
     0
 46
4.0
343
0
 94
-1056964608
 47
1.0
 49
1.0
140
1.0
293
     1
141
0.0
294
     1
177
     0
142
1.0
295
     0
296
     0
143
3.75
1001
ACAD_MLEADERVER
1070
     2
  0
MLINESTYLE
  5
1C
102
{ACAD_REACTORS
330
1B
102
}
330
1B
100
AcDbMlineStyle
  2
Standard
 70
     0
  3

 62
     0
 51
90.0
 52
90.0
 71
     2
 49
0.5
 62
   256
  6
BYLAYER
 49
-0.5
 62
   256
  6
BYLAYER
  0
ACDBPLACEHOLDER
  5
1D
102
{ACAD_REACTORS
330
1F
102
}
330
1F
  0
SCALE
  5
242
102
{ACAD_REACTORS
330
241
102
}
330
241
100
AcDbScale
 70
     0
300
1:1
140
1.0
141
1.0
290
     1
  0
SCALE
  5
243
102
{ACAD_REACTORS
330
241
102
}
330
241
100
AcDbScale
 70
     0
300
1:2
140
1.0
141
2.0
290
     0
  0
SCALE
  5
244
102
{ACAD_REACTORS
330
241
102
}
330
241
100
AcDbScale
 70
     0
300
1:4
140
1.0
141
4.0
290
     0
  0
SCALE
  5
245
102
{ACAD_REACTORS
330
241
102
}
330
241
100
AcDbScale
 70
     0
300
1:5
140
1.0
141
5.0
290
     0
  0
SCALE
  5
246
102
{ACAD_REACTORS
330
241
102
}
330
241
100
AcDbScale
 70
     0
300
1:8
140
1.0
141
8.0
290
     0
  0
SCALE
  5
247
102
{ACAD_REACTORS
330
241
102
}
330
241
100
AcDbScale
 70
     0
300
1:10
140
1.0
141
10.0
290
     0
  0
SCALE
  5
248
102
{ACAD_REACTORS
330
241
102
}
330
241
100
AcDbScale
 70
     0
300
1:16
140
1.0
141
16.0
290
     0
  0
SCALE
  5
249
102
{ACAD_REACTORS
330
241
102
}
330
241
100
AcDbScale
 70
     0
300
1:20
140
1.0
141
20.0
290
     0
  0
SCALE
  5
24A
102
{ACAD_REACTORS
330
241
102
}
330
241
100
AcDbScale
 70
     0
300
1:30
140
1.0
141
30.0
290
     0
  0
SCALE
  5
24B
102
{ACAD_REACTORS
330
241
102
}
330
241
100
AcDbScale
 70
     0
300
1:40
140
1.0
141
40.0
290
     0
  0
SCALE
  5
24C
102
{ACAD_REACTORS
330
241
102
}
330
241
100
AcDbScale
 70
     0
300
1:50
140
1.0
141
50.0
290
     0
  0
SCALE
  5
24D
102
{ACAD_REACTORS
330
241
102
}
330
241
100
AcDbScale
 70
     0
300
1:100
140
1.0
141
100.0
290
     0
  0
SCALE
  5
24E
102
{ACAD_REACTORS
330
241
102
}
330
241
100
AcDbScale
 70
     0
300
2:1
140
2.0
141
1.0
290
     0
  0
SCALE
  5
24F
102
{ACAD_REACTORS
330
241
102
}
330
241
100
AcDbScale
 70
     0
300
4:1
140
4.0
141
1.0
290
     0
  0
SCALE
  5
250
102
{ACAD_REACTORS
330
241
102
}
330
241
100
AcDbScale
 70
     0
300
8:1
140
8.0
141
1.0
290
     0
  0
SCALE
  5
251
102
{ACAD_REACTORS
330
241
102
}
330
241
100
AcDbScale
 70
     0
300
10:1
140
10.0
141
1.0
290
     0
  0
SCALE
  5
252
102
{ACAD_REACTORS
330
241
102
}
330
241
100
AcDbScale
 70
     0
300
100:1
140
100.0
141
1.0
290
     0
  0
SCALE
  5
253
102
{ACAD_REACTORS
330
241
102
}
330
241
100
AcDbScale
 70
     0
300
1/128" = 1'-0"
140
0.0078125
141
12.0
290
     0
  0
SCALE
  5
254
102
{ACAD_REACTORS
330
241
102
}
330
241
100
AcDbScale
 70
     0
300
1/64" = 1'-0"
140
0.015625
141
12.0
290
     0
  0
SCALE
  5
255
102
{ACAD_REACTORS
330
241
102
}
330
241
100
AcDbScale
 70
     0
300
1/32" = 1'-0"
140
0.03125
141
12.0
290
     0
  0
SCALE
  5
256
102
{ACAD_REACTORS
330
241
102
}
330
241
100
AcDbScale
 70
     0
300
1/16" = 1'-0"
140
0.0625
141
12.0
290
     0
  0
SCALE
  5
257
102
{ACAD_REACTORS
330
241
102
}
330
241
100
AcDbScale
 70
     0
300
3/32" = 1'-0"
140
0.09375
141
12.0
290
     0
  0
SCALE
  5
258
102
{ACAD_REACTORS
330
241
102
}
330
241
100
AcDbScale
 70
     0
300
1/8" = 1'-0"
140
0.125
141
12.0
290
     0
  0
SCALE
  5
259
102
{ACAD_REACTORS
330
241
102
}
330
241
100
AcDbScale
 70
     0
300
3/16" = 1'-0"
140
0.1875
141
12.0
290
     0
  0
SCALE
  5
25A
102
{ACAD_REACTORS
330
241
102
}
330
241
100
AcDbScale
 70
     0
300
1/4" = 1'-0"
140
0.25
141
12.0
290
     0
  0
SCALE
  5
25B
102
{ACAD_REACTORS
330
241
102
}
330
241
100
AcDbScale
 70
     0
300
3/8" = 1'-0"
140
0.375
141
12.0
290
     0
  0
SCALE
  5
25C
102
{ACAD_REACTORS
330
241
102
}
330
241
100
AcDbScale
 70
     0
300
1/2" = 1'-0"
140
0.5
141
12.0
290
     0
  0
SCALE
  5
25D
102
{ACAD_REACTORS
330
241
102
}
330
241
100
AcDbScale
 70
     0
300
3/4" = 1'-0"
140
0.75
141
12.0
290
     0
  0
SCALE
  5
25E
102
{ACAD_REACTORS
330
241
102
}
330
241
100
AcDbScale
 70
     0
300
1" = 1'-0"
140
1.0
141
12.0
290
     0
  0
SCALE
  5
25F
102
{ACAD_REACTORS
330
241
102
}
330
241
100
AcDbScale
 70
     0
300
1-1/2" = 1'-0"
140
1.5
141
12.0
290
     0
  0
SCALE
  5
260
102
{ACAD_REACTORS
330
241
102
}
330
241
100
AcDbScale
 70
     0
300
3" = 1'-0"
140
3.0
141
12.0
290
     0
  0
SCALE
  5
261
102
{ACAD_REACTORS
330
241
102
}
330
241
100
AcDbScale
 70
     0
300
6" = 1'-0"
140
6.0
141
12.0
290
     0
  0
SCALE
  5
262
102
{ACAD_REACTORS
330
241
102
}
330
241
100
AcDbScale
 70
     0
300
1'-0" = 1'-0"
140
12.0
141
12.0
290
     0
  0
TABLESTYLE
  5
279
102
{ACAD_REACTORS
330
278
102
}
102
{ACAD_XDICTIONARY
360
7961
102
}
330
278
100
AcDbTableStyle
  3
Standard
 70
     0
 71
     0
 40
0.06
 41
0.06
280
     0
281
     0
  7
Standard
140
4.5
170
     2
 62
     0
 63
   257
283
     0
 90
        4
 91
        0
  1

274
    -2
284
     1
 64
     0
275
    -2
285
     1
 65
     0
276
    -2
286
     1
 66
     0
277
    -2
287
     1
 67
     0
278
    -2
288
     1
 68
     0
279
    -2
289
     1
 69
     0
  7
Standard
140
6.0
170
     5
 62
     0
 63
   257
283
     0
 90
        4
 91
        0
  1

274
    -2
284
     1
 64
     0
275
    -2
285
     1
 65
     0
276
    -2
286
     1
 66
     0
277
    -2
287
     1
 67
     0
278
    -2
288
     1
 68
     0
279
    -2
289
     1
 69
     0
  7
Standard
140
4.5
170
     5
 62
     0
 63
   257
283
     0
 90
        4
 91
        0
  1

274
    -2
284
     1
 64
     0
275
    -2
285
     1
 65
     0
276
    -2
286
     1
 66
     0
277
    -2
287
     1
 67
     0
278
    -2
288
     1
 68
     0
279
    -2
289
     1
 69
     0
  0
VISUALSTYLE
  5
26C
102
{ACAD_REACTORS
330
267
102
}
330
267
100
AcDbVisualStyle
  2
2dWireframe
 70
     4
 71
     0
 72
     2
 73
     0
 90
        0
 40
-0.6
 41
-30.0
 62
     5
 63
     7
421
 16777215
 74
     1
 91
        4
 64
     7
 65
   257
 75
     1
175
     1
 42
1.0
 92
        0
 66
   257
 43
1.0
 76
     1
 77
     6
 78
     2
 67
     7
 79
     5
170
     0
171
     0
290
     0
174
     0
 93
        1
 44
0.0
173
     0
291
     0
 45
0.0
  0
VISUALSTYLE
  5
26E
102
{ACAD_REACTORS
330
267
102
}
330
267
100
AcDbVisualStyle
  2
3D Hidden
 70
     6
 71
     1
 72
     2
 73
     2
 90
        0
 40
-0.6
 41
-30.0
 62
     5
 63
     7
421
 16777215
 74
     2
 91
        2
 64
     7
 65
   257
 75
     2
175
     1
 42
40.0
 92
        0
 66
   257
 43
1.0
 76
     1
 77
     6
 78
     2
 67
     7
 79
     3
170
     0
171
     0
290
     0
174
     0
 93
        1
 44
0.0
173
     0
291
     0
 45
0.0
  0
VISUALSTYLE
  5
26D
102
{ACAD_REACTORS
330
267
102
}
330
267
100
AcDbVisualStyle
  2
3dWireframe
 70
     5
 71
     0
 72
     2
 73
     0
 90
        0
 40
-0.6
 41
-30.0
 62
     5
 63
     7
421
 16777215
 74
     1
 91
        4
 64
     7
 65
   257
 75
     1
175
     1
 42
1.0
 92
        0
 66
   257
 43
1.0
 76
     1
 77
     6
 78
     2
 67
     7
 79
     5
170
     0
171
     0
290
     0
174
     0
 93
        1
 44
0.0
173
     0
291
     0
 45
0.0
  0
VISUALSTYLE
  5
26F
102
{ACAD_REACTORS
330
267
102
}
330
267
100
AcDbVisualStyle
  2
Basic
 70
     7
 71
     1
 72
     0
 73
     1
 90
        0
 40
-0.6
 41
-30.0
 62
     5
 63
     7
421
 16777215
 74
     0
 91
        4
 64
     7
 65
   257
 75
     1
175
     1
 42
1.0
 92
        8
 66
     7
 43
1.0
 76
     1
 77
     6
 78
     2
 67
     7
 79
     5
170
     0
171
     0
290
     0
174
     0
 93
        1
 44
0.0
173
     0
291
     1
 45
0.0
  0
VISUALSTYLE
  5
273
102
{ACAD_REACTORS
330
267
102
}
330
267
100
AcDbVisualStyle
  2
Brighten
 70
    12
 71
     2
 72
     2
 73
     0
 90
        0
 40
-0.6
 41
-30.0
 62
     5
 63
     7
421
 16777215
 74
     1
 91
        4
 64
     7
 65
   257
 75
     1
175
     1
 42
1.0
 92
        8
 66
     7
 43
1.0
 76
     1
 77
     6
 78
     2
 67
     7
 79
     5
170
     0
171
     0
290
     0
174
     0
 93
        1
 44
50.0
173
     0
291
     1
 45
0.0
  0
VISUALSTYLE
  5
277
102
{ACAD_REACTORS
330
267
102
}
330
267
100
AcDbVisualStyle
  2
ColorChange
 70
    16
 71
     2
 72
     2
 73
     3
 90
        0
 40
-0.6
 41
-30.0
 62
     5
 63
     8
421
  8421504
 74
     1
 91
        4
 64
     7
 65
   257
 75
     1
175
     1
 42
1.0
 92
        8
 66
     8
424
  8421504
 43
1.0
 76
     1
 77
     6
 78
     2
 67
     7
 79
     5
170
     0
171
     0
290
     0
174
     0
 93
        1
 44
0.0
173
     0
291
     1
 45
0.0
  0
VISUALSTYLE
  5
271
102
{ACAD_REACTORS
330
267
102
}
330
267
100
AcDbVisualStyle
  2
Conceptual
 70
     9
 71
     3
 72
     2
 73
     0
 90
        0
 40
-0.6
 41
-30.0
 62
     5
 63
     7
421
 16777215
 74
     2
 91
        2
 64
     7
 65
   257
 75
     1
175
     1
 42
40.0
 92
        8
 66
     7
 43
1.0
 76
     1
 77
     6
 78
     2
 67
     7
 79
     3
170
     0
171
     0
290
     0
174
     0
 93
        1
 44
0.0
173
     0
291
     0
 45
0.0
  0
VISUALSTYLE
  5
272
102
{ACAD_REACTORS
330
267
102
}
330
267
100
AcDbVisualStyle
  2
Dim
 70
    11
 71
     2
 72
     2
 73
     0
 90
        0
 40
-0.6
 41
-30.0
 62
     5
 63
     7
421
 16777215
 74
     1
 91
        4
 64
     7
 65
   257
 75
     1
175
     1
 42
1.0
 92
        8
 66
     7
 43
1.0
 76
     1
 77
     6
 78
     2
 67
     7
 79
     5
170
     0
171
     0
290
     0
174
     0
 93
        1
 44
-50.0
173
     0
291
     1
 45
0.0
  0
VISUALSTYLE
  5
8FE
102
{ACAD_REACTORS
330
267
102
}
330
267
100
AcDbVisualStyle
  2
EdgeColorOff
 70
    22
 71
     2
 72
     2
 73
     0
 90
        0
 40
0.6
 41
30.0
 62
     5
 63
     7
421
 16777215
 74
     1
 91
        4
 64
     7
 65
   257
 75
     1
175
     1
 42
1.0
 92
        8
 66
     7
 43
1.0
 76
     1
 77
     6
 78
     2
 67
     7
 79
     5
170
     0
171
     0
290
     0
174
     0
 93
        1
 44
0.0
173
     0
291
     1
 45
0.0
  0
VISUALSTYLE
  5
276
102
{ACAD_REACTORS
330
267
102
}
330
267
100
AcDbVisualStyle
  2
Facepattern
 70
    15
 71
     2
 72
     2
 73
     0
 90
        0
 40
-0.6
 41
-30.0
 62
     5
 63
     7
421
 16777215
 74
     1
 91
        4
 64
     7
 65
   257
 75
     1
175
     1
 42
1.0
 92
        8
 66
     7
 43
1.0
 76
     1
 77
     6
 78
     2
 67
     7
 79
     5
170
     0
171
     0
290
     0
174
     0
 93
        1
 44
0.0
173
     0
291
     1
 45
0.0
  0
VISUALSTYLE
  5
268
102
{ACAD_REACTORS
330
267
102
}
330
267
100
AcDbVisualStyle
  2
Flat
 70
     0
 71
     2
 72
     1
 73
     1
 90
        2
 40
-0.6
 41
30.0
 62
     5
 63
     7
421
 16777215
 74
     0
 91
        4
 64
     7
 65
   257
 75
     1
175
     1
 42
1.0
 92
        8
 66
     7
 43
1.0
 76
     1
 77
     6
 78
     2
 67
     7
 79
     5
170
     0
171
     0
290
     0
174
     0
 93
       13
 44
0.0
173
     0
291
     1
 45
0.0
  0
VISUALSTYLE
  5
269
102
{ACAD_REACTORS
330
267
102
}
330
267
100
AcDbVisualStyle
  2
FlatWithEdges
 70
     1
 71
     2
 72
     1
 73
     1
 90
        2
 40
-0.6
 41
30.0
 62
     5
 63
     7
421
 16777215
 74
     1
 91
        4
 64
     7
 65
   257
 75
     1
175
     1
 42
1.0
 92
        0
 66
   257
 43
1.0
 76
     1
 77
     6
 78
     2
 67
     7
 79
     5
170
     0
171
     0
290
     0
174
     0
 93
       13
 44
0.0
173
     0
291
     1
 45
0.0
  0
VISUALSTYLE
  5
26A
102
{ACAD_REACTORS
330
267
102
}
330
267
100
AcDbVisualStyle
  2
Gouraud
 70
     2
 71
     2
 72
     2
 73
     1
 90
        2
 40
-0.6
 41
30.0
 62
     5
 63
     7
421
 16777215
 74
     0
 91
        4
 64
     7
 65
   257
 75
     1
175
     1
 42
1.0
 92
        0
 66
     7
 43
1.0
 76
     1
 77
     6
 78
     2
 67
     7
 79
     5
170
     0
171
     0
290
     0
174
     0
 93
       13
 44
0.0
173
     0
291
     1
 45
0.0
  0
VISUALSTYLE
  5
26B
102
{ACAD_REACTORS
330
267
102
}
330
267
100
AcDbVisualStyle
  2
GouraudWithEdges
 70
     3
 71
     2
 72
     2
 73
     1
 90
        2
 40
-0.6
 41
30.0
 62
     5
 63
     7
421
 16777215
 74
     1
 91
        4
 64
     7
 65
   257
 75
     1
175
     1
 42
1.0
 92
        0
 66
   257
 43
1.0
 76
     1
 77
     6
 78
     2
 67
     7
 79
     5
170
     0
171
     0
290
     0
174
     0
 93
       13
 44
0.0
173
     0
291
     1
 45
0.0
  0
VISUALSTYLE
  5
8FB
102
{ACAD_REACTORS
330
267
102
}
330
267
100
AcDbVisualStyle
  2
Hidden
 70
     6
 71
     1
 72
     2
 73
     2
 90
        0
 40
0.6
 41
30.0
 62
     5
 63
     7
421
 16777215
 74
     2
 91
        2
 64
     7
 65
   257
 75
     2
175
     1
 42
40.0
 92
        0
 66
   257
 43
1.0
 76
     1
 77
     6
 78
     2
 67
     7
 79
     3
170
     0
171
     0
290
     0
174
     0
 93
        1
 44
0.0
173
     0
291
     0
 45
0.0
  0
VISUALSTYLE
  5
8FC
102
{ACAD_REACTORS
330
267
102
}
330
267
100
AcDbVisualStyle
  2
JitterOff
 70
    20
 71
     2
 72
     2
 73
     0
 90
        0
 40
0.6
 41
30.0
 62
     5
 63
     7
421
 16777215
 74
     1
 91
        4
 64
     7
 65
   257
 75
     1
175
     1
 42
1.0
 92
       10
 66
     7
 43
1.0
 76
     1
 77
     6
 78
     2
 67
     7
 79
     5
170
     0
171
     0
290
     0
174
     0
 93
        1
 44
0.0
173
     0
291
     1
 45
0.0
  0
VISUALSTYLE
  5
275
102
{ACAD_REACTORS
330
267
102
}
330
267
100
AcDbVisualStyle
  2
Linepattern
 70
    14
 71
     2
 72
     2
 73
     0
 90
        0
 40
-0.6
 41
-30.0
 62
     5
 63
     7
421
 16777215
 74
     1
 91
        4
 64
     7
 65
   257
 75
     7
175
     7
 42
1.0
 92
        8
 66
     7
 43
1.0
 76
     1
 77
     6
 78
     2
 67
     7
 79
     5
170
     0
171
     0
290
     0
174
     0
 93
        1
 44
0.0
173
     0
291
     1
 45
0.0
  0
VISUALSTYLE
  5
8FD
102
{ACAD_REACTORS
330
267
102
}
330
267
100
AcDbVisualStyle
  2
OverhangOff
 70
    21
 71
     2
 72
     2
 73
     0
 90
        0
 40
0.6
 41
30.0
 62
     5
 63
     7
421
 16777215
 74
     1
 91
        4
 64
     7
 65
   257
 75
     1
175
     1
 42
1.0
 92
        9
 66
     7
 43
1.0
 76
     1
 77
     6
 78
     2
 67
     7
 79
     5
170
     0
171
     0
290
     0
174
     0
 93
        1
 44
0.0
173
     0
291
     1
 45
0.0
  0
VISUALSTYLE
  5
270
102
{ACAD_REACTORS
330
267
102
}
330
267
100
AcDbVisualStyle
  2
Realistic
 70
     8
 71
     2
 72
     2
 73
     0
 90
        0
 40
-0.6
 41
-30.0
 62
     5
 63
     7
421
 16777215
 74
     1
 91
        0
 64
     7
 65
   257
 75
     1
175
     1
 42
1.0
 92
        8
 66
     8
424
  7895160
 43
1.0
 76
     1
 77
     6
 78
     2
 67
     7
 79
     5
170
     0
171
     0
290
     0
174
     0
 93
       13
 44
0.0
173
     0
291
     0
 45
0.0
  0
VISUALSTYLE
  5
903
102
{ACAD_REACTORS
330
267
102
}
330
267
100
AcDbVisualStyle
  2
Shaded
 70
    27
 71
     2
 72
     2
 73
     1
 90
        2
 40
0.6
 41
30.0
 62
     5
 63
     7
421
 16777215
 74
     0
 91
        4
 64
     7
 65
   257
 75
     1
175
     1
 42
1.0
 92
        8
 66
   257
 43
1.0
 76
     1
 77
     6
 78
     2
 67
     8
425
  7895160
 79
     3
170
     0
171
     0
290
     0
174
     0
 93
        5
 44
0.0
173
     0
291
     0
 45
0.0
  0
VISUALSTYLE
  5
902
102
{ACAD_REACTORS
330
267
102
}
330
267
100
AcDbVisualStyle
  2
Shaded with edges
 70
    26
 71
     2
 72
     2
 73
     1
 90
        2
 40
0.6
 41
30.0
 62
     5
 63
     7
421
 16777215
 74
     1
 91
       10
 64
     7
 65
   257
 75
     2
175
     1
 42
1.0
 92
        8
 66
   257
 43
1.0
 76
     1
 77
     6
 78
     2
 67
     7
 79
     3
170
     0
171
     0
290
     0
174
     0
 93
        5
 44
0.0
173
     0
291
     0
 45
0.0
  0
VISUALSTYLE
  5
8FF
102
{ACAD_REACTORS
330
267
102
}
330
267
100
AcDbVisualStyle
  2
Shades of Gray
 70
    23
 71
     2
 72
     2
 73
     3
 90
        0
 40
0.6
 41
30.0
 62
     5
 63
     7
421
 16777215
 74
     2
 91
        2
 64
     7
 65
     7
 75
     1
175
     1
 42
40.0
 92
        8
 66
     7
 43
1.0
 76
     1
 77
     6
 78
     2
 67
     7
 79
     3
170
     0
171
     0
290
     0
174
     0
 93
        1
 44
0.0
173
     0
291
     0
 45
0.0
  0
VISUALSTYLE
  5
900
102
{ACAD_REACTORS
330
267
102
}
330
267
100
AcDbVisualStyle
  2
Sketchy
 70
    24
 71
     1
 72
     2
 73
     2
 90
        0
 40
0.6
 41
30.0
 62
     5
 63
     7
421
 16777215
 74
     2
 91
        2
 64
     7
 65
     7
 75
     1
175
     1
 42
40.0
 92
       11
 66
     7
 43
1.0
 76
     1
 77
     6
 78
     2
 67
     7
 79
     6
170
     0
171
     0
290
     0
174
     0
 93
        1
 44
0.0
173
     0
291
     0
 45
0.0
  0
VISUALSTYLE
  5
274
102
{ACAD_REACTORS
330
267
102
}
330
267
100
AcDbVisualStyle
  2
Thicken
 70
    13
 71
     2
 72
     2
 73
     0
 90
        0
 40
-0.6
 41
-30.0
 62
     5
 63
     7
421
 16777215
 74
     1
 91
        4
 64
     7
 65
   257
 75
     1
175
     1
 42
1.0
 92
       12
 66
     7
 43
1.0
 76
     1
 77
     6
 78
     2
 67
     7
 79
     5
170
     0
171
     0
290
     0
174
     0
 93
        1
 44
0.0
173
     0
291
     1
 45
0.0
  0
VISUALSTYLE
  5
8FA
102
{ACAD_REACTORS
330
267
102
}
330
267
100
AcDbVisualStyle
  2
Wireframe
 70
     5
 71
     0
 72
     2
 73
     0
 90
        0
 40
0.6
 41
30.0
 62
     5
 63
     7
421
 16777215
 74
     1
 91
        4
 64
     7
 65
   257
 75
     1
175
     1
 42
1.0
 92
        0
 66
   257
 43
1.0
 76
     1
 77
     6
 78
     2
 67
     7
 79
     3
170
     0
171
     0
290
     0
174
     0
 93
        1
 44
0.0
173
     0
291
     0
 45
0.0
  0
VISUALSTYLE
  5
901
102
{ACAD_REACTORS
330
267
102
}
330
267
100
AcDbVisualStyle
  2
X-Ray
 70
    25
 71
     2
 72
     2
 73
     1
 90
        1
 40
0.5
 41
30.0
 62
     5
 63
     7
421
 16777215
 74
     1
 91
        0
 64
     7
 65
   257
 75
     1
175
     1
 42
1.0
 92
        8
 66
     7
 43
1.0
 76
     1
 77
     6
 78
     2
 67
     7
 79
     3
170
     0
171
     0
290
     0
174
     0
 93
       13
 44
0.0
173
     0
291
     0
 45
0.0
  0
DICTIONARYVAR
  5
331
102
{ACAD_REACTORS
330
330
102
}
330
330
100
DictionaryVariables
280
     0
  1
1:1
  0
DICTIONARYVAR
  5
D5E
102
{ACAD_REACTORS
330
330
102
}
330
330
100
DictionaryVariables
280
     0
  1
Standard
  0
DICTIONARYVAR
  5
335
102
{ACAD_REACTORS
330
330
102
}
330
330
100
DictionaryVariables
280
     0
  1
Standard
  0
DICTIONARYVAR
  5
D52
102
{ACAD_REACTORS
330
330
102
}
330
330
100
DictionaryVariables
280
     0
  1
ByLayer
  0
DICTIONARYVAR
  5
896
102
{ACAD_REACTORS
330
330
102
}
330
330
100
DictionaryVariables
280
     0
  1
0
  0
DICTIONARYVAR
  5
246C
102
{ACAD_REACTORS
330
E38
102
}
330
E38
100
DictionaryVariables
280
     0
  1
0.261799
  0
DICTIONARYVAR
  5
246A
102
{ACAD_REACTORS
330
E38
102
}
330
E38
100
DictionaryVariables
280
     0
  1
0.400000
  0
DICTIONARYVAR
  5
246B
102
{ACAD_REACTORS
330
E38
102
}
330
E38
100
DictionaryVariables
280
     0
  1
0.250000
  0
DICTIONARYVAR
  5
246D
102
{ACAD_REACTORS
330
E38
102
}
330
E38
100
DictionaryVariables
280
     0
  1
1
  0
DICTIONARY
  5
7961
330
279
100
AcDbDictionary
280
     1
281
     1
  3
ACAD_ROUNDTRIP_2008_TABLESTYLE_CELLSTYLEMAP
360
7962
  0
CELLSTYLEMAP
  5
7962
102
{ACAD_REACTORS
330
7961
102
}
330
7961
100
AcDbCellStyleMap
 90
        3
300
CELLSTYLE
  1
TABLEFORMAT_BEGIN
 90
        5
170
     1
 91
        0
 92
    32768
 62
   257
 93
        1
300
CONTENTFORMAT
  1
CONTENTFORMAT_BEGIN
 90
        0
 91
        0
 92
        4
 93
        0
300

 40
0.0
140
1.0
 94
        5
 62
     0
340
17
144
6.0
309
CONTENTFORMAT_END
171
     1
301
MARGIN
  1
CELLMARGIN_BEGIN
 40
0.06
 40
0.06
 40
0.06
 40
0.06
 40
0.18
 40
0.18
309
CELLMARGIN_END
 94
        6
 95
        1
302
GRIDFORMAT
  1
GRIDFORMAT_BEGIN
 90
        0
 91
        1
 62
     0
 92
       -2
340
0
 93
        0
 40
0.045
309
GRIDFORMAT_END
 95
        2
302
GRIDFORMAT
  1
GRIDFORMAT_BEGIN
 90
        0
 91
        1
 62
     0
 92
       -2
340
0
 93
        0
 40
0.045
309
GRIDFORMAT_END
 95
        4
302
GRIDFORMAT
  1
GRIDFORMAT_BEGIN
 90
        0
 91
        1
 62
     0
 92
       -2
340
0
 93
        0
 40
0.045
309
GRIDFORMAT_END
 95
        8
302
GRIDFORMAT
  1
GRIDFORMAT_BEGIN
 90
        0
 91
        1
 62
     0
 92
       -2
340
0
 93
        0
 40
0.045
309
GRIDFORMAT_END
 95
       16
302
GRIDFORMAT
  1
GRIDFORMAT_BEGIN
 90
        0
 91
        1
 62
     0
 92
       -2
340
0
 93
        0
 40
0.045
309
GRIDFORMAT_END
 95
       32
302
GRIDFORMAT
  1
GRIDFORMAT_BEGIN
 90
        0
 91
        1
 62
     0
 92
       -2
340
0
 93
        0
 40
0.045
309
GRIDFORMAT_END
309
TABLEFORMAT_END
  1
CELLSTYLE_BEGIN
 90
        1
 91
        1
300
_TITLE
309
CELLSTYLE_END
300
CELLSTYLE
  1
TABLEFORMAT_BEGIN
 90
        5
170
     1
 91
        0
 92
        0
 62
   257
 93
        1
300
CONTENTFORMAT
  1
CONTENTFORMAT_BEGIN
 90
        0
 91
        0
 92
        4
 93
        0
300

 40
0.0
140
1.0
 94
        5
 62
     0
340
17
144
4.5
309
CONTENTFORMAT_END
171
     1
301
MARGIN
  1
CELLMARGIN_BEGIN
 40
0.06
 40
0.06
 40
0.06
 40
0.06
 40
0.18
 40
0.18
309
CELLMARGIN_END
 94
        6
 95
        1
302
GRIDFORMAT
  1
GRIDFORMAT_BEGIN
 90
        0
 91
        1
 62
     0
 92
       -2
340
0
 93
        0
 40
0.045
309
GRIDFORMAT_END
 95
        2
302
GRIDFORMAT
  1
GRIDFORMAT_BEGIN
 90
        0
 91
        1
 62
     0
 92
       -2
340
0
 93
        0
 40
0.045
309
GRIDFORMAT_END
 95
        4
302
GRIDFORMAT
  1
GRIDFORMAT_BEGIN
 90
        0
 91
        1
 62
     0
 92
       -2
340
0
 93
        0
 40
0.045
309
GRIDFORMAT_END
 95
        8
302
GRIDFORMAT
  1
GRIDFORMAT_BEGIN
 90
        0
 91
        1
 62
     0
 92
       -2
340
0
 93
        0
 40
0.045
309
GRIDFORMAT_END
 95
       16
302
GRIDFORMAT
  1
GRIDFORMAT_BEGIN
 90
        0
 91
        1
 62
     0
 92
       -2
340
0
 93
        0
 40
0.045
309
GRIDFORMAT_END
 95
       32
302
GRIDFORMAT
  1
GRIDFORMAT_BEGIN
 90
        0
 91
        1
 62
     0
 92
       -2
340
0
 93
        0
 40
0.045
309
GRIDFORMAT_END
309
TABLEFORMAT_END
  1
CELLSTYLE_BEGIN
 90
        2
 91
        1
300
_HEADER
309
CELLSTYLE_END
300
CELLSTYLE
  1
TABLEFORMAT_BEGIN
 90
        5
170
     1
 91
        0
 92
        0
 62
   257
 93
        1
300
CONTENTFORMAT
  1
CONTENTFORMAT_BEGIN
 90
        0
 91
        0
 92
        4
 93
        0
300

 40
0.0
140
1.0
 94
        2
 62
     0
340
17
144
4.5
309
CONTENTFORMAT_END
171
     1
301
MARGIN
  1
CELLMARGIN_BEGIN
 40
0.06
 40
0.06
 40
0.06
 40
0.06
 40
0.18
 40
0.18
309
CELLMARGIN_END
 94
        6
 95
        1
302
GRIDFORMAT
  1
GRIDFORMAT_BEGIN
 90
        0
 91
        1
 62
     0
 92
       -2
340
0
 93
        0
 40
0.045
309
GRIDFORMAT_END
 95
        2
302
GRIDFORMAT
  1
GRIDFORMAT_BEGIN
 90
        0
 91
        1
 62
     0
 92
       -2
340
0
 93
        0
 40
0.045
309
GRIDFORMAT_END
 95
        4
302
GRIDFORMAT
  1
GRIDFORMAT_BEGIN
 90
        0
 91
        1
 62
     0
 92
       -2
340
0
 93
        0
 40
0.045
309
GRIDFORMAT_END
 95
        8
302
GRIDFORMAT
  1
GRIDFORMAT_BEGIN
 90
        0
 91
        1
 62
     0
 92
       -2
340
0
 93
        0
 40
0.045
309
GRIDFORMAT_END
 95
       16
302
GRIDFORMAT
  1
GRIDFORMAT_BEGIN
 90
        0
 91
        1
 62
     0
 92
       -2
340
0
 93
        0
 40
0.045
309
GRIDFORMAT_END
 95
       32
302
GRIDFORMAT
  1
GRIDFORMAT_BEGIN
 90
        0
 91
        1
 62
     0
 92
       -2
340
0
 93
        0
 40
0.045
309
GRIDFORMAT_END
309
TABLEFORMAT_END
  1
CELLSTYLE_BEGIN
 90
        3
 91
        2
300
_DATA
309
CELLSTYLE_END
  0
ENDSEC
  0
EOF
