  0
SECTION
  2
HEADER
  9
$ACADVER
  1
AC1021
  9
$ACADMAINTVER
 70
    25
  9
$DWGCODEPAGE
  3
ANSI_932
  9
$LASTSAVEDBY
  1
tform
  9
$INSBASE
 10
0.0
 20
0.0
 30
0.0
  9
$EXTMIN
 10
0.0
 20
0.0
 30
-0.0000000000000142
  9
$EXTMAX
 10
2100.0
 20
2970.0
 30
34.99521132346014
  9
$LIMMIN
 10
0.0
 20
0.0
  9
$LIMMAX
 10
2100.0
 20
2970.0
  9
$ORTHOMODE
 70
     1
  9
$REGENMODE
 70
     1
  9
$FILLMODE
 70
     1
  9
$QTEXTMODE
 70
     0
  9
$MIRRTEXT
 70
     1
  9
$LTSCALE
 40
5.0
  9
$ATTMODE
 70
     1
  9
$TEXTSIZE
 40
2.5
  9
$TRACEWID
 40
1.0
  9
$TEXTSTYLE
  7
ＭＳ ゴシック
  9
$CLAYER
  8
DIM
  9
$CELTYPE
  6
ByLayer
  9
$CECOLOR
 62
   256
  9
$CELTSCALE
 40
1.0
  9
$DISPSILH
 70
     0
  9
$DIMSCALE
 40
1.0
  9
$DIMASZ
 40
10.0
  9
$DIMEXO
 40
30.0
  9
$DIMDLI
 40
0.9999999999999999
  9
$DIMRND
 40
0.0
  9
$DIMDLE
 40
0.0
  9
$DIMEXE
 40
0.0
  9
$DIMTP
 40
0.0
  9
$DIMTM
 40
0.0
  9
$DIMTXT
 40
24.0
  9
$DIMCEN
 40
0.0
  9
$DIMTSZ
 40
0.0
  9
$DIMTOL
 70
     0
  9
$DIMLIM
 70
     0
  9
$DIMTIH
 70
     0
  9
$DIMTOH
 70
     0
  9
$DIMSE1
 70
     0
  9
$DIMSE2
 70
     0
  9
$DIMTAD
 70
     1
  9
$DIMZIN
 70
    11
  9
$DIMBLK
  1
DOT
  9
$DIMASO
 70
     1
  9
$DIMSHO
 70
     1
  9
$DIMPOST
  1
<>
  9
$DIMAPOST
  1
[]
  9
$DIMALT
 70
     0
  9
$DIMALTD
 70
     1
  9
$DIMALTF
 40
1.0
  9
$DIMLFAC
 40
1.0
  9
$DIMTOFL
 70
     0
  9
$DIMTVP
 40
0.0
  9
$DIMTIX
 70
     1
  9
$DIMSOXD
 70
     0
  9
$DIMSAH
 70
     0
  9
$DIMBLK1
  1

  9
$DIMBLK2
  1

  9
$DIMSTYLE
  2
tfrom線あり
  9
$DIMCLRD
 70
     0
  9
$DIMCLRE
 70
     0
  9
$DIMCLRT
 70
     0
  9
$DIMTFAC
 40
1.0
  9
$DIMGAP
 40
20.0
  9
$DIMJUST
 70
     0
  9
$DIMSD1
 70
     0
  9
$DIMSD2
 70
     0
  9
$DIMTOLJ
 70
     1
  9
$DIMTZIN
 70
    11
  9
$DIMALTZ
 70
    11
  9
$DIMALTTZ
 70
    11
  9
$DIMUPT
 70
     0
  9
$DIMDEC
 70
     0
  9
$DIMTDEC
 70
     1
  9
$DIMALTU
 70
     2
  9
$DIMALTTD
 70
     2
  9
$DIMTXSTY
  7
ＭＳ ゴシック
  9
$DIMAUNIT
 70
     0
  9
$DIMADEC
 70
     2
  9
$DIMALTRND
 40
0.0
  9
$DIMAZIN
 70
     0
  9
$DIMDSEP
 70
    46
  9
$DIMATFIT
 70
     0
  9
$DIMFRAC
 70
     2
  9
$DIMLDRBLK
  1
DOT
  9
$DIMLUNIT
 70
     2
  9
$DIMLWD
 70
    -2
  9
$DIMLWE
 70
    -2
  9
$DIMTMOVE
 70
     0
  9
$DIMFXL
 40
1.0
  9
$DIMFXLON
 70
     0
  9
$DIMJOGANG
 40
0.7853981633974483
  9
$DIMTFILL
 70
     0
  9
$DIMTFILLCLR
 70
     0
  9
$DIMARCSYM
 70
     0
  9
$DIMLTYPE
  6

  9
$DIMLTEX1
  6

  9
$DIMLTEX2
  6

  9
$LUNITS
 70
     2
  9
$LUPREC
 70
     0
  9
$SKETCHINC
 40
0.1
  9
$FILLETRAD
 40
0.0
  9
$AUNITS
 70
     0
  9
$AUPREC
 70
     0
  9
$MENU
  1
acad
  9
$ELEVATION
 40
0.0
  9
$PELEVATION
 40
0.0
  9
$THICKNESS
 40
0.0
  9
$LIMCHECK
 70
     0
  9
$CHAMFERA
 40
0.0
  9
$CHAMFERB
 40
0.0
  9
$CHAMFERC
 40
0.0
  9
$CHAMFERD
 40
0.0
  9
$SKPOLY
 70
     0
  9
$TDCREATE
 40
2447893.375
  9
$TDUCREATE
 40
0.0
  9
$TDUPDATE
 40
2460417.696500856
  9
$TDUUPDATE
 40
2460417.321500856
  9
$TDINDWG
 40
0.1899459954
  9
$TDUSRTIMER
 40
0.0005659375
  9
$USRTIMER
 70
     1
  9
$ANGBASE
 50
0.0
  9
$ANGDIR
 70
     0
  9
$PDMODE
 70
     1
  9
$PDSIZE
 40
-2.0
  9
$PLINEWID
 40
0.0
  9
$SPLFRAME
 70
     0
  9
$SPLINETYPE
 70
     6
  9
$SPLINESEGS
 70
     8
  9
$HANDSEED
  5
3F5C
  9
$SURFTAB1
 70
     6
  9
$SURFTAB2
 70
     6
  9
$SURFTYPE
 70
     6
  9
$SURFU
 70
     6
  9
$SURFV
 70
     6
  9
$UCSBASE
  2

  9
$UCSNAME
  2

  9
$UCSORG
 10
0.0
 20
0.0
 30
0.0
  9
$UCSXDIR
 10
1.0
 20
0.0
 30
0.0
  9
$UCSYDIR
 10
0.0
 20
1.0
 30
0.0
  9
$UCSORTHOREF
  2

  9
$UCSORTHOVIEW
 70
     0
  9
$UCSORGTOP
 10
0.0
 20
0.0
 30
0.0
  9
$UCSORGBOTTOM
 10
0.0
 20
0.0
 30
0.0
  9
$UCSORGLEFT
 10
0.0
 20
0.0
 30
0.0
  9
$UCSORGRIGHT
 10
0.0
 20
0.0
 30
0.0
  9
$UCSORGFRONT
 10
0.0
 20
0.0
 30
0.0
  9
$UCSORGBACK
 10
0.0
 20
0.0
 30
0.0
  9
$PUCSBASE
  2

  9
$PUCSNAME
  2

  9
$PUCSORG
 10
0.0
 20
0.0
 30
0.0
  9
$PUCSXDIR
 10
1.0
 20
0.0
 30
0.0
  9
$PUCSYDIR
 10
0.0
 20
1.0
 30
0.0
  9
$PUCSORTHOREF
  2

  9
$PUCSORTHOVIEW
 70
     0
  9
$PUCSORGTOP
 10
0.0
 20
0.0
 30
0.0
  9
$PUCSORGBOTTOM
 10
0.0
 20
0.0
 30
0.0
  9
$PUCSORGLEFT
 10
0.0
 20
0.0
 30
0.0
  9
$PUCSORGRIGHT
 10
0.0
 20
0.0
 30
0.0
  9
$PUCSORGFRONT
 10
0.0
 20
0.0
 30
0.0
  9
$PUCSORGBACK
 10
0.0
 20
0.0
 30
0.0
  9
$USERI1
 70
     0
  9
$USERI2
 70
     0
  9
$USERI3
 70
     0
  9
$USERI4
 70
     0
  9
$USERI5
 70
     0
  9
$USERR1
 40
0.0
  9
$USERR2
 40
0.0
  9
$USERR3
 40
0.0
  9
$USERR4
 40
0.0
  9
$USERR5
 40
0.0
  9
$WORLDVIEW
 70
     1
  9
$SHADEDGE
 70
     3
  9
$SHADEDIF
 70
    70
  9
$TILEMODE
 70
     1
  9
$MAXACTVP
 70
    64
  9
$PINSBASE
 10
0.0
 20
0.0
 30
0.0
  9
$PLIMCHECK
 70
     0
  9
$PEXTMIN
 10
0.0
 20
0.0
 30
0.0
  9
$PEXTMAX
 10
0.0
 20
0.0
 30
0.0
  9
$PLIMMIN
 10
-7.5
 20
-20.0
  9
$PLIMMAX
 10
412.5
 20
277.0
  9
$UNITMODE
 70
     0
  9
$VISRETAIN
 70
     0
  9
$PLINEGEN
 70
     1
  9
$PSLTSCALE
 70
     0
  9
$TREEDEPTH
 70
  3020
  9
$CMLSTYLE
  2
Standard
  9
$CMLJUST
 70
     0
  9
$CMLSCALE
 40
1.0
  9
$PROXYGRAPHICS
 70
     0
  9
$MEASUREMENT
 70
     1
  9
$CELWEIGHT
370
    -1
  9
$ENDCAPS
280
     0
  9
$JOINSTYLE
280
     0
  9
$LWDISPLAY
290
     1
  9
$INSUNITS
 70
     4
  9
$HYPERLINKBASE
  1

  9
$STYLESHEET
  1

  9
$XEDIT
290
     1
  9
$CEPSNTYPE
380
     0
  9
$PSTYLEMODE
290
     1
  9
$FINGERPRINTGUID
  2

  9
$VERSIONGUID
  2

  9
$EXTNAMES
290
     1
  9
$PSVPSCALE
 40
0.0
  9
$OLESTARTUP
290
     0
  9
$SORTENTS
280
   127
  9
$INDEXCTL
280
     0
  9
$HIDETEXT
280
     1
  9
$XCLIPFRAME
290
     0
  9
$HALOGAP
280
     0
  9
$OBSCOLOR
 70
   257
  9
$OBSLTYPE
280
     0
  9
$INTERSECTIONDISPLAY
280
     0
  9
$INTERSECTIONCOLOR
 70
   257
  9
$DIMASSOC
280
     2
  9
$PROJECTNAME
  1

  9
$CAMERADISPLAY
290
     0
  9
$LENSLENGTH
 40
50.0
  9
$CAMERAHEIGHT
 40
0.0
  9
$STEPSPERSEC
 40
2.0
  9
$STEPSIZE
 40
6.0
  9
$3DDWFPREC
 40
2.0
  9
$PSOLWIDTH
 40
0.25
  9
$PSOLHEIGHT
 40
4.0
  9
$LOFTANG1
 40
1.570796326794897
  9
$LOFTANG2
 40
1.570796326794897
  9
$LOFTMAG1
 40
0.0
  9
$LOFTMAG2
 40
0.0
  9
$LOFTPARAM
 70
     7
  9
$LOFTNORMALS
280
     1
  9
$LATITUDE
 40
37.795
  9
$LONGITUDE
 40
-122.394
  9
$NORTHDIRECTION
 40
0.0
  9
$TIMEZONE
 70
 -8000
  9
$LIGHTGLYPHDISPLAY
280
     1
  9
$TILEMODELIGHTSYNCH
280
     1
  9
$SOLIDHIST
280
     1
  9
$SHOWHIST
280
     1
  9
$DWFFRAME
280
     2
  9
$DGNFRAME
280
     2
  9
$REALWORLDSCALE
290
     1
  9
$INTERFERECOLOR
 62
   256
  9
$CSHADOW
280
     0
  9
$SHADOWPLANELOCATION
 40
0.0
  0
ENDSEC
  0
SECTION
  2
CLASSES
  0
CLASS
  1
LWPOLYLINE
  2
AcDbPolyline
  3
ObjectDBX Classes
 90
        0
 91
        1
280
     0
281
     1
  0
CLASS
  1
IMAGE
  2
AcDbRasterImage
  3
ISM
 90
      127
 91
        4
280
     0
281
     1
  0
CLASS
  1
OLE2FRAME
  2
AcDbOle2Frame
  3
ObjectDBX Classes
 90
        0
 91
        1
280
     0
281
     1
  0
CLASS
  1
HATCH
  2
AcDbHatch
  3
ObjectDBX Classes
 90
        0
 91
        1
280
     0
281
     1
  0
CLASS
  1
DICTIONARYVAR
  2
AcDbDictionaryVar
  3
ObjectDBX Classes
 90
        0
 91
        3
280
     0
281
     0
  0
CLASS
  1
RASTERVARIABLES
  2
AcDbRasterVariables
  3
ISM
 90
        0
 91
        3
280
     0
281
     0
  0
CLASS
  1
IMAGEDEF
  2
AcDbRasterImageDef
  3
ISM
 90
        0
 91
        3
280
     0
281
     0
  0
CLASS
  1
IMAGEDEF_REACTOR
  2
AcDbRasterImageDefReactor
  3
ISM
 90
        1
 91
        3
280
     0
281
     0
  0
CLASS
  1
IDBUFFER
  2
AcDbIdBuffer
  3
ObjectDBX Classes
 90
        0
 91
        3
280
     0
281
     0
  0
CLASS
  1
SPATIAL_FILTER
  2
AcDbSpatialFilter
  3
ObjectDBX Classes
 90
        0
 91
        3
280
     0
281
     0
  0
CLASS
  1
XRECORD
  2
AcDbXrecord
  3
ObjectDBX Classes
 90
        0
 91
        1
280
     0
281
     0
  0
CLASS
  1
SORTENTSTABLE
  2
AcDbSortentsTable
  3
ObjectDBX Classes
 90
        0
 91
        3
280
     0
281
     0
  0
CLASS
  1
LAYER_INDEX
  2
AcDbLayerIndex
  3
ObjectDBX Classes
 90
        0
 91
        3
280
     0
281
     0
  0
CLASS
  1
SPATIAL_INDEX
  2
AcDbSpatialIndex
  3
AutoCAD 2000
 90
        0
 91
        3
280
     0
281
     0
  0
CLASS
  1
OBJECT_PTR
  2
CAseDLPNTableRecord
  3
ASE-LPNTableRecord
 90
        1
 91
        3
280
     0
281
     0
  0
CLASS
  1
LAYOUT
  2
AcDbLayout
  3
ObjectDBX Classes
 90
        0
 91
        1
280
     0
281
     0
  0
CLASS
  1
PLOTSETTINGS
  2
AcDbPlotSettings
  3
ObjectDBX Classes
 90
        0
 91
        3
280
     0
281
     0
  0
CLASS
  1
ACDBDICTIONARYWDFLT
  2
AcDbDictionaryWithDefault
  3
ObjectDBX Classes
 90
        0
 91
        3
280
     0
281
     0
  0
CLASS
  1
ACDBPLACEHOLDER
  2
AcDbPlaceHolder
  3
ObjectDBX Classes
 90
        0
 91
        1
280
     0
281
     0
  0
CLASS
  1
SCALE
  2
AcDbScale
  3
ObjectDBX Classes
 90
     1153
 91
        3
280
     0
281
     0
  0
CLASS
  1
MATERIAL
  2
AcDbMaterial
  3
ObjectDBX Classes
 90
     1153
 91
        3
280
     0
281
     0
  0
CLASS
  1
VISUALSTYLE
  2
AcDbVisualStyle
  3
ObjectDBX Classes
 90
     4095
 91
        3
280
     0
281
     0
  0
CLASS
  1
TABLESTYLE
  2
AcDbTableStyle
  3
ObjectDBX Classes
 90
     4095
 91
        3
280
     0
281
     0
  0
CLASS
  1
DIMASSOC
  2
AcDbDimAssoc
  3
"AcDbDimAssoc|Product Desc:     AcDim ARX App For Dimension|Company:          Autodesk, Inc.|WEB Address:      www.autodesk.com"
 90
        0
 91
        3
280
     0
281
     0
  0
CLASS
  1
CELLSTYLEMAP
  2
AcDbCellStyleMap
  3
ObjectDBX Classes
 90
     1152
 91
        3
280
     0
281
     0
  0
CLASS
  1
SUN
  2
AcDbSun
  3
SCENEOE
 90
     1153
 91
        3
280
     0
281
     0
  0
CLASS
  1
MLEADERSTYLE
  2
AcDbMLeaderStyle
  3
ACDB_MLEADERSTYLE_CLASS
 90
     4095
 91
        3
280
     0
281
     0
  0
CLASS
  1
FIELD
  2
AcDbField
  3
ObjectDBX Classes
 90
     1152
 91
        3
280
     0
281
     0
  0
CLASS
  1
FIELDLIST
  2
AcDbFieldList
  3
ObjectDBX Classes
 90
     1152
 91
        3
280
     0
281
     0
  0
CLASS
  1
MULTILEADER
  2
AcDbMLeader
  3
ACDB_MLEADER_CLASS
 90
     1025
 91
        3
280
     0
281
     1
  0
ENDSEC
  0
SECTION
  2
TABLES
  0
TABLE
  2
VPORT
  5
7
330
0
100
AcDbSymbolTable
 70
     1
  0
VPORT
  5
15
330
7
100
AcDbSymbolTableRecord
100
AcDbViewportTableRecord
  2
*ACTIVE
 70
     0
 10
0.0
 20
0.0
 11
1.0
 21
1.0
 12
1141.020135670899
 22
1411.401285469834
 13
0.0
 23
0.0
 14
1.0
 24
1.0
 15
0.0
 25
0.0
 16
0.0
 26
0.0
 36
1.0
 17
-91.02013567089853
 27
73.59871453016603
 37
-46.86809886248109
 40
3029.4
 41
2.136546184738956
 42
50.0
 43
0.0
 44
0.0
 50
0.0
 51
0.0
 71
    16
 72
  2000
 73
     1
 74
     1
 75
     0
 76
     0
 77
     0
 78
     0
281
     0
 65
     1
110
0.0
120
0.0
130
0.0
111
1.0
121
0.0
131
0.0
112
0.0
122
1.0
132
0.0
 79
     0
146
0.0
348
26C
 60
     3
 61
     5
292
     1
282
     1
141
0.0
142
0.0
 63
   256
361
904
  0
ENDTAB
  0
TABLE
  2
LTYPE
  5
4
330
0
100
AcDbSymbolTable
 70
    15
  0
LTYPE
  5
11
330
4
100
AcDbSymbolTableRecord
100
AcDbLinetypeTableRecord
  2
ByBlock
 70
     0
  3

 72
    65
 73
     0
 40
0.0
  0
LTYPE
  5
12
330
4
100
AcDbSymbolTableRecord
100
AcDbLinetypeTableRecord
  2
ByLayer
 70
     0
  3

 72
    65
 73
     0
 40
0.0
  0
LTYPE
  5
13
330
4
100
AcDbSymbolTableRecord
100
AcDbLinetypeTableRecord
  2
Continuous
 70
     0
  3
Solid line
 72
    65
 73
     0
 40
0.0
  0
LTYPE
  5
DAF
330
4
100
AcDbSymbolTableRecord
100
AcDbLinetypeTableRecord
  2
BORDER
 70
     0
  3
Border __  __  . __  __  . __  __  . __  __  . 
 72
    65
 73
     6
 40
44.45
 49
12.7
 74
     0
 49
-6.35
 74
     0
 49
12.7
 74
     0
 49
-6.35
 74
     0
 49
0.0
 74
     0
 49
-6.35
 74
     0
  0
LTYPE
  5
33DD
330
4
100
AcDbSymbolTableRecord
100
AcDbLinetypeTableRecord
  2
HIDDEN
 70
     0
  3
Hidden _ _ _ _ _ _ _ _ _ _ _ _ _ _ _ _ _ _ _ _ 
 72
    65
 73
     2
 40
9.524999999999999
 49
6.35
 74
     0
 49
-3.175
 74
     0
  0
LTYPE
  5
3779
330
4
100
AcDbSymbolTableRecord
100
AcDbLinetypeTableRecord
  2
AI-Linetype-1
 70
     0
  3
Adobe Illustrator Linetype No. 1
 72
    65
 73
     2
 40
1.058122392397357
 49
0.7054149282649048
 74
     0
 49
-0.3527074641324524
 74
     0
  0
LTYPE
  5
377A
330
4
100
AcDbSymbolTableRecord
100
AcDbLinetypeTableRecord
  2
AI-Linetype-2
 70
     0
  3
Adobe Illustrator Linetype No. 2
 72
    65
 73
     2
 40
1.058122392397357
 49
0.7054149282649048
 74
     0
 49
-0.3527074641324524
 74
     0
  0
LTYPE
  5
377B
330
4
100
AcDbSymbolTableRecord
100
AcDbLinetypeTableRecord
  2
AI-Linetype-3
 70
     0
  3
Adobe Illustrator Linetype No. 3
 72
    65
 73
     2
 40
1.058122392397357
 49
0.7054149282649048
 74
     0
 49
-0.3527074641324524
 74
     0
  0
LTYPE
  5
377C
330
4
100
AcDbSymbolTableRecord
100
AcDbLinetypeTableRecord
  2
AI-Linetype-4
 70
     0
  3
Adobe Illustrator Linetype No. 4
 72
    65
 73
     2
 40
0.5290611961986786
 49
0.3527074641324524
 74
     0
 49
-0.1763537320662262
 74
     0
  0
LTYPE
  5
377D
330
4
100
AcDbSymbolTableRecord
100
AcDbLinetypeTableRecord
  2
AI-Linetype-5
 70
     0
  3
Adobe Illustrator Linetype No. 5
 72
    65
 73
     2
 40
0.5290611961986786
 49
0.3527074641324524
 74
     0
 49
-0.1763537320662262
 74
     0
  0
LTYPE
  5
3A6E
330
4
100
AcDbSymbolTableRecord
100
AcDbLinetypeTableRecord
  2
AI-Linetype-8
 70
     0
  3
Adobe Illustrator Linetype No. 8
 72
    65
 73
     2
 40
1.237580549911208
 49
0.8250419527406053
 74
     0
 49
-0.4125385971706028
 74
     0
  0
LTYPE
  5
3A6F
330
4
100
AcDbSymbolTableRecord
100
AcDbLinetypeTableRecord
  2
AI-Linetype-9
 70
     0
  3
Adobe Illustrator Linetype No. 9
 72
    65
 73
     2
 40
0.8534934893893988
 49
0.5689956595929325
 74
     0
 49
-0.2844978297964663
 74
     0
  0
LTYPE
  5
3A70
330
4
100
AcDbSymbolTableRecord
100
AcDbLinetypeTableRecord
  2
AI-Linetype-10
 70
     0
  3
Adobe Illustrator Linetype No. 10
 72
    65
 73
     2
 40
1.048960732737734
 49
0.6993118652530802
 74
     0
 49
-0.3496488674846537
 74
     0
  0
LTYPE
  5
3A71
330
4
100
AcDbSymbolTableRecord
100
AcDbLinetypeTableRecord
  2
AI-Linetype-11
 70
     0
  3
Adobe Illustrator Linetype No. 11
 72
    65
 73
     2
 40
1.048921916511774
 49
0.6992765815980639
 74
     0
 49
-0.3496453349137104
 74
     0
  0
LTYPE
  5
3A72
330
4
100
AcDbSymbolTableRecord
100
AcDbLinetypeTableRecord
  2
AI-Linetype-12
 70
     0
  3
Adobe Illustrator Linetype No. 12
 72
    65
 73
     2
 40
0.8534934893893988
 49
0.5689956595929325
 74
     0
 49
-0.2844978297964663
 74
     0
  0
LTYPE
  5
3AF8
330
4
100
AcDbSymbolTableRecord
100
AcDbLinetypeTableRecord
  2
AI-Linetype-6
 70
     0
  3
Adobe Illustrator Linetype No. 6
 72
    65
 73
     2
 40
1.081723183460906
 49
0.7211487889739376
 74
     0
 49
-0.3605743944869688
 74
     0
  0
LTYPE
  5
3AF9
330
4
100
AcDbSymbolTableRecord
100
AcDbLinetypeTableRecord
  2
AI-Linetype-7
 70
     0
  3
Adobe Illustrator Linetype No. 7
 72
    65
 73
     2
 40
0.9043428925867423
 49
0.6028976167717903
 74
     0
 49
-0.3014452758149519
 74
     0
  0
ENDTAB
  0
TABLE
  2
LAYER
  5
2
102
{ACAD_XDICTIONARY
360
2E1
102
}
330
0
100
AcDbSymbolTable
 70
    11
  0
LAYER
  5
14
330
2
100
AcDbSymbolTableRecord
100
AcDbLayerTableRecord
  2
0
 70
     0
 62
     7
  6
Continuous
370
    -3
390
1D
347
266
  0
LAYER
  5
4B
330
2
100
AcDbSymbolTableRecord
100
AcDbLayerTableRecord
  2
TEMPLATE
 70
     0
 62
     7
  6
Continuous
370
    20
390
1D
347
266
  0
LAYER
  5
4C
330
2
100
AcDbSymbolTableRecord
100
AcDbLayerTableRecord
  2
DIM
 70
     0
 62
     3
  6
Continuous
370
    13
390
1D
347
266
  0
LAYER
  5
4D
330
2
100
AcDbSymbolTableRecord
100
AcDbLayerTableRecord
  2
MODEL
 70
     0
 62
     7
  6
Continuous
370
    20
390
1D
347
266
  0
LAYER
  5
D5D
330
2
100
AcDbSymbolTableRecord
100
AcDbLayerTableRecord
  2
Defpoints
 70
     0
 62
     7
  6
Continuous
290
     0
370
    -3
390
1D
347
266
  0
LAYER
  5
DAE
330
2
100
AcDbSymbolTableRecord
100
AcDbLayerTableRecord
  2
BORDER
 70
     0
 62
     4
  6
BORDER
290
     0
370
    20
390
1D
347
266
1001
AcAecLayerStandard
1000

1000

  0
LAYER
  5
157B
330
2
100
AcDbSymbolTableRecord
100
AcDbLayerTableRecord
  2
Layer3
 70
     0
 62
     7
  6
Continuous
370
    -3
390
1D
347
266
  0
LAYER
  5
157F
330
2
100
AcDbSymbolTableRecord
100
AcDbLayerTableRecord
  2
Layer9
 70
     0
 62
     7
  6
Continuous
370
    -3
390
1D
347
266
  0
LAYER
  5
1582
330
2
100
AcDbSymbolTableRecord
100
AcDbLayerTableRecord
  2
Standard
 70
     0
 62
     7
  6
Continuous
370
    -3
390
1D
347
266
  0
LAYER
  5
33DC
330
2
100
AcDbSymbolTableRecord
100
AcDbLayerTableRecord
  2
HIDDEN
 70
     0
 62
     8
  6
HIDDEN
370
    20
390
1D
347
266
1001
AcAecLayerStandard
1000

1000

  0
LAYER
  5
3777
330
2
100
AcDbSymbolTableRecord
100
AcDbLayerTableRecord
  2
レイヤー 1
 70
     0
 62
     7
  6
Continuous
370
    -3
390
1D
347
266
  0
ENDTAB
  0
TABLE
  2
STYLE
  5
3
330
0
100
AcDbSymbolTable
 70
     2
  0
STYLE
  5
17
330
3
100
AcDbSymbolTableRecord
100
AcDbTextStyleTableRecord
  2
Standard
 70
     0
 40
0.0
 41
1.0
 50
0.0
 71
     0
 42
2.5
  3
txt
  4
BIGFONT.SHX
  0
STYLE
  5
39
330
3
100
AcDbSymbolTableRecord
100
AcDbTextStyleTableRecord
  2
ＭＳ ゴシック
 70
     0
 40
0.0
 41
1.0
 50
0.0
 71
     0
 42
2.5
  3
msgothic.ttc
  4
ＭＳ ゴシック
1001
ACAD
1000
ＭＳ ゴシック
1071
        0
  0
ENDTAB
  0
TABLE
  2
VIEW
  5
5
330
0
100
AcDbSymbolTable
 70
     0
  0
ENDTAB
  0
TABLE
  2
UCS
  5
6
330
0
100
AcDbSymbolTable
 70
     0
  0
ENDTAB
  0
TABLE
  2
APPID
  5
8
330
0
100
AcDbSymbolTable
 70
     6
  0
APPID
  5
16
330
8
100
AcDbSymbolTableRecord
100
AcDbRegAppTableRecord
  2
ACAD
 70
     0
  0
APPID
  5
7AC
330
8
100
AcDbSymbolTableRecord
100
AcDbRegAppTableRecord
  2
AcAecLayerStandard
 70
     0
  0
APPID
  5
F3A
330
8
100
AcDbSymbolTableRecord
100
AcDbRegAppTableRecord
  2
ACAD_MLEADERVER
 70
     0
  0
APPID
  5
3E42
330
8
100
AcDbSymbolTableRecord
100
AcDbRegAppTableRecord
  2
ACAD_DSTYLE_DIMJAG
 70
     0
  0
APPID
  5
3E43
330
8
100
AcDbSymbolTableRecord
100
AcDbRegAppTableRecord
  2
ACAD_DSTYLE_DIMTALN
 70
     0
  0
APPID
  5
3F10
330
8
100
AcDbSymbolTableRecord
100
AcDbRegAppTableRecord
  2
PLOTTRANSPARENCY
 70
     0
  0
ENDTAB
  0
TABLE
  2
DIMSTYLE
  5
9
330
0
100
AcDbSymbolTable
 70
     5
100
AcDbDimStyleTable
  0
DIMSTYLE
105
18
330
9
100
AcDbSymbolTableRecord
100
AcDbDimStyleTableRecord
  2
Standard
 70
     0
178
     0
340
17
  0
DIMSTYLE
105
57
102
{ACAD_REACTORS
330
3C2C
330
3C3B
330
3C4A
330
3C59
330
3C86
330
3C95
330
3CBD
330
3CCD
330
3CED
330
3CFC
330
3D78
330
3D87
330
3DBC
330
3DDA
330
3F23
330
3F32
102
}
330
9
100
AcDbSymbolTableRecord
100
AcDbDimStyleTableRecord
  2
tfrom線あり
 70
     0
  3
<>
  4
[]
 41
10.0
 42
30.0
 43
0.9999999999999999
 44
0.0
 73
     0
 74
     0
 77
     1
 78
    11
140
24.0
141
0.0
143
1.0
147
20.0
171
     1
174
     1
178
     0
179
     2
271
     0
272
     1
276
     2
284
    11
285
    11
286
    11
289
     0
340
39
341
4E
342
4E
  0
DIMSTYLE
105
3E37
330
9
100
AcDbSymbolTableRecord
100
AcDbDimStyleTableRecord
  2
tform線あり
 70
     0
  3
<>
  4
[]
 41
9.999389648437498
 42
25.0
 43
0.9999999999999999
 44
0.0
 73
     0
 74
     0
 77
     1
 78
    11
140
24.4326171875
141
0.0
143
1.0
146
0.8
147
10.0
171
     1
172
     1
174
     1
178
     0
179
     2
271
     1
272
     1
276
     2
284
    11
285
    11
286
    11
289
     0
340
39
341
4E
342
4E
  0
DIMSTYLE
105
3E41
330
9
100
AcDbSymbolTableRecord
100
AcDbDimStyleTableRecord
  2
scala  A3
 70
     0
 41
5.0
 42
0.625
 43
0.0
 44
1.25
 49
10.0
 90
        2
290
     1
 73
     0
 74
     0
 77
     1
 78
     8
140
6.0
141
2.5
143
0.03937007874016
147
2.0
171
     3
176
   256
177
   256
178
     0
271
     0
272
     0
274
     3
278
    44
283
     0
284
     8
340
17
371
    -1
372
     0
345
12
346
12
347
12
1001
ACAD_DSTYLE_DIMJAG
1070
   388
1040
1.5
1001
ACAD_DSTYLE_DIMTALN
1070
   392
1070
     0
  0
DIMSTYLE
105
3E44
330
9
100
AcDbSymbolTableRecord
100
AcDbDimStyleTableRecord
  2
Standard1
 70
     0
 41
0.0
 42
5.0
 44
0.0
 73
     0
 74
     0
 77
     2
140
20.0
141
0.0
147
2.0
178
     0
271
     0
272
     0
340
17
341
3E45
342
3E45
1001
ACAD_DSTYLE_DIMJAG
1070
   388
1040
1.5
1001
ACAD_DSTYLE_DIMTALN
1070
   392
1070
     0
  0
ENDTAB
  0
TABLE
  2
BLOCK_RECORD
  5
1
330
0
100
AcDbSymbolTable
 70
    33
  0
BLOCK_RECORD
  5
A
102
{ACAD_XDICTIONARY
360
374D
102
}
330
1
100
AcDbSymbolTableRecord
100
AcDbBlockTableRecord
  2
*MODEL_SPACE
340
20
 70
     0
280
     1
281
     0
  0
BLOCK_RECORD
  5
B
330
1
100
AcDbSymbolTableRecord
100
AcDbBlockTableRecord
  2
*PAPER_SPACE
340
21
 70
     0
280
     1
281
     0
  0
BLOCK_RECORD
  5
4E
330
1
100
AcDbSymbolTableRecord
100
AcDbBlockTableRecord
  2
_DOT
340
0
102
{BLKREFS
331
373A
331
373B
331
3746
331
3747
331
39FF
331
3A00
331
3A0F
331
3A10
331
3A1E
331
3A1F
331
3BD7
331
3BD8
331
3C1E
331
3C1F
331
3C35
331
3C36
331
3C44
331
3C45
331
3C53
331
3C54
331
3C62
331
3C63
331
3C8F
331
3C90
331
3C9E
331
3C9F
331
3CAD
331
3CAE
331
3CC6
331
3CC7
331
3CD6
331
3CD7
331
3CE7
331
3CE8
331
3CF6
331
3CF7
331
3D05
331
3D06
331
3D15
331
3D16
331
3D81
331
3D82
331
3D8E
331
3D8F
331
3DC5
331
3DC6
331
3DD4
331
3DD5
331
3DE3
331
3DE4
331
3DF2
331
3DF3
331
3F2C
331
3F2D
331
3F3B
331
3F3C
102
}
 70
     0
280
     1
281
     0
  0
BLOCK_RECORD
  5
68D
330
1
100
AcDbSymbolTableRecord
100
AcDbBlockTableRecord
  2
block 2
340
0
102
{BLKREFS
331
68C
102
}
 70
     0
280
     1
281
     0
  0
BLOCK_RECORD
  5
199A
330
1
100
AcDbSymbolTableRecord
100
AcDbBlockTableRecord
  2
SEANNOT_GROUP
340
0
102
{BLKREFS
331
28CA
102
}
 70
     0
280
     1
281
     0
  0
BLOCK_RECORD
  5
1F2F
330
1
100
AcDbSymbolTableRecord
100
AcDbBlockTableRecord
  2
SEANNOT_GROUP1
340
0
102
{BLKREFS
331
2B9B
102
}
 70
     0
280
     1
281
     0
  0
BLOCK_RECORD
  5
3734
330
1
100
AcDbSymbolTableRecord
100
AcDbBlockTableRecord
  2
*D4
340
0
 70
     0
280
     1
281
     0
  0
BLOCK_RECORD
  5
3740
330
1
100
AcDbSymbolTableRecord
100
AcDbBlockTableRecord
  2
*D5
340
0
 70
     0
280
     1
281
     0
  0
BLOCK_RECORD
  5
39F9
330
1
100
AcDbSymbolTableRecord
100
AcDbBlockTableRecord
  2
*D6
340
0
 70
     0
280
     1
281
     0
  0
BLOCK_RECORD
  5
3A09
330
1
100
AcDbSymbolTableRecord
100
AcDbBlockTableRecord
  2
*D7
340
0
 70
     0
280
     1
281
     0
  0
BLOCK_RECORD
  5
3A18
330
1
100
AcDbSymbolTableRecord
100
AcDbBlockTableRecord
  2
*D8
340
0
 70
     0
280
     1
281
     0
  0
BLOCK_RECORD
  5
3BD1
330
1
100
AcDbSymbolTableRecord
100
AcDbBlockTableRecord
  2
*D9
340
0
 70
     0
280
     1
281
     0
  0
BLOCK_RECORD
  5
3C17
330
1
100
AcDbSymbolTableRecord
100
AcDbBlockTableRecord
  2
*D10
340
0
 70
     0
280
     1
281
     0
  0
BLOCK_RECORD
  5
3C2F
330
1
100
AcDbSymbolTableRecord
100
AcDbBlockTableRecord
  2
*D11
340
0
 70
     0
280
     1
281
     0
  0
BLOCK_RECORD
  5
3C3E
330
1
100
AcDbSymbolTableRecord
100
AcDbBlockTableRecord
  2
*D12
340
0
 70
     0
280
     1
281
     0
  0
BLOCK_RECORD
  5
3C4D
330
1
100
AcDbSymbolTableRecord
100
AcDbBlockTableRecord
  2
*D13
340
0
 70
     0
280
     1
281
     0
  0
BLOCK_RECORD
  5
3C5C
330
1
100
AcDbSymbolTableRecord
100
AcDbBlockTableRecord
  2
*D14
340
0
 70
     0
280
     1
281
     0
  0
BLOCK_RECORD
  5
3C89
330
1
100
AcDbSymbolTableRecord
100
AcDbBlockTableRecord
  2
*D15
340
0
 70
     0
280
     1
281
     0
  0
BLOCK_RECORD
  5
3C98
330
1
100
AcDbSymbolTableRecord
100
AcDbBlockTableRecord
  2
*D16
340
0
 70
     0
280
     1
281
     0
  0
BLOCK_RECORD
  5
3CA7
330
1
100
AcDbSymbolTableRecord
100
AcDbBlockTableRecord
  2
*D17
340
0
 70
     0
280
     1
281
     0
  0
BLOCK_RECORD
  5
3CC0
330
1
100
AcDbSymbolTableRecord
100
AcDbBlockTableRecord
  2
*D18
340
0
 70
     0
280
     1
281
     0
  0
BLOCK_RECORD
  5
3CD0
330
1
100
AcDbSymbolTableRecord
100
AcDbBlockTableRecord
  2
*D19
340
0
 70
     0
280
     1
281
     0
  0
BLOCK_RECORD
  5
3CE1
330
1
100
AcDbSymbolTableRecord
100
AcDbBlockTableRecord
  2
*D20
340
0
 70
     0
280
     1
281
     0
  0
BLOCK_RECORD
  5
3CF0
330
1
100
AcDbSymbolTableRecord
100
AcDbBlockTableRecord
  2
*D21
340
0
 70
     0
280
     1
281
     0
  0
BLOCK_RECORD
  5
3CFF
330
1
100
AcDbSymbolTableRecord
100
AcDbBlockTableRecord
  2
*D22
340
0
 70
     0
280
     1
281
     0
  0
BLOCK_RECORD
  5
3D0F
330
1
100
AcDbSymbolTableRecord
100
AcDbBlockTableRecord
  2
*D23
340
0
 70
     0
280
     1
281
     0
  0
BLOCK_RECORD
  5
3D7B
330
1
100
AcDbSymbolTableRecord
100
AcDbBlockTableRecord
  2
*D24
340
0
 70
     0
280
     1
281
     0
  0
BLOCK_RECORD
  5
3D88
330
1
100
AcDbSymbolTableRecord
100
AcDbBlockTableRecord
  2
*D25
340
0
 70
     0
280
     1
281
     0
  0
BLOCK_RECORD
  5
3DBF
330
1
100
AcDbSymbolTableRecord
100
AcDbBlockTableRecord
  2
*D26
340
0
 70
     0
280
     1
281
     0
  0
BLOCK_RECORD
  5
3DCE
330
1
100
AcDbSymbolTableRecord
100
AcDbBlockTableRecord
  2
*D27
340
0
 70
     0
280
     1
281
     0
  0
BLOCK_RECORD
  5
3DDD
330
1
100
AcDbSymbolTableRecord
100
AcDbBlockTableRecord
  2
*D28
340
0
 70
     0
280
     1
281
     0
  0
BLOCK_RECORD
  5
3DEC
330
1
100
AcDbSymbolTableRecord
100
AcDbBlockTableRecord
  2
*D29
340
0
 70
     0
280
     1
281
     0
  0
BLOCK_RECORD
  5
3E45
330
1
100
AcDbSymbolTableRecord
100
AcDbBlockTableRecord
  2
_None
340
0
 70
     0
280
     1
281
     0
  0
BLOCK_RECORD
  5
3F26
330
1
100
AcDbSymbolTableRecord
100
AcDbBlockTableRecord
  2
*D31
340
0
 70
     0
280
     1
281
     0
  0
BLOCK_RECORD
  5
3F35
330
1
100
AcDbSymbolTableRecord
100
AcDbBlockTableRecord
  2
*D32
340
0
 70
     0
280
     1
281
     0
  0
ENDTAB
  0
ENDSEC
  0
SECTION
  2
BLOCKS
  0
BLOCK
  5
D
330
A
100
AcDbEntity
  8
0
390
1D
100
AcDbBlockBegin
  2
*MODEL_SPACE
 70
     0
 10
0.0
 20
0.0
 30
0.0
  3
*MODEL_SPACE
  1
*MODEL_SPACE
  0
ENDBLK
  5
E
330
A
100
AcDbEntity
  8
0
390
1D
100
AcDbBlockEnd
  0
BLOCK
  5
F
330
B
100
AcDbEntity
 67
     1
  8
0
390
1D
100
AcDbBlockBegin
  2
*PAPER_SPACE
 70
     0
 10
0.0
 20
0.0
 30
0.0
  3
*PAPER_SPACE
  1
*PAPER_SPACE
  0
ENDBLK
  5
10
330
B
100
AcDbEntity
 67
     1
  8
0
390
1D
100
AcDbBlockEnd
  0
BLOCK
  5
EC4
330
4E
100
AcDbEntity
  8
0
390
1D
100
AcDbBlockBegin
  2
_DOT
 70
     0
 10
0.0
 20
0.0
 30
0.0
  3
_DOT
  1
_DOT
  0
POLYLINE
  5
EC6
330
4E
100
AcDbEntity
  8
0
  6
ByBlock
 62
     0
370
    -2
390
1D
100
AcDb2dPolyline
 66
     1
 10
0.0
 20
0.0
 30
0.0
 70
     1
 40
0.5
 41
0.5
  0
VERTEX
  5
EC7
330
EC6
100
AcDbEntity
  8
0
  6
ByBlock
 62
     0
370
    -2
390
1D
100
AcDbVertex
100
AcDb2dVertex
 10
-0.25
 20
0.0
 30
0.0
 42
1.0
  0
VERTEX
  5
EC8
330
EC6
100
AcDbEntity
  8
0
  6
ByBlock
 62
     0
370
    -2
390
1D
100
AcDbVertex
100
AcDb2dVertex
 10
0.25
 20
0.0
 30
0.0
 42
1.0
  0
SEQEND
  5
EC9
330
EC6
100
AcDbEntity
  8
0
390
1D
  0
LINE
  5
ECA
330
4E
100
AcDbEntity
  8
0
  6
ByBlock
 62
     0
370
    -2
390
1D
100
AcDbLine
 10
-0.5
 20
0.0
 30
0.0
 11
-1.0
 21
0.0
 31
0.0
  0
ENDBLK
  5
ECB
330
4E
100
AcDbEntity
  8
0
390
1D
100
AcDbBlockEnd
  0
BLOCK
  5
68E
330
68D
100
AcDbEntity
  8
0
100
AcDbBlockBegin
  2
block 2
 70
     0
 10
0.0
 20
0.0
 30
0.0
  3
block 2
  1
block 2
  0
ENDBLK
  5
6B0
330
68D
100
AcDbEntity
  8
0
100
AcDbBlockEnd
  0
BLOCK
  5
199B
330
199A
100
AcDbEntity
  8
0
100
AcDbBlockBegin
  2
SEANNOT_GROUP
 70
     0
 10
0.0
 20
0.0
 30
0.0
  3
SEANNOT_GROUP
  1
SEANNOT_GROUP
  0
ENDBLK
  5
199C
330
199A
100
AcDbEntity
  8
0
100
AcDbBlockEnd
  0
BLOCK
  5
1F30
330
1F2F
100
AcDbEntity
  8
0
100
AcDbBlockBegin
  2
SEANNOT_GROUP1
 70
     0
 10
0.0
 20
0.0
 30
0.0
  3
SEANNOT_GROUP1
  1
SEANNOT_GROUP1
  0
ENDBLK
  5
1F31
330
1F2F
100
AcDbEntity
  8
0
100
AcDbBlockEnd
  0
BLOCK
  5
3735
330
3734
100
AcDbEntity
  8
0
100
AcDbBlockBegin
  2
*D4
 70
     1
 10
0.0
 20
0.0
 30
0.0
  3
*D4
  1

  0
LINE
  5
3737
330
3734
100
AcDbEntity
  8
DIM
 62
     0
370
    -2
100
AcDbLine
 10
792.5747720364734
 20
1624.375151854103
 30
0.0
 11
792.5747720364734
 21
1945.106376948328
 31
0.0
  0
LINE
  5
3738
330
3734
100
AcDbEntity
  8
DIM
 62
     0
370
    -2
100
AcDbLine
 10
1363.464741641327
 20
1624.375151854103
 30
0.0
 11
1363.464741641327
 21
1945.106376948328
 31
0.0
  0
LINE
  5
3739
330
3734
100
AcDbEntity
  8
DIM
 62
     0
370
    -2
100
AcDbLine
 10
802.5747720364734
 20
1945.106376948328
 30
0.0
 11
1353.464741641327
 21
1945.106376948328
 31
0.0
  0
INSERT
  5
373A
330
3734
100
AcDbEntity
  8
DIM
 62
     0
370
    -2
100
AcDbBlockReference
  2
_DOT
 10
792.5747720364734
 20
1945.106376948328
 30
0.0
 41
10.0
 42
10.0
 43
10.0
 50
180.0
  0
INSERT
  5
373B
330
3734
100
AcDbEntity
  8
DIM
 62
     0
370
    -2
100
AcDbBlockReference
  2
_DOT
 10
1363.464741641327
 20
1945.106376948328
 30
0.0
 41
10.0
 42
10.0
 43
10.0
  0
MTEXT
  5
373C
330
3734
100
AcDbEntity
  8
DIM
 62
     0
100
AcDbMText
 10
1078.019756838897
 20
1977.106376948328
 30
0.0
 40
24.0
 41
0.0
 46
0.0
 71
     5
 72
     1
  1
\A1;571
  7
ＭＳ ゴシック
 73
     1
 44
1.0
  0
POINT
  5
373D
330
3734
100
AcDbEntity
  8
Defpoints
 62
     0
100
AcDbPoint
 10
792.5747720364734
 20
1594.375151854103
 30
0.0
  0
POINT
  5
373E
330
3734
100
AcDbEntity
  8
Defpoints
 62
     0
100
AcDbPoint
 10
1363.464741641327
 20
1594.375151854103
 30
0.0
  0
POINT
  5
373F
330
3734
100
AcDbEntity
  8
Defpoints
 62
     0
100
AcDbPoint
 10
1363.464741641327
 20
1945.106376948328
 30
0.0
  0
ENDBLK
  5
3736
330
3734
100
AcDbEntity
  8
0
100
AcDbBlockEnd
  0
BLOCK
  5
3741
330
3740
100
AcDbEntity
  8
0
100
AcDbBlockBegin
  2
*D5
 70
     1
 10
0.0
 20
0.0
 30
0.0
  3
*D5
  1

  0
LINE
  5
3743
330
3740
100
AcDbEntity
  8
DIM
 62
     0
370
    -2
100
AcDbLine
 10
888.5851999139768
 20
1564.375151854103
 30
0.0
 11
888.5851999139768
 21
1160.881823708206
 31
0.0
  0
LINE
  5
3744
330
3740
100
AcDbEntity
  8
DIM
 62
     0
370
    -2
100
AcDbLine
 10
1267.454313763824
 20
1564.375151854103
 30
0.0
 11
1267.454313763824
 21
1160.881823708206
 31
0.0
  0
LINE
  5
3745
330
3740
100
AcDbEntity
  8
DIM
 62
     0
370
    -2
100
AcDbLine
 10
898.5851999139768
 20
1160.881823708206
 30
0.0
 11
1257.454313763824
 21
1160.881823708206
 31
0.0
  0
INSERT
  5
3746
330
3740
100
AcDbEntity
  8
DIM
 62
     0
370
    -2
100
AcDbBlockReference
  2
_DOT
 10
888.5851999139768
 20
1160.881823708206
 30
0.0
 41
10.0
 42
10.0
 43
10.0
 50
180.0
  0
INSERT
  5
3747
330
3740
100
AcDbEntity
  8
DIM
 62
     0
370
    -2
100
AcDbBlockReference
  2
_DOT
 10
1267.454313763824
 20
1160.881823708206
 30
0.0
 41
10.0
 42
10.0
 43
10.0
  0
MTEXT
  5
3748
330
3740
100
AcDbEntity
  8
DIM
 62
     0
100
AcDbMText
 10
1078.0197568389
 20
1192.881823708206
 30
0.0
 40
24.0
 41
0.0
 46
0.0
 71
     5
 72
     1
  1
\A1;379
  7
ＭＳ ゴシック
 73
     1
 44
1.0
  0
POINT
  5
3749
330
3740
100
AcDbEntity
  8
Defpoints
 62
     0
100
AcDbPoint
 10
888.5851999139768
 20
1594.375151854103
 30
0.0
  0
POINT
  5
374A
330
3740
100
AcDbEntity
  8
Defpoints
 62
     0
100
AcDbPoint
 10
1267.454313763824
 20
1594.375151854103
 30
0.0
  0
POINT
  5
374B
330
3740
100
AcDbEntity
  8
Defpoints
 62
     0
100
AcDbPoint
 10
1267.454313763824
 20
1160.881823708206
 30
0.0
  0
ENDBLK
  5
3742
330
3740
100
AcDbEntity
  8
0
100
AcDbBlockEnd
  0
BLOCK
  5
39FA
330
39F9
100
AcDbEntity
  8
0
100
AcDbBlockBegin
  2
*D6
 70
     1
 10
0.0
 20
0.0
 30
0.0
  3
*D6
  1

  0
LINE
  5
39FC
330
39F9
100
AcDbEntity
  8
DIM
 62
     0
370
    -2
100
AcDbLine
 10
3137.270341015266
 20
1043.656761067386
 30
0.0
 11
3336.904816242005
 21
1043.656761067386
 31
0.0
  0
LINE
  5
39FD
330
39F9
100
AcDbEntity
  8
DIM
 62
     0
370
    -2
100
AcDbLine
 10
3137.270341015266
 20
143.6567611531113
 30
0.0
 11
3336.904816242005
 21
143.6567611531113
 31
0.0
  0
LINE
  5
39FE
330
39F9
100
AcDbEntity
  8
DIM
 62
     0
370
    -2
100
AcDbLine
 10
3336.904816242005
 20
1033.656761067386
 30
0.0
 11
3336.904816242005
 21
153.6567611531113
 31
0.0
  0
INSERT
  5
39FF
330
39F9
100
AcDbEntity
  8
DIM
 62
     0
370
    -2
100
AcDbBlockReference
  2
_DOT
 10
3336.904816242005
 20
1043.656761067386
 30
0.0
 41
10.0
 42
10.0
 43
10.0
 50
90.0
  0
INSERT
  5
3A00
330
39F9
100
AcDbEntity
  8
DIM
 62
     0
370
    -2
100
AcDbBlockReference
  2
_DOT
 10
3336.904816242005
 20
143.6567611531113
 30
0.0
 41
10.0
 42
10.0
 43
10.0
 50
270.0
  0
MTEXT
  5
3A01
330
39F9
100
AcDbEntity
  8
DIM
 62
     0
100
AcDbMText
 10
3304.900314553872
 20
593.6567611102487
 30
0.0
 40
24.0
 41
0.0
 46
0.0
 71
     5
 72
     1
  1
\A1;899.99999991
  7
ＭＳ ゴシック
 11
0.0
 21
1.0
 31
0.0
 73
     1
 44
1.0
  0
POINT
  5
3A02
330
39F9
100
AcDbEntity
  8
Defpoints
 62
     0
100
AcDbPoint
 10
3107.270341015266
 20
1043.656761067386
 30
0.0
  0
POINT
  5
3A03
330
39F9
100
AcDbEntity
  8
Defpoints
 62
     0
100
AcDbPoint
 10
3107.270341015266
 20
143.6567611531113
 30
0.0
  0
POINT
  5
3A04
330
39F9
100
AcDbEntity
  8
Defpoints
 62
     0
100
AcDbPoint
 10
3336.904816242005
 20
143.6567611531113
 30
0.0
  0
ENDBLK
  5
39FB
330
39F9
100
AcDbEntity
  8
0
100
AcDbBlockEnd
  0
BLOCK
  5
3A0A
330
3A09
100
AcDbEntity
  8
0
100
AcDbBlockBegin
  2
*D7
 70
     1
 10
0.0
 20
0.0
 30
0.0
  3
*D7
  1

  0
LINE
  5
3A0C
330
3A09
100
AcDbEntity
  8
DIM
 62
     0
370
    -2
100
AcDbLine
 10
4351.658790769584
 20
1982.209994149385
 30
0.0
 11
4351.658790769584
 21
1888.257715266244
 31
0.0
  0
LINE
  5
3A0D
330
3A09
100
AcDbEntity
  8
DIM
 62
     0
370
    -2
100
AcDbLine
 10
4708.113216813483
 20
1981.397163952127
 30
0.0
 11
4708.113216813483
 21
1888.257715266244
 31
0.0
  0
LINE
  5
3A0E
330
3A09
100
AcDbEntity
  8
DIM
 62
     0
370
    -2
100
AcDbLine
 10
4361.658790769584
 20
1888.257715266244
 30
0.0
 11
4698.113216813483
 21
1888.257715266244
 31
0.0
  0
INSERT
  5
3A0F
330
3A09
100
AcDbEntity
  8
DIM
 62
     0
370
    -2
100
AcDbBlockReference
  2
_DOT
 10
4351.658790769584
 20
1888.257715266244
 30
0.0
 41
10.0
 42
10.0
 43
10.0
 50
180.0
  0
INSERT
  5
3A10
330
3A09
100
AcDbEntity
  8
DIM
 62
     0
370
    -2
100
AcDbBlockReference
  2
_DOT
 10
4708.113216813483
 20
1888.257715266244
 30
0.0
 41
10.0
 42
10.0
 43
10.0
  0
MTEXT
  5
3A11
330
3A09
100
AcDbEntity
  8
DIM
 62
     0
100
AcDbMText
 10
4529.886003791533
 20
1920.262216954377
 30
0.0
 40
24.0
 41
0.0
 46
0.0
 71
     5
 72
     1
  1
\A1;356
  7
ＭＳ ゴシック
 73
     1
 44
1.0
  0
POINT
  5
3A12
330
3A09
100
AcDbEntity
  8
Defpoints
 62
     0
100
AcDbPoint
 10
4351.658790769584
 20
2012.209994149385
 30
0.0
  0
POINT
  5
3A13
330
3A09
100
AcDbEntity
  8
Defpoints
 62
     0
100
AcDbPoint
 10
4708.113216813483
 20
2011.397163952127
 30
0.0
  0
POINT
  5
3A14
330
3A09
100
AcDbEntity
  8
Defpoints
 62
     0
100
AcDbPoint
 10
4708.113216813483
 20
1888.257715266244
 30
0.0
  0
ENDBLK
  5
3A0B
330
3A09
100
AcDbEntity
  8
0
100
AcDbBlockEnd
  0
BLOCK
  5
3A19
330
3A18
100
AcDbEntity
  8
0
100
AcDbBlockBegin
  2
*D8
 70
     1
 10
0.0
 20
0.0
 30
0.0
  3
*D8
  1

  0
LINE
  5
3A1B
330
3A18
100
AcDbEntity
  8
DIM
 62
     0
370
    -2
100
AcDbLine
 10
5972.766092132339
 20
2550.657101359189
 30
0.0
 11
6049.179698566782
 21
2550.657101359189
 31
0.0
  0
LINE
  5
3A1C
330
3A18
100
AcDbEntity
  8
DIM
 62
     0
370
    -2
100
AcDbLine
 10
5972.766092132339
 20
2385.657101359189
 30
0.0
 11
6049.179698566782
 21
2385.657101359189
 31
0.0
  0
LINE
  5
3A1D
330
3A18
100
AcDbEntity
  8
DIM
 62
     0
370
    -2
100
AcDbLine
 10
6049.179698566782
 20
2540.657101359189
 30
0.0
 11
6049.179698566782
 21
2395.657101359189
 31
0.0
  0
INSERT
  5
3A1E
330
3A18
100
AcDbEntity
  8
DIM
 62
     0
370
    -2
100
AcDbBlockReference
  2
_DOT
 10
6049.179698566782
 20
2550.657101359189
 30
0.0
 41
10.0
 42
10.0
 43
10.0
 50
90.0
  0
INSERT
  5
3A1F
330
3A18
100
AcDbEntity
  8
DIM
 62
     0
370
    -2
100
AcDbBlockReference
  2
_DOT
 10
6049.179698566782
 20
2385.657101359189
 30
0.0
 41
10.0
 42
10.0
 43
10.0
 50
270.0
  0
MTEXT
  5
3A20
330
3A18
100
AcDbEntity
  8
DIM
 62
     0
100
AcDbMText
 10
6017.175196878648
 20
2468.157101359189
 30
0.0
 40
24.0
 41
0.0
 46
0.0
 71
     5
 72
     1
  1
\A1;165
  7
ＭＳ ゴシック
 11
0.0
 21
1.0
 31
0.0
 73
     1
 44
1.0
  0
POINT
  5
3A21
330
3A18
100
AcDbEntity
  8
Defpoints
 62
     0
100
AcDbPoint
 10
5942.766092132339
 20
2550.657101359189
 30
0.0
  0
POINT
  5
3A22
330
3A18
100
AcDbEntity
  8
Defpoints
 62
     0
100
AcDbPoint
 10
5942.766092132339
 20
2385.657101359189
 30
0.0
  0
POINT
  5
3A23
330
3A18
100
AcDbEntity
  8
Defpoints
 62
     0
100
AcDbPoint
 10
6049.179698566782
 20
2385.657101359189
 30
0.0
  0
ENDBLK
  5
3A1A
330
3A18
100
AcDbEntity
  8
0
100
AcDbBlockEnd
  0
BLOCK
  5
3BD2
330
3BD1
100
AcDbEntity
  8
0
100
AcDbBlockBegin
  2
*D9
 70
     1
 10
0.0
 20
0.0
 30
0.0
  3
*D9
  1

  0
LINE
  5
3BD4
330
3BD1
100
AcDbEntity
  8
DIM
 62
     0
370
    -2
100
AcDbLine
 10
3352.058368186681
 20
2774.246965857637
 30
0.0
 11
3352.058368186681
 21
1606.137955991413
 31
0.0
  0
LINE
  5
3BD5
330
3BD1
100
AcDbEntity
  8
DIM
 62
     0
370
    -2
100
AcDbLine
 10
3952.063483908805
 20
2774.527126783389
 30
0.0
 11
3952.063483908805
 21
1606.137955991413
 31
0.0
  0
LINE
  5
3BD6
330
3BD1
100
AcDbEntity
  8
DIM
 62
     0
370
    -2
100
AcDbLine
 10
3362.058368186681
 20
1606.137955991413
 30
0.0
 11
3942.063483908805
 21
1606.137955991413
 31
0.0
  0
INSERT
  5
3BD7
330
3BD1
100
AcDbEntity
  8
DIM
 62
     0
370
    -2
100
AcDbBlockReference
  2
_DOT
 10
3352.058368186681
 20
1606.137955991413
 30
0.0
 41
10.0
 42
10.0
 43
10.0
 50
180.0
  0
INSERT
  5
3BD8
330
3BD1
100
AcDbEntity
  8
DIM
 62
     0
370
    -2
100
AcDbBlockReference
  2
_DOT
 10
3952.063483908805
 20
1606.137955991413
 30
0.0
 41
10.0
 42
10.0
 43
10.0
  0
MTEXT
  5
3BD9
330
3BD1
100
AcDbEntity
  8
DIM
 62
     0
100
AcDbMText
 10
3652.060926047743
 20
1638.137955991413
 30
0.0
 40
24.0
 41
0.0
 46
0.0
 71
     5
 72
     1
  1
\A1;600
  7
ＭＳ ゴシック
 73
     1
 44
1.0
  0
POINT
  5
3BDA
330
3BD1
100
AcDbEntity
  8
Defpoints
 62
     0
100
AcDbPoint
 10
3352.058368186681
 20
2804.246965857637
 30
0.0
  0
POINT
  5
3BDB
330
3BD1
100
AcDbEntity
  8
Defpoints
 62
     0
100
AcDbPoint
 10
3952.063483908805
 20
2804.527126783389
 30
0.0
  0
POINT
  5
3BDC
330
3BD1
100
AcDbEntity
  8
Defpoints
 62
     0
100
AcDbPoint
 10
3952.063483908805
 20
1606.137955991413
 30
0.0
  0
ENDBLK
  5
3BD3
330
3BD1
100
AcDbEntity
  8
0
100
AcDbBlockEnd
  0
BLOCK
  5
3C18
330
3C17
100
AcDbEntity
  8
0
100
AcDbBlockBegin
  2
*D10
 70
     1
 10
0.0
 20
0.0
 30
0.0
  3
*D10
  1

  0
LINE
  5
3C1A
330
3C17
100
AcDbEntity
  8
DIM
 62
     0
370
    -2
100
AcDbLine
 10
709.7971738341186
 20
2362.706770671863
 30
0.0
 11
785.3030798351735
 21
2362.706770671863
 31
0.0
  0
LINE
  5
3C1B
330
3C17
100
AcDbEntity
  8
DIM
 62
     0
370
    -2
100
AcDbLine
 10
675.6697124264349
 20
2360.19184930855
 30
0.0
 11
785.3030798351735
 21
2360.19184930855
 31
0.0
  0
LINE
  5
3C1C
330
3C17
100
AcDbEntity
  8
DIM
 62
     0
370
    -2
100
AcDbLine
 10
785.3030798351735
 20
2372.706770671863
 30
0.0
 11
785.3030798351735
 21
2382.706770671863
 31
0.0
  0
LINE
  5
3C1D
330
3C17
100
AcDbEntity
  8
DIM
 62
     0
370
    -2
100
AcDbLine
 10
785.3030798351735
 20
2350.19184930855
 30
0.0
 11
785.3030798351735
 21
2340.19184930855
 31
0.0
  0
INSERT
  5
3C1E
330
3C17
100
AcDbEntity
  8
DIM
 62
     0
370
    -2
100
AcDbBlockReference
  2
_DOT
 10
785.3030798351735
 20
2362.706770671863
 30
0.0
 41
10.0
 42
10.0
 43
10.0
 50
270.0
  0
INSERT
  5
3C1F
330
3C17
100
AcDbEntity
  8
DIM
 62
     0
370
    -2
100
AcDbBlockReference
  2
_DOT
 10
785.3030798351735
 20
2360.19184930855
 30
0.0
 41
10.0
 42
10.0
 43
10.0
 50
90.0
  0
MTEXT
  5
3C20
330
3C17
100
AcDbEntity
  8
DIM
 62
     0
100
AcDbMText
 10
753.2985781470404
 20
2361.449309990207
 30
0.0
 40
24.0
 41
0.0
 46
0.0
 71
     5
 72
     1
  1
\A1;3
  7
ＭＳ ゴシック
 11
0.0
 21
1.0
 31
0.0
 73
     1
 44
1.0
  0
POINT
  5
3C21
330
3C17
100
AcDbEntity
  8
Defpoints
 62
     0
100
AcDbPoint
 10
679.7971738341186
 20
2362.706770671863
 30
0.0
  0
POINT
  5
3C22
330
3C17
100
AcDbEntity
  8
Defpoints
 62
     0
100
AcDbPoint
 10
645.6697124264349
 20
2360.19184930855
 30
0.0
  0
POINT
  5
3C23
330
3C17
100
AcDbEntity
  8
Defpoints
 62
     0
100
AcDbPoint
 10
785.3030798351735
 20
2360.19184930855
 30
0.0
  0
ENDBLK
  5
3C19
330
3C17
100
AcDbEntity
  8
0
100
AcDbBlockEnd
  0
BLOCK
  5
3C30
330
3C2F
100
AcDbEntity
  8
0
100
AcDbBlockBegin
  2
*D11
 70
     1
 10
0.0
 20
0.0
 30
0.0
  3
*D11
  1

  0
LINE
  5
3C32
330
3C2F
100
AcDbEntity
  8
DIM
 62
     0
370
    -2
100
AcDbLine
 10
265.0587572245852
 20
2457.575268444201
 30
0.0
 11
265.0587572245852
 21
2560.670453605898
 31
0.0
  0
LINE
  5
3C33
330
3C2F
100
AcDbEntity
  8
DIM
 62
     0
370
    -2
100
AcDbLine
 10
815.0638729467095
 20
2457.575268444201
 30
0.0
 11
815.0638729467095
 21
2560.670453605898
 31
0.0
  0
LINE
  5
3C34
330
3C2F
100
AcDbEntity
  8
DIM
 62
     0
370
    -2
100
AcDbLine
 10
275.0587572245852
 20
2560.670453605898
 30
0.0
 11
805.0638729467095
 21
2560.670453605898
 31
0.0
  0
INSERT
  5
3C35
330
3C2F
100
AcDbEntity
  8
DIM
 62
     0
370
    -2
100
AcDbBlockReference
  2
_DOT
 10
265.0587572245852
 20
2560.670453605898
 30
0.0
 41
10.0
 42
10.0
 43
10.0
 50
180.0
  0
INSERT
  5
3C36
330
3C2F
100
AcDbEntity
  8
DIM
 62
     0
370
    -2
100
AcDbBlockReference
  2
_DOT
 10
815.0638729467095
 20
2560.670453605898
 30
0.0
 41
10.0
 42
10.0
 43
10.0
  0
MTEXT
  5
3C37
330
3C2F
100
AcDbEntity
  8
DIM
 62
     0
100
AcDbMText
 10
540.0613150856473
 20
2592.674955294031
 30
0.0
 40
24.0
 41
0.0
 46
0.0
 71
     5
 72
     1
  1
\A1;550
  7
ＭＳ ゴシック
 73
     1
 44
1.0
  0
POINT
  5
3C38
330
3C2F
100
AcDbEntity
  8
Defpoints
 62
     0
100
AcDbPoint
 10
265.0587572245852
 20
2427.575268444201
 30
0.0
  0
POINT
  5
3C39
330
3C2F
100
AcDbEntity
  8
Defpoints
 62
     0
100
AcDbPoint
 10
815.0638729467095
 20
2427.575268444201
 30
0.0
  0
POINT
  5
3C3A
330
3C2F
100
AcDbEntity
  8
Defpoints
 62
     0
100
AcDbPoint
 10
815.0638729467095
 20
2560.670453605898
 30
0.0
  0
ENDBLK
  5
3C31
330
3C2F
100
AcDbEntity
  8
0
100
AcDbBlockEnd
  0
BLOCK
  5
3C3F
330
3C3E
100
AcDbEntity
  8
0
100
AcDbBlockBegin
  2
*D12
 70
     1
 10
0.0
 20
0.0
 30
0.0
  3
*D12
  1

  0
LINE
  5
3C41
330
3C3E
100
AcDbEntity
  8
DIM
 62
     0
370
    -2
100
AcDbLine
 10
890.1415072739612
 20
1967.61268108703
 30
0.0
 11
984.8195579190166
 21
1967.61268108703
 31
0.0
  0
LINE
  5
3C42
330
3C3E
100
AcDbEntity
  8
DIM
 62
     0
370
    -2
100
AcDbLine
 10
845.0638729467095
 20
2427.575268444201
 30
0.0
 11
984.8195579190166
 21
2427.575268444201
 31
0.0
  0
LINE
  5
3C43
330
3C3E
100
AcDbEntity
  8
DIM
 62
     0
370
    -2
100
AcDbLine
 10
984.8195579190166
 20
1977.61268108703
 30
0.0
 11
984.8195579190166
 21
2417.575268444201
 31
0.0
  0
INSERT
  5
3C44
330
3C3E
100
AcDbEntity
  8
DIM
 62
     0
370
    -2
100
AcDbBlockReference
  2
_DOT
 10
984.8195579190166
 20
1967.61268108703
 30
0.0
 41
10.0
 42
10.0
 43
10.0
 50
270.0
  0
INSERT
  5
3C45
330
3C3E
100
AcDbEntity
  8
DIM
 62
     0
370
    -2
100
AcDbBlockReference
  2
_DOT
 10
984.8195579190166
 20
2427.575268444201
 30
0.0
 41
10.0
 42
10.0
 43
10.0
 50
90.0
  0
MTEXT
  5
3C46
330
3C3E
100
AcDbEntity
  8
DIM
 62
     0
100
AcDbMText
 10
952.8195579190166
 20
2197.593974765616
 30
0.0
 40
24.0
 41
0.0
 46
0.0
 71
     5
 72
     1
  1
\A1;460
  7
ＭＳ ゴシック
 11
0.0
 21
1.0
 31
0.0
 73
     1
 44
1.0
  0
POINT
  5
3C47
330
3C3E
100
AcDbEntity
  8
Defpoints
 62
     0
100
AcDbPoint
 10
860.1415072739612
 20
1967.61268108703
 30
0.0
  0
POINT
  5
3C48
330
3C3E
100
AcDbEntity
  8
Defpoints
 62
     0
100
AcDbPoint
 10
815.0638729467095
 20
2427.575268444201
 30
0.0
  0
POINT
  5
3C49
330
3C3E
100
AcDbEntity
  8
Defpoints
 62
     0
100
AcDbPoint
 10
984.8195579190166
 20
2427.575268444201
 30
0.0
  0
ENDBLK
  5
3C40
330
3C3E
100
AcDbEntity
  8
0
100
AcDbBlockEnd
  0
BLOCK
  5
3C4E
330
3C4D
100
AcDbEntity
  8
0
100
AcDbBlockBegin
  2
*D13
 70
     1
 10
0.0
 20
0.0
 30
0.0
  3
*D13
  1

  0
LINE
  5
3C50
330
3C4D
100
AcDbEntity
  8
DIM
 62
     0
370
    -2
100
AcDbLine
 10
249.792569024494
 20
2302.389999125469
 30
0.0
 11
168.0365912752344
 21
2302.389999125469
 31
0.0
  0
LINE
  5
3C51
330
3C4D
100
AcDbEntity
  8
DIM
 62
     0
370
    -2
100
AcDbLine
 10
240.0760153615959
 20
1976.545762981939
 30
0.0
 11
168.0365912752344
 21
1976.545762981939
 31
0.0
  0
LINE
  5
3C52
330
3C4D
100
AcDbEntity
  8
DIM
 62
     0
370
    -2
100
AcDbLine
 10
168.0365912752344
 20
2292.389999125469
 30
0.0
 11
168.0365912752344
 21
1986.545762981939
 31
0.0
  0
INSERT
  5
3C53
330
3C4D
100
AcDbEntity
  8
DIM
 62
     0
370
    -2
100
AcDbBlockReference
  2
_DOT
 10
168.0365912752344
 20
2302.389999125469
 30
0.0
 41
10.0
 42
10.0
 43
10.0
 50
90.0
  0
INSERT
  5
3C54
330
3C4D
100
AcDbEntity
  8
DIM
 62
     0
370
    -2
100
AcDbBlockReference
  2
_DOT
 10
168.0365912752344
 20
1976.545762981939
 30
0.0
 41
10.0
 42
10.0
 43
10.0
 50
270.0
  0
MTEXT
  5
3C55
330
3C4D
100
AcDbEntity
  8
DIM
 62
     0
100
AcDbMText
 10
136.0320895871013
 20
2139.467881053704
 30
0.0
 40
24.0
 41
0.0
 46
0.0
 71
     5
 72
     1
  1
\A1;325
  7
ＭＳ ゴシック
 11
8.722483407036419E-17
 21
1.0
 31
0.0
 73
     1
 44
1.0
  0
POINT
  5
3C56
330
3C4D
100
AcDbEntity
  8
Defpoints
 62
     0
100
AcDbPoint
 10
279.792569024494
 20
2302.389999125469
 30
0.0
  0
POINT
  5
3C57
330
3C4D
100
AcDbEntity
  8
Defpoints
 62
     0
100
AcDbPoint
 10
270.0760153615959
 20
1976.545762981939
 30
0.0
  0
POINT
  5
3C58
330
3C4D
100
AcDbEntity
  8
Defpoints
 62
     0
100
AcDbPoint
 10
168.0365912752344
 20
1976.545762981939
 30
0.0
  0
ENDBLK
  5
3C4F
330
3C4D
100
AcDbEntity
  8
0
100
AcDbBlockEnd
  0
BLOCK
  5
3C5D
330
3C5C
100
AcDbEntity
  8
0
100
AcDbBlockBegin
  2
*D14
 70
     1
 10
0.0
 20
0.0
 30
0.0
  3
*D14
  1

  0
LINE
  5
3C5F
330
3C5C
100
AcDbEntity
  8
DIM
 62
     0
370
    -2
100
AcDbLine
 10
274.1538153056056
 20
1949.772543156874
 30
0.0
 11
274.1538153056056
 21
1839.658360311719
 31
0.0
  0
LINE
  5
3C60
330
3C5C
100
AcDbEntity
  8
DIM
 62
     0
370
    -2
100
AcDbLine
 10
805.9257613494045
 20
1948.479808130289
 30
0.0
 11
805.9257613494045
 21
1839.658360311719
 31
0.0
  0
LINE
  5
3C61
330
3C5C
100
AcDbEntity
  8
DIM
 62
     0
370
    -2
100
AcDbLine
 10
284.1538153056056
 20
1839.658360311719
 30
0.0
 11
795.9257613494045
 21
1839.658360311719
 31
0.0
  0
INSERT
  5
3C62
330
3C5C
100
AcDbEntity
  8
DIM
 62
     0
370
    -2
100
AcDbBlockReference
  2
_DOT
 10
274.1538153056056
 20
1839.658360311719
 30
0.0
 41
10.0
 42
10.0
 43
10.0
 50
180.0
  0
INSERT
  5
3C63
330
3C5C
100
AcDbEntity
  8
DIM
 62
     0
370
    -2
100
AcDbBlockReference
  2
_DOT
 10
805.9257613494045
 20
1839.658360311719
 30
0.0
 41
10.0
 42
10.0
 43
10.0
  0
MTEXT
  5
3C64
330
3C5C
100
AcDbEntity
  8
DIM
 62
     0
100
AcDbMText
 10
540.039788327505
 20
1871.662861999852
 30
0.0
 40
24.0
 41
0.0
 46
0.0
 71
     5
 72
     1
  1
\A1;530
  7
ＭＳ ゴシック
 73
     1
 44
1.0
  0
POINT
  5
3C65
330
3C5C
100
AcDbEntity
  8
Defpoints
 62
     0
100
AcDbPoint
 10
274.1538153056056
 20
1979.772543156874
 30
0.0
  0
POINT
  5
3C66
330
3C5C
100
AcDbEntity
  8
Defpoints
 62
     0
100
AcDbPoint
 10
805.9257613494045
 20
1978.479808130289
 30
0.0
  0
POINT
  5
3C67
330
3C5C
100
AcDbEntity
  8
Defpoints
 62
     0
100
AcDbPoint
 10
805.9257613494045
 20
1839.658360311719
 30
0.0
  0
ENDBLK
  5
3C5E
330
3C5C
100
AcDbEntity
  8
0
100
AcDbBlockEnd
  0
BLOCK
  5
3C8A
330
3C89
100
AcDbEntity
  8
0
100
AcDbBlockBegin
  2
*D15
 70
     1
 10
0.0
 20
0.0
 30
0.0
  3
*D15
  1

  0
LINE
  5
3C8C
330
3C89
100
AcDbEntity
  8
DIM
 62
     0
370
    -2
100
AcDbLine
 10
598.7067813280839
 20
852.7993514610564
 30
0.0
 11
962.9437891754251
 21
852.7993514610564
 31
0.0
  0
LINE
  5
3C8D
330
3C89
100
AcDbEntity
  8
DIM
 62
     0
370
    -2
100
AcDbLine
 10
824.5952175521006
 20
1014.80162843145
 30
0.0
 11
962.9437891754251
 21
1014.80162843145
 31
0.0
  0
LINE
  5
3C8E
330
3C89
100
AcDbEntity
  8
DIM
 62
     0
370
    -2
100
AcDbLine
 10
962.9437891754251
 20
862.7993514610564
 30
0.0
 11
962.9437891754251
 21
1004.80162843145
 31
0.0
  0
INSERT
  5
3C8F
330
3C89
100
AcDbEntity
  8
DIM
 62
     0
370
    -2
100
AcDbBlockReference
  2
_DOT
 10
962.9437891754251
 20
852.7993514610564
 30
0.0
 41
10.0
 42
10.0
 43
10.0
 50
270.0
  0
INSERT
  5
3C90
330
3C89
100
AcDbEntity
  8
DIM
 62
     0
370
    -2
100
AcDbBlockReference
  2
_DOT
 10
962.9437891754251
 20
1014.80162843145
 30
0.0
 41
10.0
 42
10.0
 43
10.0
 50
90.0
  0
MTEXT
  5
3C91
330
3C89
100
AcDbEntity
  8
DIM
 62
     0
100
AcDbMText
 10
930.9392874872921
 20
933.800489946253
 30
0.0
 40
24.0
 41
0.0
 46
0.0
 71
     5
 72
     1
  1
\A1;165
  7
ＭＳ ゴシック
 11
0.0
 21
1.0
 31
0.0
 73
     1
 44
1.0
  0
POINT
  5
3C92
330
3C89
100
AcDbEntity
  8
Defpoints
 62
     0
100
AcDbPoint
 10
568.7067813280839
 20
852.7993514610564
 30
0.0
  0
POINT
  5
3C93
330
3C89
100
AcDbEntity
  8
Defpoints
 62
     0
100
AcDbPoint
 10
794.5952175521006
 20
1014.80162843145
 30
0.0
  0
POINT
  5
3C94
330
3C89
100
AcDbEntity
  8
Defpoints
 62
     0
100
AcDbPoint
 10
962.9437891754251
 20
1014.80162843145
 30
0.0
  0
ENDBLK
  5
3C8B
330
3C89
100
AcDbEntity
  8
0
100
AcDbBlockEnd
  0
BLOCK
  5
3C99
330
3C98
100
AcDbEntity
  8
0
100
AcDbBlockBegin
  2
*D16
 70
     1
 10
0.0
 20
0.0
 30
0.0
  3
*D16
  1

  0
LINE
  5
3C9B
330
3C98
100
AcDbEntity
  8
DIM
 62
     0
370
    -2
100
AcDbLine
 10
1570.25957666758
 20
822.6408769641926
 30
0.0
 11
1570.25957666758
 21
733.8658861777639
 31
0.0
  0
LINE
  5
3C9C
330
3C98
100
AcDbEntity
  8
DIM
 62
     0
370
    -2
100
AcDbLine
 10
1784.616115577083
 20
845.5980886355915
 30
0.0
 11
1784.616115577083
 21
733.8658861777639
 31
0.0
  0
LINE
  5
3C9D
330
3C98
100
AcDbEntity
  8
DIM
 62
     0
370
    -2
100
AcDbLine
 10
1580.25957666758
 20
733.8658861777639
 30
0.0
 11
1774.616115577083
 21
733.8658861777639
 31
0.0
  0
INSERT
  5
3C9E
330
3C98
100
AcDbEntity
  8
DIM
 62
     0
370
    -2
100
AcDbBlockReference
  2
_DOT
 10
1570.25957666758
 20
733.8658861777639
 30
0.0
 41
10.0
 42
10.0
 43
10.0
 50
180.0
  0
INSERT
  5
3C9F
330
3C98
100
AcDbEntity
  8
DIM
 62
     0
370
    -2
100
AcDbBlockReference
  2
_DOT
 10
1784.616115577083
 20
733.8658861777639
 30
0.0
 41
10.0
 42
10.0
 43
10.0
  0
MTEXT
  5
3CA0
330
3C98
100
AcDbEntity
  8
DIM
 62
     0
100
AcDbMText
 10
1677.437846122332
 20
765.8703878658969
 30
0.0
 40
24.0
 41
0.0
 46
0.0
 71
     5
 72
     1
  1
\A1;215
  7
ＭＳ ゴシック
 73
     1
 44
1.0
  0
POINT
  5
3CA1
330
3C98
100
AcDbEntity
  8
Defpoints
 62
     0
100
AcDbPoint
 10
1570.25957666758
 20
852.6408769641926
 30
0.0
  0
POINT
  5
3CA2
330
3C98
100
AcDbEntity
  8
Defpoints
 62
     0
100
AcDbPoint
 10
1784.616115577083
 20
875.5980886355915
 30
0.0
  0
POINT
  5
3CA3
330
3C98
100
AcDbEntity
  8
Defpoints
 62
     0
100
AcDbPoint
 10
1784.616115577083
 20
733.8658861777639
 30
0.0
  0
ENDBLK
  5
3C9A
330
3C98
100
AcDbEntity
  8
0
100
AcDbBlockEnd
  0
BLOCK
  5
3CA8
330
3CA7
100
AcDbEntity
  8
0
100
AcDbBlockBegin
  2
*D17
 70
     1
 10
0.0
 20
0.0
 30
0.0
  3
*D17
  1

  0
LINE
  5
3CAA
330
3CA7
100
AcDbEntity
  8
DIM
 62
     0
370
    -2
100
AcDbLine
 10
1298.691878288434
 20
1014.058244623821
 30
0.0
 11
1159.990976235728
 21
1014.058244623821
 31
0.0
  0
LINE
  5
3CAB
330
3CA7
100
AcDbEntity
  8
DIM
 62
     0
370
    -2
100
AcDbLine
 10
1420.912395192318
 20
874.0563619357736
 30
0.0
 11
1159.990976235728
 21
874.0563619357736
 31
0.0
  0
LINE
  5
3CAC
330
3CA7
100
AcDbEntity
  8
DIM
 62
     0
370
    -2
100
AcDbLine
 10
1159.990976235728
 20
1004.058244623821
 30
0.0
 11
1159.990976235728
 21
884.0563619357736
 31
0.0
  0
INSERT
  5
3CAD
330
3CA7
100
AcDbEntity
  8
DIM
 62
     0
370
    -2
100
AcDbBlockReference
  2
_DOT
 10
1159.990976235728
 20
1014.058244623821
 30
0.0
 41
10.0
 42
10.0
 43
10.0
 50
90.0
  0
INSERT
  5
3CAE
330
3CA7
100
AcDbEntity
  8
DIM
 62
     0
370
    -2
100
AcDbBlockReference
  2
_DOT
 10
1159.990976235728
 20
874.0563619357736
 30
0.0
 41
10.0
 42
10.0
 43
10.0
 50
270.0
  0
MTEXT
  5
3CAF
330
3CA7
100
AcDbEntity
  8
DIM
 62
     0
100
AcDbMText
 10
1127.986474547595
 20
944.0573032797976
 30
0.0
 40
24.0
 41
0.0
 46
0.0
 71
     5
 72
     1
  1
\A1;140
  7
ＭＳ ゴシック
 11
0.0
 21
1.0
 31
0.0
 73
     1
 44
1.0
  0
POINT
  5
3CB0
330
3CA7
100
AcDbEntity
  8
Defpoints
 62
     0
100
AcDbPoint
 10
1328.691878288434
 20
1014.058244623821
 30
0.0
  0
POINT
  5
3CB1
330
3CA7
100
AcDbEntity
  8
Defpoints
 62
     0
100
AcDbPoint
 10
1450.912395192318
 20
874.0563619357736
 30
0.0
  0
POINT
  5
3CB2
330
3CA7
100
AcDbEntity
  8
Defpoints
 62
     0
100
AcDbPoint
 10
1159.990976235728
 20
874.0563619357736
 30
0.0
  0
ENDBLK
  5
3CA9
330
3CA7
100
AcDbEntity
  8
0
100
AcDbBlockEnd
  0
BLOCK
  5
3CC1
330
3CC0
100
AcDbEntity
  8
0
100
AcDbBlockBegin
  2
*D18
 70
     1
 10
0.0
 20
0.0
 30
0.0
  3
*D18
  1

  0
LINE
  5
3CC3
330
3CC0
100
AcDbEntity
  8
DIM
 62
     0
370
    -2
100
AcDbLine
 10
1784.734981913652
 20
1044.80162843145
 30
0.0
 11
1784.734981913652
 21
1081.356016202602
 31
0.0
  0
LINE
  5
3CC4
330
3CC0
100
AcDbEntity
  8
DIM
 62
     0
370
    -2
100
AcDbLine
 10
1719.616115577084
 20
1036.085113981571
 30
0.0
 11
1719.616115577084
 21
1081.356016202602
 31
0.0
  0
LINE
  5
3CC5
330
3CC0
100
AcDbEntity
  8
DIM
 62
     0
370
    -2
100
AcDbLine
 10
1774.734981913652
 20
1081.356016202602
 30
0.0
 11
1729.616115577084
 21
1081.356016202602
 31
0.0
  0
INSERT
  5
3CC6
330
3CC0
100
AcDbEntity
  8
DIM
 62
     0
370
    -2
100
AcDbBlockReference
  2
_DOT
 10
1784.734981913652
 20
1081.356016202602
 30
0.0
 41
10.0
 42
10.0
 43
10.0
  0
INSERT
  5
3CC7
330
3CC0
100
AcDbEntity
  8
DIM
 62
     0
370
    -2
100
AcDbBlockReference
  2
_DOT
 10
1719.616115577084
 20
1081.356016202602
 30
0.0
 41
10.0
 42
10.0
 43
10.0
 50
180.0
  0
MTEXT
  5
3CC8
330
3CC0
100
AcDbEntity
  8
DIM
 62
     0
100
AcDbMText
 10
1752.175548745367
 20
1113.360517890736
 30
0.0
 40
24.0
 41
0.0
 46
0.0
 71
     5
 72
     1
  1
\A1;65
  7
ＭＳ ゴシック
 73
     1
 44
1.0
  0
POINT
  5
3CC9
330
3CC0
100
AcDbEntity
  8
Defpoints
 62
     0
100
AcDbPoint
 10
1784.734981913652
 20
1014.80162843145
 30
0.0
  0
POINT
  5
3CCA
330
3CC0
100
AcDbEntity
  8
Defpoints
 62
     0
100
AcDbPoint
 10
1719.616115577084
 20
1006.085113981571
 30
0.0
  0
POINT
  5
3CCB
330
3CC0
100
AcDbEntity
  8
Defpoints
 62
     0
100
AcDbPoint
 10
1719.616115577084
 20
1081.356016202602
 30
0.0
  0
ENDBLK
  5
3CC2
330
3CC0
100
AcDbEntity
  8
0
100
AcDbBlockEnd
  0
BLOCK
  5
3CD1
330
3CD0
100
AcDbEntity
  8
0
100
AcDbBlockBegin
  2
*D19
 70
     1
 10
0.0
 20
0.0
 30
0.0
  3
*D19
  1

  0
LINE
  5
3CD3
330
3CD0
100
AcDbEntity
  8
DIM
 62
     0
370
    -2
100
AcDbLine
 10
1569.787986718937
 20
1014.80162843145
 30
0.0
 11
1569.787986718937
 21
1204.88240872406
 31
0.0
  0
LINE
  5
3CD4
330
3CD0
100
AcDbEntity
  8
DIM
 62
     0
370
    -2
100
AcDbLine
 10
1569.787986718937
 20
909.7835946841437
 30
0.0
 11
1569.787986718937
 21
1004.80162843145
 31
0.0
  0
LINE
  5
3CD5
330
3CD0
100
AcDbEntity
  8
DIM
 62
     0
370
    -2
100
AcDbLine
 10
1569.787986718937
 20
1004.80162843145
 30
0.0
 11
1569.787986718937
 21
994.8016284314504
 31
0.0
  0
INSERT
  5
3CD6
330
3CD0
100
AcDbEntity
  8
DIM
 62
     0
370
    -2
100
AcDbBlockReference
  2
_DOT
 10
1569.787986718937
 20
899.7835946841437
 30
0.0
 41
10.0
 42
10.0
 43
10.0
 50
270.0
  0
INSERT
  5
3CD7
330
3CD0
100
AcDbEntity
  8
DIM
 62
     0
370
    -2
100
AcDbBlockReference
  2
_DOT
 10
1569.787986718937
 20
1014.80162843145
 30
0.0
 41
10.0
 42
10.0
 43
10.0
 50
90.0
  0
MTEXT
  5
3CD8
330
3CD0
100
AcDbEntity
  8
DIM
 62
     0
100
AcDbMText
 10
1535.778733248885
 20
1119.842018577755
 30
0.0
 40
24.0
 41
0.0
 46
0.0
 71
     5
 72
     1
  1
\A1;115(深さ)
  7
ＭＳ ゴシック
 11
0.0
 21
1.0
 31
0.0
 73
     1
 44
1.0
  0
POINT
  5
3CD9
330
3CD0
100
AcDbEntity
  8
Defpoints
 62
     0
100
AcDbPoint
 10
1569.621344893726
 20
899.7835946841437
 30
0.0
  0
POINT
  5
3CDA
330
3CD0
100
AcDbEntity
  8
Defpoints
 62
     0
100
AcDbPoint
 10
1569.929507185008
 20
1014.80162843145
 30
0.0
  0
POINT
  5
3CDB
330
3CD0
100
AcDbEntity
  8
Defpoints
 62
     0
100
AcDbPoint
 10
1569.787986718937
 20
1014.80162843145
 30
0.0
  0
ENDBLK
  5
3CD2
330
3CD0
100
AcDbEntity
  8
0
100
AcDbBlockEnd
  0
BLOCK
  5
3CE2
330
3CE1
100
AcDbEntity
  8
0
100
AcDbBlockBegin
  2
*D20
 70
     1
 10
0.0
 20
0.0
 30
0.0
  3
*D20
  1

  0
LINE
  5
3CE4
330
3CE1
100
AcDbEntity
  8
DIM
 62
     0
370
    -2
100
AcDbLine
 10
372.395122987052
 20
844.8399876577561
 30
0.0
 11
372.395122987052
 21
738.4599167610425
 31
0.0
  0
LINE
  5
3CE5
330
3CE1
100
AcDbEntity
  8
DIM
 62
     0
370
    -2
100
AcDbLine
 10
706.1566382824212
 20
844.8142007865158
 30
0.0
 11
706.1566382824212
 21
738.4599167610425
 31
0.0
  0
LINE
  5
3CE6
330
3CE1
100
AcDbEntity
  8
DIM
 62
     0
370
    -2
100
AcDbLine
 10
382.395122987052
 20
738.4599167610425
 30
0.0
 11
696.1566382824212
 21
738.4599167610425
 31
0.0
  0
INSERT
  5
3CE7
330
3CE1
100
AcDbEntity
  8
DIM
 62
     0
370
    -2
100
AcDbBlockReference
  2
_DOT
 10
372.395122987052
 20
738.4599167610425
 30
0.0
 41
10.0
 42
10.0
 43
10.0
 50
180.0
  0
INSERT
  5
3CE8
330
3CE1
100
AcDbEntity
  8
DIM
 62
     0
370
    -2
100
AcDbBlockReference
  2
_DOT
 10
706.1566382824212
 20
738.4599167610425
 30
0.0
 41
10.0
 42
10.0
 43
10.0
  0
MTEXT
  5
3CE9
330
3CE1
100
AcDbEntity
  8
DIM
 62
     0
100
AcDbMText
 10
539.2758806347366
 20
770.4644184491755
 30
0.0
 40
24.0
 41
0.0
 46
0.0
 71
     5
 72
     1
  1
\A1;334
  7
ＭＳ ゴシック
 73
     1
 44
1.0
  0
POINT
  5
3CEA
330
3CE1
100
AcDbEntity
  8
Defpoints
 62
     0
100
AcDbPoint
 10
372.395122987052
 20
874.8399876577561
 30
0.0
  0
POINT
  5
3CEB
330
3CE1
100
AcDbEntity
  8
Defpoints
 62
     0
100
AcDbPoint
 10
706.1566382824212
 20
874.8142007865158
 30
0.0
  0
POINT
  5
3CEC
330
3CE1
100
AcDbEntity
  8
Defpoints
 62
     0
100
AcDbPoint
 10
706.1566382824212
 20
738.4599167610425
 30
0.0
  0
ENDBLK
  5
3CE3
330
3CE1
100
AcDbEntity
  8
0
100
AcDbBlockEnd
  0
BLOCK
  5
3CF1
330
3CF0
100
AcDbEntity
  8
0
100
AcDbBlockBegin
  2
*D21
 70
     1
 10
0.0
 20
0.0
 30
0.0
  3
*D21
  1

  0
LINE
  5
3CF3
330
3CF0
100
AcDbEntity
  8
DIM
 62
     0
370
    -2
100
AcDbLine
 10
1305.911801748003
 20
1014.80162843145
 30
0.0
 11
1274.949139441773
 21
1014.80162843145
 31
0.0
  0
LINE
  5
3CF4
330
3CF0
100
AcDbEntity
  8
DIM
 62
     0
370
    -2
100
AcDbLine
 10
1306.782696923812
 20
934.7995682960677
 30
0.0
 11
1274.949139441773
 21
934.7995682960677
 31
0.0
  0
LINE
  5
3CF5
330
3CF0
100
AcDbEntity
  8
DIM
 62
     0
370
    -2
100
AcDbLine
 10
1274.949139441773
 20
1004.80162843145
 30
0.0
 11
1274.949139441773
 21
944.7995682960677
 31
0.0
  0
INSERT
  5
3CF6
330
3CF0
100
AcDbEntity
  8
DIM
 62
     0
370
    -2
100
AcDbBlockReference
  2
_DOT
 10
1274.949139441773
 20
1014.80162843145
 30
0.0
 41
10.0
 42
10.0
 43
10.0
 50
90.0
  0
INSERT
  5
3CF7
330
3CF0
100
AcDbEntity
  8
DIM
 62
     0
370
    -2
100
AcDbBlockReference
  2
_DOT
 10
1274.949139441773
 20
934.7995682960677
 30
0.0
 41
10.0
 42
10.0
 43
10.0
 50
270.0
  0
MTEXT
  5
3CF8
330
3CF0
100
AcDbEntity
  8
DIM
 62
     0
100
AcDbMText
 10
1242.949139441773
 20
974.800598363759
 30
0.0
 40
24.0
 41
0.0
 46
0.0
 71
     5
 72
     1
  1
\A1;80
  7
ＭＳ ゴシック
 11
0.0
 21
1.0
 31
0.0
 73
     1
 44
1.0
  0
POINT
  5
3CF9
330
3CF0
100
AcDbEntity
  8
Defpoints
 62
     0
100
AcDbPoint
 10
1335.911801748003
 20
1014.80162843145
 30
0.0
  0
POINT
  5
3CFA
330
3CF0
100
AcDbEntity
  8
Defpoints
 62
     0
100
AcDbPoint
 10
1336.782696923812
 20
934.7995682960677
 30
0.0
  0
POINT
  5
3CFB
330
3CF0
100
AcDbEntity
  8
Defpoints
 62
     0
100
AcDbPoint
 10
1274.949139441773
 20
934.7995682960677
 30
0.0
  0
ENDBLK
  5
3CF2
330
3CF0
100
AcDbEntity
  8
0
100
AcDbBlockEnd
  0
BLOCK
  5
3D00
330
3CFF
100
AcDbEntity
  8
0
100
AcDbBlockBegin
  2
*D22
 70
     1
 10
0.0
 20
0.0
 30
0.0
  3
*D22
  1

  0
LINE
  5
3D02
330
3CFF
100
AcDbEntity
  8
DIM
 62
     0
370
    -2
100
AcDbLine
 10
1306.768000567721
 20
934.7995682960677
 30
0.0
 11
1274.949139441773
 21
934.7995682960677
 31
0.0
  0
LINE
  5
3D03
330
3CFF
100
AcDbEntity
  8
DIM
 62
     0
370
    -2
100
AcDbLine
 10
1409.959281329203
 20
874.7997457434026
 30
0.0
 11
1274.949139441773
 21
874.7997457434026
 31
0.0
  0
LINE
  5
3D04
330
3CFF
100
AcDbEntity
  8
DIM
 62
     0
370
    -2
100
AcDbLine
 10
1274.949139441773
 20
924.7995682960677
 30
0.0
 11
1274.949139441773
 21
884.7997457434026
 31
0.0
  0
INSERT
  5
3D05
330
3CFF
100
AcDbEntity
  8
DIM
 62
     0
370
    -2
100
AcDbBlockReference
  2
_DOT
 10
1274.949139441773
 20
934.7995682960677
 30
0.0
 41
10.0
 42
10.0
 43
10.0
 50
90.0
  0
INSERT
  5
3D06
330
3CFF
100
AcDbEntity
  8
DIM
 62
     0
370
    -2
100
AcDbBlockReference
  2
_DOT
 10
1274.949139441773
 20
874.7997457434026
 30
0.0
 41
10.0
 42
10.0
 43
10.0
 50
270.0
  0
MTEXT
  5
3D07
330
3CFF
100
AcDbEntity
  8
DIM
 62
     0
100
AcDbMText
 10
1242.949139441773
 20
904.7996570197352
 30
0.0
 40
24.0
 41
0.0
 46
0.0
 71
     5
 72
     1
  1
\A1;60
  7
ＭＳ ゴシック
 11
0.0
 21
1.0
 31
0.0
 73
     1
 44
1.0
  0
POINT
  5
3D08
330
3CFF
100
AcDbEntity
  8
Defpoints
 62
     0
100
AcDbPoint
 10
1336.768000567721
 20
934.7995682960677
 30
0.0
  0
POINT
  5
3D09
330
3CFF
100
AcDbEntity
  8
Defpoints
 62
     0
100
AcDbPoint
 10
1439.959281329203
 20
874.7997457434026
 30
0.0
  0
POINT
  5
3D0A
330
3CFF
100
AcDbEntity
  8
Defpoints
 62
     0
100
AcDbPoint
 10
1274.949139441773
 20
874.7997457434026
 30
0.0
  0
ENDBLK
  5
3D01
330
3CFF
100
AcDbEntity
  8
0
100
AcDbBlockEnd
  0
BLOCK
  5
3D10
330
3D0F
100
AcDbEntity
  8
0
100
AcDbBlockBegin
  2
*D23
 70
     1
 10
0.0
 20
0.0
 30
0.0
  3
*D23
  1

  0
LINE
  5
3D12
330
3D0F
100
AcDbEntity
  8
DIM
 62
     0
370
    -2
100
AcDbLine
 10
1784.616115577083
 20
844.7997457434026
 30
0.0
 11
1784.616115577083
 21
659.1344058594532
 31
0.0
  0
LINE
  5
3D13
330
3D0F
100
AcDbEntity
  8
DIM
 62
     0
370
    -2
100
AcDbLine
 10
1436.513588460985
 20
844.9314668764213
 30
0.0
 11
1436.513588460985
 21
659.1344058594532
 31
0.0
  0
LINE
  5
3D14
330
3D0F
100
AcDbEntity
  8
DIM
 62
     0
370
    -2
100
AcDbLine
 10
1774.616115577083
 20
659.1344058594532
 30
0.0
 11
1446.513588460985
 21
659.1344058594532
 31
0.0
  0
INSERT
  5
3D15
330
3D0F
100
AcDbEntity
  8
DIM
 62
     0
370
    -2
100
AcDbBlockReference
  2
_DOT
 10
1784.616115577083
 20
659.1344058594532
 30
0.0
 41
10.0
 42
10.0
 43
10.0
  0
INSERT
  5
3D16
330
3D0F
100
AcDbEntity
  8
DIM
 62
     0
370
    -2
100
AcDbBlockReference
  2
_DOT
 10
1436.513588460985
 20
659.1344058594532
 30
0.0
 41
10.0
 42
10.0
 43
10.0
 50
180.0
  0
MTEXT
  5
3D17
330
3D0F
100
AcDbEntity
  8
DIM
 62
     0
100
AcDbMText
 10
1610.564852019034
 20
691.1389075475862
 30
0.0
 40
24.0
 41
0.0
 46
0.0
 71
     5
 72
     1
  1
\A1;348
  7
ＭＳ ゴシック
 73
     1
 44
1.0
  0
POINT
  5
3D18
330
3D0F
100
AcDbEntity
  8
Defpoints
 62
     0
100
AcDbPoint
 10
1784.616115577083
 20
874.7997457434026
 30
0.0
  0
POINT
  5
3D19
330
3D0F
100
AcDbEntity
  8
Defpoints
 62
     0
100
AcDbPoint
 10
1436.513588460985
 20
874.9314668764213
 30
0.0
  0
POINT
  5
3D1A
330
3D0F
100
AcDbEntity
  8
Defpoints
 62
     0
100
AcDbPoint
 10
1436.513588460985
 20
659.1344058594532
 30
0.0
  0
ENDBLK
  5
3D11
330
3D0F
100
AcDbEntity
  8
0
100
AcDbBlockEnd
  0
BLOCK
  5
3D7C
330
3D7B
100
AcDbEntity
  8
0
100
AcDbBlockBegin
  2
*D24
 70
     1
 10
0.0
 20
0.0
 30
0.0
  3
*D24
  1

  0
LINE
  5
3D7E
330
3D7B
100
AcDbEntity
  8
DIM
 62
     0
370
    -2
100
AcDbLine
 10
399.5984421185458
 20
1006.558583926176
 30
0.0
 11
399.5984421185458
 21
1083.129338299321
 31
0.0
  0
LINE
  5
3D7F
330
3D7B
100
AcDbEntity
  8
DIM
 62
     0
370
    -2
100
AcDbLine
 10
679.5605460432107
 20
1006.558583926176
 30
0.0
 11
679.5605460432107
 21
1083.129338299321
 31
0.0
  0
LINE
  5
3D80
330
3D7B
100
AcDbEntity
  8
DIM
 62
     0
370
    -2
100
AcDbLine
 10
409.5984421185458
 20
1083.129338299321
 30
0.0
 11
669.5605460432107
 21
1083.129338299321
 31
0.0
  0
INSERT
  5
3D81
330
3D7B
100
AcDbEntity
  8
DIM
 62
     0
370
    -2
100
AcDbBlockReference
  2
_DOT
 10
399.5984421185458
 20
1083.129338299321
 30
0.0
 41
10.0
 42
10.0
 43
10.0
 50
180.0
  0
INSERT
  5
3D82
330
3D7B
100
AcDbEntity
  8
DIM
 62
     0
370
    -2
100
AcDbBlockReference
  2
_DOT
 10
679.5605460432107
 20
1083.129338299321
 30
0.0
 41
10.0
 42
10.0
 43
10.0
  0
MTEXT
  5
3D83
330
3D7B
100
AcDbEntity
  8
DIM
 62
     0
100
AcDbMText
 10
539.5794940808782
 20
1115.133839987455
 30
0.0
 40
24.0
 41
0.0
 46
0.0
 71
     5
 72
     1
  1
\A1;280
  7
ＭＳ ゴシック
 73
     1
 44
1.0
  0
POINT
  5
3D84
330
3D7B
100
AcDbEntity
  8
Defpoints
 62
     0
100
AcDbPoint
 10
399.5984421185458
 20
976.5585839261761
 30
0.0
  0
POINT
  5
3D85
330
3D7B
100
AcDbEntity
  8
Defpoints
 62
     0
100
AcDbPoint
 10
679.5605460432107
 20
976.5585839261761
 30
0.0
  0
POINT
  5
3D86
330
3D7B
100
AcDbEntity
  8
Defpoints
 62
     0
100
AcDbPoint
 10
679.5605460432107
 20
1083.129338299321
 30
0.0
  0
ENDBLK
  5
3D7D
330
3D7B
100
AcDbEntity
  8
0
100
AcDbBlockEnd
  0
BLOCK
  5
3D89
330
3D88
100
AcDbEntity
  8
0
100
AcDbBlockBegin
  2
*D25
 70
     1
 10
0.0
 20
0.0
 30
0.0
  3
*D25
  1

  0
LINE
  5
3D8B
330
3D88
100
AcDbEntity
  8
DIM
 62
     0
370
    -2
100
AcDbLine
 10
334.4921033993447
 20
959.9906798063721
 30
0.0
 11
182.6295955501446
 21
959.9906798063721
 31
0.0
  0
LINE
  5
3D8C
330
3D88
100
AcDbEntity
  8
DIM
 62
     0
370
    -2
100
AcDbLine
 10
228.5615992408624
 20
1014.80162843145
 30
0.0
 11
182.6295955501446
 21
1014.80162843145
 31
0.0
  0
LINE
  5
3D8D
330
3D88
100
AcDbEntity
  8
DIM
 62
     0
370
    -2
100
AcDbLine
 10
182.6295955501446
 20
969.9906798063721
 30
0.0
 11
182.6295955501446
 21
1004.80162843145
 31
0.0
  0
INSERT
  5
3D8E
330
3D88
100
AcDbEntity
  8
DIM
 62
     0
370
    -2
100
AcDbBlockReference
  2
_DOT
 10
182.6295955501446
 20
959.9906798063721
 30
0.0
 41
10.0
 42
10.0
 43
10.0
 50
270.0
  0
INSERT
  5
3D8F
330
3D88
100
AcDbEntity
  8
DIM
 62
     0
370
    -2
100
AcDbBlockReference
  2
_DOT
 10
182.6295955501446
 20
1014.80162843145
 30
0.0
 41
10.0
 42
10.0
 43
10.0
 50
90.0
  0
MTEXT
  5
3D90
330
3D88
100
AcDbEntity
  8
DIM
 62
     0
100
AcDbMText
 10
150.6250938620116
 20
987.3961541189112
 30
0.0
 40
24.0
 41
0.0
 46
0.0
 71
     5
 72
     1
  1
\A1;55
  7
ＭＳ ゴシック
 11
0.0
 21
1.0
 31
0.0
 73
     1
 44
1.0
  0
POINT
  5
3D91
330
3D88
100
AcDbEntity
  8
Defpoints
 62
     0
100
AcDbPoint
 10
364.4921033993447
 20
959.9906798063721
 30
0.0
  0
POINT
  5
3D92
330
3D88
100
AcDbEntity
  8
Defpoints
 62
     0
100
AcDbPoint
 10
258.5615992408624
 20
1014.80162843145
 30
0.0
  0
POINT
  5
3D93
330
3D88
100
AcDbEntity
  8
Defpoints
 62
     0
100
AcDbPoint
 10
182.6295955501446
 20
1014.80162843145
 30
0.0
  0
ENDBLK
  5
3D8A
330
3D88
100
AcDbEntity
  8
0
100
AcDbBlockEnd
  0
BLOCK
  5
3DC0
330
3DBF
100
AcDbEntity
  8
0
100
AcDbBlockBegin
  2
*D26
 70
     1
 10
0.0
 20
0.0
 30
0.0
  3
*D26
  1

  0
LINE
  5
3DC2
330
3DBF
100
AcDbEntity
  8
DIM
 62
     0
370
    -2
100
AcDbLine
 10
1308.466152285873
 20
1987.612412431863
 30
0.0
 11
1308.466152285873
 21
1840.00386926208
 31
0.0
  0
LINE
  5
3DC3
330
3DBF
100
AcDbEntity
  8
DIM
 62
     0
370
    -2
100
AcDbLine
 10
1768.466152285873
 20
1997.612412431863
 30
0.0
 11
1768.466152285873
 21
1840.00386926208
 31
0.0
  0
LINE
  5
3DC4
330
3DBF
100
AcDbEntity
  8
DIM
 62
     0
370
    -2
100
AcDbLine
 10
1318.466152285873
 20
1840.00386926208
 30
0.0
 11
1758.466152285873
 21
1840.00386926208
 31
0.0
  0
INSERT
  5
3DC5
330
3DBF
100
AcDbEntity
  8
DIM
 62
     0
370
    -2
100
AcDbBlockReference
  2
_DOT
 10
1308.466152285873
 20
1840.00386926208
 30
0.0
 41
10.0
 42
10.0
 43
10.0
 50
180.0
  0
INSERT
  5
3DC6
330
3DBF
100
AcDbEntity
  8
DIM
 62
     0
370
    -2
100
AcDbBlockReference
  2
_DOT
 10
1768.466152285873
 20
1840.00386926208
 30
0.0
 41
10.0
 42
10.0
 43
10.0
  0
MTEXT
  5
3DC7
330
3DBF
100
AcDbEntity
  8
DIM
 62
     0
100
AcDbMText
 10
1538.466152285873
 20
1872.00386926208
 30
0.0
 40
24.0
 41
0.0
 46
0.0
 71
     5
 72
     1
  1
\A1;460
  7
ＭＳ ゴシック
 73
     1
 44
1.0
  0
POINT
  5
3DC8
330
3DBF
100
AcDbEntity
  8
Defpoints
 62
     0
100
AcDbPoint
 10
1308.466152285873
 20
2017.612412431863
 30
0.0
  0
POINT
  5
3DC9
330
3DBF
100
AcDbEntity
  8
Defpoints
 62
     0
100
AcDbPoint
 10
1768.466152285873
 20
2027.612412431863
 30
0.0
  0
POINT
  5
3DCA
330
3DBF
100
AcDbEntity
  8
Defpoints
 62
     0
100
AcDbPoint
 10
1768.466152285873
 20
1840.00386926208
 30
0.0
  0
ENDBLK
  5
3DC1
330
3DBF
100
AcDbEntity
  8
0
100
AcDbBlockEnd
  0
BLOCK
  5
3DCF
330
3DCE
100
AcDbEntity
  8
0
100
AcDbBlockBegin
  2
*D27
 70
     1
 10
0.0
 20
0.0
 30
0.0
  3
*D27
  1

  0
LINE
  5
3DD1
330
3DCE
100
AcDbEntity
  8
DIM
 62
     0
370
    -2
100
AcDbLine
 10
1388.466152285873
 20
2132.612412431863
 30
0.0
 11
1388.466152285873
 21
1913.118878680875
 31
0.0
  0
LINE
  5
3DD2
330
3DCE
100
AcDbEntity
  8
DIM
 62
     0
370
    -2
100
AcDbLine
 10
1688.466152285873
 20
2132.612412431863
 30
0.0
 11
1688.466152285873
 21
1913.118878680875
 31
0.0
  0
LINE
  5
3DD3
330
3DCE
100
AcDbEntity
  8
DIM
 62
     0
370
    -2
100
AcDbLine
 10
1398.466152285873
 20
1913.118878680875
 30
0.0
 11
1678.466152285873
 21
1913.118878680875
 31
0.0
  0
INSERT
  5
3DD4
330
3DCE
100
AcDbEntity
  8
DIM
 62
     0
370
    -2
100
AcDbBlockReference
  2
_DOT
 10
1388.466152285873
 20
1913.118878680875
 30
0.0
 41
10.0
 42
10.0
 43
10.0
 50
180.0
  0
INSERT
  5
3DD5
330
3DCE
100
AcDbEntity
  8
DIM
 62
     0
370
    -2
100
AcDbBlockReference
  2
_DOT
 10
1688.466152285873
 20
1913.118878680875
 30
0.0
 41
10.0
 42
10.0
 43
10.0
  0
MTEXT
  5
3DD6
330
3DCE
100
AcDbEntity
  8
DIM
 62
     0
100
AcDbMText
 10
1538.466152285873
 20
1945.123380369008
 30
0.0
 40
24.0
 41
0.0
 46
0.0
 71
     5
 72
     1
  1
\A1;300
  7
ＭＳ ゴシック
 73
     1
 44
1.0
  0
POINT
  5
3DD7
330
3DCE
100
AcDbEntity
  8
Defpoints
 62
     0
100
AcDbPoint
 10
1388.466152285873
 20
2162.612412431863
 30
0.0
  0
POINT
  5
3DD8
330
3DCE
100
AcDbEntity
  8
Defpoints
 62
     0
100
AcDbPoint
 10
1688.466152285873
 20
2162.612412431863
 30
0.0
  0
POINT
  5
3DD9
330
3DCE
100
AcDbEntity
  8
Defpoints
 62
     0
100
AcDbPoint
 10
1688.466152285873
 20
1913.118878680875
 30
0.0
  0
ENDBLK
  5
3DD0
330
3DCE
100
AcDbEntity
  8
0
100
AcDbBlockEnd
  0
BLOCK
  5
3DDE
330
3DDD
100
AcDbEntity
  8
0
100
AcDbBlockBegin
  2
*D28
 70
     1
 10
0.0
 20
0.0
 30
0.0
  3
*D28
  1

  0
LINE
  5
3DE0
330
3DDD
100
AcDbEntity
  8
DIM
 62
     0
370
    -2
100
AcDbLine
 10
1798.466152285873
 20
2427.612412431863
 30
0.0
 11
1952.54928371908
 21
2427.612412431863
 31
0.0
  0
LINE
  5
3DE1
330
3DDD
100
AcDbEntity
  8
DIM
 62
     0
370
    -2
100
AcDbLine
 10
1798.466152285873
 20
2027.612412431863
 30
0.0
 11
1952.54928371908
 21
2027.612412431863
 31
0.0
  0
LINE
  5
3DE2
330
3DDD
100
AcDbEntity
  8
DIM
 62
     0
370
    -2
100
AcDbLine
 10
1952.54928371908
 20
2417.612412431863
 30
0.0
 11
1952.54928371908
 21
2037.612412431863
 31
0.0
  0
INSERT
  5
3DE3
330
3DDD
100
AcDbEntity
  8
DIM
 62
     0
370
    -2
100
AcDbBlockReference
  2
_DOT
 10
1952.54928371908
 20
2427.612412431863
 30
0.0
 41
10.0
 42
10.0
 43
10.0
 50
90.0
  0
INSERT
  5
3DE4
330
3DDD
100
AcDbEntity
  8
DIM
 62
     0
370
    -2
100
AcDbBlockReference
  2
_DOT
 10
1952.54928371908
 20
2027.612412431863
 30
0.0
 41
10.0
 42
10.0
 43
10.0
 50
270.0
  0
MTEXT
  5
3DE5
330
3DDD
100
AcDbEntity
  8
DIM
 62
     0
100
AcDbMText
 10
1920.54928371908
 20
2227.612412431863
 30
0.0
 40
24.0
 41
0.0
 46
0.0
 71
     5
 72
     1
  1
\A1;400
  7
ＭＳ ゴシック
 11
0.0
 21
1.0
 31
0.0
 73
     1
 44
1.0
  0
POINT
  5
3DE6
330
3DDD
100
AcDbEntity
  8
Defpoints
 62
     0
100
AcDbPoint
 10
1768.466152285873
 20
2427.612412431863
 30
0.0
  0
POINT
  5
3DE7
330
3DDD
100
AcDbEntity
  8
Defpoints
 62
     0
100
AcDbPoint
 10
1768.466152285873
 20
2027.612412431863
 30
0.0
  0
POINT
  5
3DE8
330
3DDD
100
AcDbEntity
  8
Defpoints
 62
     0
100
AcDbPoint
 10
1952.54928371908
 20
2027.612412431863
 30
0.0
  0
ENDBLK
  5
3DDF
330
3DDD
100
AcDbEntity
  8
0
100
AcDbBlockEnd
  0
BLOCK
  5
3DED
330
3DEC
100
AcDbEntity
  8
0
100
AcDbBlockBegin
  2
*D29
 70
     1
 10
0.0
 20
0.0
 30
0.0
  3
*D29
  1

  0
LINE
  5
3DEF
330
3DEC
100
AcDbEntity
  8
DIM
 62
     0
370
    -2
100
AcDbLine
 10
1890.899327638207
 20
2427.612412431863
 30
0.0
 11
1895.571356339658
 21
2427.612412431863
 31
0.0
  0
LINE
  5
3DF0
330
3DEC
100
AcDbEntity
  8
DIM
 62
     0
370
    -2
100
AcDbLine
 10
1718.466152285873
 20
2162.612412431863
 30
0.0
 11
1895.571356339658
 21
2162.612412431863
 31
0.0
  0
LINE
  5
3DF1
330
3DEC
100
AcDbEntity
  8
DIM
 62
     0
370
    -2
100
AcDbLine
 10
1895.571356339658
 20
2417.612412431863
 30
0.0
 11
1895.571356339658
 21
2172.612412431863
 31
0.0
  0
INSERT
  5
3DF2
330
3DEC
100
AcDbEntity
  8
DIM
 62
     0
370
    -2
100
AcDbBlockReference
  2
_DOT
 10
1895.571356339658
 20
2427.612412431863
 30
0.0
 41
10.0
 42
10.0
 43
10.0
 50
90.0
  0
INSERT
  5
3DF3
330
3DEC
100
AcDbEntity
  8
DIM
 62
     0
370
    -2
100
AcDbBlockReference
  2
_DOT
 10
1895.571356339658
 20
2162.612412431863
 30
0.0
 41
10.0
 42
10.0
 43
10.0
 50
270.0
  0
MTEXT
  5
3DF4
330
3DEC
100
AcDbEntity
  8
DIM
 62
     0
100
AcDbMText
 10
1863.566854651524
 20
2295.112412431863
 30
0.0
 40
24.0
 41
0.0
 46
0.0
 71
     5
 72
     1
  1
\A1;265
  7
ＭＳ ゴシック
 11
0.0
 21
1.0
 31
0.0
 73
     1
 44
1.0
  0
POINT
  5
3DF5
330
3DEC
100
AcDbEntity
  8
Defpoints
 62
     0
100
AcDbPoint
 10
1860.899327638207
 20
2427.612412431863
 30
0.0
  0
POINT
  5
3DF6
330
3DEC
100
AcDbEntity
  8
Defpoints
 62
     0
100
AcDbPoint
 10
1688.466152285873
 20
2162.612412431863
 30
0.0
  0
POINT
  5
3DF7
330
3DEC
100
AcDbEntity
  8
Defpoints
 62
     0
100
AcDbPoint
 10
1895.571356339658
 20
2162.612412431863
 30
0.0
  0
ENDBLK
  5
3DEE
330
3DEC
100
AcDbEntity
  8
0
100
AcDbBlockEnd
  0
BLOCK
  5
3E46
330
3E45
100
AcDbEntity
  8
0
100
AcDbBlockBegin
  2
_None
 70
     0
 10
0.0
 20
0.0
 30
0.0
  3
_None
  1

  0
ENDBLK
  5
3E47
330
3E45
100
AcDbEntity
  8
0
100
AcDbBlockEnd
  0
BLOCK
  5
3F27
330
3F26
100
AcDbEntity
  8
0
100
AcDbBlockBegin
  2
*D31
 70
     1
 10
0.0
 20
0.0
 30
0.0
  3
*D31
  1

  0
LINE
  5
3F29
330
3F26
100
AcDbEntity
  8
DIM
 62
     0
370
    -2
100
AcDbLine
 10
440.0613150856473
 20
2392.800161404109
 30
0.0
 11
440.0613150856473
 21
2477.759676098313
 31
0.0
  0
LINE
  5
3F2A
330
3F26
100
AcDbEntity
  8
DIM
 62
     0
370
    -2
100
AcDbLine
 10
540.0613150856473
 20
2392.800161404109
 30
0.0
 11
540.0613150856473
 21
2477.759676098313
 31
0.0
  0
LINE
  5
3F2B
330
3F26
100
AcDbEntity
  8
DIM
 62
     0
370
    -2
100
AcDbLine
 10
450.0613150856473
 20
2477.759676098313
 30
0.0
 11
530.0613150856473
 21
2477.759676098313
 31
0.0
  0
INSERT
  5
3F2C
330
3F26
100
AcDbEntity
  8
DIM
 62
     0
370
    -2
100
AcDbBlockReference
  2
_DOT
 10
440.0613150856473
 20
2477.759676098313
 30
0.0
 41
10.0
 42
10.0
 43
10.0
 50
180.0
  0
INSERT
  5
3F2D
330
3F26
100
AcDbEntity
  8
DIM
 62
     0
370
    -2
100
AcDbBlockReference
  2
_DOT
 10
540.0613150856473
 20
2477.759676098313
 30
0.0
 41
10.0
 42
10.0
 43
10.0
  0
MTEXT
  5
3F2E
330
3F26
100
AcDbEntity
  8
DIM
 62
     0
100
AcDbMText
 10
490.0613150856473
 20
2509.764177786446
 30
0.0
 40
24.0
 41
0.0
 46
0.0
 71
     5
 72
     1
  1
\A1;100
  7
ＭＳ ゴシック
 73
     1
 44
1.0
  0
POINT
  5
3F2F
330
3F26
100
AcDbEntity
  8
Defpoints
 62
     0
100
AcDbPoint
 10
440.0613150856473
 20
2362.800161404109
 30
0.0
  0
POINT
  5
3F30
330
3F26
100
AcDbEntity
  8
Defpoints
 62
     0
100
AcDbPoint
 10
540.0613150856473
 20
2362.800161404109
 30
0.0
  0
POINT
  5
3F31
330
3F26
100
AcDbEntity
  8
Defpoints
 62
     0
100
AcDbPoint
 10
540.0613150856473
 20
2477.759676098313
 30
0.0
  0
ENDBLK
  5
3F28
330
3F26
100
AcDbEntity
  8
0
100
AcDbBlockEnd
  0
BLOCK
  5
3F36
330
3F35
100
AcDbEntity
  8
0
100
AcDbBlockBegin
  2
*D32
 70
     1
 10
0.0
 20
0.0
 30
0.0
  3
*D32
  1

  0
LINE
  5
3F38
330
3F35
100
AcDbEntity
  8
DIM
 62
     0
370
    -2
100
AcDbLine
 10
540.0613150856473
 20
2392.800161404109
 30
0.0
 11
540.0613150856473
 21
2477.759676098313
 31
0.0
  0
LINE
  5
3F39
330
3F35
100
AcDbEntity
  8
DIM
 62
     0
370
    -2
100
AcDbLine
 10
640.0613150856473
 20
2392.800161404109
 30
0.0
 11
640.0613150856473
 21
2477.759676098313
 31
0.0
  0
LINE
  5
3F3A
330
3F35
100
AcDbEntity
  8
DIM
 62
     0
370
    -2
100
AcDbLine
 10
550.0613150856473
 20
2477.759676098313
 30
0.0
 11
630.0613150856473
 21
2477.759676098313
 31
0.0
  0
INSERT
  5
3F3B
330
3F35
100
AcDbEntity
  8
DIM
 62
     0
370
    -2
100
AcDbBlockReference
  2
_DOT
 10
540.0613150856473
 20
2477.759676098313
 30
0.0
 41
10.0
 42
10.0
 43
10.0
 50
180.0
  0
INSERT
  5
3F3C
330
3F35
100
AcDbEntity
  8
DIM
 62
     0
370
    -2
100
AcDbBlockReference
  2
_DOT
 10
640.0613150856473
 20
2477.759676098313
 30
0.0
 41
10.0
 42
10.0
 43
10.0
  0
MTEXT
  5
3F3D
330
3F35
100
AcDbEntity
  8
DIM
 62
     0
100
AcDbMText
 10
590.0613150856473
 20
2509.764177786446
 30
0.0
 40
24.0
 41
0.0
 46
0.0
 71
     5
 72
     1
  1
\A1;100
  7
ＭＳ ゴシック
 73
     1
 44
1.0
  0
POINT
  5
3F3E
330
3F35
100
AcDbEntity
  8
Defpoints
 62
     0
100
AcDbPoint
 10
540.0613150856473
 20
2362.800161404109
 30
0.0
  0
POINT
  5
3F3F
330
3F35
100
AcDbEntity
  8
Defpoints
 62
     0
100
AcDbPoint
 10
640.0613150856473
 20
2362.800161404109
 30
0.0
  0
POINT
  5
3F40
330
3F35
100
AcDbEntity
  8
Defpoints
 62
     0
100
AcDbPoint
 10
640.0613150856473
 20
2477.759676098313
 30
0.0
  0
ENDBLK
  5
3F37
330
3F35
100
AcDbEntity
  8
0
100
AcDbBlockEnd
  0
ENDSEC
  0
SECTION
  2
ENTITIES
  0
MTEXT
  5
177
330
A
100
AcDbEntity
  8
TEMPLATE
390
1D
100
AcDbMText
 10
79.20214454773075
 20
343.7317516314282
 30
0.0
 40
16.28841145833333
 41
0.0
 46
0.0
 71
     1
 72
     1
  1
品名
  7
ＭＳ ゴシック
 73
     1
 44
0.7828267384257843
  0
MTEXT
  5
178
330
A
100
AcDbEntity
  8
TEMPLATE
390
1D
100
AcDbMText
 10
79.20214454773075
 20
258.731751631428
 30
0.0
 40
16.28841145833333
 41
0.0
 46
0.0
 71
     1
 72
     1
  1
仕様
  7
ＭＳ ゴシック
 73
     1
 44
0.7828267384257843
  0
LINE
  5
179
330
A
100
AcDbEntity
  8
TEMPLATE
390
1D
100
AcDbLine
 10
2022.202144547248
 20
267.1466735064284
 30
0.0
 11
72.20214454724874
 21
267.1466735064284
 31
0.0
  0
LWPOLYLINE
  5
17A
330
A
100
AcDbEntity
  8
TEMPLATE
390
1D
100
AcDbPolyline
 90
        5
 70
   128
 43
0.0
 10
2022.202144547248
 20
2897.146673506426
 10
72.20214454724874
 20
2897.146673506426
 10
72.20214454724874
 20
97.14667350642826
 10
2022.202144547248
 20
97.14667350642826
 10
2022.202144547248
 20
2897.146673506426
  0
LINE
  5
17B
330
A
100
AcDbEntity
  8
TEMPLATE
390
1D
100
AcDbLine
 10
2022.202144547248
 20
352.1466735064282
 30
0.0
 11
72.20214454724874
 21
352.1466735064282
 31
0.0
  0
LINE
  5
17C
330
A
100
AcDbEntity
  8
TEMPLATE
390
1D
100
AcDbLine
 10
2022.202144547732
 20
182.1466735064282
 30
0.0
 11
1269.20214454773
 21
182.1466735064282
 31
0.0
  0
MTEXT
  5
17E
330
A
100
AcDbEntity
  8
TEMPLATE
390
1D
100
AcDbMText
 10
1299.073550799991
 20
152.2362790331201
 30
0.0
 40
24.4326171875
 41
0.0
 46
0.0
 71
     1
 72
     1
  1
大洋金物株式会社 ティーフォルム事業部
  7
ＭＳ ゴシック
 73
     1
 44
0.7828267384257843
  0
MTEXT
  5
180
330
A
100
AcDbEntity
  8
TEMPLATE
390
1D
100
AcDbMText
 10
1831.20214454799
 20
230.1492906939282
 30
0.0
 40
24.4326171875
 41
0.0
 46
24.4326171875
 71
     1
 72
     1
  1
{1:10}
  7
ＭＳ ゴシック
 73
     1
 44
0.7828267384257843
1001
ACAD
1000
ACAD_MTEXT_DEFINED_HEIGHT_BEGIN
1070
    46
1040
24.4326171875
1000
ACAD_MTEXT_DEFINED_HEIGHT_END
  0
MTEXT
  5
181
330
A
100
AcDbEntity
  8
TEMPLATE
390
1D
100
AcDbMText
 10
1778.20214454799
 20
258.731751631428
 30
0.0
 40
16.28841145833333
 41
0.0
 46
0.0
 71
     1
 72
     1
  1
縮尺
  7
ＭＳ ゴシック
 73
     1
 44
0.7828267384257843
  0
LINE
  5
182
330
A
100
AcDbEntity
  8
TEMPLATE
390
1D
100
AcDbLine
 10
1771.20214454799
 20
182.1466735064282
 30
0.0
 11
1771.20214454799
 21
267.1466735064284
 31
0.0
  0
MTEXT
  5
183
330
A
100
AcDbEntity
  8
TEMPLATE
390
1D
100
AcDbMText
 10
1527.20214454799
 20
258.731751631428
 30
0.0
 40
16.28841145833333
 41
0.0
 46
0.0
 71
     1
 72
     1
  1
容量
  7
ＭＳ ゴシック
 73
     1
 44
0.7828267384257843
  0
LINE
  5
184
330
A
100
AcDbEntity
  8
TEMPLATE
390
1D
100
AcDbLine
 10
1520.20214454799
 20
182.1466735064282
 30
0.0
 11
1520.20214454799
 21
267.1466735064284
 31
0.0
  0
MTEXT
  5
185
330
A
100
AcDbEntity
  8
TEMPLATE
390
1D
100
AcDbMText
 10
1276.20214454799
 20
343.7317516314282
 30
0.0
 40
16.28841145833333
 41
0.0
 46
0.0
 71
     1
 72
     1
  1
品番
  7
ＭＳ ゴシック
 73
     1
 44
0.7828267384257843
  0
MTEXT
  5
186
330
A
100
AcDbEntity
  8
TEMPLATE
390
1D
100
AcDbMText
 10
1276.20214454799
 20
258.731751631428
 30
0.0
 40
16.28841145833333
 41
0.0
 46
0.0
 71
     1
 72
     1
  1
重量
  7
ＭＳ ゴシック
 73
     1
 44
0.7828267384257843
  0
MTEXT
  5
187
330
A
100
AcDbEntity
  8
TEMPLATE
390
1D
100
AcDbMText
 10
1329.20214454799
 20
315.1492906939282
 30
0.0
 40
24.4326171875
 41
0.0
 46
24.4326171875
 71
     1
 72
     1
  1
{GAR70-1001-001}
  7
ＭＳ ゴシック
 73
     1
 44
0.7828267384257843
1001
ACAD
1000
ACAD_MTEXT_DEFINED_HEIGHT_BEGIN
1070
    46
1040
24.4326171875
1000
ACAD_MTEXT_DEFINED_HEIGHT_END
  0
LINE
  5
188
330
A
100
AcDbEntity
  8
TEMPLATE
390
1D
100
AcDbLine
 10
1269.20214454799
 20
97.14667350642826
 30
0.0
 11
1269.20214454799
 21
352.1466735064282
 31
0.0
  0
MTEXT
  5
189
330
A
100
AcDbEntity
  8
TEMPLATE
390
1D
100
AcDbMText
 10
132.2021445477307
 20
315.1492906939282
 30
0.0
 40
24.4326171875
 41
0.0
 46
27.53672361022102
 71
     1
 72
     1
  1
{洗面器　-LAUFEN, MEDA-}
  7
ＭＳ ゴシック
 73
     1
 44
0.7828267384257843
1001
ACAD
1000
ACAD_MTEXT_DEFINED_HEIGHT_BEGIN
1070
    46
1040
27.53672361022102
1000
ACAD_MTEXT_DEFINED_HEIGHT_END
  0
INSERT
  5
68C
330
A
100
AcDbEntity
  8
TEMPLATE
100
AcDbBlockReference
  2
block 2
 10
919.2743017702577
 20
8.373076514336368
 30
0.0
 41
0.3809999999999999
 42
0.3809999999999999
 43
0.3809999999999999
  0
LWPOLYLINE
  5
DAC
330
A
100
AcDbEntity
  8
BORDER
100
AcDbPolyline
 90
        4
 70
     1
 43
0.0
 10
0.0
 20
0.0
 10
0.0
 20
2970.0
 10
2100.0
 20
2970.0
 10
2100.0
 20
0.0
  0
MTEXT
  5
121B
330
A
100
AcDbEntity
  8
TEMPLATE
390
1D
100
AcDbMText
 10
1329.20214454799
 20
227.1688729773101
 30
0.0
 40
24.4326171875
 41
0.0
 46
28.40135167875453
 71
     1
 72
     1
  1
{14kg}
  7
ＭＳ ゴシック
 73
     1
 44
0.7828267384257843
1001
ACAD
1000
ACAD_MTEXT_DEFINED_HEIGHT_BEGIN
1070
    46
1040
28.40135167875453
1000
ACAD_MTEXT_DEFINED_HEIGHT_END
  0
MTEXT
  5
1466
102
{ACAD_XDICTIONARY
360
1468
102
}
330
A
100
AcDbEntity
  8
TEMPLATE
 48
0.05
100
AcDbMText
 10
74.728656548571
 20
83.86172105142839
 30
0.0
 40
22.0
 41
0.0
 46
22.0
 71
     1
 72
     1
  1
{20240416M}
  7
ＭＳ ゴシック
 73
     1
 44
1.0
1001
ACAD
1000
ACAD_MTEXT_DEFINED_HEIGHT_BEGIN
1070
    46
1040
22.0
1000
ACAD_MTEXT_DEFINED_HEIGHT_END
  0
MTEXT
  5
146D
330
A
100
AcDbEntity
  8
TEMPLATE
390
1D
100
AcDbMText
 10
1583.904999862276
 20
227.1688729773101
 30
0.0
 40
24.4326171875
 41
0.0
 46
24.4326171875
 71
     1
 72
     1
  1
{4.5L}
  7
ＭＳ ゴシック
 73
     1
 44
0.7828267384257843
1001
ACAD
1000
ACAD_MTEXT_DEFINED_HEIGHT_BEGIN
1070
    46
1040
24.4326171875
1000
ACAD_MTEXT_DEFINED_HEIGHT_END
  0
POINT
  5
262A
330
A
100
AcDbEntity
  8
Layer9
  6
Continuous
 62
     7
100
AcDbPoint
 10
1037.460145007193
 20
1010.220672371878
 30
0.0
  0
POINT
  5
262B
330
A
100
AcDbEntity
  8
Layer9
  6
Continuous
 62
     7
100
AcDbPoint
 10
1037.460146257193
 20
1010.220672788578
 30
0.0
  0
POINT
  5
262C
330
A
100
AcDbEntity
  8
Layer9
  6
Continuous
 62
     7
100
AcDbPoint
 10
1037.853693340493
 20
1015.267975288578
 30
0.0
  0
POINT
  5
2812
330
A
100
AcDbEntity
  8
Layer9
  6
Continuous
 62
     7
100
AcDbPoint
 10
925.7934783404928
 20
1010.220672371878
 30
0.0
  0
POINT
  5
2813
330
A
100
AcDbEntity
  8
Layer9
  6
Continuous
 62
     7
100
AcDbPoint
 10
925.7934795904928
 20
1010.220672788578
 30
0.0
  0
POINT
  5
2814
330
A
100
AcDbEntity
  8
Layer9
  6
Continuous
 62
     7
100
AcDbPoint
 10
926.1870266737928
 20
1015.267975288578
 30
0.0
  0
INSERT
  5
28CA
330
A
100
AcDbEntity
  8
Layer3
100
AcDbBlockReference
  2
SEANNOT_GROUP
 10
859.7083018867928
 20
826.1905269541776
 30
0.0
  0
POINT
  5
2A52
330
A
100
AcDbEntity
  8
Standard
  6
Continuous
 62
     7
100
AcDbPoint
 10
1036.111241014893
 20
1018.794321538578
 30
0.0
  0
INSERT
  5
2B9B
330
A
100
AcDbEntity
  8
Layer3
100
AcDbBlockReference
  2
SEANNOT_GROUP1
 10
859.7083018867928
 20
826.1905269541776
 30
0.0
  0
HATCH
  5
369B
102
{ACAD_REACTORS
330
36AC
102
}
330
A
100
AcDbEntity
  8
TEMPLATE
100
AcDbHatch
 10
0.0
 20
0.0
 30
0.0
210
0.0
220
0.0
230
1.0
  2
SOLID
 70
     1
 71
     1
 91
        6
 92
        1
 93
        8
 72
     1
 10
1934.476782902687
 20
153.1053194253001
 11
1934.476782902687
 21
147.1959117946397
 72
     1
 10
1934.476782902687
 20
147.1959117946397
 11
1925.116191352377
 21
147.1959117946397
 72
     1
 10
1925.116191352377
 20
147.1959117946397
 11
1925.116191352377
 21
123.105319426746
 72
     1
 10
1925.116191352377
 20
123.105319426746
 11
1916.883578199102
 21
123.105319426746
 72
     1
 10
1916.883578199102
 20
123.105319426746
 11
1916.883578199102
 21
147.1959117946397
 72
     1
 10
1916.883578199102
 20
147.1959117946397
 11
1907.688876764557
 21
147.1959117946397
 72
     1
 10
1907.688876764557
 20
147.1959117946397
 11
1907.688876764557
 21
153.1053194253001
 72
     1
 10
1907.688876764557
 20
153.1053194253001
 11
1934.476782902687
 21
153.1053194253001
 97
        1
330
369C
 92
        1
 93
        1
 72
     4
 94
        3
 73
     0
 74
     1
 95
       56
 96
       52
 40
0.0
 40
0.0
 40
0.0
 40
0.0
 40
1.0
 40
1.0
 40
1.0
 40
2.0
 40
2.0
 40
2.0
 40
3.0
 40
3.0
 40
3.0
 40
4.0
 40
4.0
 40
4.0
 40
5.0
 40
5.0
 40
5.0
 40
6.0
 40
6.0
 40
6.0
 40
7.0
 40
7.0
 40
7.0
 40
8.0
 40
8.0
 40
8.0
 40
9.0
 40
9.0
 40
9.0
 40
10.0
 40
10.0
 40
10.0
 40
11.0
 40
11.0
 40
11.0
 40
12.0
 40
12.0
 40
12.0
 40
13.0
 40
13.0
 40
13.0
 40
14.0
 40
14.0
 40
14.0
 40
15.0
 40
15.0
 40
15.0
 40
16.0
 40
16.0
 40
16.0
 40
17.0
 40
17.0
 40
17.0
 40
17.0
 10
1947.01896833698
 20
152.3909504648878
 10
1948.1728345189
 20
152.715738018898
 10
1949.662423612235
 20
152.4440650580081
 10
1949.662423612235
 20
152.4440650580081
 10
1949.662423612235
 20
152.4440650580081
 10
1948.946790018651
 20
150.2964947655846
 10
1948.946790018651
 20
150.2964947655846
 10
1948.946790018651
 20
150.2964947655846
 10
1947.484427733556
 20
150.6348957237139
 10
1946.356523726704
 20
149.7454866546012
 10
1945.480058550036
 20
149.0499384113589
 10
1944.912238256914
 20
147.2017886193686
 10
1944.69442379101
 20
146.4990989182278
 10
1944.69442379101
 20
146.4990989182278
 10
1943.723334297183
 20
143.518432927829
 10
1943.723334297183
 20
143.518432927829
 10
1943.723334297183
 20
143.518432927829
 10
1946.907457447503
 20
143.518432927829
 10
1946.907457447503
 20
143.518432927829
 10
1946.907457447503
 20
143.518432927829
 10
1946.412241976351
 20
141.642461206109
 10
1946.412241976351
 20
141.642461206109
 10
1946.412241976351
 20
141.642461206109
 10
1943.202156650962
 20
141.642461206109
 10
1943.202156650962
 20
141.642461206109
 10
1943.202156650962
 20
141.642461206109
 10
1937.458713526257
 20
123.105319426746
 10
1937.458713526257
 20
123.105319426746
 10
1937.458713526257
 20
123.105319426746
 10
1935.660479549369
 20
123.105319426746
 10
1935.660479549369
 20
123.105319426746
 10
1935.660479549369
 20
123.105319426746
 10
1941.409129987127
 20
141.642461206109
 10
1941.409129987127
 20
141.642461206109
 10
1941.409129987127
 20
141.642461206109
 10
1939.040397670409
 20
141.642461206109
 10
1939.040397670409
 20
141.642461206109
 10
1939.040397670409
 20
141.642461206109
 10
1939.536952164915
 20
143.518432927829
 10
1939.536952164915
 20
143.518432927829
 10
1939.536952164915
 20
143.518432927829
 10
1941.930307633347
 20
143.518432927829
 10
1941.930307633347
 20
143.518432927829
 10
1941.930307633347
 20
143.518432927829
 10
1942.77686795507
 20
146.1179236028939
 10
1942.77686795507
 20
146.1179236028939
 10
1943.461406450716
 20
148.2973328951149
 10
1944.042245026465
 20
149.4674161376772
 10
1944.540138544327
 20
150.3496093587049
 10
1945.032750358952
 20
151.232546481597
 10
1946.007708142475
 20
152.0998616653363
 10
1947.01896833698
 20
152.3909504648878
 97
        1
330
36A7
 92
        1
 93
        1
 72
     4
 94
        3
 73
     0
 74
     1
 95
       32
 96
       28
 40
0.0
 40
0.0
 40
0.0
 40
0.0
 40
1.0
 40
1.0
 40
1.0
 40
2.0
 40
2.0
 40
2.0
 40
3.0
 40
3.0
 40
3.0
 40
4.0
 40
4.0
 40
4.0
 40
5.0
 40
5.0
 40
5.0
 40
6.0
 40
6.0
 40
6.0
 40
7.0
 40
7.0
 40
7.0
 40
8.0
 40
8.0
 40
8.0
 40
9.0
 40
9.0
 40
9.0
 40
9.0
 10
1951.394524713372
 20
142.3847264864374
 10
1950.311998720255
 20
140.9844800070205
 10
1949.478382290974
 20
139.7243102486757
 10
1948.128795528524
 20
135.7635535518901
 10
1946.888041608841
 20
132.1406026917421
 10
1946.098464169936
 20
129.5048096056932
 10
1945.979216701069
 20
126.2947242803041
 10
1945.888460673606
 20
123.9059066132458
 10
1947.343086379314
 20
123.105319426746
 10
1949.475853024634
 20
123.105319426746
 10
1950.395018168326
 20
123.105319426746
 10
1952.714504181618
 20
123.1637901132903
 10
1954.3662638814
 20
125.2056519507783
 10
1955.522584939468
 20
126.6401923061455
 10
1956.588298750451
 20
128.1272521331414
 10
1958.017036671275
 20
133.0053142189559
 10
1959.205940631009
 20
137.0833842397621
 10
1960.029142434186
 20
139.7191029356247
 10
1959.968291261677
 20
141.2197761667398
 10
1959.968291261677
 20
141.2197761667398
 10
1959.968291261677
 20
141.2197761667398
 10
1959.968291261677
 20
141.2197761667398
 10
1959.580569609936
 20
143.7233035012931
 10
1957.762919794387
 20
144.2522921170894
 10
1956.724432791643
 20
144.2522921170894
 10
1955.70156772805
 20
144.2522921170894
 10
1952.960735698745
 20
144.4292663706373
 10
1951.394524713372
 20
142.3847264864374
 97
        1
330
36AA
 92
        1
 93
        1
 72
     4
 94
        3
 73
     0
 74
     1
 95
       38
 96
       34
 40
0.0
 40
0.0
 40
0.0
 40
0.0
 40
1.0
 40
1.0
 40
1.0
 40
2.0
 40
2.0
 40
2.0
 40
3.0
 40
3.0
 40
3.0
 40
4.0
 40
4.0
 40
4.0
 40
5.0
 40
5.0
 40
5.0
 40
6.0
 40
6.0
 40
6.0
 40
7.0
 40
7.0
 40
7.0
 40
8.0
 40
8.0
 40
8.0
 40
9.0
 40
9.0
 40
9.0
 40
10.0
 40
10.0
 40
10.0
 40
11.0
 40
11.0
 40
11.0
 40
11.0
 10
1966.542747159137
 20
143.4464976175386
 10
1966.542747159137
 20
143.4464976175386
 10
1968.39149207262
 20
143.4464976175386
 10
1968.39149207262
 20
143.4464976175386
 10
1968.39149207262
 20
143.4464976175386
 10
1967.56561222273
 20
140.8022984404216
 10
1967.56561222273
 20
140.8022984404216
 10
1968.193167835563
 20
141.54456372075
 10
1969.183598777865
 20
142.5331349083912
 10
1970.034176169654
 20
143.0316235477459
 10
1971.304760554101
 20
143.7738888280742
 10
1972.030808773784
 20
143.8717863134333
 10
1972.829313035064
 20
143.8522960845852
 10
1972.829313035064
 20
143.8522960845852
 10
1972.048959979278
 20
141.3520419182353
 10
1972.048959979278
 20
141.3520419182353
 10
1971.540726225497
 20
141.5672527276151
 10
1969.974515240128
 20
141.1575859708734
 10
1969.076030568268
 20
140.5112840310564
 10
1968.265772657532
 20
139.9285113104618
 10
1967.705614553615
 20
139.4326263276327
 10
1967.04190531017
 20
138.1859955832205
 10
1966.383254599404
 20
136.9375050841474
 10
1965.86341597654
 20
134.9467493047458
 10
1964.968799594376
 20
132.058773486655
 10
1964.968799594376
 20
132.058773486655
 10
1962.174852971949
 20
123.105319426746
 10
1962.174852971949
 20
123.105319426746
 10
1962.174852971949
 20
123.105319426746
 10
1960.380561674943
 20
123.105319426746
 10
1960.380561674943
 20
123.105319426746
 10
1960.380561674943
 20
123.105319426746
 10
1966.542747159137
 20
143.4464976175386
 10
1966.542747159137
 20
143.4464976175386
 97
        1
330
36A8
 92
        1
 93
        1
 72
     4
 94
        3
 73
     0
 74
     1
 95
      104
 96
      100
 40
0.0
 40
0.0
 40
0.0
 40
0.0
 40
1.0
 40
1.0
 40
1.0
 40
2.0
 40
2.0
 40
2.0
 40
3.0
 40
3.0
 40
3.0
 40
4.0
 40
4.0
 40
4.0
 40
5.0
 40
5.0
 40
5.0
 40
6.0
 40
6.0
 40
6.0
 40
7.0
 40
7.0
 40
7.0
 40
8.0
 40
8.0
 40
8.0
 40
9.0
 40
9.0
 40
9.0
 40
10.0
 40
10.0
 40
10.0
 40
11.0
 40
11.0
 40
11.0
 40
12.0
 40
12.0
 40
12.0
 40
13.0
 40
13.0
 40
13.0
 40
14.0
 40
14.0
 40
14.0
 40
15.0
 40
15.0
 40
15.0
 40
16.0
 40
16.0
 40
16.0
 40
17.0
 40
17.0
 40
17.0
 40
18.0
 40
18.0
 40
18.0
 40
19.0
 40
19.0
 40
19.0
 40
20.0
 40
20.0
 40
20.0
 40
21.0
 40
21.0
 40
21.0
 40
22.0
 40
22.0
 40
22.0
 40
23.0
 40
23.0
 40
23.0
 40
24.0
 40
24.0
 40
24.0
 40
25.0
 40
25.0
 40
25.0
 40
26.0
 40
26.0
 40
26.0
 40
27.0
 40
27.0
 40
27.0
 40
28.0
 40
28.0
 40
28.0
 40
29.0
 40
29.0
 40
29.0
 40
30.0
 40
30.0
 40
30.0
 40
31.0
 40
31.0
 40
31.0
 40
32.0
 40
32.0
 40
32.0
 40
33.0
 40
33.0
 40
33.0
 40
33.0
 10
1976.718878323425
 20
143.4575073651321
 10
1976.718878323425
 20
143.4575073651321
 10
1978.332996588864
 20
143.4575073651321
 10
1978.332996588864
 20
143.4575073651321
 10
1978.332996588864
 20
143.4575073651321
 10
1977.517531365076
 20
140.810778921676
 10
1977.517531365076
 20
140.810778921676
 10
1978.225279598895
 20
141.920531723033
 10
1978.860571791119
 20
142.4151520726926
 10
1979.704602846502
 20
143.054312554611
 10
1980.551163168223
 20
143.6843974337833
 10
1981.556025806694
 20
143.812794895584
 10
1982.253508194784
 20
143.812794895584
 10
1983.117029479015
 20
143.812794895584
 10
1983.950645908296
 20
143.6422925882567
 10
1984.388804106443
 20
142.6958262461422
 10
1984.72460140805
 20
141.9536353560001
 10
1984.740223347202
 20
141.8660781065566
 10
1984.644260006691
 20
140.4010377747479
 10
1985.521915426345
 20
141.9030500292188
 10
1986.170151511008
 20
142.5500214807137
 10
1987.272167732975
 20
143.1716258786317
 10
1988.42863757142
 20
143.812794895584
 10
1989.102761440966
 20
143.8607765658398
 10
1989.885941323838
 20
143.7453229964802
 10
1991.039733115569
 20
143.5748950793392
 10
1991.776195961356
 20
143.1632197875635
 10
1992.161239566385
 20
141.9121256319649
 10
1992.54762219477
 20
140.6648997660613
 10
1992.338883331611
 20
139.9959088193793
 10
1991.861744675765
 20
138.0103603530286
 10
1991.64393020986
 20
137.1060732466272
 10
1991.328813380087
 20
136.0111240923725
 10
1990.916542966819
 20
134.7082543670094
 10
1990.916542966819
 20
134.7082543670094
 10
1987.272167732975
 20
123.105319426746
 10
1987.272167732975
 20
123.105319426746
 10
1987.272167732975
 20
123.105319426746
 10
1985.376705782409
 20
123.105319426746
 10
1985.376705782409
 20
123.105319426746
 10
1985.376705782409
 20
123.105319426746
 10
1988.567449659321
 20
133.2490164697431
 10
1988.567449659321
 20
133.2490164697431
 10
1989.233836949479
 20
135.3713684889626
 10
1989.684939040069
 20
136.9212880235028
 10
1989.918375445127
 20
137.893047029008
 10
1990.211323999339
 20
139.1052351170969
 10
1990.327967811683
 20
139.505231149601
 10
1990.189304504152
 20
140.3874987608153
 10
1990.062246065708
 20
141.2087664191461
 10
1989.647297605728
 20
141.7435574694851
 10
1988.936871325198
 20
141.7435574694851
 10
1988.17972800758
 20
141.7435574694851
 10
1987.566455310545
 20
141.659273388245
 10
1986.708290119737
 20
140.7971655175569
 10
1985.84997614856
 20
139.9285113104618
 10
1985.140740111011
 20
138.9088450248874
 10
1984.584599077163
 20
137.7361581257997
 10
1984.029648286297
 20
136.5563297688134
 10
1983.466960916042
 20
135.0608638507494
 10
1982.896536966398
 20
133.2490164697431
 10
1982.896536966398
 20
133.2490164697431
 10
1979.704602846502
 20
123.105319426746
 10
1979.704602846502
 20
123.105319426746
 10
1979.704602846502
 20
123.105319426746
 10
1977.921916418581
 20
123.105319426746
 10
1977.921916418581
 20
123.105319426746
 10
1977.921916418581
 20
123.105319426746
 10
1981.571498965475
 20
134.7030470539584
 10
1981.571498965475
 20
134.7030470539584
 10
1981.956542570504
 20
135.9373290274211
 10
1982.245771615394
 20
136.9433819088763
 10
1982.436359273062
 20
137.729686179579
 10
1982.760402925207
 20
139.0832156219098
 10
1982.851158952669
 20
139.9985124759046
 10
1982.606117678524
 20
140.810778921676
 10
1982.364944694076
 20
141.6204417109219
 10
1981.941069411725
 20
141.8272464292334
 10
1981.233172397533
 20
141.8272464292334
 10
1980.639389929345
 20
141.8272464292334
 10
1980.059890376953
 20
141.5724600406662
 10
1979.398710399847
 20
141.0654909200569
 10
1978.566284213549
 20
140.4276694614944
 10
1978.233164958657
 20
139.9038881587491
 10
1977.824762835085
 20
139.2815398589669
 10
1977.273680333915
 20
138.458263665602
 10
1977.015695167332
 20
137.9040567766015
 10
1976.550310160944
 20
136.687926008631
 10
1976.084776374184
 20
135.4646537827621
 10
1975.644088909695
 20
134.0411231749885
 10
1975.336708659311
 20
133.0564946672286
 10
1975.336708659311
 20
133.0564946672286
 10
1972.205774492298
 20
123.105319426746
 10
1972.205774492298
 20
123.105319426746
 10
1972.205774492298
 20
123.105319426746
 10
1970.338878373326
 20
123.105319426746
 10
1970.338878373326
 20
123.105319426746
 10
1970.338878373326
 20
123.105319426746
 10
1976.718878323425
 20
143.4575073651321
 10
1976.718878323425
 20
143.4575073651321
 97
        1
330
36A9
 92
       16
 93
        1
 72
     4
 94
        3
 73
     0
 74
     1
 95
       29
 96
       25
 40
0.0
 40
0.0
 40
0.0
 40
0.0
 40
1.0
 40
1.0
 40
1.0
 40
2.0
 40
2.0
 40
2.0
 40
3.0
 40
3.0
 40
3.0
 40
4.0
 40
4.0
 40
4.0
 40
5.0
 40
5.0
 40
5.0
 40
6.0
 40
6.0
 40
6.0
 40
7.0
 40
7.0
 40
7.0
 40
8.0
 40
8.0
 40
8.0
 40
8.0
 10
1947.916188375669
 20
126.8949043045264
 10
1947.908303015907
 20
128.3120373562658
 10
1948.355685597176
 20
130.8298476066162
 10
1949.501740809517
 20
134.1986815898748
 10
1951.062744481836
 20
138.7603622127471
 10
1951.998870588036
 20
140.4276694614944
 10
1952.818055321147
 20
141.2392663955878
 10
1954.014844640642
 20
142.4210288974216
 10
1955.623755593032
 20
142.4799459250845
 10
1956.098364982539
 20
142.4210288974216
 10
1956.77382787544
 20
142.3399435941987
 10
1957.727956406759
 20
141.8978427161679
 10
1957.784939289575
 20
140.4095182560024
 10
1957.830466083678
 20
139.1357350935386
 10
1957.463424903768
 20
136.7501905946838
 10
1956.178706383896
 20
133.0053142189559
 10
1954.698044112936
 20
128.6536370924121
 10
1953.808635043822
 20
126.9429603649685
 10
1953.095679496951
 20
126.1974219164366
 10
1951.752490290537
 20
124.7997790935452
 10
1950.311998720255
 20
124.9339789898883
 10
1950.0993915674
 20
124.9339789898883
 10
1949.823255195324
 20
124.9339789898883
 10
1947.920056665365
 20
125.2336226608809
 10
1947.916188375669
 20
126.8949043045264
 97
        1
330
36AB
 75
     0
 76
     1
 98
        1
 10
1859.334883625664
 20
72.26751235270598
1001
ACAD
1010
0.0
1020
0.0
1030
0.0
  0
POLYLINE
  5
369C
102
{ACAD_REACTORS
330
369B
330
36AC
102
}
330
A
100
AcDbEntity
  8
TEMPLATE
100
AcDb2dPolyline
 66
     1
 10
0.0
 20
0.0
 30
0.0
  0
VERTEX
  5
369D
330
369C
100
AcDbEntity
  8
TEMPLATE
100
AcDbVertex
100
AcDb2dVertex
 10
1934.476782902687
 20
153.1053194253001
 30
0.0
  0
VERTEX
  5
369E
330
369C
100
AcDbEntity
  8
TEMPLATE
100
AcDbVertex
100
AcDb2dVertex
 10
1934.476782902687
 20
147.1959117946397
 30
0.0
  0
VERTEX
  5
369F
330
369C
100
AcDbEntity
  8
TEMPLATE
100
AcDbVertex
100
AcDb2dVertex
 10
1925.116191352377
 20
147.1959117946397
 30
0.0
  0
VERTEX
  5
36A0
330
369C
100
AcDbEntity
  8
TEMPLATE
100
AcDbVertex
100
AcDb2dVertex
 10
1925.116191352377
 20
123.105319426746
 30
0.0
  0
VERTEX
  5
36A1
330
369C
100
AcDbEntity
  8
TEMPLATE
100
AcDbVertex
100
AcDb2dVertex
 10
1916.883578199102
 20
123.105319426746
 30
0.0
  0
VERTEX
  5
36A2
330
369C
100
AcDbEntity
  8
TEMPLATE
100
AcDbVertex
100
AcDb2dVertex
 10
1916.883578199102
 20
147.1959117946397
 30
0.0
  0
VERTEX
  5
36A3
330
369C
100
AcDbEntity
  8
TEMPLATE
100
AcDbVertex
100
AcDb2dVertex
 10
1907.688876764557
 20
147.1959117946397
 30
0.0
  0
VERTEX
  5
36A4
330
369C
100
AcDbEntity
  8
TEMPLATE
100
AcDbVertex
100
AcDb2dVertex
 10
1907.688876764557
 20
153.1053194253001
 30
0.0
  0
VERTEX
  5
36A5
330
369C
100
AcDbEntity
  8
TEMPLATE
100
AcDbVertex
100
AcDb2dVertex
 10
1934.476782902687
 20
153.1053194253001
 30
0.0
  0
SEQEND
  5
36A6
330
369C
100
AcDbEntity
  8
TEMPLATE
  0
SPLINE
  5
36A7
102
{ACAD_REACTORS
330
369B
330
36AC
102
}
330
A
100
AcDbEntity
  8
TEMPLATE
100
AcDbSpline
210
0.0
220
0.0
230
1.0
 70
    11
 71
     3
 72
    56
 73
    52
 74
     0
 42
0.000000001
 43
0.0000000001
 40
0.0
 40
0.0
 40
0.0
 40
0.0
 40
1.0
 40
1.0
 40
1.0
 40
2.0
 40
2.0
 40
2.0
 40
3.0
 40
3.0
 40
3.0
 40
4.0
 40
4.0
 40
4.0
 40
5.0
 40
5.0
 40
5.0
 40
6.0
 40
6.0
 40
6.0
 40
7.0
 40
7.0
 40
7.0
 40
8.0
 40
8.0
 40
8.0
 40
9.0
 40
9.0
 40
9.0
 40
10.0
 40
10.0
 40
10.0
 40
11.0
 40
11.0
 40
11.0
 40
12.0
 40
12.0
 40
12.0
 40
13.0
 40
13.0
 40
13.0
 40
14.0
 40
14.0
 40
14.0
 40
15.0
 40
15.0
 40
15.0
 40
16.0
 40
16.0
 40
16.0
 40
17.0
 40
17.0
 40
17.0
 40
17.0
 10
1947.01896833698
 20
152.3909504648878
 30
0.0
 10
1948.1728345189
 20
152.715738018898
 30
0.0
 10
1949.662423612235
 20
152.4440650580081
 30
0.0
 10
1949.662423612235
 20
152.4440650580081
 30
0.0
 10
1949.662423612235
 20
152.4440650580081
 30
0.0
 10
1948.946790018651
 20
150.2964947655846
 30
0.0
 10
1948.946790018651
 20
150.2964947655846
 30
0.0
 10
1948.946790018651
 20
150.2964947655846
 30
0.0
 10
1947.484427733556
 20
150.6348957237139
 30
0.0
 10
1946.356523726704
 20
149.7454866546012
 30
0.0
 10
1945.480058550036
 20
149.0499384113589
 30
0.0
 10
1944.912238256914
 20
147.2017886193686
 30
0.0
 10
1944.69442379101
 20
146.4990989182278
 30
0.0
 10
1944.69442379101
 20
146.4990989182278
 30
0.0
 10
1943.723334297183
 20
143.518432927829
 30
0.0
 10
1943.723334297183
 20
143.518432927829
 30
0.0
 10
1943.723334297183
 20
143.518432927829
 30
0.0
 10
1946.907457447503
 20
143.518432927829
 30
0.0
 10
1946.907457447503
 20
143.518432927829
 30
0.0
 10
1946.907457447503
 20
143.518432927829
 30
0.0
 10
1946.412241976351
 20
141.642461206109
 30
0.0
 10
1946.412241976351
 20
141.642461206109
 30
0.0
 10
1946.412241976351
 20
141.642461206109
 30
0.0
 10
1943.202156650962
 20
141.642461206109
 30
0.0
 10
1943.202156650962
 20
141.642461206109
 30
0.0
 10
1943.202156650962
 20
141.642461206109
 30
0.0
 10
1937.458713526257
 20
123.105319426746
 30
0.0
 10
1937.458713526257
 20
123.105319426746
 30
0.0
 10
1937.458713526257
 20
123.105319426746
 30
0.0
 10
1935.660479549369
 20
123.105319426746
 30
0.0
 10
1935.660479549369
 20
123.105319426746
 30
0.0
 10
1935.660479549369
 20
123.105319426746
 30
0.0
 10
1941.409129987127
 20
141.642461206109
 30
0.0
 10
1941.409129987127
 20
141.642461206109
 30
0.0
 10
1941.409129987127
 20
141.642461206109
 30
0.0
 10
1939.040397670409
 20
141.642461206109
 30
0.0
 10
1939.040397670409
 20
141.642461206109
 30
0.0
 10
1939.040397670409
 20
141.642461206109
 30
0.0
 10
1939.536952164915
 20
143.518432927829
 30
0.0
 10
1939.536952164915
 20
143.518432927829
 30
0.0
 10
1939.536952164915
 20
143.518432927829
 30
0.0
 10
1941.930307633347
 20
143.518432927829
 30
0.0
 10
1941.930307633347
 20
143.518432927829
 30
0.0
 10
1941.930307633347
 20
143.518432927829
 30
0.0
 10
1942.77686795507
 20
146.1179236028939
 30
0.0
 10
1942.77686795507
 20
146.1179236028939
 30
0.0
 10
1943.461406450716
 20
148.2973328951149
 30
0.0
 10
1944.042245026465
 20
149.4674161376772
 30
0.0
 10
1944.540138544327
 20
150.3496093587049
 30
0.0
 10
1945.032750358952
 20
151.232546481597
 30
0.0
 10
1946.007708142475
 20
152.0998616653363
 30
0.0
 10
1947.01896833698
 20
152.3909504648878
 30
0.0
  0
SPLINE
  5
36A8
102
{ACAD_REACTORS
330
369B
330
36AC
102
}
330
A
100
AcDbEntity
  8
TEMPLATE
100
AcDbSpline
210
0.0
220
0.0
230
1.0
 70
    11
 71
     3
 72
    38
 73
    34
 74
     0
 42
0.000000001
 43
0.0000000001
 40
0.0
 40
0.0
 40
0.0
 40
0.0
 40
1.0
 40
1.0
 40
1.0
 40
2.0
 40
2.0
 40
2.0
 40
3.0
 40
3.0
 40
3.0
 40
4.0
 40
4.0
 40
4.0
 40
5.0
 40
5.0
 40
5.0
 40
6.0
 40
6.0
 40
6.0
 40
7.0
 40
7.0
 40
7.0
 40
8.0
 40
8.0
 40
8.0
 40
9.0
 40
9.0
 40
9.0
 40
10.0
 40
10.0
 40
10.0
 40
11.0
 40
11.0
 40
11.0
 40
11.0
 10
1966.542747159137
 20
143.4464976175386
 30
0.0
 10
1966.542747159137
 20
143.4464976175386
 30
0.0
 10
1968.39149207262
 20
143.4464976175386
 30
0.0
 10
1968.39149207262
 20
143.4464976175386
 30
0.0
 10
1968.39149207262
 20
143.4464976175386
 30
0.0
 10
1967.56561222273
 20
140.8022984404216
 30
0.0
 10
1967.56561222273
 20
140.8022984404216
 30
0.0
 10
1968.193167835563
 20
141.54456372075
 30
0.0
 10
1969.183598777865
 20
142.5331349083912
 30
0.0
 10
1970.034176169654
 20
143.0316235477459
 30
0.0
 10
1971.304760554101
 20
143.7738888280742
 30
0.0
 10
1972.030808773784
 20
143.8717863134333
 30
0.0
 10
1972.829313035064
 20
143.8522960845852
 30
0.0
 10
1972.829313035064
 20
143.8522960845852
 30
0.0
 10
1972.048959979278
 20
141.3520419182353
 30
0.0
 10
1972.048959979278
 20
141.3520419182353
 30
0.0
 10
1971.540726225497
 20
141.5672527276151
 30
0.0
 10
1969.974515240128
 20
141.1575859708734
 30
0.0
 10
1969.076030568268
 20
140.5112840310564
 30
0.0
 10
1968.265772657532
 20
139.9285113104618
 30
0.0
 10
1967.705614553615
 20
139.4326263276327
 30
0.0
 10
1967.04190531017
 20
138.1859955832205
 30
0.0
 10
1966.383254599404
 20
136.9375050841474
 30
0.0
 10
1965.86341597654
 20
134.9467493047458
 30
0.0
 10
1964.968799594376
 20
132.058773486655
 30
0.0
 10
1964.968799594376
 20
132.058773486655
 30
0.0
 10
1962.174852971949
 20
123.105319426746
 30
0.0
 10
1962.174852971949
 20
123.105319426746
 30
0.0
 10
1962.174852971949
 20
123.105319426746
 30
0.0
 10
1960.380561674943
 20
123.105319426746
 30
0.0
 10
1960.380561674943
 20
123.105319426746
 30
0.0
 10
1960.380561674943
 20
123.105319426746
 30
0.0
 10
1966.542747159137
 20
143.4464976175386
 30
0.0
 10
1966.542747159137
 20
143.4464976175386
 30
0.0
  0
SPLINE
  5
36A9
102
{ACAD_REACTORS
330
369B
330
36AC
102
}
330
A
100
AcDbEntity
  8
TEMPLATE
100
AcDbSpline
210
0.0
220
0.0
230
1.0
 70
    11
 71
     3
 72
   104
 73
   100
 74
     0
 42
0.000000001
 43
0.0000000001
 40
0.0
 40
0.0
 40
0.0
 40
0.0
 40
1.0
 40
1.0
 40
1.0
 40
2.0
 40
2.0
 40
2.0
 40
3.0
 40
3.0
 40
3.0
 40
4.0
 40
4.0
 40
4.0
 40
5.0
 40
5.0
 40
5.0
 40
6.0
 40
6.0
 40
6.0
 40
7.0
 40
7.0
 40
7.0
 40
8.0
 40
8.0
 40
8.0
 40
9.0
 40
9.0
 40
9.0
 40
10.0
 40
10.0
 40
10.0
 40
11.0
 40
11.0
 40
11.0
 40
12.0
 40
12.0
 40
12.0
 40
13.0
 40
13.0
 40
13.0
 40
14.0
 40
14.0
 40
14.0
 40
15.0
 40
15.0
 40
15.0
 40
16.0
 40
16.0
 40
16.0
 40
17.0
 40
17.0
 40
17.0
 40
18.0
 40
18.0
 40
18.0
 40
19.0
 40
19.0
 40
19.0
 40
20.0
 40
20.0
 40
20.0
 40
21.0
 40
21.0
 40
21.0
 40
22.0
 40
22.0
 40
22.0
 40
23.0
 40
23.0
 40
23.0
 40
24.0
 40
24.0
 40
24.0
 40
25.0
 40
25.0
 40
25.0
 40
26.0
 40
26.0
 40
26.0
 40
27.0
 40
27.0
 40
27.0
 40
28.0
 40
28.0
 40
28.0
 40
29.0
 40
29.0
 40
29.0
 40
30.0
 40
30.0
 40
30.0
 40
31.0
 40
31.0
 40
31.0
 40
32.0
 40
32.0
 40
32.0
 40
33.0
 40
33.0
 40
33.0
 40
33.0
 10
1976.718878323425
 20
143.4575073651321
 30
0.0
 10
1976.718878323425
 20
143.4575073651321
 30
0.0
 10
1978.332996588864
 20
143.4575073651321
 30
0.0
 10
1978.332996588864
 20
143.4575073651321
 30
0.0
 10
1978.332996588864
 20
143.4575073651321
 30
0.0
 10
1977.517531365076
 20
140.810778921676
 30
0.0
 10
1977.517531365076
 20
140.810778921676
 30
0.0
 10
1978.225279598895
 20
141.920531723033
 30
0.0
 10
1978.860571791119
 20
142.4151520726926
 30
0.0
 10
1979.704602846502
 20
143.054312554611
 30
0.0
 10
1980.551163168223
 20
143.6843974337833
 30
0.0
 10
1981.556025806694
 20
143.812794895584
 30
0.0
 10
1982.253508194784
 20
143.812794895584
 30
0.0
 10
1983.117029479015
 20
143.812794895584
 30
0.0
 10
1983.950645908296
 20
143.6422925882567
 30
0.0
 10
1984.388804106443
 20
142.6958262461422
 30
0.0
 10
1984.72460140805
 20
141.9536353560001
 30
0.0
 10
1984.740223347202
 20
141.8660781065566
 30
0.0
 10
1984.644260006691
 20
140.4010377747479
 30
0.0
 10
1985.521915426345
 20
141.9030500292188
 30
0.0
 10
1986.170151511008
 20
142.5500214807137
 30
0.0
 10
1987.272167732975
 20
143.1716258786317
 30
0.0
 10
1988.42863757142
 20
143.812794895584
 30
0.0
 10
1989.102761440966
 20
143.8607765658398
 30
0.0
 10
1989.885941323838
 20
143.7453229964802
 30
0.0
 10
1991.039733115569
 20
143.5748950793392
 30
0.0
 10
1991.776195961356
 20
143.1632197875635
 30
0.0
 10
1992.161239566385
 20
141.9121256319649
 30
0.0
 10
1992.54762219477
 20
140.6648997660613
 30
0.0
 10
1992.338883331611
 20
139.9959088193793
 30
0.0
 10
1991.861744675765
 20
138.0103603530286
 30
0.0
 10
1991.64393020986
 20
137.1060732466272
 30
0.0
 10
1991.328813380087
 20
136.0111240923725
 30
0.0
 10
1990.916542966819
 20
134.7082543670094
 30
0.0
 10
1990.916542966819
 20
134.7082543670094
 30
0.0
 10
1987.272167732975
 20
123.105319426746
 30
0.0
 10
1987.272167732975
 20
123.105319426746
 30
0.0
 10
1987.272167732975
 20
123.105319426746
 30
0.0
 10
1985.376705782409
 20
123.105319426746
 30
0.0
 10
1985.376705782409
 20
123.105319426746
 30
0.0
 10
1985.376705782409
 20
123.105319426746
 30
0.0
 10
1988.567449659321
 20
133.2490164697431
 30
0.0
 10
1988.567449659321
 20
133.2490164697431
 30
0.0
 10
1989.233836949479
 20
135.3713684889626
 30
0.0
 10
1989.684939040069
 20
136.9212880235028
 30
0.0
 10
1989.918375445127
 20
137.893047029008
 30
0.0
 10
1990.211323999339
 20
139.1052351170969
 30
0.0
 10
1990.327967811683
 20
139.505231149601
 30
0.0
 10
1990.189304504152
 20
140.3874987608153
 30
0.0
 10
1990.062246065708
 20
141.2087664191461
 30
0.0
 10
1989.647297605728
 20
141.7435574694851
 30
0.0
 10
1988.936871325198
 20
141.7435574694851
 30
0.0
 10
1988.17972800758
 20
141.7435574694851
 30
0.0
 10
1987.566455310545
 20
141.659273388245
 30
0.0
 10
1986.708290119737
 20
140.7971655175569
 30
0.0
 10
1985.84997614856
 20
139.9285113104618
 30
0.0
 10
1985.140740111011
 20
138.9088450248874
 30
0.0
 10
1984.584599077163
 20
137.7361581257997
 30
0.0
 10
1984.029648286297
 20
136.5563297688134
 30
0.0
 10
1983.466960916042
 20
135.0608638507494
 30
0.0
 10
1982.896536966398
 20
133.2490164697431
 30
0.0
 10
1982.896536966398
 20
133.2490164697431
 30
0.0
 10
1979.704602846502
 20
123.105319426746
 30
0.0
 10
1979.704602846502
 20
123.105319426746
 30
0.0
 10
1979.704602846502
 20
123.105319426746
 30
0.0
 10
1977.921916418581
 20
123.105319426746
 30
0.0
 10
1977.921916418581
 20
123.105319426746
 30
0.0
 10
1977.921916418581
 20
123.105319426746
 30
0.0
 10
1981.571498965475
 20
134.7030470539584
 30
0.0
 10
1981.571498965475
 20
134.7030470539584
 30
0.0
 10
1981.956542570504
 20
135.9373290274211
 30
0.0
 10
1982.245771615394
 20
136.9433819088763
 30
0.0
 10
1982.436359273062
 20
137.729686179579
 30
0.0
 10
1982.760402925207
 20
139.0832156219098
 30
0.0
 10
1982.851158952669
 20
139.9985124759046
 30
0.0
 10
1982.606117678524
 20
140.810778921676
 30
0.0
 10
1982.364944694076
 20
141.6204417109219
 30
0.0
 10
1981.941069411725
 20
141.8272464292334
 30
0.0
 10
1981.233172397533
 20
141.8272464292334
 30
0.0
 10
1980.639389929345
 20
141.8272464292334
 30
0.0
 10
1980.059890376953
 20
141.5724600406662
 30
0.0
 10
1979.398710399847
 20
141.0654909200569
 30
0.0
 10
1978.566284213549
 20
140.4276694614944
 30
0.0
 10
1978.233164958657
 20
139.9038881587491
 30
0.0
 10
1977.824762835085
 20
139.2815398589669
 30
0.0
 10
1977.273680333915
 20
138.458263665602
 30
0.0
 10
1977.015695167332
 20
137.9040567766015
 30
0.0
 10
1976.550310160944
 20
136.687926008631
 30
0.0
 10
1976.084776374184
 20
135.4646537827621
 30
0.0
 10
1975.644088909695
 20
134.0411231749885
 30
0.0
 10
1975.336708659311
 20
133.0564946672286
 30
0.0
 10
1975.336708659311
 20
133.0564946672286
 30
0.0
 10
1972.205774492298
 20
123.105319426746
 30
0.0
 10
1972.205774492298
 20
123.105319426746
 30
0.0
 10
1972.205774492298
 20
123.105319426746
 30
0.0
 10
1970.338878373326
 20
123.105319426746
 30
0.0
 10
1970.338878373326
 20
123.105319426746
 30
0.0
 10
1970.338878373326
 20
123.105319426746
 30
0.0
 10
1976.718878323425
 20
143.4575073651321
 30
0.0
 10
1976.718878323425
 20
143.4575073651321
 30
0.0
  0
SPLINE
  5
36AA
102
{ACAD_REACTORS
330
369B
330
36AC
102
}
330
A
100
AcDbEntity
  8
TEMPLATE
100
AcDbSpline
210
0.0
220
0.0
230
1.0
 70
    11
 71
     3
 72
    32
 73
    28
 74
     0
 42
0.000000001
 43
0.0000000001
 40
0.0
 40
0.0
 40
0.0
 40
0.0
 40
1.0
 40
1.0
 40
1.0
 40
2.0
 40
2.0
 40
2.0
 40
3.0
 40
3.0
 40
3.0
 40
4.0
 40
4.0
 40
4.0
 40
5.0
 40
5.0
 40
5.0
 40
6.0
 40
6.0
 40
6.0
 40
7.0
 40
7.0
 40
7.0
 40
8.0
 40
8.0
 40
8.0
 40
9.0
 40
9.0
 40
9.0
 40
9.0
 10
1951.394524713372
 20
142.3847264864374
 30
0.0
 10
1950.311998720255
 20
140.9844800070205
 30
0.0
 10
1949.478382290974
 20
139.7243102486757
 30
0.0
 10
1948.128795528524
 20
135.7635535518901
 30
0.0
 10
1946.888041608841
 20
132.1406026917421
 30
0.0
 10
1946.098464169936
 20
129.5048096056932
 30
0.0
 10
1945.979216701069
 20
126.2947242803041
 30
0.0
 10
1945.888460673606
 20
123.9059066132458
 30
0.0
 10
1947.343086379314
 20
123.105319426746
 30
0.0
 10
1949.475853024634
 20
123.105319426746
 30
0.0
 10
1950.395018168326
 20
123.105319426746
 30
0.0
 10
1952.714504181618
 20
123.1637901132903
 30
0.0
 10
1954.3662638814
 20
125.2056519507783
 30
0.0
 10
1955.522584939468
 20
126.6401923061455
 30
0.0
 10
1956.588298750451
 20
128.1272521331414
 30
0.0
 10
1958.017036671275
 20
133.0053142189559
 30
0.0
 10
1959.205940631009
 20
137.0833842397621
 30
0.0
 10
1960.029142434186
 20
139.7191029356247
 30
0.0
 10
1959.968291261677
 20
141.2197761667398
 30
0.0
 10
1959.968291261677
 20
141.2197761667398
 30
0.0
 10
1959.968291261677
 20
141.2197761667398
 30
0.0
 10
1959.968291261677
 20
141.2197761667398
 30
0.0
 10
1959.580569609936
 20
143.7233035012931
 30
0.0
 10
1957.762919794387
 20
144.2522921170894
 30
0.0
 10
1956.724432791643
 20
144.2522921170894
 30
0.0
 10
1955.70156772805
 20
144.2522921170894
 30
0.0
 10
1952.960735698745
 20
144.4292663706373
 30
0.0
 10
1951.394524713372
 20
142.3847264864374
 30
0.0
  0
SPLINE
  5
36AB
102
{ACAD_REACTORS
330
369B
330
36AC
102
}
330
A
100
AcDbEntity
  8
TEMPLATE
100
AcDbSpline
210
0.0
220
0.0
230
1.0
 70
    11
 71
     3
 72
    29
 73
    25
 74
     0
 42
0.000000001
 43
0.0000000001
 40
0.0
 40
0.0
 40
0.0
 40
0.0
 40
1.0
 40
1.0
 40
1.0
 40
2.0
 40
2.0
 40
2.0
 40
3.0
 40
3.0
 40
3.0
 40
4.0
 40
4.0
 40
4.0
 40
5.0
 40
5.0
 40
5.0
 40
6.0
 40
6.0
 40
6.0
 40
7.0
 40
7.0
 40
7.0
 40
8.0
 40
8.0
 40
8.0
 40
8.0
 10
1947.916188375669
 20
126.8949043045264
 30
0.0
 10
1947.908303015907
 20
128.3120373562658
 30
0.0
 10
1948.355685597176
 20
130.8298476066162
 30
0.0
 10
1949.501740809517
 20
134.1986815898748
 30
0.0
 10
1951.062744481836
 20
138.7603622127471
 30
0.0
 10
1951.998870588036
 20
140.4276694614944
 30
0.0
 10
1952.818055321147
 20
141.2392663955878
 30
0.0
 10
1954.014844640642
 20
142.4210288974216
 30
0.0
 10
1955.623755593032
 20
142.4799459250845
 30
0.0
 10
1956.098364982539
 20
142.4210288974216
 30
0.0
 10
1956.77382787544
 20
142.3399435941987
 30
0.0
 10
1957.727956406759
 20
141.8978427161679
 30
0.0
 10
1957.784939289575
 20
140.4095182560024
 30
0.0
 10
1957.830466083678
 20
139.1357350935386
 30
0.0
 10
1957.463424903768
 20
136.7501905946838
 30
0.0
 10
1956.178706383896
 20
133.0053142189559
 30
0.0
 10
1954.698044112936
 20
128.6536370924121
 30
0.0
 10
1953.808635043822
 20
126.9429603649685
 30
0.0
 10
1953.095679496951
 20
126.1974219164366
 30
0.0
 10
1951.752490290537
 20
124.7997790935452
 30
0.0
 10
1950.311998720255
 20
124.9339789898883
 30
0.0
 10
1950.0993915674
 20
124.9339789898883
 30
0.0
 10
1949.823255195324
 20
124.9339789898883
 30
0.0
 10
1947.920056665365
 20
125.2336226608809
 30
0.0
 10
1947.916188375669
 20
126.8949043045264
 30
0.0
  0
POLYLINE
  5
3AB7
330
A
100
AcDbEntity
  8
HIDDEN
 48
0.7
100
AcDb2dPolyline
 66
     1
 10
0.0
 20
0.0
 30
0.0
  0
VERTEX
  5
3AB8
330
3AB7
100
AcDbEntity
  8
HIDDEN
 48
0.7
100
AcDbVertex
100
AcDb2dVertex
 10
518.953693803961
 20
899.6389005783051
 30
0.0
  0
VERTEX
  5
3AB9
330
3AB7
100
AcDbEntity
  8
HIDDEN
 48
0.7
100
AcDbVertex
100
AcDb2dVertex
 10
564.325631276316
 20
899.6389005783051
 30
0.0
  0
SEQEND
  5
3ABA
330
3AB7
100
AcDbEntity
  8
HIDDEN
 48
0.7
  0
POLYLINE
  5
3ABF
330
A
100
AcDbEntity
  8
HIDDEN
100
AcDb2dPolyline
 66
     1
 10
0.0
 20
0.0
 30
0.0
  0
VERTEX
  5
3AC0
330
3ABF
100
AcDbEntity
  8
HIDDEN
100
AcDbVertex
100
AcDb2dVertex
 10
503.6505695630959
 20
899.6389005783051
 30
0.0
  0
VERTEX
  5
3AC1
330
3ABF
100
AcDbEntity
  8
HIDDEN
100
AcDbVertex
100
AcDb2dVertex
 10
510.7061297714
 20
899.6389005783051
 30
0.0
  0
SEQEND
  5
3AC2
330
3ABF
100
AcDbEntity
  8
HIDDEN
  0
POLYLINE
  5
3AC3
330
A
100
AcDbEntity
  8
HIDDEN
100
AcDb2dPolyline
 66
     1
 10
0.0
 20
0.0
 30
0.0
  0
VERTEX
  5
3AC4
330
3AC3
100
AcDbEntity
  8
HIDDEN
100
AcDbVertex
100
AcDb2dVertex
 10
568.4528583903566
 20
899.6389005783051
 30
0.0
  0
VERTEX
  5
3AC5
330
3AC3
100
AcDbEntity
  8
HIDDEN
100
AcDbVertex
100
AcDb2dVertex
 10
575.5084185986607
 20
899.6389005783051
 30
0.0
  0
SEQEND
  5
3AC6
330
3AC3
100
AcDbEntity
  8
HIDDEN
  0
POLYLINE
  5
3AC8
330
A
100
AcDbEntity
  8
HIDDEN
100
AcDb2dPolyline
 66
     1
 10
0.0
 20
0.0
 30
0.0
  0
VERTEX
  5
3AC9
330
3AC8
100
AcDbEntity
  8
HIDDEN
100
AcDbVertex
100
AcDb2dVertex
 10
563.4161254682158
 20
882.5994470674261
 30
0.0
  0
VERTEX
  5
3ACA
330
3AC8
100
AcDbEntity
  8
HIDDEN
100
AcDbVertex
100
AcDb2dVertex
 10
563.6228313336951
 20
889.6550072757302
 30
0.0
  0
VERTEX
  5
3ACB
330
3AC8
100
AcDbEntity
  8
HIDDEN
100
AcDbVertex
100
AcDb2dVertex
 10
569.0178544226628
 20
894.1956461207221
 30
0.0
  0
SEQEND
  5
3ACC
330
3AC8
100
AcDbEntity
  8
HIDDEN
  0
POLYLINE
  5
3ACD
330
A
100
AcDbEntity
  8
HIDDEN
100
AcDb2dPolyline
 66
     1
 10
0.0
 20
0.0
 30
0.0
  0
VERTEX
  5
3ACE
330
3ACD
100
AcDbEntity
  8
HIDDEN
100
AcDbVertex
100
AcDb2dVertex
 10
510.1342435435809
 20
894.1956461207221
 30
0.0
  0
VERTEX
  5
3ACF
330
3ACD
100
AcDbEntity
  8
HIDDEN
100
AcDbVertex
100
AcDb2dVertex
 10
515.536156828065
 20
889.6550072757302
 30
0.0
  0
VERTEX
  5
3AD0
330
3ACD
100
AcDbEntity
  8
HIDDEN
100
AcDbVertex
100
AcDb2dVertex
 10
515.7428626935407
 20
882.5994470674261
 30
0.0
  0
SEQEND
  5
3AD1
330
3ACD
100
AcDbEntity
  8
HIDDEN
  0
POLYLINE
  5
3AD2
330
A
100
AcDbEntity
  8
HIDDEN
100
AcDb2dPolyline
 66
     1
 10
0.0
 20
0.0
 30
0.0
  0
VERTEX
  5
3AD3
330
3AD2
100
AcDbEntity
  8
HIDDEN
100
AcDbVertex
100
AcDb2dVertex
 10
515.9082273859249
 20
876.9150357667888
 30
0.0
  0
VERTEX
  5
3AD4
330
3AD2
100
AcDbEntity
  8
HIDDEN
100
AcDbVertex
100
AcDb2dVertex
 10
516.3147489213634
 20
862.6936722219245
 30
0.0
  0
SEQEND
  5
3AD5
330
3AD2
100
AcDbEntity
  8
HIDDEN
  0
POLYLINE
  5
3AD6
330
A
100
AcDbEntity
  8
HIDDEN
100
AcDb2dPolyline
 66
     1
 10
0.0
 20
0.0
 30
0.0
  0
VERTEX
  5
3AD7
330
3AD6
100
AcDbEntity
  8
HIDDEN
100
AcDbVertex
100
AcDb2dVertex
 10
516.3974312675537
 20
859.8549116693678
 30
0.0
  0
VERTEX
  5
3AD8
330
3AD6
100
AcDbEntity
  8
HIDDEN
100
AcDbVertex
100
AcDb2dVertex
 10
516.5972469375165
 20
852.7993514610564
 30
0.0
  0
SEQEND
  5
3AD9
330
3AD6
100
AcDbEntity
  8
HIDDEN
  0
POLYLINE
  5
3ADA
330
A
100
AcDbEntity
  8
HIDDEN
100
AcDb2dPolyline
 66
     1
 10
0.0
 20
0.0
 30
0.0
  0
VERTEX
  5
3ADB
330
3ADA
100
AcDbEntity
  8
HIDDEN
100
AcDbVertex
100
AcDb2dVertex
 10
562.926921586587
 20
865.5393229699978
 30
0.0
  0
VERTEX
  5
3ADC
330
3ADA
100
AcDbEntity
  8
HIDDEN
100
AcDbVertex
100
AcDb2dVertex
 10
563.3334431220255
 20
879.7537963193456
 30
0.0
  0
SEQEND
  5
3ADD
330
3ADA
100
AcDbEntity
  8
HIDDEN
  0
POLYLINE
  5
3ADE
330
A
100
AcDbEntity
  8
HIDDEN
100
AcDb2dPolyline
 66
     1
 10
0.0
 20
0.0
 30
0.0
  0
VERTEX
  5
3ADF
330
3ADE
100
AcDbEntity
  8
HIDDEN
100
AcDbVertex
100
AcDb2dVertex
 10
562.5548510287272
 20
852.7993514610564
 30
0.0
  0
VERTEX
  5
3AE0
330
3ADE
100
AcDbEntity
  8
HIDDEN
100
AcDbVertex
100
AcDb2dVertex
 10
562.7546666986864
 20
859.8549116693678
 30
0.0
  0
SEQEND
  5
3AE1
330
3ADE
100
AcDbEntity
  8
HIDDEN
  0
SPLINE
  5
3AE2
330
A
100
AcDbEntity
  8
MODEL
100
AcDbSpline
210
0.0
220
0.0
230
1.0
 70
     8
 71
     3
 72
    26
 73
    22
 74
     0
 42
0.000000001
 43
0.0000000001
 40
0.0
 40
0.0
 40
0.0
 40
0.0
 40
1.0
 40
1.0
 40
1.0
 40
2.0
 40
2.0
 40
2.0
 40
3.0
 40
3.0
 40
3.0
 40
4.0
 40
4.0
 40
4.0
 40
5.0
 40
5.0
 40
5.0
 40
6.0
 40
6.0
 40
6.0
 40
6.458676078301665
 40
6.458676078301665
 40
6.458676078301665
 40
6.458676078301665
 10
762.3612601267569
 20
934.7375565364194
 30
0.0
 10
762.3612601267569
 20
934.7375565364194
 30
0.0
 10
762.0856523061202
 20
933.7109174045394
 30
0.0
 10
762.0856523061202
 20
933.7109174045394
 30
0.0
 10
762.0856523061202
 20
933.7109174045394
 30
0.0
 10
759.929021109635
 20
925.6356082598862
 30
0.0
 10
759.929021109635
 20
925.6356082598862
 30
0.0
 10
758.6818957212536
 20
921.1225301969529
 30
0.0
 10
756.4356919830652
 20
916.9470717143043
 30
0.0
 10
753.3351040008974
 20
913.4330720011852
 30
0.0
 10
753.3351040008974
 20
913.4330720011852
 30
0.0
 10
727.8896119605934
 20
884.8525410011347
 30
0.0
 10
727.8896119605934
 20
884.8525410011347
 30
0.0
 10
722.1225183137658
 20
878.506670930968
 30
0.0
 10
714.0403189735853
 20
874.8824280895927
 30
0.0
 10
705.4620255562631
 20
874.7997457434025
 30
0.0
 10
705.4620255562631
 20
874.7997457434025
 30
0.0
 10
705.4620255562631
 20
874.6963928106628
 30
0.0
 10
705.4620255562631
 20
874.6963928106628
 30
0.0
 10
705.4620255562631
 20
874.6963928106628
 30
0.0
 10
625.1477611467778
 20
874.6963928106628
 30
0.0
 10
538.1956959898585
 20
874.6963928106628
 30
0.0
  0
SPLINE
  5
3AE3
102
{ACAD_REACTORS
330
3C88
102
}
330
A
100
AcDbEntity
  8
MODEL
100
AcDbSpline
210
0.0
220
0.0
230
1.0
 70
     8
 71
     3
 72
    20
 73
    16
 74
     0
 42
0.000000001
 43
0.0000000001
 40
0.0
 40
0.0
 40
0.0
 40
0.0
 40
1.0
 40
1.0
 40
1.0
 40
2.0
 40
2.0
 40
2.0
 40
3.0
 40
3.0
 40
3.0
 40
4.0
 40
4.0
 40
4.0
 40
5.0
 40
5.0
 40
5.0
 40
5.0
 10
501.5421697352222
 20
874.6963928106627
 30
0.0
 10
501.5421697352222
 20
874.6963928106627
 30
0.0
 10
503.0786833352732
 20
856.2375590235017
 30
0.0
 10
503.0786833352732
 20
856.2375590235017
 30
0.0
 10
503.3542911559098
 20
854.2669631059464
 30
0.0
 10
505.056169448345
 20
852.7993514610564
 30
0.0
 10
507.0336555614168
 20
852.7993514610564
 30
0.0
 10
507.0336555614168
 20
852.7993514610564
 30
0.0
 10
572.1253326003434
 20
852.7993514610564
 30
0.0
 10
572.1253326003434
 20
852.7993514610564
 30
0.0
 10
574.1165991044445
 20
852.7993514610564
 30
0.0
 10
575.7978068103303
 20
854.2669631059464
 30
0.0
 10
576.0803048264834
 20
856.2375590235017
 30
0.0
 10
576.0803048264834
 20
856.2375590235017
 30
0.0
 10
577.6237086220508
 20
874.6963928106627
 30
0.0
 10
577.6237086220508
 20
874.6963928106627
 30
0.0
  0
LINE
  5
3AE4
330
A
100
AcDbEntity
  8
MODEL
100
AcDbLine
 10
269.0555633051673
 20
1014.80162843145
 30
0.0
 11
539.5794940808782
 21
1014.80162843145
 31
0.0
  0
LINE
  5
3AE5
330
A
100
AcDbEntity
  8
MODEL
100
AcDbLine
 10
267.6677473392929
 20
939.592355787215
 30
0.0
 11
264.618259773034
 21
1009.434800114118
 31
0.0
  0
SPLINE
  5
3AE6
330
A
100
AcDbEntity
  8
MODEL
100
AcDbSpline
210
0.0
220
0.0
230
1.0
 70
  1064
 71
     3
 72
    18
 73
    14
 74
    12
 42
0.000000001
 43
0.0000000001
 44
0.0
 40
0.0
 40
0.0
 40
0.0
 40
0.0
 40
0.9137569901645793
 40
1.767610740321643
 40
2.69513740321293
 40
3.365729563004271
 40
4.145638549930659
 40
4.661169284304512
 40
5.227491985832398
 40
5.932864550703886
 40
6.533815969375278
 40
7.472085027936227
 40
7.992868777716149
 40
7.992868777716149
 40
7.992868777716149
 40
7.992868777716149
 10
264.618259773034
 20
1009.434800114118
 30
0.0
 10
264.5987743578692
 20
1009.738736349899
 30
0.0
 10
264.5610809344583
 20
1010.32668364937
 30
0.0
 10
264.6000976733374
 20
1011.228872029911
 30
0.0
 10
264.8260981498995
 20
1012.022936346289
 30
0.0
 10
265.177601367669
 20
1012.736117889992
 30
0.0
 10
265.565078203916
 20
1013.269713409611
 30
0.0
 10
266.0013544367744
 20
1013.712866680624
 30
0.0
 10
266.4702294558874
 20
1014.083031272685
 30
0.0
 10
267.0143446387883
 20
1014.395346099423
 30
0.0
 10
267.7141361977061
 20
1014.6647799838
 30
0.0
 10
268.3951583308829
 20
1014.798787310383
 30
0.0
 10
268.8818478651374
 20
1014.800881092142
 30
0.0
 10
269.0555633051673
 20
1014.80162843145
 30
0.0
 11
264.618259773034
 21
1009.434800114118
 31
0.0
 11
264.57671465751
 21
1010.347612165118
 31
0.0
 11
264.6308290521202
 21
1011.199749395236
 31
0.0
 11
264.8797334699203
 21
1012.093255019826
 31
0.0
 11
265.1767188109598
 21
1012.694498358235
 31
0.0
 11
265.6346733616638
 21
1013.325795164324
 31
0.0
 11
265.9963338318385
 21
1013.693182755836
 31
0.0
 11
266.4408649581065
 21
1014.044058061386
 31
0.0
 11
267.0527629442341
 21
1014.39495877362
 31
0.0
 11
267.6133882925943
 21
1014.611388499811
 31
0.0
 11
268.5349695852647
 21
1014.787560992706
 31
0.0
 11
269.0555633051673
 21
1014.80162843145
 31
0.0
  0
SPLINE
  5
3AE8
330
A
100
AcDbEntity
  8
MODEL
100
AcDbSpline
210
0.0
220
0.0
230
1.0
 70
  1064
 71
     3
 72
    16
 73
    12
 74
    10
 42
0.000000001
 43
0.0000000001
 44
0.0
 40
0.0
 40
0.0
 40
0.0
 40
0.0
 40
2.411883803659794
 40
3.238984597674999
 40
4.722617909169657
 40
5.675884697395828
 40
6.824114211257388
 40
7.645315139486397
 40
8.500818696545311
 40
9.371960203452788
 40
9.856661591480265
 40
9.856661591480265
 40
9.856661591480265
 40
9.856661591480265
 10
274.8302986519676
 20
934.7375565364193
 30
0.0
 10
274.0253909758683
 20
934.7101230451476
 30
0.0
 10
272.9444584858868
 20
934.6732818608607
 30
0.0
 10
271.3758872192017
 20
934.8526779981195
 30
0.0
 10
270.3425567338689
 20
935.2555930631574
 30
0.0
 10
269.3584325280223
 20
935.9425388897013
 30
0.0
 10
268.6870452731309
 20
936.6617001882962
 30
0.0
 10
268.1884444551824
 20
937.4651968365193
 30
0.0
 10
267.8675627575774
 20
938.2555243713477
 30
0.0
 10
267.7053868427438
 20
938.9796220668741
 30
0.0
 10
267.6776595808707
 20
939.4309943424025
 30
0.0
 10
267.6677473392929
 20
939.592355787215
 30
0.0
 11
274.8302986519676
 21
934.7375565364193
 31
0.0
 11
272.4184232105591
 21
934.7439077163938
 31
0.0
 11
271.5985534929251
 21
934.8530377744312
 31
0.0
 11
270.2126626633954
 21
935.3826361237509
 31
0.0
 11
269.4313165744507
 21
935.9287275619056
 31
0.0
 11
268.647546561505
 21
936.7678554325605
 31
0.0
 11
268.2148331658219
 21
937.4658024804951
 31
0.0
 11
267.8918300099404
 21
938.2579863590429
 31
0.0
 11
267.7066482804849
 21
939.1092179680265
 31
0.0
 11
267.6677473392929
 21
939.592355787215
 31
0.0
  0
LINE
  5
3AE9
330
A
100
AcDbEntity
  8
MODEL
100
AcDbLine
 10
539.5794940808782
 20
934.7375565364193
 30
0.0
 11
274.8302986519676
 21
934.7375565364193
 31
0.0
  0
LINE
  5
3AEA
330
A
100
AcDbEntity
  8
MODEL
100
AcDbLine
 10
539.57604898312
 20
934.7375565364193
 30
0.0
 11
539.5794940808782
 21
934.7375565364193
 31
0.0
  0
SPLINE
  5
3AEB
330
A
100
AcDbEntity
  8
MODEL
100
AcDbSpline
210
0.0
220
0.0
230
1.0
 70
  1064
 71
     3
 72
    16
 73
    12
 74
    10
 42
0.000000001
 43
0.0000000001
 44
0.0
 40
0.0
 40
0.0
 40
0.0
 40
0.0
 40
2.411883803656156
 40
3.238984597671305
 40
4.72261790917276
 40
5.675884697395949
 40
6.824114211257548
 40
7.645315139486557
 40
8.50081869654545
 40
9.371960203452154
 40
9.856661591479918
 40
9.856661591479918
 40
9.856661591479918
 40
9.856661591479918
 10
804.3286895097926
 20
934.7375565364194
 30
0.0
 10
805.1335971858907
 20
934.7101230451476
 30
0.0
 10
806.214529675871
 20
934.6732818608602
 30
0.0
 10
807.7831009425571
 20
934.8526779981208
 30
0.0
 10
808.8164314278927
 20
935.255593063154
 30
0.0
 10
809.8005556337383
 20
935.942538889703
 30
0.0
 10
810.4719428886297
 20
936.6617001882964
 30
0.0
 10
810.9705437065772
 20
937.4651968365193
 30
0.0
 10
811.2914254041846
 20
938.2555243713475
 30
0.0
 10
811.4536013190104
 20
938.9796220668748
 30
0.0
 10
811.4813285808879
 20
939.4309943424024
 30
0.0
 10
811.4912408224673
 20
939.5923557872151
 30
0.0
 11
804.3286895097926
 21
934.7375565364194
 31
0.0
 11
806.7405649511975
 21
934.7439077163939
 31
0.0
 11
807.5604346688315
 21
934.8530377744313
 31
0.0
 11
808.9463254983684
 21
935.382636123751
 31
0.0
 11
809.7276715873095
 21
935.9287275619057
 31
0.0
 11
810.5114416002552
 21
936.7678554325606
 31
0.0
 11
810.9441549959383
 21
937.4658024804952
 31
0.0
 11
811.2671581518198
 21
938.257986359043
 31
0.0
 11
811.4523398812717
 21
939.1092179680267
 31
0.0
 11
811.4912408224673
 21
939.5923557872151
 31
0.0
  0
LINE
  5
3AEC
330
A
100
AcDbEntity
  8
MODEL
100
AcDbLine
 10
811.4912408224673
 20
939.5923557872151
 30
0.0
 11
814.5407283887262
 21
1009.434800114118
 31
0.0
  0
SPLINE
  5
3AED
330
A
100
AcDbEntity
  8
MODEL
100
AcDbSpline
210
0.0
220
0.0
230
1.0
 70
  1064
 71
     3
 72
    18
 73
    14
 74
    12
 42
0.000000001
 43
0.0000000001
 44
0.0
 40
0.0
 40
0.0
 40
0.0
 40
0.0
 40
0.9137569901645819
 40
1.767610740321649
 40
2.695137403212921
 40
3.365729563005204
 40
4.145638549930798
 40
4.66116928430461
 40
5.227491985835353
 40
5.932864550703685
 40
6.533815969375391
 40
7.472085027936203
 40
7.992868777719706
 40
7.992868777719706
 40
7.992868777719706
 40
7.992868777719706
 10
814.5407283887262
 20
1009.434800114118
 30
0.0
 10
814.5602138038912
 20
1009.738736349899
 30
0.0
 10
814.5979072273021
 20
1010.32668364937
 30
0.0
 10
814.558890488423
 20
1011.228872029912
 30
0.0
 10
814.3328900118603
 20
1012.022936346289
 30
0.0
 10
813.9813867940918
 20
1012.736117889993
 30
0.0
 10
813.5939099578434
 20
1013.269713409611
 30
0.0
 10
813.157633724986
 20
1013.712866680625
 30
0.0
 10
812.6887587058698
 20
1014.083031272683
 30
0.0
 10
812.1446435229709
 20
1014.395346099424
 30
0.0
 10
811.4448519640542
 20
1014.664779983801
 30
0.0
 10
810.7638298308764
 20
1014.798787310383
 30
0.0
 10
810.2771402966204
 20
1014.800881092142
 30
0.0
 10
810.1034248565893
 20
1014.80162843145
 30
0.0
 11
814.5407283887262
 21
1009.434800114118
 31
0.0
 11
814.5822735042502
 21
1010.347612165118
 31
0.0
 11
814.52815910964
 21
1011.199749395236
 31
0.0
 11
814.2792546918399
 21
1012.093255019826
 31
0.0
 11
813.9822693508004
 21
1012.694498358236
 31
0.0
 11
813.5243148000964
 21
1013.325795164324
 31
0.0
 11
813.1626543299217
 21
1013.693182755836
 31
0.0
 11
812.7181232036501
 21
1014.044058061386
 31
0.0
 11
812.1062252175261
 21
1014.39495877362
 31
0.0
 11
811.5455998691659
 21
1014.611388499812
 31
0.0
 11
810.6240185764955
 21
1014.787560992706
 31
0.0
 11
810.1034248565893
 21
1014.80162843145
 31
0.0
  0
SPLINE
  5
3BA2
330
A
100
AcDbEntity
  8
MODEL
100
AcDbSpline
210
0.0
220
0.0
230
1.0
 70
    11
 71
     3
 72
    17
 73
    13
 74
     0
 42
0.000000001
 43
0.0000000001
 40
0.0
 40
0.0
 40
0.0
 40
0.0
 40
1.0
 40
1.0
 40
1.0
 40
2.0
 40
2.0
 40
2.0
 40
3.0
 40
3.0
 40
3.0
 40
4.0
 40
4.0
 40
4.0
 40
4.0
 10
502.5545357947151
 20
2212.929414240035
 30
0.0
 10
502.5545357947151
 20
2233.627561569872
 30
0.0
 10
519.3459422670196
 20
2250.405187651147
 30
0.0
 10
540.0613150856473
 20
2250.405187651147
 30
0.0
 10
560.7766879042676
 20
2250.405187651147
 30
0.0
 10
577.5749845720886
 20
2233.627561569872
 30
0.0
 10
577.5749845720886
 20
2212.929414240035
 30
0.0
 10
577.5749845720886
 20
2192.245047301232
 30
0.0
 10
560.7766879042676
 20
2175.47431141548
 30
0.0
 10
540.0613150856473
 20
2175.47431141548
 30
0.0
 10
519.3459422670196
 20
2175.47431141548
 30
0.0
 10
502.5545357947151
 20
2192.245047301232
 30
0.0
 10
502.5545357947151
 20
2212.929414240035
 30
0.0
  0
SPLINE
  5
3BA3
330
A
100
AcDbEntity
  8
MODEL
100
AcDbSpline
210
0.0
220
0.0
230
1.0
 70
     8
 71
     3
 72
    44
 73
    40
 74
     0
 42
0.000000001
 43
0.0000000001
 40
0.0
 40
0.0
 40
0.0
 40
0.0
 40
1.0
 40
1.0
 40
1.0
 40
2.0
 40
2.0
 40
2.0
 40
3.0
 40
3.0
 40
3.0
 40
4.0
 40
4.0
 40
4.0
 40
5.0
 40
5.0
 40
5.0
 40
6.0
 40
6.0
 40
6.0
 40
7.0
 40
7.0
 40
7.0
 40
8.0
 40
8.0
 40
8.0
 40
9.0
 40
9.0
 40
9.0
 40
10.0
 40
10.0
 40
10.0
 40
11.0
 40
11.0
 40
11.0
 40
12.0
 40
12.0
 40
12.0
 40
12.18716614383966
 40
12.18716614383966
 40
12.18716614383966
 40
12.18716614383966
 10
801.9346053911171
 20
2238.765933731429
 30
0.0
 10
801.6383269839347
 20
2240.371349286648
 30
0.0
 10
801.4832975848252
 20
2242.018106014952
 30
0.0
 10
801.2214701552215
 20
2243.623521570156
 30
0.0
 10
800.7977231309918
 20
2246.207344888626
 30
0.0
 10
800.2602878807478
 20
2248.763607425037
 30
0.0
 10
799.6332800888007
 20
2251.299199374898
 30
0.0
 10
799.14063110941
 20
2253.269795292454
 30
0.0
 10
798.5756350771074
 20
2255.205940232427
 30
0.0
 10
798.0175292403177
 20
2257.155865563433
 30
0.0
 10
797.1149136277303
 20
2260.042857484605
 30
0.0
 10
796.0986097891322
 20
2262.92295921026
 30
0.0
 10
794.8066981298974
 20
2265.665257025594
 30
0.0
 10
793.5216766661755
 20
2268.421335231968
 30
0.0
 10
792.1333022697175
 20
2271.163633047308
 30
0.0
 10
790.4486494660736
 20
2273.699224997163
 30
0.0
 10
788.7192103915762
 20
2276.303718902182
 30
0.0
 10
786.927759557438
 20
2278.832420656527
 30
0.0
 10
784.8572558049012
 20
2281.188867522967
 30
0.0
 10
782.8418736164962
 20
2283.497083020808
 30
0.0
 10
780.6817973222527
 20
2285.681274999351
 30
0.0
 10
778.346021042354
 20
2287.679431698973
 30
0.0
 10
775.9068918297193
 20
2289.767160940301
 30
0.0
 10
773.3161783157296
 20
2291.613733338567
 30
0.0
 10
770.6152216734912
 20
2293.329392022028
 30
0.0
 10
768.0865199191461
 20
2294.941697772756
 30
0.0
 10
765.3648926903546
 20
2296.285285898357
 30
0.0
 10
762.6053693862262
 20
2297.449728940552
 30
0.0
 10
759.7218225628161
 20
2298.67618374238
 30
0.0
 10
756.7555933932084
 20
2299.585689550488
 30
0.0
 10
753.7376877572345
 20
2300.398732621365
 30
0.0
 10
750.7438978055646
 20
2301.211775692249
 30
0.0
 10
747.6398647256423
 20
2301.652748205259
 30
0.0
 10
744.5633924277821
 20
2301.983477590034
 30
0.0
 10
741.6798456043683
 20
2302.293536388246
 30
0.0
 10
738.7790732921634
 20
2302.389999125469
 30
0.0
 10
735.8645205889292
 20
2302.389999125469
 30
0.0
 10
735.8645205889292
 20
2302.389999125469
 30
0.0
 10
720.3950161065001
 20
2302.389999125469
 30
0.0
 10
695.2467421438153
 20
2302.389999125469
 30
0.0
  0
SPLINE
  5
3BA4
330
A
100
AcDbEntity
  8
MODEL
100
AcDbSpline
210
0.0
220
0.0
230
1.0
 70
     8
 71
     3
 72
    80
 73
    76
 74
     0
 42
0.000000001
 43
0.0000000001
 40
0.0
 40
0.0
 40
0.0
 40
0.0
 40
1.0
 40
1.0
 40
1.0
 40
2.0
 40
2.0
 40
2.0
 40
3.0
 40
3.0
 40
3.0
 40
4.0
 40
4.0
 40
4.0
 40
5.0
 40
5.0
 40
5.0
 40
6.0
 40
6.0
 40
6.0
 40
7.0
 40
7.0
 40
7.0
 40
8.0
 40
8.0
 40
8.0
 40
9.0
 40
9.0
 40
9.0
 40
10.0
 40
10.0
 40
10.0
 40
11.0
 40
11.0
 40
11.0
 40
12.0
 40
12.0
 40
12.0
 40
13.0
 40
13.0
 40
13.0
 40
14.0
 40
14.0
 40
14.0
 40
15.0
 40
15.0
 40
15.0
 40
16.0
 40
16.0
 40
16.0
 40
17.0
 40
17.0
 40
17.0
 40
18.0
 40
18.0
 40
18.0
 40
19.0
 40
19.0
 40
19.0
 40
20.0
 40
20.0
 40
20.0
 40
21.0
 40
21.0
 40
21.0
 40
22.0
 40
22.0
 40
22.0
 40
23.0
 40
23.0
 40
23.0
 40
24.0
 40
24.0
 40
24.0
 40
24.19413220374869
 40
24.19413220374869
 40
24.19413220374869
 40
24.19413220374869
 10
745.4453374538201
 20
1976.545762981939
 30
0.0
 10
748.5218097516803
 20
1976.573323763998
 30
0.0
 10
751.5569408764417
 20
1976.704237478803
 30
0.0
 10
754.6058523922396
 20
1977.131429600788
 30
0.0
 10
757.6892148856163
 20
1977.551731527263
 30
0.0
 10
760.6933401305608
 20
1978.28209225195
 30
0.0
 10
763.6492340068902
 20
1979.219158842116
 30
0.0
 10
766.5913474921903
 20
1980.156225432282
 30
0.0
 10
769.4301080447507
 20
1981.368899843084
 30
0.0
 10
772.1724058600879
 20
1982.774499728333
 30
0.0
 10
774.9388193597327
 20
1984.180099613583
 30
0.0
 10
777.5639838512974
 20
1985.861307319468
 30
0.0
 10
780.0616797258184
 20
1987.694099326702
 30
0.0
 10
782.5455952093101
 20
1989.526891333935
 30
0.0
 10
784.8503656093848
 20
1991.573279402164
 30
0.0
 10
787.0242222946612
 20
1993.750581185199
 30
0.0
 10
789.2118593709669
 20
1995.962333945808
 30
0.0
 10
791.1962356795515
 20
1998.353231789832
 30
0.0
 10
793.0290276867885
 20
2000.854372762111
 30
0.0
 10
794.8583745962636
 20
2003.348623538881
 30
0.0
 10
796.4637901514756
 20
2005.980678225966
 30
0.0
 10
797.9176214053363
 20
2008.695415259233
 30
0.0
 10
799.3783428547098
 20
2011.437713074574
 30
0.0
 10
800.6082427543037
 20
2014.283363822648
 30
0.0
 10
801.6796681570298
 20
2017.191026330369
 30
0.0
 10
802.7442033642395
 20
2020.078018251541
 30
0.0
 10
803.5848072171824
 20
2023.05458271442
 30
0.0
 10
804.2531561822283
 20
2026.058707959364
 30
0.0
 10
804.9249502450288
 20
2029.049052813276
 30
0.0
 10
805.3693678558042
 20
2032.101409426828
 30
0.0
 10
805.6518658719573
 20
2035.146875844865
 30
0.0
 10
805.9205834970811
 20
2038.185452067391
 30
0.0
 10
805.9412540836269
 20
2041.23091848542
 30
0.0
 10
805.9688148656927
 20
2044.276384903464
 30
0.0
 10
805.9688148656927
 20
2044.276384903464
 30
0.0
 10
805.9688148656927
 20
2347.300293498261
 30
0.0
 10
805.9688148656927
 20
2347.300293498261
 30
0.0
 10
805.9619246701762
 20
2350.318199134232
 30
0.0
 10
806.0101560387878
 20
2353.349885161242
 30
0.0
 10
805.8482364441619
 20
2356.374680992729
 30
0.0
 10
805.6863168495396
 20
2359.413257215248
 30
0.0
 10
805.3211364871962
 20
2362.451833437775
 30
0.0
 10
804.7630306504064
 20
2365.442178291687
 30
0.0
 10
804.1911444225838
 20
2368.460083927657
 30
0.0
 10
803.4435582091058
 20
2371.450428781569
 30
0.0
 10
802.4617053480864
 20
2374.3649814848
 30
0.0
 10
801.4764073893087
 20
2377.307094970103
 30
0.0
 10
800.2981839560883
 20
2380.166526109209
 30
0.0
 10
798.9477056349673
 20
2382.950165097642
 30
0.0
 10
797.6282331936667
 20
2385.664902130917
 30
0.0
 10
796.0917195936157
 20
2388.296956818001
 30
0.0
 10
794.3829511056678
 20
2390.784317399248
 30
0.0
 10
792.5846100760094
 20
2393.381921108758
 30
0.0
 10
790.6381298427617
 20
2395.827940516905
 30
0.0
 10
788.4987241350676
 20
2398.163716796804
 30
0.0
 10
786.4316654802891
 20
2400.451261708095
 30
0.0
 10
784.1268950802145
 20
2402.518320362866
 30
0.0
 10
781.7118815518837
 20
2404.42690452078
 30
0.0
 10
779.3623248809521
 20
2406.294147505596
 30
0.0
 10
776.8577388109146
 20
2408.02358658009
 30
0.0
 10
774.2256841238335
 20
2409.449857051888
 30
0.0
 10
771.3972588645478
 20
2411.007041238485
 30
0.0
 10
768.4895963568264
 20
2412.329958777544
 30
0.0
 10
765.4579103298196
 20
2413.439280255607
 30
0.0
 10
762.646710559325
 20
2414.459029191963
 30
0.0
 10
759.7114872695378
 20
2415.18938991665
 30
0.0
 10
756.7693737842413
 20
2415.719934971374
 30
0.0
 10
753.8513759832452
 20
2416.243589830581
 30
0.0
 10
750.8369154450296
 20
2416.519197651225
 30
0.0
 10
747.8810215687002
 20
2416.519197651225
 30
0.0
 10
745.0594865049273
 20
2416.519197651225
 30
0.0
 10
742.2379514411581
 20
2416.519197651225
 30
0.0
 10
739.4129712796306
 20
2416.519197651225
 30
0.0
 10
739.4129712796306
 20
2416.519197651225
 30
0.0
 10
722.5022896384257
 20
2416.519197651225
 30
0.0
 10
695.2467421438148
 20
2416.519197651225
 30
0.0
  0
SPLINE
  5
3BA6
330
A
100
AcDbEntity
  8
MODEL
100
AcDbSpline
210
0.0
220
0.0
230
1.0
 70
    11
 71
     3
 72
    17
 73
    13
 74
     0
 42
0.000000001
 43
0.0000000001
 40
0.0
 40
0.0
 40
0.0
 40
0.0
 40
1.0
 40
1.0
 40
1.0
 40
2.0
 40
2.0
 40
2.0
 40
3.0
 40
3.0
 40
3.0
 40
4.0
 40
4.0
 40
4.0
 40
4.0
 10
517.0308365736739
 20
2212.929414240035
 30
0.0
 10
517.0308365736739
 20
2225.641824966911
 30
0.0
 10
527.3385690654934
 20
2235.942667263221
 30
0.0
 10
540.0613150856473
 20
2235.942667263221
 30
0.0
 10
552.7840611057975
 20
2235.942667263221
 30
0.0
 10
563.0917935976206
 20
2225.641824966911
 30
0.0
 10
563.0917935976206
 20
2212.929414240035
 30
0.0
 10
563.0917935976206
 20
2200.230783904193
 30
0.0
 10
552.7840611057975
 20
2189.929941607882
 30
0.0
 10
540.0613150856473
 20
2189.929941607882
 30
0.0
 10
527.3385690654934
 20
2189.929941607882
 30
0.0
 10
517.0308365736739
 20
2200.230783904193
 30
0.0
 10
517.0308365736739
 20
2212.929414240035
 30
0.0
  0
LINE
  5
3BC7
330
A
100
AcDbEntity
  8
MODEL
100
AcDbLine
 10
265.0587572245852
 20
2427.575268444201
 30
0.0
 11
815.0638729467095
 21
2427.575268444201
 31
0.0
  0
LINE
  5
3BC9
102
{ACAD_REACTORS
330
3C2E
330
3C3D
102
}
330
A
100
AcDbEntity
  8
MODEL
100
AcDbLine
 10
815.0638729467095
 20
2427.575268444201
 30
0.0
 11
815.0638729467095
 21
1972.817853663637
 31
0.0
  0
SPLINE
  5
3BCA
330
A
100
AcDbEntity
  8
MODEL
100
AcDbSpline
210
0.0
220
0.0
230
1.0
 70
  1064
 71
     3
 72
    18
 73
    14
 74
    12
 42
0.000000001
 43
0.0000000001
 44
0.0
 40
0.0
 40
0.0
 40
0.0
 40
0.0
 40
0.5977805798901757
 40
1.144561586291535
 40
1.845144077290252
 40
2.539112531327492
 40
3.163877912966905
 40
3.931444575032865
 40
4.744632360592892
 40
5.510004066104421
 40
6.437104505167302
 40
7.24751556824534
 40
7.931173406274552
 40
7.931173406274552
 40
7.931173406274552
 40
7.931173406274552
 10
815.0638729467095
 20
1972.817853663637
 30
0.0
 10
815.059500527989
 20
1972.618410120907
 30
0.0
 10
815.0511287228899
 20
1972.236538535711
 30
0.0
 10
814.9516281875253
 20
1971.627961990052
 30
0.0
 10
814.7801135598024
 20
1971.002376189067
 30
0.0
 10
814.5145108806942
 20
1970.381447912789
 30
0.0
 10
814.1602690546688
 20
1969.781105126107
 30
0.0
 10
813.7006512833268
 20
1969.203465645702
 30
0.0
 10
813.120226549035
 20
1968.674139443342
 30
0.0
 10
812.4195099677373
 20
1968.213556780849
 30
0.0
 10
811.6509695585617
 20
1967.878319449036
 30
0.0
 10
810.8656524586413
 20
1967.674705835832
 30
0.0
 10
810.3688395294187
 20
1967.632152632706
 30
0.0
 10
810.1415072739613
 20
1967.61268108703
 30
0.0
 11
815.0638729467095
 21
1972.817853663637
 31
0.0
 11
815.0362032880179
 21
1972.220713804239
 31
0.0
 11
814.9516714067753
 21
1971.680506593981
 31
0.0
 11
814.7643311827482
 21
1971.005436621937
 31
0.0
 11
814.4914350626417
 21
1970.367377124061
 31
0.0
 11
814.1736946010054
 21
1969.82944331667
 31
0.0
 11
813.6956218540757
 21
1969.228939337201
 31
0.0
 11
813.0948844471671
 21
1968.680861840377
 31
0.0
 11
812.4552514093697
 21
1968.260548356706
 31
0.0
 11
811.6065844287035
 21
1967.887346561376
 31
0.0
 11
810.8209485503606
 21
1967.688493958125
 31
0.0
 11
810.1415072739613
 21
1967.61268108703
 31
0.0
  0
LINE
  5
3BCB
330
A
100
AcDbEntity
  8
MODEL
100
AcDbLine
 10
269.9811228973333
 20
1967.61268108703
 30
0.0
 11
695.2467421438155
 21
1967.61268108703
 31
0.0
  0
SPLINE
  5
3BCC
330
A
100
AcDbEntity
  8
MODEL
100
AcDbSpline
210
0.0
220
0.0
230
1.0
 70
  1064
 71
     3
 72
    18
 73
    14
 74
    12
 42
0.000000001
 43
0.0000000001
 44
0.0
 40
0.0
 40
0.0
 40
0.0
 40
0.0
 40
0.5977805798901757
 40
1.144561586292097
 40
1.845144077289842
 40
2.539112531328513
 40
3.163877912967955
 40
3.931444575031613
 40
4.744632360594286
 40
5.510004066105862
 40
6.437104505168795
 40
7.247515568243252
 40
7.931173406272464
 40
7.931173406272464
 40
7.931173406272464
 40
7.931173406272464
 10
265.0587572245852
 20
1972.817853663637
 30
0.0
 10
265.0631296433053
 20
1972.618410120907
 30
0.0
 10
265.0715014484033
 20
1972.23653853571
 30
0.0
 10
265.1710019837756
 20
1971.627961990052
 30
0.0
 10
265.3425166114898
 20
1971.002376189064
 30
0.0
 10
265.6081192906049
 20
1970.38144791279
 30
0.0
 10
265.9623611166296
 20
1969.781105126108
 30
0.0
 10
266.4219788879677
 20
1969.203465645699
 30
0.0
 10
267.002403622263
 20
1968.674139443345
 30
0.0
 10
267.7031202035608
 20
1968.213556780847
 30
0.0
 10
268.4716606127356
 20
1967.878319449038
 30
0.0
 10
269.2569777126546
 20
1967.674705835832
 30
0.0
 10
269.753790641876
 20
1967.632152632706
 30
0.0
 10
269.9811228973333
 20
1967.61268108703
 30
0.0
 11
265.0587572245852
 21
1972.817853663637
 31
0.0
 11
265.0864268832768
 21
1972.220713804239
 31
0.0
 11
265.170958764523
 21
1971.680506593981
 31
0.0
 11
265.3582989885465
 21
1971.005436621937
 31
0.0
 11
265.6311951086566
 21
1970.367377124061
 31
0.0
 11
265.9489355702929
 21
1969.82944331667
 31
0.0
 11
266.4270083172189
 21
1969.228939337201
 31
0.0
 11
267.0277457241311
 21
1968.680861840377
 31
0.0
 11
267.6673787619286
 21
1968.260548356706
 31
0.0
 11
268.5160457425948
 21
1967.887346561376
 31
0.0
 11
269.301681620934
 21
1967.688493958125
 31
0.0
 11
269.9811228973333
 21
1967.61268108703
 31
0.0
  0
LINE
  5
3BCD
102
{ACAD_REACTORS
330
3C2E
102
}
330
A
100
AcDbEntity
  8
MODEL
100
AcDbLine
 10
265.0587572245852
 20
2427.575268444201
 30
0.0
 11
265.0587572245852
 21
1972.817853663637
 31
0.0
  0
POLYLINE
  5
3BDE
102
{ACAD_REACTORS
330
3CCF
102
}
330
A
100
AcDbEntity
  8
MODEL
100
AcDb2dPolyline
 66
     1
 10
0.0
 20
0.0
 30
0.0
  0
VERTEX
  5
3BDF
330
3BDE
100
AcDbEntity
  8
MODEL
100
AcDbVertex
100
AcDb2dVertex
 10
1569.621344893726
 20
832.6455295769842
 30
0.0
  0
VERTEX
  5
3BE0
330
3BDE
100
AcDbEntity
  8
MODEL
100
AcDbVertex
100
AcDb2dVertex
 10
1569.621344893726
 20
908.3412175149201
 30
0.0
  0
SEQEND
  5
3BE1
330
3BDE
100
AcDbEntity
  8
MODEL
  0
SPLINE
  5
3BE2
102
{ACAD_REACTORS
330
3CCF
330
3CEF
102
}
330
A
100
AcDbEntity
  8
MODEL
100
AcDbSpline
210
0.0
220
0.0
230
1.0
 70
    11
 71
     3
 72
    26
 73
    22
 74
     0
 42
0.000000001
 43
0.0000000001
 40
0.0
 40
0.0
 40
0.0
 40
0.0
 40
1.0
 40
1.0
 40
1.0
 40
2.0
 40
2.0
 40
2.0
 40
3.0
 40
3.0
 40
3.0
 40
4.0
 40
4.0
 40
4.0
 40
5.0
 40
5.0
 40
5.0
 40
6.0
 40
6.0
 40
6.0
 40
7.0
 40
7.0
 40
7.0
 40
7.0
 10
1324.619772738523
 20
1010.316111150583
 30
0.0
 10
1324.516419805784
 20
1012.686338408064
 30
0.0
 10
1326.356102008535
 20
1014.698275498711
 30
0.0
 10
1328.726329266013
 20
1014.794738235934
 30
0.0
 10
1328.802121416687
 20
1014.80162843145
 30
0.0
 10
1328.864133176331
 20
1014.80162843145
 30
0.0
 10
1328.926144935976
 20
1014.80162843145
 30
0.0
 10
1328.926144935976
 20
1014.80162843145
 30
0.0
 10
1784.616115577083
 20
1014.80162843145
 30
0.0
 10
1784.616115577083
 20
1014.80162843145
 30
0.0
 10
1784.616115577083
 20
1014.80162843145
 30
0.0
 10
1784.616115577083
 20
934.7995682960677
 30
0.0
 10
1784.616115577083
 20
934.7995682960677
 30
0.0
 10
1784.616115577083
 20
934.7995682960677
 30
0.0
 10
1332.701972078702
 20
934.7995682960677
 30
0.0
 10
1332.701972078702
 20
934.7995682960677
 30
0.0
 10
1330.035466414037
 20
934.7995682960677
 30
0.0
 10
1327.823713653429
 20
936.9079681239377
 30
0.0
 10
1327.713470525173
 20
939.581363984114
 30
0.0
 10
1327.713470525173
 20
939.581363984114
 30
0.0
 10
1324.619772738523
 20
1010.316111150583
 30
0.0
 10
1324.619772738523
 20
1010.316111150583
 30
0.0
  0
SPLINE
  5
3BE3
102
{ACAD_REACTORS
330
3C97
330
3CFE
102
}
330
A
100
AcDbEntity
  8
MODEL
100
AcDbSpline
210
0.0
220
0.0
230
1.0
 70
     8
 71
     3
 72
    20
 73
    16
 74
     0
 42
0.000000001
 43
0.0000000001
 40
0.0
 40
0.0
 40
0.0
 40
0.0
 40
1.0
 40
1.0
 40
1.0
 40
2.0
 40
2.0
 40
2.0
 40
3.0
 40
3.0
 40
3.0
 40
4.0
 40
4.0
 40
4.0
 40
5.0
 40
5.0
 40
5.0
 40
5.0
 10
1784.616115577083
 20
934.7995682960677
 30
0.0
 10
1784.616115577083
 20
934.7995682960677
 30
0.0
 10
1784.616115577083
 20
874.7997457434026
 30
0.0
 10
1784.616115577083
 20
874.7997457434026
 30
0.0
 10
1784.616115577083
 20
874.7997457434026
 30
0.0
 10
1438.500924225703
 20
874.7997457434026
 30
0.0
 10
1438.500924225703
 20
874.7997457434026
 30
0.0
 10
1434.2152226148
 20
874.7997457434026
 30
0.0
 10
1430.143117064889
 20
876.6256475551268
 30
0.0
 10
1427.297466316812
 20
879.8226982745105
 30
0.0
 10
1427.297466316812
 20
879.8226982745105
 30
0.0
 10
1408.487232558341
 20
900.9480377263312
 30
0.0
 10
1408.487232558341
 20
900.9480377263312
 30
0.0
 10
1399.860707772405
 20
910.6287624262036
 30
0.0
 10
1393.735323958749
 20
922.2525222615727
 30
0.0
 10
1390.607175194523
 20
934.7995682960677
 30
0.0
  0
SPLINE
  5
3BE4
330
A
100
AcDbEntity
  8
HIDDEN
 48
0.7
100
AcDbSpline
210
0.0
220
0.0
230
1.0
 70
     8
 71
     3
 72
    11
 73
     7
 74
     0
 42
0.000000001
 43
0.0000000001
 40
0.0
 40
0.0
 40
0.0
 40
0.0
 40
1.0
 40
1.0
 40
1.0
 40
2.0
 40
2.0
 40
2.0
 40
2.0
 10
1777.719029865641
 20
1014.80162843145
 30
0.0
 10
1775.803555512218
 20
1014.725836280777
 30
0.0
 10
1774.273932107682
 20
1013.664746171321
 30
0.0
 10
1773.516010600933
 20
1011.914636510278
 30
0.0
 10
1773.516010600933
 20
1011.914636510278
 30
0.0
 10
1770.463653987375
 20
1003.942680298358
 30
0.0
 10
1770.463653987375
 20
1003.942680298358
 30
0.0
  0
SPLINE
  5
3BE5
330
A
100
AcDbEntity
  8
HIDDEN
 48
0.7
100
AcDbSpline
210
0.0
220
0.0
230
1.0
 70
     8
 71
     3
 72
   104
 73
   100
 74
     0
 42
0.000000001
 43
0.0000000001
 40
0.0
 40
0.0
 40
0.0
 40
0.0
 40
1.0
 40
1.0
 40
1.0
 40
2.0
 40
2.0
 40
2.0
 40
3.0
 40
3.0
 40
3.0
 40
4.0
 40
4.0
 40
4.0
 40
5.0
 40
5.0
 40
5.0
 40
6.0
 40
6.0
 40
6.0
 40
7.0
 40
7.0
 40
7.0
 40
8.0
 40
8.0
 40
8.0
 40
9.0
 40
9.0
 40
9.0
 40
10.0
 40
10.0
 40
10.0
 40
11.0
 40
11.0
 40
11.0
 40
12.0
 40
12.0
 40
12.0
 40
13.0
 40
13.0
 40
13.0
 40
14.0
 40
14.0
 40
14.0
 40
15.0
 40
15.0
 40
15.0
 40
16.0
 40
16.0
 40
16.0
 40
17.0
 40
17.0
 40
17.0
 40
18.0
 40
18.0
 40
18.0
 40
19.0
 40
19.0
 40
19.0
 40
20.0
 40
20.0
 40
20.0
 40
21.0
 40
21.0
 40
21.0
 40
22.0
 40
22.0
 40
22.0
 40
23.0
 40
23.0
 40
23.0
 40
24.0
 40
24.0
 40
24.0
 40
25.0
 40
25.0
 40
25.0
 40
26.0
 40
26.0
 40
26.0
 40
27.0
 40
27.0
 40
27.0
 40
28.0
 40
28.0
 40
28.0
 40
29.0
 40
29.0
 40
29.0
 40
30.0
 40
30.0
 40
30.0
 40
31.0
 40
31.0
 40
31.0
 40
32.0
 40
32.0
 40
32.0
 40
33.0
 40
33.0
 40
33.0
 40
33.0
 10
1770.463653987375
 20
1003.942680298358
 30
0.0
 10
1770.318959881542
 20
1003.653292086688
 30
0.0
 10
1770.18804616674
 20
1003.343233288469
 30
0.0
 10
1769.974450105746
 20
1003.108966640931
 30
0.0
 10
1769.636830525466
 20
1002.730005887548
 30
0.0
 10
1769.361222704828
 20
1002.406166698303
 30
0.0
 10
1768.954701169389
 20
1002.116778486633
 30
0.0
 10
1768.520618851885
 20
1001.820500079455
 30
0.0
 10
1768.148548294025
 20
1001.655135387067
 30
0.0
 10
1767.652454216878
 20
1001.46220991262
 30
0.0
 10
1767.273493463504
 20
1001.310625611273
 30
0.0
 10
1766.839411146001
 20
1001.303735415756
 30
0.0
 10
1766.432889610561
 20
1001.255504047141
 30
0.0
 10
1766.432889610561
 20
1001.255504047141
 30
0.0
 10
1663.720745054691
 20
999.4571630174901
 30
0.0
 10
1663.720745054691
 20
999.4571630174901
 30
0.0
 10
1661.412529556856
 20
999.4227120399078
 30
0.0
 10
1659.510835594462
 20
997.6381514012896
 30
0.0
 10
1659.317910120016
 20
995.3437162944824
 30
0.0
 10
1659.042302299381
 20
992.3602616360872
 30
0.0
 10
1658.773584674257
 20
989.376806977692
 30
0.0
 10
1658.394623920884
 20
986.4002425148133
 30
0.0
 10
1658.001882776475
 20
983.4167878564253
 30
0.0
 10
1657.588471045518
 20
980.4333331980229
 30
0.0
 10
1657.140608336985
 20
977.4567687351441
 30
0.0
 10
1656.775427974641
 20
975.1830042148936
 30
0.0
 10
1656.396467221265
 20
972.9023494991193
 30
0.0
 10
1655.989945685825
 20
970.6285849788687
 30
0.0
 10
1655.914153535149
 20
970.242734029976
 30
0.0
 10
1655.838361384475
 20
969.8499928855667
 30
0.0
 10
1655.776349624831
 20
969.464141936674
 30
0.0
 10
1655.211353592526
 20
966.5151382558611
 30
0.0
 10
1654.653247755737
 20
963.5661345750409
 30
0.0
 10
1654.026239963786
 20
960.6240210897445
 30
0.0
 10
1653.364781194258
 20
957.5027625210273
 30
0.0
 10
1652.675761642665
 20
954.3883941478339
 30
0.0
 10
1651.959181309009
 20
951.2809159701569
 30
0.0
 10
1651.24949117087
 20
948.2630103341794
 30
0.0
 10
1650.539801032729
 20
945.2519948937183
 30
0.0
 10
1649.78187952598
 20
942.2478696487738
 30
0.0
 10
1649.113530560934
 20
939.581363984114
 30
0.0
 10
1648.452071791407
 20
936.9148583194542
 30
0.0
 10
1647.76994243533
 20
934.2552428503109
 30
0.0
 10
1647.012020928577
 20
931.3337999515566
 30
0.0
 10
1646.329891572502
 20
928.3710158797035
 30
0.0
 10
1645.303252440629
 20
925.5253651316302
 30
0.0
 10
1645.041425011023
 20
924.8018946024599
 30
0.0
 10
1644.820938754513
 20
924.0577534867402
 30
0.0
 10
1644.517770151814
 20
923.3480633485956
 30
0.0
 10
1644.138809398436
 20
922.5005693001435
 30
0.0
 10
1643.773629036094
 20
921.6599654472006
 30
0.0
 10
1643.415338869264
 20
920.8193615942578
 30
0.0
 10
1643.084609484501
 20
920.0821106740545
 30
0.0
 10
1642.636746775966
 20
919.3862009269428
 30
0.0
 10
1642.264676218106
 20
918.6765107888054
 30
0.0
 10
1641.913276246793
 20
918.015052019276
 30
0.0
 10
1641.49986451584
 20
917.3880442273289
 30
0.0
 10
1641.100233175915
 20
916.7541462398581
 30
0.0
 10
1640.266519518488
 20
915.4587894828651
 30
0.0
 10
1639.288111755227
 20
914.2874562451611
 30
0.0
 10
1638.302813796449
 20
913.1023426164243
 30
0.0
 10
1637.834280501366
 20
912.537346584118
 30
0.0
 10
1637.276174664577
 20
912.0274721159362
 30
0.0
 10
1636.759410000884
 20
911.4969270612123
 30
0.0
 10
1636.249535532706
 20
910.9663820064884
 30
0.0
 10
1635.663868913852
 20
910.4289467562407
 30
0.0
 10
1635.085092490514
 20
909.9810840477071
 30
0.0
 10
1634.485645480631
 20
909.4987703615911
 30
0.0
 10
1633.899978861774
 20
908.9682253068672
 30
0.0
 10
1633.266080874308
 20
908.5341429893665
 30
0.0
 10
1632.604622104781
 20
908.0793900853091
 30
0.0
 10
1631.95005353077
 20
907.6315273767755
 30
0.0
 10
1631.28859476124
 20
907.1698842772162
 30
0.0
 10
1629.951896831152
 20
906.2603784691087
 30
0.0
 10
1628.463614599711
 20
905.5575785264878
 30
0.0
 10
1627.023563736883
 20
904.827217801801
 30
0.0
 10
1625.72820697989
 20
904.1657590322716
 30
0.0
 10
1624.350167876705
 20
903.6489943685806
 30
0.0
 10
1622.979018969035
 20
903.1529002914317
 30
0.0
 10
1621.580309279304
 20
902.6430258232499
 30
0.0
 10
1620.147148611991
 20
902.1400415505846
 30
0.0
 10
1618.69331735813
 20
901.7817513837576
 30
0.0
 10
1617.177474344629
 20
901.4096808258978
 30
0.0
 10
1615.647850940094
 20
901.0031592904629
 30
0.0
 10
1614.111337340043
 20
900.7482220563757
 30
0.0
 10
1612.478361002769
 20
900.4726142357317
 30
0.0
 10
1610.845384665495
 20
900.2383475881938
 30
0.0
 10
1609.191737741673
 20
900.0247515271981
 30
0.0
 10
1609.164176959609
 20
900.0178613316816
 30
0.0
 10
1609.136616177547
 20
900.0109711361652
 30
0.0
 10
1609.109055395483
 20
900.0109711361652
 30
0.0
 10
1608.454486821468
 20
899.9420691810078
 30
0.0
 10
1607.786137856426
 20
899.8731672258505
 30
0.0
 10
1607.110898695865
 20
899.8042652706931
 30
0.0
 10
1607.110898695865
 20
899.8042652706931
 30
0.0
 10
1606.835290875227
 20
899.7835946841437
 30
0.0
 10
1606.835290875227
 20
899.7835946841437
 30
0.0
 10
1606.835290875227
 20
899.7835946841437
 30
0.0
 10
1600.537652173675
 20
894.2921088579528
 30
0.0
 10
1600.537652173675
 20
894.2921088579528
 30
0.0
  0
POLYLINE
  5
3BE6
330
A
100
AcDbEntity
  8
HIDDEN
100
AcDb2dPolyline
 66
     1
 10
0.0
 20
0.0
 30
0.0
  0
VERTEX
  5
3BE7
330
3BE6
100
AcDbEntity
  8
HIDDEN
100
AcDbVertex
100
AcDb2dVertex
 10
1597.940048464171
 20
892.0527953152773
 30
0.0
  0
VERTEX
  5
3BE8
330
3BE6
100
AcDbEntity
  8
HIDDEN
100
AcDbVertex
100
AcDb2dVertex
 10
1592.620817525877
 20
887.4225839285714
 30
0.0
  0
VERTEX
  5
3BE9
330
3BE6
100
AcDbEntity
  8
HIDDEN
100
AcDbVertex
100
AcDb2dVertex
 10
1592.620817525877
 20
880.3670237202673
 30
0.0
  0
SEQEND
  5
3BEA
330
3BE6
100
AcDbEntity
  8
HIDDEN
  0
POLYLINE
  5
3BEB
330
A
100
AcDbEntity
  8
HIDDEN
100
AcDb2dPolyline
 66
     1
 10
0.0
 20
0.0
 30
0.0
  0
VERTEX
  5
3BEC
330
3BEB
100
AcDbEntity
  8
HIDDEN
100
AcDbVertex
100
AcDb2dVertex
 10
1592.620817525877
 20
875.1924868878118
 30
0.0
  0
VERTEX
  5
3BED
330
3BEB
100
AcDbEntity
  8
HIDDEN
100
AcDbVertex
100
AcDb2dVertex
 10
1592.620817525877
 20
862.2802604909734
 30
0.0
  0
SEQEND
  5
3BEE
330
3BEB
100
AcDbEntity
  8
HIDDEN
  0
POLYLINE
  5
3BEF
330
A
100
AcDbEntity
  8
HIDDEN
100
AcDb2dPolyline
 66
     1
 10
0.0
 20
0.0
 30
0.0
  0
VERTEX
  5
3BF0
330
3BEF
100
AcDbEntity
  8
HIDDEN
100
AcDbVertex
100
AcDb2dVertex
 10
1592.620817525877
 20
859.6964371725039
 30
0.0
  0
VERTEX
  5
3BF1
330
3BEF
100
AcDbEntity
  8
HIDDEN
100
AcDbVertex
100
AcDb2dVertex
 10
1592.620817525877
 20
852.6408769641926
 30
0.0
  0
SEQEND
  5
3BF2
330
3BEF
100
AcDbEntity
  8
HIDDEN
  0
POLYLINE
  5
3BF3
330
A
100
AcDbEntity
  8
HIDDEN
100
AcDb2dPolyline
 66
     1
 10
0.0
 20
0.0
 30
0.0
  0
VERTEX
  5
3BF4
330
3BF3
100
AcDbEntity
  8
HIDDEN
100
AcDbVertex
100
AcDb2dVertex
 10
1546.614982066057
 20
852.6408769641926
 30
0.0
  0
VERTEX
  5
3BF5
330
3BF3
100
AcDbEntity
  8
HIDDEN
100
AcDbVertex
100
AcDb2dVertex
 10
1546.614982066057
 20
859.6964371725039
 30
0.0
  0
SEQEND
  5
3BF6
330
3BF3
100
AcDbEntity
  8
HIDDEN
  0
POLYLINE
  5
3BF7
330
A
100
AcDbEntity
  8
HIDDEN
100
AcDb2dPolyline
 66
     1
 10
0.0
 20
0.0
 30
0.0
  0
VERTEX
  5
3BF8
330
3BF7
100
AcDbEntity
  8
HIDDEN
100
AcDbVertex
100
AcDb2dVertex
 10
1546.614982066057
 20
864.864083809443
 30
0.0
  0
VERTEX
  5
3BF9
330
3BF7
100
AcDbEntity
  8
HIDDEN
100
AcDbVertex
100
AcDb2dVertex
 10
1546.614982066057
 20
877.7763102062813
 30
0.0
  0
SEQEND
  5
3BFA
330
3BF7
100
AcDbEntity
  8
HIDDEN
  0
POLYLINE
  5
3BFB
330
A
100
AcDbEntity
  8
HIDDEN
100
AcDb2dPolyline
 66
     1
 10
0.0
 20
0.0
 30
0.0
  0
VERTEX
  5
3BFC
330
3BFB
100
AcDbEntity
  8
HIDDEN
100
AcDbVertex
100
AcDb2dVertex
 10
1546.614982066057
 20
880.3601335247581
 30
0.0
  0
VERTEX
  5
3BFD
330
3BFB
100
AcDbEntity
  8
HIDDEN
100
AcDbVertex
100
AcDb2dVertex
 10
1546.614982066057
 20
887.4156937330622
 30
0.0
  0
VERTEX
  5
3BFE
330
3BFB
100
AcDbEntity
  8
HIDDEN
100
AcDbVertex
100
AcDb2dVertex
 10
1541.28886093225
 20
892.0459051197608
 30
0.0
  0
SEQEND
  5
3BFF
330
3BFB
100
AcDbEntity
  8
HIDDEN
  0
SPLINE
  5
3C00
330
A
100
AcDbEntity
  8
HIDDEN
 48
0.7
100
AcDbSpline
210
0.0
220
0.0
230
1.0
 70
     8
 71
     3
 72
    86
 73
    82
 74
     0
 42
0.000000001
 43
0.0000000001
 40
0.0
 40
0.0
 40
0.0
 40
0.0
 40
1.0
 40
1.0
 40
1.0
 40
2.0
 40
2.0
 40
2.0
 40
3.0
 40
3.0
 40
3.0
 40
4.0
 40
4.0
 40
4.0
 40
5.0
 40
5.0
 40
5.0
 40
6.0
 40
6.0
 40
6.0
 40
7.0
 40
7.0
 40
7.0
 40
8.0
 40
8.0
 40
8.0
 40
9.0
 40
9.0
 40
9.0
 40
10.0
 40
10.0
 40
10.0
 40
11.0
 40
11.0
 40
11.0
 40
12.0
 40
12.0
 40
12.0
 40
13.0
 40
13.0
 40
13.0
 40
14.0
 40
14.0
 40
14.0
 40
15.0
 40
15.0
 40
15.0
 40
16.0
 40
16.0
 40
16.0
 40
17.0
 40
17.0
 40
17.0
 40
18.0
 40
18.0
 40
18.0
 40
19.0
 40
19.0
 40
19.0
 40
20.0
 40
20.0
 40
20.0
 40
21.0
 40
21.0
 40
21.0
 40
22.0
 40
22.0
 40
22.0
 40
23.0
 40
23.0
 40
23.0
 40
24.0
 40
24.0
 40
24.0
 40
25.0
 40
25.0
 40
25.0
 40
26.0
 40
26.0
 40
26.0
 40
27.0
 40
27.0
 40
27.0
 40
27.0
 10
1535.852496670185
 20
896.7794694391991
 30
0.0
 10
1535.852496670185
 20
896.7794694391991
 30
0.0
 10
1532.434959694287
 20
899.7491437065614
 30
0.0
 10
1532.434959694287
 20
899.7491437065614
 30
0.0
 10
1532.434959694287
 20
899.7491437065614
 30
0.0
 10
1532.118010700556
 20
899.8042652706931
 30
0.0
 10
1532.118010700556
 20
899.8042652706931
 30
0.0
 10
1529.120775651126
 20
900.3761514985158
 30
0.0
 10
1526.116650406185
 20
900.9411475308148
 30
0.0
 10
1523.112525161242
 20
901.5543749317362
 30
0.0
 10
1519.812121509115
 20
902.2296140922913
 30
0.0
 10
1516.518608052505
 20
902.9461944259451
 30
0.0
 10
1513.238874986925
 20
903.6765551506392
 30
0.0
 10
1510.544808540199
 20
904.2691119650112
 30
0.0
 10
1507.857632288988
 20
904.9374609300571
 30
0.0
 10
1505.191126624325
 20
905.6264804816451
 30
0.0
 10
1501.787370039458
 20
906.5084255076795
 30
0.0
 10
1498.411174236658
 20
907.4248215112962
 30
0.0
 10
1495.021198042822
 20
908.3687782969787
 30
0.0
 10
1492.292680618518
 20
909.1335899992478
 30
0.0
 10
1489.56416319421
 20
909.9535232656413
 30
0.0
 10
1486.84942616094
 20
910.807907509617
 30
0.0
 10
1483.893532284607
 20
911.7380839042667
 30
0.0
 10
1480.937638408276
 20
912.6820406899492
 30
0.0
 10
1478.016195509525
 20
913.6880092352726
 30
0.0
 10
1475.032740851128
 20
914.7215385626619
 30
0.0
 10
1472.04239599722
 20
915.7481776945347
 30
0.0
 10
1469.086502120887
 20
916.8643893681142
 30
0.0
 10
1466.165059222137
 20
917.9806010416937
 30
0.0
 10
1463.250506518903
 20
919.0830323242403
 30
0.0
 10
1460.342844011181
 20
920.2474753664351
 30
0.0
 10
1457.235365833497
 20
921.4877105592964
 30
0.0
 10
1454.162338633397
 20
922.7761771207802
 30
0.0
 10
1451.089311433295
 20
924.0715338777732
 30
0.0
 10
1448.560609678952
 20
925.1395141827375
 30
0.0
 10
1446.038798120123
 20
926.2626160518334
 30
0.0
 10
1443.54454734336
 20
927.4132787029953
 30
0.0
 10
1440.388837797068
 20
928.8671099568523
 30
0.0
 10
1437.253798837321
 20
930.3347216017496
 30
0.0
 10
1434.132540268608
 20
931.8436744197311
 30
0.0
 10
1431.369571866723
 20
933.1734821543064
 30
0.0
 10
1428.627274051386
 20
934.5446310619732
 30
0.0
 10
1425.905646822594
 20
935.9295603606802
 30
0.0
 10
1423.418286241348
 20
937.1835759445744
 30
0.0
 10
1420.958486442162
 20
938.4720425060509
 30
0.0
 10
1418.526247425042
 20
939.8018502406262
 30
0.0
 10
1415.666816285934
 20
941.3590344272229
 30
0.0
 10
1412.807385146824
 20
942.9093284183032
 30
0.0
 10
1409.989295180813
 20
944.5147439735151
 30
0.0
 10
1407.074742477577
 20
946.1752810928515
 30
0.0
 10
1404.173970165374
 20
947.8564887987372
 30
0.0
 10
1401.280088048686
 20
949.5652572866888
 30
0.0
 10
1398.48266866922
 20
951.2257944060252
 30
0.0
 10
1395.712810071819
 20
952.9483432850025
 30
0.0
 10
1392.949841669934
 20
954.6640019684705
 30
0.0
 10
1390.400469329042
 20
956.2349665461002
 30
0.0
 10
1387.899328356762
 20
957.8817232744109
 30
0.0
 10
1385.384406993452
 20
959.5215898071979
 30
0.0
 10
1382.890156216686
 20
961.1683465355086
 30
0.0
 10
1380.409685830954
 20
962.8495542413871
 30
0.0
 10
1377.970556618317
 20
964.5583227293314
 30
0.0
 10
1375.517647014648
 20
966.2739814127995
 30
0.0
 10
1373.078517802011
 20
968.0103106828169
 30
0.0
 10
1370.694510153501
 20
969.808651712468
 30
0.0
 10
1368.152028008125
 20
971.7172358703824
 30
0.0
 10
1365.630216449298
 20
973.6396004193225
 30
0.0
 10
1363.149746063565
 20
975.6377571189437
 30
0.0
 10
1360.634824700254
 20
977.6772549916564
 30
0.0
 10
1358.147464119006
 20
979.7718744285007
 30
0.0
 10
1355.715225101884
 20
981.914725233953
 30
0.0
 10
1353.324327257859
 20
984.0437956483652
 30
0.0
 10
1351.016111760026
 20
986.2555484089821
 30
0.0
 10
1348.749237435285
 20
988.5155325381997
 30
0.0
 10
1346.5926062388
 20
990.6583833436594
 30
0.0
 10
1344.566888757122
 20
992.9459282549428
 30
0.0
 10
1342.623853621629
 20
995.2748143393251
 30
0.0
 10
1340.66014789959
 20
997.6243710102494
 30
0.0
 10
1338.916928434063
 20
1000.125511982529
 30
0.0
 10
1337.26328151024
 20
1002.702445105489
 30
0.0
 10
1336.381336484205
 20
1004.080484208672
 30
0.0
 10
1335.588963999872
 20
1005.52742526702
 30
0.0
 10
1334.872383666215
 20
1007.01570749846
 30
0.0
  0
SPLINE
  5
3C01
330
A
100
AcDbEntity
  8
HIDDEN
 48
0.7
100
AcDbSpline
210
0.0
220
0.0
230
1.0
 70
     8
 71
     3
 72
    14
 73
    10
 74
     0
 42
0.000000001
 43
0.0000000001
 40
0.0
 40
0.0
 40
0.0
 40
0.0
 40
1.0
 40
1.0
 40
1.0
 40
2.0
 40
2.0
 40
2.0
 40
3.0
 40
3.0
 40
3.0
 40
3.0
 10
1333.453003389935
 20
1010.329891541616
 30
0.0
 10
1333.356540652713
 20
1010.59171897122
 30
0.0
 10
1333.266968111008
 20
1010.846656205314
 30
0.0
 10
1333.170505373783
 20
1011.108483634918
 30
0.0
 10
1333.101603418624
 20
1011.301409109357
 30
0.0
 10
1333.039591658981
 20
1011.508114974836
 30
0.0
 10
1332.970689703822
 20
1011.714820840315
 30
0.0
 10
1332.267889761196
 20
1013.575173629615
 30
0.0
 10
1330.683144792535
 20
1014.725836280777
 30
0.0
 10
1328.691878288434
 20
1014.80162843145
 30
0.0
  0
POLYLINE
  5
3C02
330
A
100
AcDbEntity
  8
HIDDEN
 48
0.7
100
AcDb2dPolyline
 66
     1
 10
0.0
 20
0.0
 30
0.0
  0
VERTEX
  5
3C03
330
3C02
100
AcDbEntity
  8
HIDDEN
 48
0.7
100
AcDbVertex
100
AcDb2dVertex
 10
1606.835290875227
 20
899.7835946841437
 30
0.0
  0
VERTEX
  5
3C04
330
3C02
100
AcDbEntity
  8
HIDDEN
 48
0.7
100
AcDbVertex
100
AcDb2dVertex
 10
1599.779730666921
 20
899.7835946841437
 30
0.0
  0
SEQEND
  5
3C05
330
3C02
100
AcDbEntity
  8
HIDDEN
 48
0.7
  0
POLYLINE
  5
3C06
102
{ACAD_REACTORS
330
3CCF
102
}
330
A
100
AcDbEntity
  8
HIDDEN
 48
0.7
100
AcDb2dPolyline
 66
     1
 10
0.0
 20
0.0
 30
0.0
  0
VERTEX
  5
3C07
330
3C06
100
AcDbEntity
  8
HIDDEN
 48
0.7
100
AcDbVertex
100
AcDb2dVertex
 10
1593.757699786004
 20
899.7835946841437
 30
0.0
  0
VERTEX
  5
3C08
330
3C06
100
AcDbEntity
  8
HIDDEN
 48
0.7
100
AcDbVertex
100
AcDb2dVertex
 10
1542.515315734082
 20
899.7835946841437
 30
0.0
  0
SEQEND
  5
3C09
330
3C06
100
AcDbEntity
  8
HIDDEN
 48
0.7
  0
POLYLINE
  5
3C0A
330
A
100
AcDbEntity
  8
HIDDEN
 48
0.7
100
AcDb2dPolyline
 66
     1
 10
0.0
 20
0.0
 30
0.0
  0
VERTEX
  5
3C0B
330
3C0A
100
AcDbEntity
  8
HIDDEN
 48
0.7
100
AcDbVertex
100
AcDb2dVertex
 10
1539.490519902593
 20
899.7835946841437
 30
0.0
  0
VERTEX
  5
3C0C
330
3C0A
100
AcDbEntity
  8
HIDDEN
 48
0.7
100
AcDbVertex
100
AcDb2dVertex
 10
1532.434959694287
 20
899.7835946841437
 30
0.0
  0
SEQEND
  5
3C0D
330
3C0A
100
AcDbEntity
  8
HIDDEN
 48
0.7
  0
SPLINE
  5
3C0E
102
{ACAD_REACTORS
330
3C97
102
}
330
A
100
AcDbEntity
  8
MODEL
100
AcDbSpline
210
0.0
220
0.0
230
1.0
 70
     8
 71
     3
 72
    29
 73
    25
 74
     0
 42
0.000000001
 43
0.0000000001
 40
0.0
 40
0.0
 40
0.0
 40
0.0
 40
1.0
 40
1.0
 40
1.0
 40
2.0
 40
2.0
 40
2.0
 40
3.0
 40
3.0
 40
3.0
 40
4.0
 40
4.0
 40
4.0
 40
5.0
 40
5.0
 40
5.0
 40
6.0
 40
6.0
 40
6.0
 40
7.0
 40
7.0
 40
7.0
 40
8.0
 40
8.0
 40
8.0
 40
8.0
 10
1533.117089050364
 20
874.806635938919
 30
0.0
 10
1533.117089050364
 20
874.806635938919
 30
0.0
 10
1534.419336002874
 20
856.0859747221543
 30
0.0
 10
1534.419336002874
 20
856.0859747221543
 30
0.0
 10
1534.708724214542
 20
854.1084886090825
 30
0.0
 10
1536.389931920427
 20
852.6408769641926
 30
0.0
 10
1538.388088620045
 20
852.6408769641926
 30
0.0
 10
1538.388088620045
 20
852.6408769641926
 30
0.0
 10
1600.944173709112
 20
852.6408769641926
 30
0.0
 10
1600.944173709112
 20
852.6408769641926
 30
0.0
 10
1602.935440213215
 20
852.6408769641926
 30
0.0
 10
1604.63042831013
 20
854.1084886090825
 30
0.0
 10
1604.906036130768
 20
856.0859747221543
 30
0.0
 10
1604.906036130768
 20
856.0859747221543
 30
0.0
 10
1605.73285959268
 20
857.7947432101059
 30
0.0
 10
1605.73285959268
 20
857.7947432101059
 30
0.0
 10
1607.000655567611
 20
859.730888150079
 30
0.0
 10
1609.067714222386
 20
861.0813664711964
 30
0.0
 10
1611.465502261929
 20
861.3776448783824
 30
0.0
 10
1611.465502261929
 20
861.3776448783824
 30
0.0
 10
1654.301847784424
 20
866.6968758166763
 30
0.0
 10
1654.301847784424
 20
866.6968758166763
 30
0.0
 10
1660.447902184626
 20
867.4479071279125
 30
0.0
 10
1668.502540742741
 20
870.4244715907912
 30
0.0
 10
1672.44373257785
 20
874.7928555478861
 30
0.0
  0
CIRCLE
  5
3C26
102
{ACAD_REACTORS
330
3F34
102
}
330
A
100
AcDbEntity
  8
HIDDEN
 48
0.5
100
AcDbCircle
 10
640.0613150856473
 20
2362.800161404109
 30
0.0
 40
17.5
  0
CIRCLE
  5
3C2B
102
{ACAD_REACTORS
330
3F25
102
}
330
A
100
AcDbEntity
  8
HIDDEN
 48
0.5
100
AcDbCircle
 10
440.0613150856473
 20
2362.800161404109
 30
0.0
 40
17.5
  0
DIMENSION
  5
3C2C
102
{ACAD_REACTORS
330
3C2E
102
}
102
{ACAD_XDICTIONARY
360
3C2D
102
}
330
A
100
AcDbEntity
  8
DIM
100
AcDbDimension
  2
*D11
 10
815.0638729467095
 20
2560.670453605898
 30
0.0
 11
540.0613150856473
 21
2592.674955294031
 31
0.0
 70
    32
 71
     5
 42
550.0051157221243
 73
     0
 74
     0
 75
     0
  3
tfrom線あり
100
AcDbAlignedDimension
 13
265.0587572245852
 23
2427.575268444201
 33
0.0
 14
815.0638729467095
 24
2427.575268444201
 34
0.0
100
AcDbRotatedDimension
  0
DIMENSION
  5
3C3B
102
{ACAD_REACTORS
330
3C3D
102
}
102
{ACAD_XDICTIONARY
360
3C3C
102
}
330
A
100
AcDbEntity
  8
DIM
100
AcDbDimension
  2
*D12
 10
984.8195579190166
 20
2427.575268444201
 30
0.0
 11
984.8195579190166
 21
2197.593974765616
 31
0.0
 70
   160
 71
     5
 42
459.9625873571713
 73
     0
 74
     0
 75
     0
  3
tfrom線あり
100
AcDbAlignedDimension
 13
860.1415072739612
 23
1967.61268108703
 33
0.0
 14
815.0638729467095
 24
2427.575268444201
 34
0.0
 50
90.0
100
AcDbRotatedDimension
  0
DIMENSION
  5
3C4A
330
A
100
AcDbEntity
  8
DIM
100
AcDbDimension
  2
*D13
 10
168.0365912752344
 20
1976.545762981939
 30
0.0
 11
136.0320895871013
 21
2139.467881053704
 31
0.0
 70
    32
  1
325
 71
     5
 42
325.8442361435305
 73
     0
 74
     0
 75
     0
  3
tfrom線あり
100
AcDbAlignedDimension
 13
279.792569024494
 23
2302.389999125469
 33
0.0
 14
270.0760153615959
 24
1976.545762981939
 34
0.0
 50
90.0
100
AcDbRotatedDimension
  0
DIMENSION
  5
3C59
330
A
100
AcDbEntity
  8
DIM
100
AcDbDimension
  2
*D14
 10
805.9257613494045
 20
1839.658360311719
 30
0.0
 11
540.039788327505
 21
1839.658360311719
 31
0.0
 70
   160
  1
530
 71
     5
 42
531.771946043799
 73
     0
 74
     0
 75
     0
  3
tfrom線あり
100
AcDbAlignedDimension
 13
274.1538153056056
 23
1979.772543156874
 33
0.0
 14
805.9257613494045
 24
1978.479808130289
 34
0.0
100
AcDbRotatedDimension
  0
DIMENSION
  5
3C86
102
{ACAD_REACTORS
330
3C88
102
}
102
{ACAD_XDICTIONARY
360
3C87
102
}
330
A
100
AcDbEntity
  8
DIM
100
AcDbDimension
  2
*D15
 10
962.9437891754251
 20
1014.80162843145
 30
0.0
 11
962.9437891754251
 21
933.800489946253
 31
0.0
 70
   160
  1
165
 71
     5
 42
162.0022769703936
 73
     0
 74
     0
 75
     0
  3
tfrom線あり
100
AcDbAlignedDimension
 13
568.7067813280839
 23
852.7993514610564
 33
0.0
 14
794.5952175521006
 24
1014.80162843145
 34
0.0
 50
90.0
100
AcDbRotatedDimension
  0
DIMENSION
  5
3C95
102
{ACAD_REACTORS
330
3C97
102
}
102
{ACAD_XDICTIONARY
360
3C96
102
}
330
A
100
AcDbEntity
  8
DIM
100
AcDbDimension
  2
*D16
 10
1784.616115577083
 20
733.8658861777639
 30
0.0
 11
1677.437846122332
 21
765.8703878658969
 31
0.0
 70
    32
  1
215
 71
     5
 42
214.3565389095029
 73
     0
 74
     0
 75
     0
  3
tfrom線あり
100
AcDbAlignedDimension
 13
1570.25957666758
 23
852.6408769641926
 33
0.0
 14
1784.616115577083
 24
875.5980886355915
 34
0.0
100
AcDbRotatedDimension
  0
LINE
  5
3CBA
330
A
100
AcDbEntity
  8
DIM
100
AcDbLine
 10
1737.116115577083
 20
993.5286170084523
 30
0.0
 11
1737.116115577083
 21
1006.085113981571
 31
0.0
  0
LINE
  5
3CBB
330
A
100
AcDbEntity
  8
DIM
100
AcDbLine
 10
1702.116115577084
 20
993.5286170084522
 30
0.0
 11
1702.116115577084
 21
1006.085113981571
 31
0.0
  0
DIMENSION
  5
3CBD
330
A
100
AcDbEntity
  8
DIM
100
AcDbDimension
  2
*D18
 10
1719.616115577084
 20
1081.356016202602
 30
0.0
 11
1752.175548745367
 21
1113.360517890736
 31
0.0
 70
    32
 71
     5
 42
65.11886633656809
 73
     0
 74
     1
 75
     1
  3
tfrom線あり
100
AcDbAlignedDimension
 13
1784.734981913652
 23
1014.80162843145
 33
0.0
 14
1719.616115577084
 24
1006.085113981571
 34
0.0
100
AcDbRotatedDimension
1001
ACAD
1000
DSTYLE
1002
{
1070
   172
1070
     1
1002
}
  0
DIMENSION
  5
3CCD
102
{ACAD_REACTORS
330
3CCF
102
}
102
{ACAD_XDICTIONARY
360
3CCE
102
}
330
A
100
AcDbEntity
  8
DIM
100
AcDbDimension
  2
*D19
 10
1569.787986718937
 20
1014.80162843145
 30
0.0
 11
1569.787986718937
 21
1119.842018577755
 31
0.0
 70
   160
 71
     5
 42
115.0180337473066
 73
     0
 74
     1
 75
     1
  3
tfrom線あり
100
AcDbAlignedDimension
 13
1569.621344893726
 23
899.7835946841437
 33
0.0
 14
1569.929507185008
 24
1014.80162843145
 34
0.0
 50
90.0
100
AcDbRotatedDimension
1001
ACAD
1000
DSTYLE
1002
{
1070
     3
1000
<>(深さ)
1070
    75
1070
     1
1070
    76
1070
     1
1070
   172
1070
     1
1002
}
  0
DIMENSION
  5
3CED
102
{ACAD_REACTORS
330
3CEF
102
}
102
{ACAD_XDICTIONARY
360
3CEE
102
}
330
A
100
AcDbEntity
  8
DIM
100
AcDbDimension
  2
*D21
 10
1274.949139441773
 20
934.7995682960677
 30
0.0
 11
1242.949139441773
 21
974.800598363759
 31
0.0
 70
    32
 71
     5
 42
80.00206013538264
 73
     0
 74
     0
 75
     0
  3
tfrom線あり
100
AcDbAlignedDimension
 13
1335.911801748003
 23
1014.80162843145
 33
0.0
 14
1336.782696923812
 24
934.7995682960677
 34
0.0
 50
90.0
100
AcDbRotatedDimension
  0
DIMENSION
  5
3CFC
102
{ACAD_REACTORS
330
3CFE
102
}
102
{ACAD_XDICTIONARY
360
3CFD
102
}
330
A
100
AcDbEntity
  8
DIM
100
AcDbDimension
  2
*D22
 10
1274.949139441773
 20
874.7997457434026
 30
0.0
 11
1242.949139441773
 21
904.7996570197352
 31
0.0
 70
    32
 71
     5
 42
59.99982255266513
 73
     0
 74
     1
 75
     1
  3
tfrom線あり
100
AcDbAlignedDimension
 13
1336.768000567721
 23
934.7995682960677
 33
0.0
 14
1439.959281329203
 24
874.7997457434026
 34
0.0
 50
90.0
100
AcDbRotatedDimension
1001
ACAD
1000
DSTYLE
1002
{
1070
   172
1070
     1
1002
}
  0
POLYLINE
  5
3D56
102
{ACAD_REACTORS
330
3D7A
102
}
330
A
100
AcDbEntity
  8
HIDDEN
 48
0.5
100
AcDb2dPolyline
 66
     1
 10
0.0
 20
0.0
 30
0.0
  0
VERTEX
  5
3D57
330
3D56
100
AcDbEntity
  8
HIDDEN
 48
0.5
100
AcDbVertex
100
AcDb2dVertex
 10
399.5984421185458
 20
976.5585839261761
 30
0.0
  0
VERTEX
  5
3D58
330
3D56
100
AcDbEntity
  8
HIDDEN
 48
0.5
100
AcDbVertex
100
AcDb2dVertex
 10
399.5984421185458
 20
943.0308925456915
 30
0.0
  0
SEQEND
  5
3D59
330
3D56
100
AcDbEntity
  8
HIDDEN
 48
0.5
  0
POLYLINE
  5
3D5A
330
A
100
AcDbEntity
  8
HIDDEN
 48
0.5
100
AcDb2dPolyline
 66
     1
 10
0.0
 20
0.0
 30
0.0
  0
VERTEX
  5
3D5B
330
3D5A
100
AcDbEntity
  8
HIDDEN
 48
0.5
100
AcDbVertex
100
AcDb2dVertex
 10
371.593242444078
 20
959.8016284314502
 30
0.0
  0
VERTEX
  5
3D5C
330
3D5A
100
AcDbEntity
  8
HIDDEN
 48
0.5
100
AcDbVertex
100
AcDb2dVertex
 10
427.5657457176786
 20
959.8016284314502
 30
0.0
  0
SEQEND
  5
3D5D
330
3D5A
100
AcDbEntity
  8
HIDDEN
 48
0.5
  0
SPLINE
  5
3D60
330
A
100
AcDbEntity
  8
HIDDEN
 48
0.5
100
AcDbSpline
210
0.0
220
0.0
230
1.0
 70
  1080
 71
     3
 72
     8
 73
     4
 74
     2
 42
0.000000001
 43
0.0000000001
 44
0.0
 40
0.0
 40
0.0
 40
0.0
 40
0.0
 40
5.043877044410078
 40
5.043877044410078
 40
5.043877044410078
 40
5.043877044410078
 10
399.5984421185458
 20
949.7970645423296
 30
0.0
 10
397.9171497706445
 20
949.7970926764071
 30
0.0
 10
396.2358574227432
 20
949.7971208104846
 30
0.0
 10
394.5545650748419
 20
949.7971489445621
 30
0.0
 11
399.5984421185458
 21
949.7970645423296
 31
0.0
 11
394.5545650748419
 21
949.7971489445621
 31
0.0
  0
SPLINE
  5
3D61
330
A
100
AcDbEntity
  8
HIDDEN
 48
0.5
100
AcDbSpline
210
0.0
220
0.0
230
1.0
 70
  1064
 71
     3
 72
    22
 73
    18
 74
    16
 42
0.000000001
 43
0.0000000001
 44
0.0
 40
0.0
 40
0.0
 40
0.0
 40
0.0
 40
1.298862838070707
 40
2.257202063180818
 40
3.602182531782256
 40
4.883495218012538
 40
6.099542425468172
 40
7.340568645545403
 40
8.250752728468363
 40
9.305417217386095
 40
10.46616364178189
 40
11.32218524872309
 40
12.23844686005645
 40
13.12432346282627
 40
14.13279722048541
 40
14.93797134988725
 40
15.67043281211793
 40
15.67043281211793
 40
15.67043281211793
 40
15.67043281211793
 10
394.5545650748419
 20
949.7971489445621
 30
0.0
 10
394.1213187285339
 20
949.8145216614195
 30
0.0
 10
393.3684104782644
 20
949.8447124800218
 30
0.0
 10
392.1855840614664
 20
950.0673590808121
 30
0.0
 10
391.0390087960403
 20
950.4150216895349
 30
0.0
 10
389.870917752061
 20
950.9494738572173
 30
0.0
 10
388.8085293943946
 20
951.6063476743691
 30
0.0
 10
387.9309666352485
 20
952.3110163466501
 30
0.0
 10
387.172986418592
 20
953.066180159992
 30
0.0
 10
386.508930635459
 20
953.8714947246754
 30
0.0
 10
385.9473655391536
 20
954.7304597667996
 30
0.0
 10
385.4971191275684
 20
955.5995451365195
 30
0.0
 10
385.1607633563972
 20
956.4206609863684
 30
0.0
 10
384.8850523175738
 20
957.3173780708379
 30
0.0
 10
384.7049459737989
 20
958.2004440488419
 30
0.0
 10
384.6068903762828
 20
959.0447517437117
 30
0.0
 10
384.5965325958449
 20
959.5574172844044
 30
0.0
 10
384.5915986082042
 20
959.8016284314502
 30
0.0
 11
394.5545650748419
 21
949.7971489445621
 31
0.0
 11
393.2587083404276
 21
949.8854665305468
 31
0.0
 11
392.3159344112065
 21
950.0574880081759
 31
0.0
 11
391.0295638528565
 21
950.4502006862621
 31
0.0
 11
389.8641072882638
 21
950.9826226955203
 31
0.0
 11
388.8298117738559
 21
951.6221565880047
 31
0.0
 11
387.8620564789484
 21
952.3990708484592
 31
0.0
 11
387.217256130561
 21
953.0414629215157
 31
0.0
 11
386.5463414346296
 21
953.8552138999897
 31
0.0
 11
385.911242829584
 21
954.8268012731152
 31
0.0
 11
385.5175183889577
 21
955.586902619255
 31
0.0
 11
385.1701677408664
 21
956.4347722246035
 31
0.0
 11
384.9100779718438
 21
957.2816079036965
 31
0.0
 11
384.7071989628626
 21
958.2694638788274
 31
0.0
 11
384.6174875213891
 21
959.06962463513
 31
0.0
 11
384.5915986082042
 21
959.8016284314502
 31
0.0
  0
SPLINE
  5
3D62
330
A
100
AcDbEntity
  8
HIDDEN
 48
0.5
100
AcDbSpline
210
0.0
220
0.0
230
1.0
 70
  1080
 71
     3
 72
     8
 73
     4
 74
     2
 42
0.000000001
 43
0.0000000001
 44
0.0
 40
0.0
 40
0.0
 40
0.0
 40
0.0
 40
5.043877044410078
 40
5.043877044410078
 40
5.043877044410078
 40
5.043877044410078
 10
399.5984421185458
 20
949.7970645423296
 30
0.0
 10
401.2797344664471
 20
949.7970926764071
 30
0.0
 10
402.9610268143484
 20
949.7971208104846
 30
0.0
 10
404.6423191622497
 20
949.7971489445621
 30
0.0
 11
399.5984421185458
 21
949.7970645423296
 31
0.0
 11
404.6423191622497
 21
949.7971489445621
 31
0.0
  0
SPLINE
  5
3D63
330
A
100
AcDbEntity
  8
HIDDEN
 48
0.5
100
AcDbSpline
210
0.0
220
0.0
230
1.0
 70
  1064
 71
     3
 72
    22
 73
    18
 74
    16
 42
0.000000001
 43
0.0000000001
 44
0.0
 40
0.0
 40
0.0
 40
0.0
 40
0.0
 40
1.29886283807082
 40
2.257202063180932
 40
3.602182531782369
 40
4.883495218012703
 40
6.09954242546829
 40
7.34056864554552
 40
8.25075272846848
 40
9.305417217386212
 40
10.46616364178201
 40
11.3221852487232
 40
12.23844686005656
 40
13.12432346282639
 40
14.13279722048553
 40
14.93797134988737
 40
15.67043281211805
 40
15.67043281211805
 40
15.67043281211805
 40
15.67043281211805
 10
404.6423191622497
 20
949.7971489445621
 30
0.0
 10
405.0755655085576
 20
949.8145216614195
 30
0.0
 10
405.8284737588272
 20
949.844712480022
 30
0.0
 10
407.0113001756254
 20
950.0673590808119
 30
0.0
 10
408.1578754410511
 20
950.4150216895353
 30
0.0
 10
409.3259664850308
 20
950.9494738572168
 30
0.0
 10
410.3883548426971
 20
951.6063476743697
 30
0.0
 10
411.2659176018434
 20
952.3110163466499
 30
0.0
 10
412.0238978184996
 20
953.066180159992
 30
0.0
 10
412.6879536016328
 20
953.8714947246754
 30
0.0
 10
413.2495186979381
 20
954.7304597667996
 30
0.0
 10
413.6997651095233
 20
955.5995451365195
 30
0.0
 10
414.0361208806945
 20
956.4206609863684
 30
0.0
 10
414.311831919518
 20
957.3173780708379
 30
0.0
 10
414.4919382632928
 20
958.2004440488419
 30
0.0
 10
414.5899938608089
 20
959.0447517437117
 30
0.0
 10
414.6003516412468
 20
959.5574172844044
 30
0.0
 10
414.6052856288875
 20
959.8016284314502
 30
0.0
 11
404.6423191622497
 21
949.7971489445621
 31
0.0
 11
405.9381758966641
 21
949.8854665305468
 31
0.0
 11
406.8809498258852
 21
950.0574880081759
 31
0.0
 11
408.1673203842352
 21
950.4502006862621
 31
0.0
 11
409.3327769488279
 21
950.9826226955203
 31
0.0
 11
410.3670724632358
 21
951.6221565880047
 31
0.0
 11
411.3348277581433
 21
952.3990708484592
 31
0.0
 11
411.9796281065307
 21
953.0414629215157
 31
0.0
 11
412.6505428024621
 21
953.8552138999897
 31
0.0
 11
413.2856414075077
 21
954.8268012731152
 31
0.0
 11
413.679365848134
 21
955.586902619255
 31
0.0
 11
414.0267164962253
 21
956.4347722246035
 31
0.0
 11
414.2868062652479
 21
957.2816079036965
 31
0.0
 11
414.4896852742291
 21
958.2694638788274
 31
0.0
 11
414.5793967157026
 21
959.06962463513
 31
0.0
 11
414.6052856288875
 21
959.8016284314502
 31
0.0
  0
SPLINE
  5
3D64
330
A
100
AcDbEntity
  8
HIDDEN
 48
0.5
100
AcDbSpline
210
0.0
220
0.0
230
1.0
 70
  1080
 71
     3
 72
     8
 73
     4
 74
     2
 42
0.000000001
 43
0.0000000001
 44
0.0
 40
0.0
 40
0.0
 40
0.0
 40
0.0
 40
5.043877044410078
 40
5.043877044410078
 40
5.043877044410078
 40
5.043877044410078
 10
399.5984421185458
 20
969.8061923205709
 30
0.0
 10
397.9171497706445
 20
969.8061641864933
 30
0.0
 10
396.2358574227432
 20
969.8061360524159
 30
0.0
 10
394.5545650748419
 20
969.8061079183384
 30
0.0
 11
399.5984421185458
 21
969.8061923205709
 31
0.0
 11
394.5545650748419
 21
969.8061079183384
 31
0.0
  0
SPLINE
  5
3D65
330
A
100
AcDbEntity
  8
HIDDEN
 48
0.5
100
AcDbSpline
210
0.0
220
0.0
230
1.0
 70
  1080
 71
     3
 72
     8
 73
     4
 74
     2
 42
0.000000001
 43
0.0000000001
 44
0.0
 40
0.0
 40
0.0
 40
0.0
 40
0.0
 40
5.043877044410078
 40
5.043877044410078
 40
5.043877044410078
 40
5.043877044410078
 10
399.5984421185458
 20
969.8061923205709
 30
0.0
 10
401.2797344664471
 20
969.8061641864933
 30
0.0
 10
402.9610268143484
 20
969.8061360524159
 30
0.0
 10
404.6423191622497
 20
969.8061079183384
 30
0.0
 11
399.5984421185458
 21
969.8061923205709
 31
0.0
 11
404.6423191622497
 21
969.8061079183384
 31
0.0
  0
SPLINE
  5
3D66
330
A
100
AcDbEntity
  8
HIDDEN
 48
0.5
100
AcDbSpline
210
0.0
220
0.0
230
1.0
 70
  1064
 71
     3
 72
    22
 73
    18
 74
    16
 42
0.000000001
 43
0.0000000001
 44
0.0
 40
0.0
 40
0.0
 40
0.0
 40
0.0
 40
1.29886283807082
 40
2.257202063180932
 40
3.602182531782369
 40
4.883495218012703
 40
6.09954242546829
 40
7.34056864554552
 40
8.25075272846848
 40
9.305417217386212
 40
10.46616364178201
 40
11.3221852487232
 40
12.23844686005656
 40
13.12432346282639
 40
14.13279722048553
 40
14.93797134988737
 40
15.67043281211805
 40
15.67043281211805
 40
15.67043281211805
 40
15.67043281211805
 10
404.6423191622497
 20
969.8061079183384
 30
0.0
 10
405.0755655085576
 20
969.7887352014811
 30
0.0
 10
405.8284737588272
 20
969.7585443828789
 30
0.0
 10
407.0113001756254
 20
969.5358977820883
 30
0.0
 10
408.1578754410511
 20
969.1882351733652
 30
0.0
 10
409.3259664850308
 20
968.6537830056836
 30
0.0
 10
410.3883548426971
 20
967.9969091885312
 30
0.0
 10
411.2659176018434
 20
967.2922405162506
 30
0.0
 10
412.0238978184996
 20
966.5370767029083
 30
0.0
 10
412.6879536016328
 20
965.7317621382253
 30
0.0
 10
413.2495186979381
 20
964.8727970961011
 30
0.0
 10
413.6997651095233
 20
964.0037117263809
 30
0.0
 10
414.0361208806945
 20
963.1825958765326
 30
0.0
 10
414.311831919518
 20
962.2858787920625
 30
0.0
 10
414.4919382632928
 20
961.402812814059
 30
0.0
 10
414.5899938608089
 20
960.5585051191888
 30
0.0
 10
414.6003516412468
 20
960.0458395784962
 30
0.0
 10
414.6052856288875
 20
959.8016284314502
 30
0.0
 11
404.6423191622497
 21
969.8061079183384
 31
0.0
 11
405.9381758966641
 21
969.7177903323537
 31
0.0
 11
406.8809498258852
 21
969.5457688547245
 31
0.0
 11
408.1673203842352
 21
969.1530561766384
 31
0.0
 11
409.3327769488279
 21
968.6206341673802
 31
0.0
 11
410.3670724632358
 21
967.9811002748958
 31
0.0
 11
411.3348277581433
 21
967.2041860144412
 31
0.0
 11
411.9796281065307
 21
966.5617939413847
 31
0.0
 11
412.6505428024621
 21
965.7480429629107
 31
0.0
 11
413.2856414075077
 21
964.7764555897853
 31
0.0
 11
413.679365848134
 21
964.0163542436454
 31
0.0
 11
414.0267164962253
 21
963.168484638297
 31
0.0
 11
414.2868062652479
 21
962.321648959204
 31
0.0
 11
414.4896852742291
 21
961.333792984073
 31
0.0
 11
414.5793967157026
 21
960.5336322277705
 31
0.0
 11
414.6052856288875
 21
959.8016284314502
 31
0.0
  0
SPLINE
  5
3D67
330
A
100
AcDbEntity
  8
HIDDEN
 48
0.5
100
AcDbSpline
210
0.0
220
0.0
230
1.0
 70
  1064
 71
     3
 72
    22
 73
    18
 74
    16
 42
0.000000001
 43
0.0000000001
 44
0.0
 40
0.0
 40
0.0
 40
0.0
 40
0.0
 40
1.298862838070707
 40
2.257202063180818
 40
3.602182531782256
 40
4.883495218012538
 40
6.099542425468172
 40
7.340568645545403
 40
8.250752728468363
 40
9.305417217386095
 40
10.46616364178189
 40
11.32218524872309
 40
12.23844686005645
 40
13.12432346282627
 40
14.13279722048541
 40
14.93797134988725
 40
15.67043281211793
 40
15.67043281211793
 40
15.67043281211793
 40
15.67043281211793
 10
394.5545650748419
 20
969.8061079183384
 30
0.0
 10
394.1213187285339
 20
969.7887352014809
 30
0.0
 10
393.3684104782644
 20
969.7585443828787
 30
0.0
 10
392.1855840614664
 20
969.5358977820887
 30
0.0
 10
391.0390087960403
 20
969.1882351733651
 30
0.0
 10
389.870917752061
 20
968.6537830056834
 30
0.0
 10
388.8085293943946
 20
967.996909188531
 30
0.0
 10
387.9309666352485
 20
967.2922405162508
 30
0.0
 10
387.172986418592
 20
966.5370767029083
 30
0.0
 10
386.508930635459
 20
965.7317621382253
 30
0.0
 10
385.9473655391536
 20
964.8727970961011
 30
0.0
 10
385.4971191275684
 20
964.0037117263809
 30
0.0
 10
385.1607633563972
 20
963.1825958765326
 30
0.0
 10
384.8850523175738
 20
962.2858787920625
 30
0.0
 10
384.7049459737989
 20
961.402812814059
 30
0.0
 10
384.6068903762828
 20
960.5585051191888
 30
0.0
 10
384.5965325958449
 20
960.0458395784962
 30
0.0
 10
384.5915986082042
 20
959.8016284314502
 30
0.0
 11
394.5545650748419
 21
969.8061079183384
 31
0.0
 11
393.2587083404276
 21
969.7177903323537
 31
0.0
 11
392.3159344112065
 21
969.5457688547245
 31
0.0
 11
391.0295638528565
 21
969.1530561766384
 31
0.0
 11
389.8641072882638
 21
968.6206341673802
 31
0.0
 11
388.8298117738559
 21
967.9811002748958
 31
0.0
 11
387.8620564789484
 21
967.2041860144412
 31
0.0
 11
387.217256130561
 21
966.5617939413847
 31
0.0
 11
386.5463414346296
 21
965.7480429629107
 31
0.0
 11
385.911242829584
 21
964.7764555897853
 31
0.0
 11
385.5175183889577
 21
964.0163542436454
 31
0.0
 11
385.1701677408664
 21
963.168484638297
 31
0.0
 11
384.9100779718438
 21
962.321648959204
 31
0.0
 11
384.7071989628626
 21
961.333792984073
 31
0.0
 11
384.6174875213891
 21
960.5336322277705
 31
0.0
 11
384.5915986082042
 21
959.8016284314502
 31
0.0
  0
POLYLINE
  5
3D68
102
{ACAD_REACTORS
330
3D7A
102
}
330
A
100
AcDbEntity
  8
HIDDEN
 48
0.5
100
AcDb2dPolyline
 66
     1
 10
0.0
 20
0.0
 30
0.0
  0
VERTEX
  5
3D69
330
3D68
100
AcDbEntity
  8
HIDDEN
 48
0.5
100
AcDbVertex
100
AcDb2dVertex
 10
679.5605460432107
 20
976.5585839261761
 30
0.0
  0
VERTEX
  5
3D6A
330
3D68
100
AcDbEntity
  8
HIDDEN
 48
0.5
100
AcDbVertex
100
AcDb2dVertex
 10
679.5605460432107
 20
943.0308925456915
 30
0.0
  0
SEQEND
  5
3D6B
330
3D68
100
AcDbEntity
  8
HIDDEN
 48
0.5
  0
POLYLINE
  5
3D6C
330
A
100
AcDbEntity
  8
HIDDEN
 48
0.5
100
AcDb2dPolyline
 66
     1
 10
0.0
 20
0.0
 30
0.0
  0
VERTEX
  5
3D6D
330
3D6C
100
AcDbEntity
  8
HIDDEN
 48
0.5
100
AcDbVertex
100
AcDb2dVertex
 10
707.5657457176785
 20
959.8016284314502
 30
0.0
  0
VERTEX
  5
3D6E
330
3D6C
100
AcDbEntity
  8
HIDDEN
 48
0.5
100
AcDbVertex
100
AcDb2dVertex
 10
651.593242444078
 20
959.8016284314502
 30
0.0
  0
SEQEND
  5
3D6F
330
3D6C
100
AcDbEntity
  8
HIDDEN
 48
0.5
  0
SPLINE
  5
3D70
330
A
100
AcDbEntity
  8
HIDDEN
 48
0.5
100
AcDbSpline
210
0.0
220
0.0
230
1.0
 70
  1080
 71
     3
 72
     8
 73
     4
 74
     2
 42
0.000000001
 43
0.0000000001
 44
0.0
 40
0.0
 40
0.0
 40
0.0
 40
0.0
 40
5.043877044410191
 40
5.043877044410191
 40
5.043877044410191
 40
5.043877044410191
 10
679.5605460432107
 20
949.7970645423296
 30
0.0
 10
681.2418383911122
 20
949.7970926764073
 30
0.0
 10
682.9231307390135
 20
949.7971208104848
 30
0.0
 10
684.6044230869147
 20
949.7971489445621
 30
0.0
 11
679.5605460432107
 21
949.7970645423296
 31
0.0
 11
684.6044230869147
 21
949.7971489445621
 31
0.0
  0
SPLINE
  5
3D71
330
A
100
AcDbEntity
  8
HIDDEN
 48
0.5
100
AcDbSpline
210
0.0
220
0.0
230
1.0
 70
  1064
 71
     3
 72
    22
 73
    18
 74
    16
 42
0.000000001
 43
0.0000000001
 44
0.0
 40
0.0
 40
0.0
 40
0.0
 40
0.0
 40
1.298862838070593
 40
2.257202063180817
 40
3.6021825317822
 40
4.883495218012482
 40
6.099542425468262
 40
7.340568645545405
 40
8.250752728468406
 40
9.305417217386065
 40
10.46616364178189
 40
11.32218524872309
 40
12.23844686005649
 40
13.12432346282626
 40
14.13279722048541
 40
14.93797134988725
 40
15.67043281211793
 40
15.67043281211793
 40
15.67043281211793
 40
15.67043281211793
 10
684.6044230869147
 20
949.7971489445621
 30
0.0
 10
685.0376694332225
 20
949.8145216614193
 30
0.0
 10
685.7905776834921
 20
949.8447124800218
 30
0.0
 10
686.9734041002902
 20
950.0673590808119
 30
0.0
 10
688.1199793657163
 20
950.4150216895353
 30
0.0
 10
689.2880704096955
 20
950.9494738572168
 30
0.0
 10
690.3504587673622
 20
951.6063476743695
 30
0.0
 10
691.2280215265081
 20
952.3110163466499
 30
0.0
 10
691.9860017431647
 20
953.0661801599917
 30
0.0
 10
692.6500575262975
 20
953.8714947246756
 30
0.0
 10
693.211622622603
 20
954.7304597667992
 30
0.0
 10
693.6618690341884
 20
955.59954513652
 30
0.0
 10
693.9982248053597
 20
956.420660986368
 30
0.0
 10
694.2739358441828
 20
957.3173780708382
 30
0.0
 10
694.4540421879576
 20
958.2004440488415
 30
0.0
 10
694.5520977854738
 20
959.0447517437117
 30
0.0
 10
694.5624555659117
 20
959.5574172844044
 30
0.0
 10
694.5673895535524
 20
959.8016284314502
 30
0.0
 11
684.6044230869147
 21
949.7971489445621
 31
0.0
 11
685.9002798213289
 21
949.8854665305468
 31
0.0
 11
686.8430537505501
 21
950.0574880081759
 31
0.0
 11
688.1294243089001
 21
950.4502006862621
 31
0.0
 11
689.2948808734927
 21
950.9826226955203
 31
0.0
 11
690.3291763879008
 21
951.6221565880047
 31
0.0
 11
691.2969316828082
 21
952.3990708484592
 31
0.0
 11
691.9417320311957
 21
953.0414629215157
 31
0.0
 11
692.612646727127
 21
953.8552138999897
 31
0.0
 11
693.2477453321726
 21
954.8268012731152
 31
0.0
 11
693.6414697727989
 21
955.586902619255
 31
0.0
 11
693.9888204208903
 21
956.4347722246035
 31
0.0
 11
694.2489101899127
 21
957.2816079036965
 31
0.0
 11
694.451789198894
 21
958.2694638788274
 31
0.0
 11
694.5415006403675
 21
959.06962463513
 31
0.0
 11
694.5673895535524
 21
959.8016284314502
 31
0.0
  0
SPLINE
  5
3D72
330
A
100
AcDbEntity
  8
HIDDEN
 48
0.5
100
AcDbSpline
210
0.0
220
0.0
230
1.0
 70
  1080
 71
     3
 72
     8
 73
     4
 74
     2
 42
0.000000001
 43
0.0000000001
 44
0.0
 40
0.0
 40
0.0
 40
0.0
 40
0.0
 40
5.043877044409964
 40
5.043877044409964
 40
5.043877044409964
 40
5.043877044409964
 10
679.5605460432107
 20
949.7970645423296
 30
0.0
 10
677.8792536953094
 20
949.797092676407
 30
0.0
 10
676.1979613474082
 20
949.7971208104846
 30
0.0
 10
674.5166689995069
 20
949.7971489445621
 30
0.0
 11
679.5605460432107
 21
949.7970645423296
 31
0.0
 11
674.5166689995069
 21
949.7971489445621
 31
0.0
  0
SPLINE
  5
3D73
330
A
100
AcDbEntity
  8
HIDDEN
 48
0.5
100
AcDbSpline
210
0.0
220
0.0
230
1.0
 70
  1064
 71
     3
 72
    22
 73
    18
 74
    16
 42
0.000000001
 43
0.0000000001
 44
0.0
 40
0.0
 40
0.0
 40
0.0
 40
0.0
 40
1.29886283807082
 40
2.257202063181043
 40
3.602182531782427
 40
4.883495218012709
 40
6.099542425468296
 40
7.340568645545439
 40
8.250752728468438
 40
9.305417217386243
 40
10.46616364178207
 40
11.32218524872316
 40
12.23844686005656
 40
13.1243234628264
 40
14.13279722048555
 40
14.93797134988737
 40
15.67043281211805
 40
15.67043281211805
 40
15.67043281211805
 40
15.67043281211805
 10
674.5166689995069
 20
949.7971489445621
 30
0.0
 10
674.0834226531989
 20
949.8145216614196
 30
0.0
 10
673.3305144029295
 20
949.844712480022
 30
0.0
 10
672.147687986131
 20
950.0673590808117
 30
0.0
 10
671.0011127207054
 20
950.4150216895353
 30
0.0
 10
669.8330216767256
 20
950.9494738572171
 30
0.0
 10
668.7706333190595
 20
951.6063476743691
 30
0.0
 10
667.8930705599133
 20
952.3110163466499
 30
0.0
 10
667.135090343257
 20
953.0661801599919
 30
0.0
 10
666.4710345601237
 20
953.8714947246752
 30
0.0
 10
665.9094694638183
 20
954.7304597667994
 30
0.0
 10
665.4592230522335
 20
955.5995451365195
 30
0.0
 10
665.1228672810622
 20
956.4206609863684
 30
0.0
 10
664.8471562422385
 20
957.3173780708378
 30
0.0
 10
664.6670498984638
 20
958.2004440488419
 30
0.0
 10
664.5689943009479
 20
959.0447517437117
 30
0.0
 10
664.5586365205097
 20
959.5574172844044
 30
0.0
 10
664.553702532869
 20
959.8016284314502
 30
0.0
 11
674.5166689995069
 21
949.7971489445621
 31
0.0
 11
673.2208122650925
 21
949.8854665305468
 31
0.0
 11
672.2780383358713
 21
950.0574880081759
 31
0.0
 11
670.9916677775213
 21
950.4502006862621
 31
0.0
 11
669.8262112129287
 21
950.9826226955203
 31
0.0
 11
668.7919156985208
 21
951.6221565880047
 31
0.0
 11
667.8241604036134
 21
952.3990708484592
 31
0.0
 11
667.179360055226
 21
953.0414629215157
 31
0.0
 11
666.5084453592945
 21
953.8552138999897
 31
0.0
 11
665.8733467542488
 21
954.8268012731152
 31
0.0
 11
665.4796223136227
 21
955.586902619255
 31
0.0
 11
665.1322716655313
 21
956.4347722246035
 31
0.0
 11
664.8721818965087
 21
957.2816079036965
 31
0.0
 11
664.6693028875275
 21
958.2694638788274
 31
0.0
 11
664.5795914460541
 21
959.06962463513
 31
0.0
 11
664.553702532869
 21
959.8016284314502
 31
0.0
  0
SPLINE
  5
3D74
330
A
100
AcDbEntity
  8
HIDDEN
 48
0.5
100
AcDbSpline
210
0.0
220
0.0
230
1.0
 70
  1080
 71
     3
 72
     8
 73
     4
 74
     2
 42
0.000000001
 43
0.0000000001
 44
0.0
 40
0.0
 40
0.0
 40
0.0
 40
0.0
 40
5.043877044410191
 40
5.043877044410191
 40
5.043877044410191
 40
5.043877044410191
 10
679.5605460432107
 20
969.8061923205709
 30
0.0
 10
681.2418383911122
 20
969.8061641864936
 30
0.0
 10
682.9231307390135
 20
969.806136052416
 30
0.0
 10
684.6044230869147
 20
969.8061079183384
 30
0.0
 11
679.5605460432107
 21
969.8061923205709
 31
0.0
 11
684.6044230869147
 21
969.8061079183384
 31
0.0
  0
SPLINE
  5
3D75
330
A
100
AcDbEntity
  8
HIDDEN
 48
0.5
100
AcDbSpline
210
0.0
220
0.0
230
1.0
 70
  1080
 71
     3
 72
     8
 73
     4
 74
     2
 42
0.000000001
 43
0.0000000001
 44
0.0
 40
0.0
 40
0.0
 40
0.0
 40
0.0
 40
5.043877044409964
 40
5.043877044409964
 40
5.043877044409964
 40
5.043877044409964
 10
679.5605460432107
 20
969.8061923205709
 30
0.0
 10
677.8792536953094
 20
969.8061641864933
 30
0.0
 10
676.1979613474082
 20
969.8061360524159
 30
0.0
 10
674.5166689995069
 20
969.8061079183384
 30
0.0
 11
679.5605460432107
 21
969.8061923205709
 31
0.0
 11
674.5166689995069
 21
969.8061079183384
 31
0.0
  0
SPLINE
  5
3D76
330
A
100
AcDbEntity
  8
HIDDEN
 48
0.5
100
AcDbSpline
210
0.0
220
0.0
230
1.0
 70
  1064
 71
     3
 72
    22
 73
    18
 74
    16
 42
0.000000001
 43
0.0000000001
 44
0.0
 40
0.0
 40
0.0
 40
0.0
 40
0.0
 40
1.29886283807082
 40
2.257202063181043
 40
3.602182531782427
 40
4.883495218012709
 40
6.099542425468296
 40
7.340568645545439
 40
8.250752728468438
 40
9.305417217386243
 40
10.46616364178207
 40
11.32218524872316
 40
12.23844686005656
 40
13.1243234628264
 40
14.13279722048555
 40
14.93797134988737
 40
15.67043281211805
 40
15.67043281211805
 40
15.67043281211805
 40
15.67043281211805
 10
674.5166689995069
 20
969.8061079183384
 30
0.0
 10
674.0834226531989
 20
969.7887352014811
 30
0.0
 10
673.3305144029295
 20
969.7585443828788
 30
0.0
 10
672.147687986131
 20
969.5358977820883
 30
0.0
 10
671.0011127207054
 20
969.1882351733652
 30
0.0
 10
669.8330216767256
 20
968.6537830056835
 30
0.0
 10
668.7706333190595
 20
967.9969091885309
 30
0.0
 10
667.8930705599133
 20
967.2922405162506
 30
0.0
 10
667.135090343257
 20
966.5370767029085
 30
0.0
 10
666.4710345601237
 20
965.7317621382251
 30
0.0
 10
665.9094694638183
 20
964.8727970961011
 30
0.0
 10
665.4592230522335
 20
964.0037117263807
 30
0.0
 10
665.1228672810622
 20
963.1825958765326
 30
0.0
 10
664.8471562422385
 20
962.2858787920624
 30
0.0
 10
664.6670498984638
 20
961.4028128140593
 30
0.0
 10
664.5689943009479
 20
960.5585051191886
 30
0.0
 10
664.5586365205097
 20
960.045839578496
 30
0.0
 10
664.553702532869
 20
959.8016284314502
 30
0.0
 11
674.5166689995069
 21
969.8061079183384
 31
0.0
 11
673.2208122650925
 21
969.7177903323537
 31
0.0
 11
672.2780383358713
 21
969.5457688547245
 31
0.0
 11
670.9916677775213
 21
969.1530561766384
 31
0.0
 11
669.8262112129287
 21
968.6206341673802
 31
0.0
 11
668.7919156985208
 21
967.9811002748958
 31
0.0
 11
667.8241604036134
 21
967.2041860144412
 31
0.0
 11
667.179360055226
 21
966.5617939413847
 31
0.0
 11
666.5084453592945
 21
965.7480429629107
 31
0.0
 11
665.8733467542488
 21
964.7764555897853
 31
0.0
 11
665.4796223136227
 21
964.0163542436454
 31
0.0
 11
665.1322716655313
 21
963.168484638297
 31
0.0
 11
664.8721818965087
 21
962.321648959204
 31
0.0
 11
664.6693028875275
 21
961.333792984073
 31
0.0
 11
664.5795914460541
 21
960.5336322277705
 31
0.0
 11
664.553702532869
 21
959.8016284314502
 31
0.0
  0
SPLINE
  5
3D77
330
A
100
AcDbEntity
  8
HIDDEN
 48
0.5
100
AcDbSpline
210
0.0
220
0.0
230
1.0
 70
  1064
 71
     3
 72
    22
 73
    18
 74
    16
 42
0.000000001
 43
0.0000000001
 44
0.0
 40
0.0
 40
0.0
 40
0.0
 40
0.0
 40
1.298862838070593
 40
2.257202063180817
 40
3.6021825317822
 40
4.883495218012482
 40
6.099542425468262
 40
7.340568645545405
 40
8.250752728468406
 40
9.305417217386065
 40
10.46616364178189
 40
11.32218524872309
 40
12.23844686005649
 40
13.12432346282626
 40
14.13279722048541
 40
14.93797134988725
 40
15.67043281211793
 40
15.67043281211793
 40
15.67043281211793
 40
15.67043281211793
 10
684.6044230869147
 20
969.8061079183384
 30
0.0
 10
685.0376694332225
 20
969.7887352014808
 30
0.0
 10
685.7905776834921
 20
969.7585443828784
 30
0.0
 10
686.9734041002902
 20
969.5358977820886
 30
0.0
 10
688.1199793657163
 20
969.1882351733655
 30
0.0
 10
689.2880704096955
 20
968.6537830056832
 30
0.0
 10
690.3504587673622
 20
967.9969091885314
 30
0.0
 10
691.2280215265081
 20
967.2922405162506
 30
0.0
 10
691.9860017431647
 20
966.5370767029087
 30
0.0
 10
692.6500575262975
 20
965.7317621382249
 30
0.0
 10
693.211622622603
 20
964.8727970961012
 30
0.0
 10
693.6618690341884
 20
964.0037117263809
 30
0.0
 10
693.9982248053597
 20
963.1825958765327
 30
0.0
 10
694.2739358441828
 20
962.2858787920625
 30
0.0
 10
694.4540421879576
 20
961.4028128140587
 30
0.0
 10
694.5520977854738
 20
960.5585051191887
 30
0.0
 10
694.5624555659117
 20
960.0458395784962
 30
0.0
 10
694.5673895535524
 20
959.8016284314502
 30
0.0
 11
684.6044230869147
 21
969.8061079183384
 31
0.0
 11
685.9002798213289
 21
969.7177903323537
 31
0.0
 11
686.8430537505501
 21
969.5457688547245
 31
0.0
 11
688.1294243089001
 21
969.1530561766384
 31
0.0
 11
689.2948808734927
 21
968.6206341673802
 31
0.0
 11
690.3291763879008
 21
967.9811002748958
 31
0.0
 11
691.2969316828082
 21
967.2041860144412
 31
0.0
 11
691.9417320311957
 21
966.5617939413847
 31
0.0
 11
692.612646727127
 21
965.7480429629107
 31
0.0
 11
693.2477453321726
 21
964.7764555897853
 31
0.0
 11
693.6414697727989
 21
964.0163542436454
 31
0.0
 11
693.9888204208903
 21
963.168484638297
 31
0.0
 11
694.2489101899127
 21
962.321648959204
 31
0.0
 11
694.451789198894
 21
961.333792984073
 31
0.0
 11
694.5415006403675
 21
960.5336322277705
 31
0.0
 11
694.5673895535524
 21
959.8016284314502
 31
0.0
  0
DIMENSION
  5
3D78
102
{ACAD_REACTORS
330
3D7A
102
}
102
{ACAD_XDICTIONARY
360
3D79
102
}
330
A
100
AcDbEntity
  8
DIM
100
AcDbDimension
  2
*D24
 10
679.5605460432107
 20
1083.129338299321
 30
0.0
 11
539.5794940808782
 21
1115.133839987455
 31
0.0
 70
    32
 71
     5
 42
279.9621039246649
 73
     0
 74
     0
 75
     0
  3
tfrom線あり
100
AcDbAlignedDimension
 13
399.5984421185458
 23
976.5585839261761
 33
0.0
 14
679.5605460432107
 24
976.5585839261761
 34
0.0
100
AcDbRotatedDimension
  0
DIMENSION
  5
3D87
330
A
100
AcDbEntity
  8
DIM
100
AcDbDimension
  2
*D25
 10
182.6295955501446
 20
1014.80162843145
 30
0.0
 11
150.6250938620116
 21
987.3961541189112
 31
0.0
 70
    32
 71
     5
 42
54.81094862507813
 73
     0
 74
     1
 75
     1
  3
tfrom線あり
100
AcDbAlignedDimension
 13
364.4921033993447
 23
959.9906798063721
 33
0.0
 14
258.5615992408624
 24
1014.80162843145
 34
0.0
 50
90.0
100
AcDbRotatedDimension
1001
ACAD
1000
DSTYLE
1002
{
1070
   172
1070
     1
1002
}
  0
SPLINE
  5
3D95
102
{ACAD_REACTORS
330
3F47
102
}
330
A
100
AcDbEntity
  8
HIDDEN
100
AcDbSpline
210
0.0
220
0.0
230
1.0
 70
    11
 71
     3
 72
    17
 73
    13
 74
     0
 42
0.000000001
 43
0.0000000001
 40
0.0
 40
0.0
 40
0.0
 40
0.0
 40
1.0
 40
1.0
 40
1.0
 40
2.0
 40
2.0
 40
2.0
 40
3.0
 40
3.0
 40
3.0
 40
4.0
 40
4.0
 40
4.0
 40
4.0
 10
1500.959372994941
 20
2212.741665267789
 30
0.0
 10
1500.959372994941
 20
2233.439812597626
 30
0.0
 10
1517.750779467245
 20
2250.217438678901
 30
0.0
 10
1538.466152285873
 20
2250.217438678901
 30
0.0
 10
1559.181525104493
 20
2250.217438678901
 30
0.0
 10
1575.979821772314
 20
2233.439812597626
 30
0.0
 10
1575.979821772314
 20
2212.741665267789
 30
0.0
 10
1575.979821772314
 20
2192.057298328986
 30
0.0
 10
1559.181525104493
 20
2175.286562443234
 30
0.0
 10
1538.466152285873
 20
2175.286562443234
 30
0.0
 10
1517.750779467245
 20
2175.286562443234
 30
0.0
 10
1500.959372994941
 20
2192.057298328986
 30
0.0
 10
1500.959372994941
 20
2212.741665267789
 30
0.0
  0
SPLINE
  5
3D98
102
{ACAD_REACTORS
330
3F47
102
}
330
A
100
AcDbEntity
  8
HIDDEN
100
AcDbSpline
210
0.0
220
0.0
230
1.0
 70
    11
 71
     3
 72
    17
 73
    13
 74
     0
 42
0.000000001
 43
0.0000000001
 40
0.0
 40
0.0
 40
0.0
 40
0.0
 40
1.0
 40
1.0
 40
1.0
 40
2.0
 40
2.0
 40
2.0
 40
3.0
 40
3.0
 40
3.0
 40
4.0
 40
4.0
 40
4.0
 40
4.0
 10
1515.435673773899
 20
2212.741665267789
 30
0.0
 10
1515.435673773899
 20
2225.454075994665
 30
0.0
 10
1525.743406265719
 20
2235.754918290975
 30
0.0
 10
1538.466152285873
 20
2235.754918290975
 30
0.0
 10
1551.188898306023
 20
2235.754918290975
 30
0.0
 10
1561.496630797846
 20
2225.454075994665
 30
0.0
 10
1561.496630797846
 20
2212.741665267789
 30
0.0
 10
1561.496630797846
 20
2200.043034931947
 30
0.0
 10
1551.188898306023
 20
2189.742192635636
 30
0.0
 10
1538.466152285873
 20
2189.742192635636
 30
0.0
 10
1525.743406265719
 20
2189.742192635636
 30
0.0
 10
1515.435673773899
 20
2200.043034931947
 30
0.0
 10
1515.435673773899
 20
2212.741665267789
 30
0.0
  0
LINE
  5
3D99
330
A
100
AcDbEntity
  8
HIDDEN
100
AcDbLine
 10
1263.463594424807
 20
2427.575268444202
 30
0.0
 11
1538.466152285873
 21
2427.612412431863
 31
0.0
  0
LINE
  5
3D9A
330
A
100
AcDbEntity
  8
HIDDEN
100
AcDbLine
 10
1813.468710146931
 20
2427.575268444201
 30
0.0
 11
1538.466152285873
 21
2427.612412431863
 31
0.0
  0
LINE
  5
3D9B
102
{ACAD_REACTORS
330
3C2E
330
3C3D
102
}
330
A
100
AcDbEntity
  8
HIDDEN
100
AcDbLine
 10
1813.468710146931
 20
2427.575268444201
 30
0.0
 11
1813.468710146931
 21
1972.817853663637
 31
0.0
  0
SPLINE
  5
3D9C
330
A
100
AcDbEntity
  8
HIDDEN
100
AcDbSpline
210
0.0
220
0.0
230
1.0
 70
  1064
 71
     3
 72
    18
 73
    14
 74
    12
 42
0.000000001
 43
0.0000000001
 44
0.0
 40
0.0
 40
0.0
 40
0.0
 40
0.0
 40
0.5977805798901442
 40
1.144561586291574
 40
1.845144077290291
 40
2.539112531327711
 40
3.163877912967008
 40
3.931444575032542
 40
4.744632360592905
 40
5.510004066104814
 40
6.437104505167488
 40
7.247515568245747
 40
7.931173406274732
 40
7.931173406274732
 40
7.931173406274732
 40
7.931173406274732
 10
1813.468710146931
 20
1972.817853663637
 30
0.0
 10
1813.464337728211
 20
1972.618410120907
 30
0.0
 10
1813.455965923112
 20
1972.23653853571
 30
0.0
 10
1813.356465387747
 20
1971.627961990052
 30
0.0
 10
1813.184950760024
 20
1971.002376189066
 30
0.0
 10
1812.919348080916
 20
1970.381447912789
 30
0.0
 10
1812.56510625489
 20
1969.781105126107
 30
0.0
 10
1812.105488483548
 20
1969.203465645701
 30
0.0
 10
1811.525063749257
 20
1968.674139443344
 30
0.0
 10
1810.824347167958
 20
1968.213556780847
 30
0.0
 10
1810.055806758783
 20
1967.878319449037
 30
0.0
 10
1809.270489658863
 20
1967.674705835832
 30
0.0
 10
1808.77367672964
 20
1967.632152632706
 30
0.0
 10
1808.546344474183
 20
1967.61268108703
 30
0.0
 11
1813.468710146931
 21
1972.817853663637
 31
0.0
 11
1813.44104048824
 21
1972.220713804239
 31
0.0
 11
1813.356508606997
 21
1971.680506593981
 31
0.0
 11
1813.16916838297
 21
1971.005436621937
 31
0.0
 11
1812.896272262863
 21
1970.367377124061
 31
0.0
 11
1812.578531801227
 21
1969.82944331667
 31
0.0
 11
1812.100459054298
 21
1969.228939337201
 31
0.0
 11
1811.499721647389
 21
1968.680861840377
 31
0.0
 11
1810.860088609591
 21
1968.260548356706
 31
0.0
 11
1810.011421628925
 21
1967.887346561376
 31
0.0
 11
1809.225785750582
 21
1967.688493958125
 31
0.0
 11
1808.546344474183
 21
1967.61268108703
 31
0.0
  0
LINE
  5
3D9D
330
A
100
AcDbEntity
  8
HIDDEN
100
AcDbLine
 10
1268.385960097555
 20
1967.612681087031
 30
0.0
 11
1808.546344474183
 21
1967.61268108703
 31
0.0
  0
SPLINE
  5
3D9E
330
A
100
AcDbEntity
  8
HIDDEN
100
AcDbSpline
210
0.0
220
0.0
230
1.0
 70
  1064
 71
     3
 72
    18
 73
    14
 74
    12
 42
0.000000001
 43
0.0000000001
 44
0.0
 40
0.0
 40
0.0
 40
0.0
 40
0.0
 40
0.5977805798904134
 40
1.14456158629211
 40
1.845144077289672
 40
2.539112531328553
 40
3.163877912968313
 40
3.931444575031829
 40
4.744632360594529
 40
5.510004066105678
 40
6.437104505169184
 40
7.247515568243475
 40
7.93117340627246
 40
7.93117340627246
 40
7.93117340627246
 40
7.93117340627246
 10
1263.463594424807
 20
1972.817853663638
 30
0.0
 10
1263.467966843527
 20
1972.618410120908
 30
0.0
 10
1263.476338648626
 20
1972.236538535712
 30
0.0
 10
1263.575839183998
 20
1971.627961990054
 30
0.0
 10
1263.747353811711
 20
1971.002376189065
 30
0.0
 10
1264.012956490826
 20
1970.38144791279
 30
0.0
 10
1264.367198316852
 20
1969.781105126109
 30
0.0
 10
1264.82681608819
 20
1969.2034656457
 30
0.0
 10
1265.407240822485
 20
1968.674139443346
 30
0.0
 10
1266.107957403783
 20
1968.213556780849
 30
0.0
 10
1266.876497812958
 20
1967.878319449038
 30
0.0
 10
1267.661814912876
 20
1967.674705835832
 30
0.0
 10
1268.158627842098
 20
1967.632152632706
 30
0.0
 10
1268.385960097555
 20
1967.612681087031
 30
0.0
 11
1263.463594424807
 21
1972.817853663638
 31
0.0
 11
1263.491264083499
 21
1972.22071380424
 31
0.0
 11
1263.575795964745
 21
1971.680506593982
 31
0.0
 11
1263.763136188768
 21
1971.005436621938
 31
0.0
 11
1264.036032308878
 21
1970.367377124062
 31
0.0
 11
1264.353772770515
 21
1969.829443316671
 31
0.0
 11
1264.831845517441
 21
1969.228939337202
 31
0.0
 11
1265.432582924353
 21
1968.680861840378
 31
0.0
 11
1266.07221596215
 21
1968.260548356707
 31
0.0
 11
1266.920882942817
 21
1967.887346561377
 31
0.0
 11
1267.706518821156
 21
1967.688493958126
 31
0.0
 11
1268.385960097555
 21
1967.612681087031
 31
0.0
  0
LINE
  5
3D9F
102
{ACAD_REACTORS
330
3C2E
102
}
330
A
100
AcDbEntity
  8
HIDDEN
100
AcDbLine
 10
1263.463594424807
 20
2427.575268444202
 30
0.0
 11
1263.463594424807
 21
1972.817853663638
 31
0.0
  0
CIRCLE
  5
3DA0
102
{ACAD_REACTORS
330
3F47
102
}
330
A
100
AcDbEntity
  8
HIDDEN
 48
0.5
100
AcDbCircle
 10
1638.466152285873
 20
2362.612412431863
 30
0.0
 40
17.5
  0
CIRCLE
  5
3DA1
102
{ACAD_REACTORS
330
3F47
102
}
330
A
100
AcDbEntity
  8
HIDDEN
100
AcDbCircle
 10
1538.466152285873
 20
2362.612412431863
 30
0.0
 40
17.5
  0
CIRCLE
  5
3DA2
102
{ACAD_REACTORS
330
3F47
102
}
330
A
100
AcDbEntity
  8
HIDDEN
 48
0.5
100
AcDbCircle
 10
1438.466152285873
 20
2362.612412431863
 30
0.0
 40
17.5
  0
LINE
  5
3DB0
102
{ACAD_REACTORS
330
3F04
102
}
330
A
100
AcDbEntity
  8
DIM
100
AcDbLine
 10
1308.466152285873
 20
2427.612412431863
 30
0.0
 11
1388.466152285873
 21
2427.612412431863
 31
0.0
  0
LINE
  5
3DB4
102
{ACAD_REACTORS
330
3DB9
330
3F04
102
}
330
A
100
AcDbEntity
  8
DIM
100
AcDbLine
 10
1688.466152285873
 20
2427.612412431863
 30
0.0
 11
1768.466152285873
 21
2427.612412431863
 31
0.0
  0
LINE
  5
3DB5
102
{ACAD_REACTORS
330
3DB9
330
3DDC
330
3F04
330
3F4E
102
}
330
A
100
AcDbEntity
  8
DIM
100
AcDbLine
 10
1768.466152285873
 20
2427.612412431863
 30
0.0
 11
1768.466152285873
 21
2027.612412431863
 31
0.0
  0
LINE
  5
3DB6
102
{ACAD_REACTORS
330
3DB9
330
3DBE
330
3DDC
330
3F04
330
3F4E
102
}
330
A
100
AcDbEntity
  8
DIM
100
AcDbLine
 10
1768.466152285873
 20
2027.612412431863
 30
0.0
 11
1308.466152285873
 21
2027.612412431863
 31
0.0
  0
LINE
  5
3DB7
102
{ACAD_REACTORS
330
3DB9
330
3DBE
330
3F04
330
3F4E
102
}
330
A
100
AcDbEntity
  8
DIM
100
AcDbLine
 10
1308.466152285873
 20
2027.612412431863
 30
0.0
 11
1308.466152285873
 21
2427.612412431863
 31
0.0
  0
DIMENSION
  5
3DBC
102
{ACAD_REACTORS
330
3DBE
102
}
102
{ACAD_XDICTIONARY
360
3DBD
102
}
330
A
100
AcDbEntity
  8
DIM
100
AcDbDimension
  2
*D26
 10
1768.466152285873
 20
1840.00386926208
 30
0.0
 11
1538.466152285873
 21
1840.00386926208
 31
0.0
 70
   160
 71
     5
 42
460.0
 73
     0
 74
     0
 75
     0
  3
tfrom線あり
100
AcDbAlignedDimension
 13
1308.466152285873
 23
2017.612412431863
 33
0.0
 14
1768.466152285873
 24
2027.612412431863
 34
0.0
100
AcDbRotatedDimension
  0
DIMENSION
  5
3DDA
102
{ACAD_REACTORS
330
3DDC
102
}
102
{ACAD_XDICTIONARY
360
3DDB
102
}
330
A
100
AcDbEntity
  8
DIM
100
AcDbDimension
  2
*D28
 10
1952.54928371908
 20
2027.612412431863
 30
0.0
 11
1952.54928371908
 21
2227.612412431863
 31
0.0
 70
   160
 71
     5
 42
400.0
 73
     0
 74
     0
 75
     0
  3
tfrom線あり
100
AcDbAlignedDimension
 13
1768.466152285873
 23
2427.612412431863
 33
0.0
 14
1768.466152285873
 24
2027.612412431863
 34
0.0
 50
90.0
100
AcDbRotatedDimension
  0
MTEXT
  5
3E30
330
A
100
AcDbEntity
  8
DIM
390
1D
100
AcDbMText
 10
1413.268453012049
 20
2576.184202409639
 30
0.0
 40
24.4326171875
 41
0.0
 46
27.16112215023749
 71
     1
 72
     1
  1
{カウンター切込寸法}
  7
ＭＳ ゴシック
 73
     1
 44
0.7828267384257843
1001
ACAD
1000
ACAD_MTEXT_DEFINED_HEIGHT_BEGIN
1070
    46
1040
27.16112215023749
1000
ACAD_MTEXT_DEFINED_HEIGHT_END
  0
MTEXT
  5
3E55
330
A
100
AcDbEntity
  8
DIM
390
1D
100
AcDbMText
 10
647.6653391397504
 20
1194.663136852449
 30
34.99521132346014
 40
24.0
 41
1169.771715461011
 46
26.80905339502313
 71
     1
 72
     1
  1
{壁取付ボルト穴(2ヶ所)}
  7
ＭＳ ゴシック
 73
     1
 44
1.174240107638677
1001
ACAD
1000
ACAD_MTEXT_DEFINED_HEIGHT_BEGIN
1070
    46
1040
26.80905339502313
1000
ACAD_MTEXT_DEFINED_HEIGHT_END
  0
MTEXT
  5
3E56
330
A
100
AcDbEntity
  8
DIM
390
1D
100
AcDbMText
 10
181.8451732048186
 20
1746.467421410909
 30
34.99521132346015
 40
24.4326171875
 41
833.929798641839
 46
0.0
 71
     1
 72
     1
  1
＝φ30もしくはφ35の水栓取付用穴あけ加工を承ります。\P  必要な場合、ご注文の際にご指示ください。
  7
ＭＳ ゴシック
 73
     1
 44
0.9822934569727008
  0
MTEXT
  5
3E57
330
A
100
AcDbEntity
  8
DIM
390
1D
100
AcDbMText
 10
1312.110014457831
 20
1745.964374053006
 30
34.99521132346014
 40
24.0
 41
1169.771715461011
 46
113.3803926472427
 71
     1
 72
     1
  1
{※陶器製品には寸法公差があります。\P　必ず現物を合わせてカウンターに\P  切込を行ってください。}
  7
ＭＳ ゴシック
 73
     1
 44
1.0
1001
ACAD
1000
ACAD_MTEXT_DEFINED_HEIGHT_BEGIN
1070
    46
1040
113.3803926472427
1000
ACAD_MTEXT_DEFINED_HEIGHT_END
  0
CIRCLE
  5
3E7D
330
A
100
AcDbEntity
  8
HIDDEN
 48
0.5
100
AcDbCircle
 10
152.3458855325301
 20
1731.72128428723
 30
0.0
 40
17.5
  0
LINE
  5
3E7E
330
A
100
AcDbEntity
  8
DIM
100
AcDbLine
 10
740.047788063509
 20
1142.980147290617
 30
0.0
 11
679.5794940808782
 21
959.8016284314502
 31
0.0
  0
MTEXT
  5
3EA7
330
A
100
AcDbEntity
  8
TEMPLATE
 62
     1
390
1D
100
AcDbMText
 10
133.687400147276
 20
234.4340027873706
 30
0.0
 40
24.4326171875
 41
0.0
 46
111.8649296953154
 71
     1
 72
     1
  1
{\C256;壁掛け,半埋め込み/オーバーフロー付き/\Pカウンター固定金具,壁取付ボルト,型紙付属/\P陶器/ホワイト}
  7
ＭＳ ゴシック
 73
     1
 44
0.9822934569727008
1001
ACAD
1000
ACAD_MTEXT_DEFINED_HEIGHT_BEGIN
1070
    46
1040
111.8649296953154
1000
ACAD_MTEXT_DEFINED_HEIGHT_END
  0
CIRCLE
  5
3EA8
102
{ACAD_REACTORS
330
3F25
330
3F34
102
}
330
A
100
AcDbEntity
  8
HIDDEN
 48
0.5
100
AcDbCircle
 10
540.0613150856473
 20
2362.800161404109
 30
0.0
 40
17.5
  0
LINE
  5
3EAF
330
A
100
AcDbEntity
  8
MODEL
100
AcDbLine
 10
695.2467421438155
 20
1967.61268108703
 30
0.0
 11
810.1415072739613
 21
1967.61268108703
 31
0.0
  0
SPLINE
  5
3EB0
330
A
100
AcDbEntity
  8
MODEL
100
AcDbSpline
210
0.0
220
0.0
230
1.0
 70
     8
 71
     3
 72
    44
 73
    40
 74
     0
 42
0.000000001
 43
0.0000000001
 40
12.2913618224191
 40
12.2913618224191
 40
12.2913618224191
 40
12.2913618224191
 40
13.0
 40
13.0
 40
13.0
 40
14.0
 40
14.0
 40
14.0
 40
15.0
 40
15.0
 40
15.0
 40
16.0
 40
16.0
 40
16.0
 40
17.0
 40
17.0
 40
17.0
 40
18.0
 40
18.0
 40
18.0
 40
19.0
 40
19.0
 40
19.0
 40
20.0
 40
20.0
 40
20.0
 40
21.0
 40
21.0
 40
21.0
 40
22.0
 40
22.0
 40
22.0
 40
23.0
 40
23.0
 40
23.0
 40
24.0
 40
24.0
 40
24.0
 40
25.0
 40
25.0
 40
25.0
 40
25.0
 10
695.2467421438158
 20
2302.38999912547
 30
0.0
 10
566.0256075696866
 20
2302.38999912547
 30
0.0
 10
344.2718899733984
 20
2302.389999125469
 30
0.0
 10
344.2718899733984
 20
2302.389999125469
 30
0.0
 10
341.3573372701642
 20
2302.389999125469
 30
0.0
 10
338.4565649579592
 20
2302.293536388246
 30
0.0
 10
335.5661279390326
 20
2301.983477590034
 30
0.0
 10
332.4896556411688
 20
2301.652748205259
 30
0.0
 10
329.3856225612465
 20
2301.211775692249
 30
0.0
 10
326.3918326095802
 20
2300.398732621365
 30
0.0
 10
323.3808171691192
 20
2299.585689550488
 30
0.0
 10
320.4111429017569
 20
2298.67618374238
 30
0.0
 10
317.5241509805849
 20
2297.449728940552
 30
0.0
 10
314.7646276764565
 20
2296.285285898357
 30
0.0
 10
312.0430004476686
 20
2294.941697772756
 30
0.0
 10
309.5246339865982
 20
2293.329392022028
 30
0.0
 10
306.8202322465979
 20
2291.613733338567
 30
0.0
 10
304.2260736348537
 20
2289.767160940301
 30
0.0
 10
301.7834993244571
 20
2287.679431698973
 30
0.0
 10
299.4477230445621
 20
2285.681274999351
 30
0.0
 10
297.2876467503186
 20
2283.497083020808
 30
0.0
 10
295.2722645619099
 20
2281.188867522967
 30
0.0
 10
293.2120961026478
 20
2278.832420656527
 30
0.0
 10
291.4103099752349
 20
2276.303718902182
 30
0.0
 10
289.6912061940122
 20
2273.699224997163
 30
0.0
 10
287.9962180970972
 20
2271.163633047308
 30
0.0
 10
286.6147338961521
 20
2268.421335231968
 30
0.0
 10
285.3159320414009
 20
2265.665257025594
 30
0.0
 10
284.0309105776826
 20
2262.92295921026
 30
0.0
 10
283.0146067390845
 20
2260.042857484605
 30
0.0
 10
282.1119911264971
 20
2257.155865563433
 30
0.0
 10
281.5538852897073
 20
2255.205940232427
 30
0.0
 10
280.9888892574011
 20
2253.269795292454
 30
0.0
 10
280.4962402780141
 20
2251.299199374898
 30
0.0
 10
279.8692324860633
 20
2248.763607425037
 30
0.0
 10
279.3317972358229
 20
2246.207344888626
 30
0.0
 10
278.9080502115933
 20
2243.623521570156
 30
0.0
 10
278.6496678797478
 20
2242.018106014952
 30
0.0
 10
278.4911933828801
 20
2240.371349286648
 30
0.0
 10
278.194914975694
 20
2238.765933731429
 30
0.0
  0
SPLINE
  5
3EB1
330
A
100
AcDbEntity
  8
MODEL
100
AcDbSpline
210
0.0
220
0.0
230
1.0
 70
     8
 71
     3
 72
    83
 73
    79
 74
     0
 42
0.000000001
 43
0.0000000001
 40
24.29510380038345
 40
24.29510380038345
 40
24.29510380038345
 40
24.29510380038345
 40
25.0
 40
25.0
 40
25.0
 40
26.0
 40
26.0
 40
26.0
 40
27.0
 40
27.0
 40
27.0
 40
28.0
 40
28.0
 40
28.0
 40
29.0
 40
29.0
 40
29.0
 40
30.0
 40
30.0
 40
30.0
 40
31.0
 40
31.0
 40
31.0
 40
32.0
 40
32.0
 40
32.0
 40
33.0
 40
33.0
 40
33.0
 40
34.0
 40
34.0
 40
34.0
 40
35.0
 40
35.0
 40
35.0
 40
36.0
 40
36.0
 40
36.0
 40
37.0
 40
37.0
 40
37.0
 40
38.0
 40
38.0
 40
38.0
 40
39.0
 40
39.0
 40
39.0
 40
40.0
 40
40.0
 40
40.0
 40
41.0
 40
41.0
 40
41.0
 40
42.0
 40
42.0
 40
42.0
 40
43.0
 40
43.0
 40
43.0
 40
44.0
 40
44.0
 40
44.0
 40
45.0
 40
45.0
 40
45.0
 40
46.0
 40
46.0
 40
46.0
 40
47.0
 40
47.0
 40
47.0
 40
48.0
 40
48.0
 40
48.0
 40
49.0
 40
49.0
 40
49.0
 40
50.0
 40
50.0
 40
50.0
 40
50.0
 10
695.2467421438147
 20
2416.519197651225
 30
0.0
 10
563.6572893994098
 20
2416.519197651225
 30
0.0
 10
340.7027686961512
 20
2416.519197651225
 30
0.0
 10
340.7027686961512
 20
2416.519197651225
 30
0.0
 10
337.881233632382
 20
2416.519197651225
 30
0.0
 10
335.0562534708508
 20
2416.519197651225
 30
0.0
 10
332.241608602598
 20
2416.519197651225
 30
0.0
 10
329.2719343352358
 20
2416.519197651225
 30
0.0
 10
326.2643639925329
 20
2416.243589830581
 30
0.0
 10
323.3532563870569
 20
2415.719934971374
 30
0.0
 10
320.4042527062404
 20
2415.18938991665
 30
0.0
 10
317.4690294164568
 20
2414.459029191963
 30
0.0
 10
314.6612747437168
 20
2413.439280255607
 30
0.0
 10
311.619253423439
 20
2412.329958777544
 30
0.0
 10
308.7253713067505
 20
2411.007041238485
 30
0.0
 10
305.8900558519483
 20
2409.449857051888
 30
0.0
 10
303.2580011648636
 20
2408.02358658009
 30
0.0
 10
300.7465248993096
 20
2406.294147505596
 30
0.0
 10
298.4038584238981
 20
2404.42690452078
 30
0.0
 10
295.9922899933256
 20
2402.518320362866
 30
0.0
 10
293.6840744954891
 20
2400.451261708095
 30
0.0
 10
291.6170158407142
 20
2398.163716796804
 30
0.0
 10
289.4845003285366
 20
2395.827940516905
 30
0.0
 10
287.5311298997688
 20
2393.381921108758
 30
0.0
 10
285.7396790656305
 20
2390.784317399248
 30
0.0
 10
284.0240203821661
 20
2388.296956818001
 30
0.0
 10
282.4875067821151
 20
2385.664902130917
 30
0.0
 10
281.174924536331
 20
2382.950165097642
 30
0.0
 10
279.8210011174517
 20
2380.166526109209
 30
0.0
 10
278.6393325864694
 20
2377.307094970103
 30
0.0
 10
277.6540346276954
 20
2374.3649814848
 30
0.0
 10
276.6790719621924
 20
2371.450428781569
 30
0.0
 10
275.9245955531981
 20
2368.460083927657
 30
0.0
 10
275.3595995208918
 20
2365.442178291687
 30
0.0
 10
274.8014936841021
 20
2362.451833437775
 30
0.0
 10
274.4294231262422
 20
2359.413257215248
 30
0.0
 10
274.2743937271327
 20
2356.374680992729
 30
0.0
 10
274.1124741325104
 20
2353.349885161242
 30
0.0
 10
274.160705501122
 20
2350.318199134232
 30
0.0
 10
274.1538153056056
 20
2347.300293498261
 30
0.0
 10
274.1538153056056
 20
2347.300293498261
 30
0.0
 10
274.1538153056056
 20
2044.276384903464
 30
0.0
 10
274.1538153056056
 20
2044.276384903464
 30
0.0
 10
274.1744858921513
 20
2041.23091848542
 30
0.0
 10
274.1951564787007
 20
2038.185452067391
 30
0.0
 10
274.4707642993374
 20
2035.146875844865
 30
0.0
 10
274.746372119974
 20
2032.101409426828
 30
0.0
 10
275.1907897307531
 20
2029.049052813276
 30
0.0
 10
275.8625837935535
 20
2026.058707959364
 30
0.0
 10
276.5309327585994
 20
2023.05458271442
 30
0.0
 10
277.3715366115423
 20
2020.078018251541
 30
0.0
 10
278.436071818752
 20
2017.191026330369
 30
0.0
 10
279.5074972214782
 20
2014.283363822648
 30
0.0
 10
280.7373971210684
 20
2011.437713074574
 30
0.0
 10
282.1981185704456
 20
2008.695415259233
 30
0.0
 10
283.6588400198227
 20
2005.980678225966
 30
0.0
 10
285.2608104772728
 20
2003.348623538881
 30
0.0
 10
287.0867122889933
 20
2000.854372762111
 30
0.0
 10
288.9195042962303
 20
1998.353231789832
 30
0.0
 10
290.903880604815
 20
1995.962333945808
 30
0.0
 10
293.0984078766371
 20
1993.750581185199
 30
0.0
 10
295.2653743663934
 20
1991.573279402164
 30
0.0
 10
297.5701447664717
 20
1989.526891333935
 30
0.0
 10
300.0540602499634
 20
1987.694099326702
 30
0.0
 10
302.5586463200009
 20
1985.861307319468
 30
0.0
 10
305.1769206160527
 20
1984.180099613583
 30
0.0
 10
307.9433341156939
 20
1982.774499728333
 30
0.0
 10
310.6890770287894
 20
1981.368899843084
 30
0.0
 10
313.5243924835916
 20
1980.156225432282
 30
0.0
 10
316.4665059688916
 20
1979.219158842116
 30
0.0
 10
319.422399845221
 20
1978.28209225195
 30
0.0
 10
322.433415285682
 20
1977.551731527263
 30
0.0
 10
325.5098875835422
 20
1977.131429600788
 30
0.0
 10
328.5587990993365
 20
1976.704237478803
 30
0.0
 10
331.5939302241015
 20
1976.573323763998
 30
0.0
 10
334.6704025219581
 20
1976.545762981939
 30
0.0
 10
334.6704025219581
 20
1976.545762981939
 30
0.0
 10
695.2467421438154
 20
1976.545762981939
 30
0.0
 10
695.2467421438154
 20
1976.545762981939
 30
0.0
  0
LINE
  5
3EB3
330
A
100
AcDbEntity
  8
MODEL
100
AcDbLine
 10
745.4453374538201
 20
1976.545762981939
 30
0.0
 11
695.2467421438156
 21
1976.59278050008
 31
0.0
  0
LINE
  5
3EBE
330
A
100
AcDbEntity
  8
MODEL
100
AcDbLine
 10
539.5794940808782
 20
1014.80162843145
 30
0.0
 11
810.1103150521058
 21
1014.80162843145
 31
0.0
  0
SPLINE
  5
3EBF
330
A
100
AcDbEntity
  8
MODEL
100
AcDbSpline
210
0.0
220
0.0
230
1.0
 70
     8
 71
     3
 72
    26
 73
    22
 74
     0
 42
0.000000001
 43
0.0000000001
 40
6.541321344788195
 40
6.541321344788195
 40
6.541321344788195
 40
6.541321344788195
 40
7.0
 40
7.0
 40
7.0
 40
8.0
 40
8.0
 40
8.0
 40
9.0
 40
9.0
 40
9.0
 40
10.0
 40
10.0
 40
10.0
 40
11.0
 40
11.0
 40
11.0
 40
12.0
 40
12.0
 40
12.0
 40
13.0
 40
13.0
 40
13.0
 40
13.0
 10
540.971647896783
 20
874.6963928106626
 30
0.0
 10
454.0190196478949
 20
874.6963928106627
 30
0.0
 10
373.7038528010099
 20
874.6963928106627
 30
0.0
 10
373.7038528010099
 20
874.6963928106627
 30
0.0
 10
373.7038528010099
 20
874.6963928106627
 30
0.0
 10
373.7038528010099
 20
874.7997457434024
 30
0.0
 10
373.7038528010099
 20
874.7997457434024
 30
0.0
 10
365.1324495792042
 20
874.8824280895926
 30
0.0
 10
357.0364698479944
 20
878.5066709309679
 30
0.0
 10
351.2797114944379
 20
884.8525410011346
 30
0.0
 10
351.2797114944379
 20
884.8525410011346
 30
0.0
 10
325.8307743563756
 20
913.4330720011851
 30
0.0
 10
325.8307743563756
 20
913.4330720011851
 30
0.0
 10
322.733631471966
 20
916.9470717143042
 30
0.0
 10
320.4839826360194
 20
921.1225301969528
 30
0.0
 10
319.2403023453963
 20
925.6356082598861
 30
0.0
 10
319.2403023453963
 20
925.6356082598861
 30
0.0
 10
317.083671148911
 20
933.7109174045393
 30
0.0
 10
317.083671148911
 20
933.7109174045393
 30
0.0
 10
317.083671148911
 20
933.7109174045393
 30
0.0
 10
316.8080633282744
 20
934.7375565364193
 30
0.0
 10
316.8080633282744
 20
934.7375565364193
 30
0.0
  0
LINE
  5
3EC0
330
A
100
AcDbEntity
  8
MODEL
100
AcDbLine
 10
539.5794940808782
 20
934.7375565364194
 30
0.0
 11
804.3286895097926
 21
934.7375565364194
 31
0.0
  0
SPLINE
  5
3EEC
330
A
100
AcDbEntity
  8
HIDDEN
 48
0.7
100
AcDbSpline
210
0.0
220
0.0
230
1.0
 70
     8
 71
     3
 72
   107
 73
   103
 74
     0
 42
0.000000001
 43
0.0000000001
 40
0.0
 40
0.0
 40
0.0
 40
0.0
 40
1.0
 40
1.0
 40
1.0
 40
2.0
 40
2.0
 40
2.0
 40
3.0
 40
3.0
 40
3.0
 40
4.0
 40
4.0
 40
4.0
 40
5.0
 40
5.0
 40
5.0
 40
6.0
 40
6.0
 40
6.0
 40
7.0
 40
7.0
 40
7.0
 40
8.0
 40
8.0
 40
8.0
 40
9.0
 40
9.0
 40
9.0
 40
10.0
 40
10.0
 40
10.0
 40
11.0
 40
11.0
 40
11.0
 40
12.0
 40
12.0
 40
12.0
 40
13.0
 40
13.0
 40
13.0
 40
14.0
 40
14.0
 40
14.0
 40
15.0
 40
15.0
 40
15.0
 40
16.0
 40
16.0
 40
16.0
 40
17.0
 40
17.0
 40
17.0
 40
18.0
 40
18.0
 40
18.0
 40
19.0
 40
19.0
 40
19.0
 40
20.0
 40
20.0
 40
20.0
 40
21.0
 40
21.0
 40
21.0
 40
22.0
 40
22.0
 40
22.0
 40
23.0
 40
23.0
 40
23.0
 40
24.0
 40
24.0
 40
24.0
 40
25.0
 40
25.0
 40
25.0
 40
26.0
 40
26.0
 40
26.0
 40
27.0
 40
27.0
 40
27.0
 40
28.0
 40
28.0
 40
28.0
 40
29.0
 40
29.0
 40
29.0
 40
30.0
 40
30.0
 40
30.0
 40
31.0
 40
31.0
 40
31.0
 40
32.0
 40
32.0
 40
32.0
 40
33.0
 40
33.0
 40
33.0
 40
34.0
 40
34.0
 40
34.0
 40
34.0
 10
270.4626496724992
 20
1011.466843576079
 30
0.0
 10
270.5591124097242
 20
1011.177455364416
 30
0.0
 10
270.6417947559127
 20
1010.888067152739
 30
0.0
 10
270.7451476886541
 20
1010.605569136594
 30
0.0
 10
271.7717868205251
 20
1007.546322327517
 30
0.0
 10
272.8535475165241
 20
1004.528416691547
 30
0.0
 10
274.1557944690336
 20
1001.57252281521
 30
0.0
 10
274.8517042161435
 20
1000.029119019647
 30
0.0
 10
275.5751747453156
 20
998.5408367882072
 30
0.0
 10
276.3262060565518
 20
997.0525545567679
 30
0.0
 10
277.0496765857221
 20
995.6125036939437
 30
0.0
 10
277.8558294610863
 20
994.2344645907605
 30
0.0
 10
278.6413117498993
 20
992.8288647055041
 30
0.0
 10
279.3647822790714
 20
991.5541785350605
 30
0.0
 10
280.1984959364996
 20
990.3208335377084
 30
0.0
 10
280.9839782253144
 20
989.0874885403636
 30
0.0
 10
281.3973899562676
 20
988.4398101618671
 30
0.0
 10
281.8659232513525
 20
987.8265827609456
 30
0.0
 10
282.3137859598879
 20
987.206465164515
 30
0.0
 10
282.6720761267167
 20
986.6828103053075
 30
0.0
 10
283.0234760980289
 20
986.1453750550598
 30
0.0
 10
283.4093270469199
 20
985.6423907824018
 30
0.0
 10
285.3799229644734
 20
983.1205792235731
 30
0.0
 10
287.3574090775452
 20
980.6469990333525
 30
0.0
 10
289.5553814471238
 20
978.3181129489702
 30
0.0
 10
291.7946949897974
 20
975.9203249094306
 30
0.0
 10
294.1511418562437
 20
973.694791757788
 30
0.0
 10
296.5971612643967
 20
971.496819388204
 30
0.0
 10
297.7133729379763
 20
970.4977410384043
 30
0.0
 10
298.8778159801674
 20
969.5744548392639
 30
0.0
 10
300.0215884358109
 20
968.6236078580722
 30
0.0
 10
301.0895687407789
 20
967.7347726365141
 30
0.0
 10
302.2195608053895
 20
966.8734981970218
 30
0.0
 10
303.349552870002
 20
966.0673453216613
 30
0.0
 10
305.9195957974404
 20
964.206992532362
 30
0.0
 10
308.5103093114282
 20
962.3742005251287
 30
0.0
 10
311.1974855626373
 20
960.67921242821
 30
0.0
 10
314.0017951376191
 20
958.9222125716504
 30
0.0
 10
316.8405556901795
 20
957.2616754523141
 30
0.0
 10
319.7137672203186
 20
955.6562598971021
 30
0.0
 10
322.3320415163704
 20
954.1886482522121
 30
0.0
 10
325.0192177675796
 20
952.8243895400545
 30
0.0
 10
327.713284214307
 20
951.501472001003
 30
0.0
 10
330.4004604655162
 20
950.1854446574606
 30
0.0
 10
333.1151974987912
 20
948.9176486825262
 30
0.0
 10
335.850605118612
 20
947.7325350537893
 30
0.0
 10
338.7996087994267
 20
946.4509586878293
 30
0.0
 10
341.7486124802414
 20
945.1900529084113
 30
0.0
 10
344.7389573341512
 20
944.0118294751909
 30
0.0
 10
347.7499727746105
 20
942.8198256509376
 30
0.0
 10
350.7678784105861
 20
941.6691629997757
 30
0.0
 10
353.8064546331094
 20
940.5529513261962
 30
0.0
 10
356.7830190959882
 20
939.457410239166
 30
0.0
 10
359.7940345364456
 20
938.4307711072933
 30
0.0
 10
362.7981597813883
 20
937.4110221709369
 30
0.0
 10
365.7333830711719
 20
936.4119438211227
 30
0.0
 10
368.6823867519867
 20
935.4817674264804
 30
0.0
 10
371.6313904328032
 20
934.5447008363143
 30
0.0
 10
374.4977117674258
 20
933.6420852237305
 30
0.0
 10
377.3571429065356
 20
932.8014813707804
 30
0.0
 10
380.2372446321893
 20
931.9608775178375
 30
0.0
 10
383.3033816367766
 20
931.0651521007702
 30
0.0
 10
386.383299032395
 20
930.1900972702523
 30
0.0
 10
389.4632164280116
 20
929.3357130262765
 30
0.0
 10
392.5224632370824
 20
928.4882189778172
 30
0.0
 10
395.6092708282155
 20
927.6751759069401
 30
0.0
 10
398.6960784193503
 20
926.8690230315796
 30
0.0
 10
401.762215423934
 20
926.0628701562117
 30
0.0
 10
404.8559132105853
 20
925.2980584539426
 30
0.0
 10
407.9358306062019
 20
924.54013694719
 30
0.0
 10
410.6850186170574
 20
923.8580075911112
 30
0.0
 10
413.4479870189422
 20
923.1896586260654
 30
0.0
 10
416.210955420827
 20
922.5488704430926
 30
0.0
 10
419.2702022298978
 20
921.8460705004644
 30
0.0
 10
422.3225588434503
 20
921.136380362327
 30
0.0
 10
425.4024762390687
 20
920.4680313972812
 30
0.0
 10
428.4892838302018
 20
919.7927922367188
 30
0.0
 10
431.5623110303037
 20
919.1244432716729
 30
0.0
 10
434.6628990124678
 20
918.4836550886929
 30
0.0
 10
437.7497066036027
 20
917.8428669057129
 30
0.0
 10
440.8365141947357
 20
917.2089689182493
 30
0.0
 10
443.9508825679346
 20
916.6026317128516
 30
0.0
 10
447.3132979797061
 20
915.9342827478057
 30
0.0
 10
450.6894937825069
 20
915.3072749558513
 30
0.0
 10
454.0656895853077
 20
914.6664867728786
 30
0.0
 10
457.1524971764426
 20
914.0877103495321
 30
0.0
 10
460.2255243765445
 20
913.5640554903247
 30
0.0
 10
463.3123319676794
 20
913.0266202400843
 30
0.0
 10
466.3784689722648
 20
912.4822947943275
 30
0.0
 10
469.4721667589143
 20
911.9999811082115
 30
0.0
 10
472.5451939590181
 20
911.4832164445132
 30
0.0
 10
475.6044407680853
 20
910.9871223673643
 30
0.0
 10
478.677467968189
 20
910.5461498543544
 30
0.0
 10
481.750495168291
 20
910.0845067547806
 30
0.0
 10
484.4101106374361
 20
909.6779852193457
 30
0.0
 10
487.0697261065831
 20
909.3059146614859
 30
0.0
 10
489.7293415757282
 20
908.9682950812011
 30
0.0
 10
492.0306668780464
 20
908.6720166740223
 30
0.0
 10
494.3457725713976
 20
908.3826284623455
 30
0.0
 10
496.6470978737176
 20
908.0863500551667
 30
0.0
 10
496.6470978737176
 20
908.0863500551667
 30
0.0
 10
503.4132698703521
 20
902.209013280083
 30
0.0
 10
503.4132698703521
 20
902.209013280083
 30
0.0
  0
SPLINE
  5
3EED
330
A
100
AcDbEntity
  8
HIDDEN
 48
0.7
100
AcDbSpline
210
0.0
220
0.0
230
1.0
 70
     8
 71
     3
 72
   107
 73
   103
 74
     0
 42
0.000000001
 43
0.0000000001
 40
0.0
 40
0.0
 40
0.0
 40
0.0
 40
1.0
 40
1.0
 40
1.0
 40
2.0
 40
2.0
 40
2.0
 40
3.0
 40
3.0
 40
3.0
 40
4.0
 40
4.0
 40
4.0
 40
5.0
 40
5.0
 40
5.0
 40
6.0
 40
6.0
 40
6.0
 40
7.0
 40
7.0
 40
7.0
 40
8.0
 40
8.0
 40
8.0
 40
9.0
 40
9.0
 40
9.0
 40
10.0
 40
10.0
 40
10.0
 40
11.0
 40
11.0
 40
11.0
 40
12.0
 40
12.0
 40
12.0
 40
13.0
 40
13.0
 40
13.0
 40
14.0
 40
14.0
 40
14.0
 40
15.0
 40
15.0
 40
15.0
 40
16.0
 40
16.0
 40
16.0
 40
17.0
 40
17.0
 40
17.0
 40
18.0
 40
18.0
 40
18.0
 40
19.0
 40
19.0
 40
19.0
 40
20.0
 40
20.0
 40
20.0
 40
21.0
 40
21.0
 40
21.0
 40
22.0
 40
22.0
 40
22.0
 40
23.0
 40
23.0
 40
23.0
 40
24.0
 40
24.0
 40
24.0
 40
25.0
 40
25.0
 40
25.0
 40
26.0
 40
26.0
 40
26.0
 40
27.0
 40
27.0
 40
27.0
 40
28.0
 40
28.0
 40
28.0
 40
29.0
 40
29.0
 40
29.0
 40
30.0
 40
30.0
 40
30.0
 40
31.0
 40
31.0
 40
31.0
 40
32.0
 40
32.0
 40
32.0
 40
33.0
 40
33.0
 40
33.0
 40
34.0
 40
34.0
 40
34.0
 40
34.0
 10
578.8133417780728
 20
904.4689276349667
 30
0.0
 10
578.8133417780728
 20
904.4689276349667
 30
0.0
 10
582.947459087628
 20
908.0518293032504
 30
0.0
 10
582.947459087628
 20
908.0518293032504
 30
0.0
 10
585.2487843899462
 20
908.3481077104292
 30
0.0
 10
587.5638900832955
 20
908.637495922106
 30
0.0
 10
589.8652153856156
 20
908.9337743292848
 30
0.0
 10
592.5248308547625
 20
909.2713939095696
 30
0.0
 10
595.1844463239095
 20
909.6434644674295
 30
0.0
 10
597.8440617930528
 20
910.0499860028643
 30
0.0
 10
600.9033086021254
 20
910.5116291024382
 30
0.0
 10
603.9901161932603
 20
910.9526016154481
 30
0.0
 10
607.0493630023275
 20
911.448695692597
 30
0.0
 10
610.1361705934623
 20
911.9654603562952
 30
0.0
 10
613.2091977935625
 20
912.4477740424112
 30
0.0
 10
616.2822249936644
 20
912.992099488168
 30
0.0
 10
619.3552521937663
 20
913.5295347384084
 30
0.0
 10
622.4558401759305
 20
914.0531895976159
 30
0.0
 10
625.5288673760342
 20
914.6319660209623
 30
0.0
 10
628.9050631788368
 20
915.272754203935
 30
0.0
 10
632.2812589816394
 20
915.8997619958894
 30
0.0
 10
635.657454784442
 20
916.5681109609353
 30
0.0
 10
638.7442623755769
 20
917.174448166333
 30
0.0
 10
641.8586307487703
 20
917.8083461537966
 30
0.0
 10
644.9454383399052
 20
918.4491343367766
 30
0.0
 10
648.03224593104
 20
919.0899225197567
 30
0.0
 10
651.105273131142
 20
919.7582714848025
 30
0.0
 10
654.1920807222768
 20
920.4335106453649
 30
0.0
 10
657.265107922377
 20
921.1018596104108
 30
0.0
 10
660.3243547314478
 20
921.8115497485481
 30
0.0
 10
663.3973819315497
 20
922.5143496911763
 30
0.0
 10
666.1534601379162
 20
923.1551378741491
 30
0.0
 10
668.9095383442882
 20
923.823486839195
 30
0.0
 10
671.6518361596272
 20
924.5056161952738
 30
0.0
 10
674.7386437507603
 20
925.2635377020264
 30
0.0
 10
677.8254513418933
 20
926.0283494042955
 30
0.0
 10
680.8984785419952
 20
926.8345022796633
 30
0.0
 10
683.9852861331283
 20
927.6406551550239
 30
0.0
 10
687.0583133332302
 20
928.4536982259009
 30
0.0
 10
690.1313405333303
 20
929.3011922743602
 30
0.0
 10
693.2181481244652
 20
930.155576518336
 30
0.0
 10
696.2911753245689
 20
931.030631348854
 30
0.0
 10
699.350422133638
 20
931.9263567659212
 30
0.0
 10
702.2305238592953
 20
932.7669606188641
 30
0.0
 10
705.110625584949
 20
933.6075644718143
 30
0.0
 10
707.9631665285424
 20
934.510180084398
 30
0.0
 10
710.9121702093571
 20
935.4472466745641
 30
0.0
 10
713.8611738901718
 20
936.3774230692064
 30
0.0
 10
716.8101775709883
 20
937.3765014190207
 30
0.0
 10
719.8143028159311
 20
938.396250355377
 30
0.0
 10
722.8046476698391
 20
939.4228894872498
 30
0.0
 10
725.7812121327215
 20
940.5184305742799
 30
0.0
 10
728.8128981597247
 20
941.6346422478595
 30
0.0
 10
731.8445841867315
 20
942.7853048990213
 30
0.0
 10
734.8487094316743
 20
943.9773087232746
 30
0.0
 10
737.8390542855859
 20
945.155532156495
 30
0.0
 10
740.8018383574317
 20
946.416437935913
 30
0.0
 10
743.7370616472172
 20
947.6980143018731
 30
0.0
 10
746.4793594625544
 20
948.8831279306099
 30
0.0
 10
749.1940964958294
 20
950.1509239055443
 30
0.0
 10
751.8812727470386
 20
951.4669512490867
 30
0.0
 10
754.5822293892807
 20
952.7898687881383
 30
0.0
 10
757.2556252494569
 20
954.1541275002959
 30
0.0
 10
759.8738995455087
 20
955.6217391451859
 30
0.0
 10
762.7540012711643
 20
957.2271547003978
 30
0.0
 10
765.6065422147558
 20
958.8876918197342
 30
0.0
 10
768.39018120319
 20
960.6446916762937
 30
0.0
 10
771.0773574543991
 20
962.3396797732124
 30
0.0
 10
773.6680709683869
 20
964.1724717804458
 30
0.0
 10
776.2587844823729
 20
966.032824569745
 30
0.0
 10
777.3887765469872
 20
966.8389774451056
 30
0.0
 10
778.4912078295338
 20
967.7002518845978
 30
0.0
 10
779.5660783300182
 20
968.589087106156
 30
0.0
 10
780.723631176691
 20
969.5399340873477
 30
0.0
 10
781.8949644144004
 20
970.4632202864881
 30
0.0
 10
782.9973956969488
 20
971.4622986362878
 30
0.0
 10
785.4365249095836
 20
973.6602710058718
 30
0.0
 10
787.7929717760298
 20
975.8858041575144
 30
0.0
 10
790.03917551422
 20
978.283592197054
 30
0.0
 10
792.2302576882857
 20
980.6124782814362
 30
0.0
 10
794.2146339968704
 20
983.0860584716569
 30
0.0
 10
796.185229914422
 20
985.6078700304855
 30
0.0
 10
796.5848612543496
 20
986.1108543031436
 30
0.0
 10
796.9155906391125
 20
986.6482895533912
 30
0.0
 10
797.2876611969723
 20
987.1719444125987
 30
0.0
 10
797.7286337099931
 20
987.7920620090293
 30
0.0
 10
798.1971670050743
 20
988.4052894099508
 30
0.0
 10
798.6105787360311
 20
989.0529677884473
 30
0.0
 10
799.3960610248441
 20
990.2863127857921
 30
0.0
 10
800.236664877787
 20
991.5196577831442
 30
0.0
 10
800.9532452114463
 20
992.7943439535878
 30
0.0
 10
801.7525078912904
 20
994.1999438388442
 30
0.0
 10
802.5517705711381
 20
995.5779829420275
 30
0.0
 10
803.2821312958267
 20
997.0180338048516
 30
0.0
 10
804.0262724115464
 20
998.506316036291
 30
0.0
 10
804.7428527452021
 20
999.9945982677303
 30
0.0
 10
805.4318722967937
 20
1001.538002063294
 30
0.0
 10
806.7410094448214
 20
1004.493895939631
 30
0.0
 10
807.815879945304
 20
1007.511801575601
 30
0.0
 10
808.8494092726914
 20
1010.571048384677
 30
0.0
 10
809.3179425677727
 20
1011.962867878893
 30
0.0
 10
809.7313542987295
 20
1013.375357959659
 30
0.0
 10
810.1034248565893
 20
1014.80162843145
 30
0.0
  0
SPLINE
  5
3EF9
330
A
100
AcDbEntity
  8
HIDDEN
 48
0.6
100
AcDbSpline
210
0.0
220
0.0
230
1.0
 70
     8
 71
     3
 72
    80
 73
    76
 74
     0
 42
0.000000001
 43
0.0000000001
 40
0.0
 40
0.0
 40
0.0
 40
0.0
 40
1.0
 40
1.0
 40
1.0
 40
2.0
 40
2.0
 40
2.0
 40
3.0
 40
3.0
 40
3.0
 40
4.0
 40
4.0
 40
4.0
 40
5.0
 40
5.0
 40
5.0
 40
6.0
 40
6.0
 40
6.0
 40
7.0
 40
7.0
 40
7.0
 40
8.0
 40
8.0
 40
8.0
 40
9.0
 40
9.0
 40
9.0
 40
10.0
 40
10.0
 40
10.0
 40
11.0
 40
11.0
 40
11.0
 40
12.0
 40
12.0
 40
12.0
 40
13.0
 40
13.0
 40
13.0
 40
14.0
 40
14.0
 40
14.0
 40
15.0
 40
15.0
 40
15.0
 40
16.0
 40
16.0
 40
16.0
 40
17.0
 40
17.0
 40
17.0
 40
18.0
 40
18.0
 40
18.0
 40
19.0
 40
19.0
 40
19.0
 40
20.0
 40
20.0
 40
20.0
 40
21.0
 40
21.0
 40
21.0
 40
22.0
 40
22.0
 40
22.0
 40
23.0
 40
23.0
 40
23.0
 40
24.0
 40
24.0
 40
24.0
 40
24.19413220374869
 40
24.19413220374869
 40
24.19413220374869
 40
24.19413220374869
 10
1744.407665577171
 20
1976.028933737985
 30
0.0
 10
1747.484137875031
 20
1976.056494520044
 30
0.0
 10
1750.519268999793
 20
1976.187408234849
 30
0.0
 10
1753.56818051559
 20
1976.614600356834
 30
0.0
 10
1756.651543008967
 20
1977.034902283309
 30
0.0
 10
1759.655668253912
 20
1977.765263007996
 30
0.0
 10
1762.611562130241
 20
1978.702329598162
 30
0.0
 10
1765.553675615541
 20
1979.639396188328
 30
0.0
 10
1768.392436168102
 20
1980.85207059913
 30
0.0
 10
1771.134733983439
 20
1982.25767048438
 30
0.0
 10
1773.901147483084
 20
1983.663270369629
 30
0.0
 10
1776.526311974648
 20
1985.344478075514
 30
0.0
 10
1779.024007849169
 20
1987.177270082748
 30
0.0
 10
1781.507923332661
 20
1989.010062089981
 30
0.0
 10
1783.812693732736
 20
1991.05645015821
 30
0.0
 10
1785.986550418012
 20
1993.233751941245
 30
0.0
 10
1788.174187494318
 20
1995.445504701855
 30
0.0
 10
1790.158563802902
 20
1997.836402545878
 30
0.0
 10
1791.991355810139
 20
2000.337543518157
 30
0.0
 10
1793.820702719614
 20
2002.831794294927
 30
0.0
 10
1795.426118274826
 20
2005.463848982012
 30
0.0
 10
1796.879949528687
 20
2008.17858601528
 30
0.0
 10
1798.340670978061
 20
2010.92088383062
 30
0.0
 10
1799.570570877655
 20
2013.766534578694
 30
0.0
 10
1800.641996280381
 20
2016.674197086415
 30
0.0
 10
1801.70653148759
 20
2019.561189007587
 30
0.0
 10
1802.547135340533
 20
2022.537753470466
 30
0.0
 10
1803.215484305579
 20
2025.54187871541
 30
0.0
 10
1803.88727836838
 20
2028.532223569322
 30
0.0
 10
1804.331695979155
 20
2031.584580182875
 30
0.0
 10
1804.614193995308
 20
2034.630046600911
 30
0.0
 10
1804.882911620432
 20
2037.668622823438
 30
0.0
 10
1804.903582206978
 20
2040.714089241466
 30
0.0
 10
1804.931142989044
 20
2043.75955565951
 30
0.0
 10
1804.931142989044
 20
2043.75955565951
 30
0.0
 10
1804.931142989044
 20
2346.783464254308
 30
0.0
 10
1804.931142989044
 20
2346.783464254308
 30
0.0
 10
1804.924252793527
 20
2349.801369890278
 30
0.0
 10
1804.972484162139
 20
2352.833055917288
 30
0.0
 10
1804.810564567513
 20
2355.857851748775
 30
0.0
 10
1804.64864497289
 20
2358.896427971295
 30
0.0
 10
1804.283464610547
 20
2361.935004193821
 30
0.0
 10
1803.725358773757
 20
2364.925349047733
 30
0.0
 10
1803.153472545935
 20
2367.943254683703
 30
0.0
 10
1802.405886332457
 20
2370.933599537615
 30
0.0
 10
1801.424033471437
 20
2373.848152240846
 30
0.0
 10
1800.43873551266
 20
2376.790265726149
 30
0.0
 10
1799.260512079439
 20
2379.649696865255
 30
0.0
 10
1797.910033758318
 20
2382.433335853688
 30
0.0
 10
1796.590561317018
 20
2385.148072886963
 30
0.0
 10
1795.054047716967
 20
2387.780127574048
 30
0.0
 10
1793.345279229019
 20
2390.267488155294
 30
0.0
 10
1791.54693819936
 20
2392.865091864804
 30
0.0
 10
1789.600457966113
 20
2395.311111272951
 30
0.0
 10
1787.461052258418
 20
2397.64688755285
 30
0.0
 10
1785.39399360364
 20
2399.934432464141
 30
0.0
 10
1783.089223203565
 20
2402.001491118912
 30
0.0
 10
1780.674209675235
 20
2403.910075276826
 30
0.0
 10
1778.324653004303
 20
2405.777318261642
 30
0.0
 10
1775.820066934265
 20
2407.506757336136
 30
0.0
 10
1773.188012247184
 20
2408.933027807934
 30
0.0
 10
1770.359586987899
 20
2410.490211994531
 30
0.0
 10
1767.451924480177
 20
2411.81312953359
 30
0.0
 10
1764.42023845317
 20
2412.922451011653
 30
0.0
 10
1761.609038682676
 20
2413.942199948009
 30
0.0
 10
1758.673815392889
 20
2414.672560672696
 30
0.0
 10
1755.731701907592
 20
2415.20310572742
 30
0.0
 10
1752.813704106596
 20
2415.726760586627
 30
0.0
 10
1749.79924356838
 20
2416.002368407271
 30
0.0
 10
1746.843349692051
 20
2416.002368407271
 30
0.0
 10
1744.021814628278
 20
2416.002368407271
 30
0.0
 10
1741.200279564509
 20
2416.002368407271
 30
0.0
 10
1738.375299402981
 20
2416.002368407271
 30
0.0
 10
1738.375299402981
 20
2416.002368407271
 30
0.0
 10
1721.464617761777
 20
2416.002368407271
 30
0.0
 10
1694.209070267166
 20
2416.002368407271
 30
0.0
  0
SPLINE
  5
3EFA
330
A
100
AcDbEntity
  8
HIDDEN
 48
0.6
100
AcDbSpline
210
0.0
220
0.0
230
1.0
 70
     8
 71
     3
 72
    83
 73
    79
 74
     0
 42
0.000000001
 43
0.0000000001
 40
24.29510380038345
 40
24.29510380038345
 40
24.29510380038345
 40
24.29510380038345
 40
25.0
 40
25.0
 40
25.0
 40
26.0
 40
26.0
 40
26.0
 40
27.0
 40
27.0
 40
27.0
 40
28.0
 40
28.0
 40
28.0
 40
29.0
 40
29.0
 40
29.0
 40
30.0
 40
30.0
 40
30.0
 40
31.0
 40
31.0
 40
31.0
 40
32.0
 40
32.0
 40
32.0
 40
33.0
 40
33.0
 40
33.0
 40
34.0
 40
34.0
 40
34.0
 40
35.0
 40
35.0
 40
35.0
 40
36.0
 40
36.0
 40
36.0
 40
37.0
 40
37.0
 40
37.0
 40
38.0
 40
38.0
 40
38.0
 40
39.0
 40
39.0
 40
39.0
 40
40.0
 40
40.0
 40
40.0
 40
41.0
 40
41.0
 40
41.0
 40
42.0
 40
42.0
 40
42.0
 40
43.0
 40
43.0
 40
43.0
 40
44.0
 40
44.0
 40
44.0
 40
45.0
 40
45.0
 40
45.0
 40
46.0
 40
46.0
 40
46.0
 40
47.0
 40
47.0
 40
47.0
 40
48.0
 40
48.0
 40
48.0
 40
49.0
 40
49.0
 40
49.0
 40
50.0
 40
50.0
 40
50.0
 40
50.0
 10
1694.209070267166
 20
2416.002368407271
 30
0.0
 10
1562.619617522761
 20
2416.002368407271
 30
0.0
 10
1339.665096819502
 20
2416.002368407271
 30
0.0
 10
1339.665096819502
 20
2416.002368407271
 30
0.0
 10
1336.843561755733
 20
2416.002368407271
 30
0.0
 10
1334.018581594202
 20
2416.002368407271
 30
0.0
 10
1331.203936725949
 20
2416.002368407271
 30
0.0
 10
1328.234262458587
 20
2416.002368407271
 30
0.0
 10
1325.226692115884
 20
2415.726760586627
 30
0.0
 10
1322.315584510408
 20
2415.20310572742
 30
0.0
 10
1319.366580829591
 20
2414.672560672696
 30
0.0
 10
1316.431357539808
 20
2413.942199948009
 30
0.0
 10
1313.623602867068
 20
2412.922451011653
 30
0.0
 10
1310.58158154679
 20
2411.81312953359
 30
0.0
 10
1307.687699430101
 20
2410.490211994531
 30
0.0
 10
1304.852383975299
 20
2408.933027807934
 30
0.0
 10
1302.220329288215
 20
2407.506757336136
 30
0.0
 10
1299.708853022661
 20
2405.777318261642
 30
0.0
 10
1297.366186547249
 20
2403.910075276826
 30
0.0
 10
1294.954618116677
 20
2402.001491118912
 30
0.0
 10
1292.64640261884
 20
2399.934432464141
 30
0.0
 10
1290.579343964065
 20
2397.64688755285
 30
0.0
 10
1288.446828451888
 20
2395.311111272951
 30
0.0
 10
1286.49345802312
 20
2392.865091864804
 30
0.0
 10
1284.702007188981
 20
2390.267488155294
 30
0.0
 10
1282.986348505517
 20
2387.780127574048
 30
0.0
 10
1281.449834905466
 20
2385.148072886963
 30
0.0
 10
1280.137252659682
 20
2382.433335853688
 30
0.0
 10
1278.783329240803
 20
2379.649696865255
 30
0.0
 10
1277.60166070982
 20
2376.790265726149
 30
0.0
 10
1276.616362751046
 20
2373.848152240846
 30
0.0
 10
1275.641400085543
 20
2370.933599537615
 30
0.0
 10
1274.886923676549
 20
2367.943254683703
 30
0.0
 10
1274.321927644243
 20
2364.925349047733
 30
0.0
 10
1273.763821807453
 20
2361.935004193821
 30
0.0
 10
1273.391751249593
 20
2358.896427971295
 30
0.0
 10
1273.236721850484
 20
2355.857851748775
 30
0.0
 10
1273.074802255861
 20
2352.833055917288
 30
0.0
 10
1273.123033624473
 20
2349.801369890278
 30
0.0
 10
1273.116143428957
 20
2346.783464254308
 30
0.0
 10
1273.116143428957
 20
2346.783464254308
 30
0.0
 10
1273.116143428957
 20
2043.75955565951
 30
0.0
 10
1273.116143428957
 20
2043.75955565951
 30
0.0
 10
1273.136814015502
 20
2040.714089241466
 30
0.0
 10
1273.157484602052
 20
2037.668622823438
 30
0.0
 10
1273.433092422688
 20
2034.630046600911
 30
0.0
 10
1273.708700243325
 20
2031.584580182875
 30
0.0
 10
1274.153117854104
 20
2028.532223569322
 30
0.0
 10
1274.824911916905
 20
2025.54187871541
 30
0.0
 10
1275.49326088195
 20
2022.537753470466
 30
0.0
 10
1276.333864734893
 20
2019.561189007587
 30
0.0
 10
1277.398399942103
 20
2016.674197086415
 30
0.0
 10
1278.469825344829
 20
2013.766534578694
 30
0.0
 10
1279.699725244419
 20
2010.92088383062
 30
0.0
 10
1281.160446693797
 20
2008.17858601528
 30
0.0
 10
1282.621168143174
 20
2005.463848982012
 30
0.0
 10
1284.223138600624
 20
2002.831794294927
 30
0.0
 10
1286.049040412344
 20
2000.337543518157
 30
0.0
 10
1287.881832419581
 20
1997.836402545878
 30
0.0
 10
1289.866208728166
 20
1995.445504701855
 30
0.0
 10
1292.060735999988
 20
1993.233751941245
 30
0.0
 10
1294.227702489744
 20
1991.05645015821
 30
0.0
 10
1296.532472889823
 20
1989.010062089981
 30
0.0
 10
1299.016388373314
 20
1987.177270082748
 30
0.0
 10
1301.520974443352
 20
1985.344478075514
 30
0.0
 10
1304.139248739404
 20
1983.663270369629
 30
0.0
 10
1306.905662239045
 20
1982.25767048438
 30
0.0
 10
1309.65140515214
 20
1980.85207059913
 30
0.0
 10
1312.486720606943
 20
1979.639396188328
 30
0.0
 10
1315.428834092243
 20
1978.702329598162
 30
0.0
 10
1318.384727968572
 20
1977.765263007996
 30
0.0
 10
1321.395743409033
 20
1977.034902283309
 30
0.0
 10
1324.472215706893
 20
1976.614600356834
 30
0.0
 10
1327.521127222687
 20
1976.187408234849
 30
0.0
 10
1330.556258347453
 20
1976.056494520044
 30
0.0
 10
1333.632730645309
 20
1976.028933737985
 30
0.0
 10
1333.632730645309
 20
1976.028933737985
 30
0.0
 10
1694.209070267166
 20
1976.028933737985
 30
0.0
 10
1694.209070267166
 20
1976.028933737985
 30
0.0
  0
SPLINE
  5
3EFB
330
A
100
AcDbEntity
  8
HIDDEN
 48
0.6
100
AcDbSpline
210
0.0
220
0.0
230
1.0
 70
     8
 71
     3
 72
    44
 73
    40
 74
     0
 42
0.000000001
 43
0.0000000001
 40
12.2913618224191
 40
12.2913618224191
 40
12.2913618224191
 40
12.2913618224191
 40
13.0
 40
13.0
 40
13.0
 40
14.0
 40
14.0
 40
14.0
 40
15.0
 40
15.0
 40
15.0
 40
16.0
 40
16.0
 40
16.0
 40
17.0
 40
17.0
 40
17.0
 40
18.0
 40
18.0
 40
18.0
 40
19.0
 40
19.0
 40
19.0
 40
20.0
 40
20.0
 40
20.0
 40
21.0
 40
21.0
 40
21.0
 40
22.0
 40
22.0
 40
22.0
 40
23.0
 40
23.0
 40
23.0
 40
24.0
 40
24.0
 40
24.0
 40
25.0
 40
25.0
 40
25.0
 40
25.0
 10
1694.209070267167
 20
2301.873169881516
 30
0.0
 10
1564.987935693038
 20
2301.873169881516
 30
0.0
 10
1343.234218096749
 20
2301.873169881515
 30
0.0
 10
1343.234218096749
 20
2301.873169881515
 30
0.0
 10
1340.319665393515
 20
2301.873169881515
 30
0.0
 10
1337.41889308131
 20
2301.776707144292
 30
0.0
 10
1334.528456062384
 20
2301.466648346081
 30
0.0
 10
1331.45198376452
 20
2301.135918961305
 30
0.0
 10
1328.347950684597
 20
2300.694946448295
 30
0.0
 10
1325.354160732931
 20
2299.881903377411
 30
0.0
 10
1322.34314529247
 20
2299.068860306534
 30
0.0
 10
1319.373471025108
 20
2298.159354498426
 30
0.0
 10
1316.486479103936
 20
2296.932899696598
 30
0.0
 10
1313.726955799807
 20
2295.768456654403
 30
0.0
 10
1311.00532857102
 20
2294.424868528802
 30
0.0
 10
1308.486962109949
 20
2292.812562778074
 30
0.0
 10
1305.782560369949
 20
2291.096904094613
 30
0.0
 10
1303.188401758205
 20
2289.250331696347
 30
0.0
 10
1300.745827447808
 20
2287.162602455019
 30
0.0
 10
1298.410051167913
 20
2285.164445755398
 30
0.0
 10
1296.24997487367
 20
2282.980253776854
 30
0.0
 10
1294.234592685261
 20
2280.672038279014
 30
0.0
 10
1292.174424225999
 20
2278.315591412573
 30
0.0
 10
1290.372638098586
 20
2275.786889658228
 30
0.0
 10
1288.653534317363
 20
2273.182395753209
 30
0.0
 10
1286.958546220448
 20
2270.646803803354
 30
0.0
 10
1285.577062019503
 20
2267.904505988014
 30
0.0
 10
1284.278260164752
 20
2265.14842778164
 30
0.0
 10
1282.993238701034
 20
2262.406129966306
 30
0.0
 10
1281.976934862435
 20
2259.526028240651
 30
0.0
 10
1281.074319249848
 20
2256.639036319479
 30
0.0
 10
1280.516213413058
 20
2254.689110988473
 30
0.0
 10
1279.951217380752
 20
2252.7529660485
 30
0.0
 10
1279.458568401365
 20
2250.782370130944
 30
0.0
 10
1278.831560609414
 20
2248.246778181083
 30
0.0
 10
1278.294125359174
 20
2245.690515644672
 30
0.0
 10
1277.870378334944
 20
2243.106692326202
 30
0.0
 10
1277.611996003099
 20
2241.501276770998
 30
0.0
 10
1277.453521506231
 20
2239.854520042694
 30
0.0
 10
1277.157243099045
 20
2238.249104487475
 30
0.0
  0
SPLINE
  5
3EFC
330
A
100
AcDbEntity
  8
HIDDEN
 48
0.6
100
AcDbSpline
210
0.0
220
0.0
230
1.0
 70
     8
 71
     3
 72
    44
 73
    40
 74
     0
 42
0.000000001
 43
0.0000000001
 40
0.0
 40
0.0
 40
0.0
 40
0.0
 40
1.0
 40
1.0
 40
1.0
 40
2.0
 40
2.0
 40
2.0
 40
3.0
 40
3.0
 40
3.0
 40
4.0
 40
4.0
 40
4.0
 40
5.0
 40
5.0
 40
5.0
 40
6.0
 40
6.0
 40
6.0
 40
7.0
 40
7.0
 40
7.0
 40
8.0
 40
8.0
 40
8.0
 40
9.0
 40
9.0
 40
9.0
 40
10.0
 40
10.0
 40
10.0
 40
11.0
 40
11.0
 40
11.0
 40
12.0
 40
12.0
 40
12.0
 40
12.18716614383966
 40
12.18716614383966
 40
12.18716614383966
 40
12.18716614383966
 10
1800.896933514468
 20
2238.249104487475
 30
0.0
 10
1800.600655107286
 20
2239.854520042694
 30
0.0
 10
1800.445625708176
 20
2241.501276770998
 30
0.0
 10
1800.183798278572
 20
2243.106692326202
 30
0.0
 10
1799.760051254343
 20
2245.690515644672
 30
0.0
 10
1799.222616004099
 20
2248.246778181083
 30
0.0
 10
1798.595608212152
 20
2250.782370130944
 30
0.0
 10
1798.102959232761
 20
2252.7529660485
 30
0.0
 10
1797.537963200458
 20
2254.689110988473
 30
0.0
 10
1796.979857363669
 20
2256.639036319479
 30
0.0
 10
1796.077241751081
 20
2259.526028240651
 30
0.0
 10
1795.060937912483
 20
2262.406129966306
 30
0.0
 10
1793.769026253248
 20
2265.14842778164
 30
0.0
 10
1792.484004789526
 20
2267.904505988014
 30
0.0
 10
1791.095630393068
 20
2270.646803803354
 30
0.0
 10
1789.410977589424
 20
2273.182395753209
 30
0.0
 10
1787.681538514927
 20
2275.786889658228
 30
0.0
 10
1785.890087680789
 20
2278.315591412573
 30
0.0
 10
1783.819583928252
 20
2280.672038279014
 30
0.0
 10
1781.804201739847
 20
2282.980253776854
 30
0.0
 10
1779.644125445604
 20
2285.164445755398
 30
0.0
 10
1777.308349165705
 20
2287.162602455019
 30
0.0
 10
1774.86921995307
 20
2289.250331696347
 30
0.0
 10
1772.278506439081
 20
2291.096904094613
 30
0.0
 10
1769.577549796842
 20
2292.812562778074
 30
0.0
 10
1767.048848042497
 20
2294.424868528802
 30
0.0
 10
1764.327220813705
 20
2295.768456654403
 30
0.0
 10
1761.567697509577
 20
2296.932899696598
 30
0.0
 10
1758.684150686167
 20
2298.159354498426
 30
0.0
 10
1755.717921516559
 20
2299.068860306534
 30
0.0
 10
1752.700015880585
 20
2299.881903377411
 30
0.0
 10
1749.706225928916
 20
2300.694946448295
 30
0.0
 10
1746.602192848993
 20
2301.135918961305
 30
0.0
 10
1743.525720551133
 20
2301.466648346081
 30
0.0
 10
1740.642173727719
 20
2301.776707144292
 30
0.0
 10
1737.741401415514
 20
2301.873169881515
 30
0.0
 10
1734.82684871228
 20
2301.873169881515
 30
0.0
 10
1734.82684871228
 20
2301.873169881515
 30
0.0
 10
1719.357344229851
 20
2301.873169881515
 30
0.0
 10
1694.209070267166
 20
2301.873169881515
 30
0.0
  0
LINE
  5
3EFD
330
A
100
AcDbEntity
  8
HIDDEN
 48
0.6
100
AcDbLine
 10
1744.407665577171
 20
1976.028933737985
 30
0.0
 11
1694.209070267167
 21
1976.075951256126
 31
0.0
  0
LINE
  5
3F09
330
A
100
AcDbEntity
  8
DIM
100
AcDbLine
 10
1869.900885031466
 20
2427.612412431863
 30
0.0
 11
1152.092751849779
 21
2427.612412431863
 31
0.0
  0
LINE
  5
3F0A
330
A
100
AcDbEntity
  8
DIM
100
AcDbLine
 10
1180.145420857972
 20
2427.612412431863
 30
0.0
 11
1205.394151845924
 21
2465.584241376965
 31
0.0
  0
LINE
  5
3F0B
330
A
100
AcDbEntity
  8
DIM
100
AcDbLine
 10
1193.274760971707
 20
2427.612412431863
 30
0.0
 11
1218.523491959659
 21
2465.584241376965
 31
0.0
  0
LINE
  5
3F0C
330
A
100
AcDbEntity
  8
DIM
100
AcDbLine
 10
1207.562884949731
 20
2427.612412431863
 30
0.0
 11
1232.811615937683
 21
2465.584241376965
 31
0.0
  0
DIMENSION
  5
3F23
102
{ACAD_REACTORS
330
3F25
102
}
102
{ACAD_XDICTIONARY
360
3F24
102
}
330
A
100
AcDbEntity
  8
DIM
100
AcDbDimension
  2
*D31
 10
540.0613150856473
 20
2477.759676098313
 30
0.0
 11
490.0613150856473
 21
2509.764177786446
 31
0.0
 70
    32
 71
     5
 42
99.99999999999994
 73
     0
 74
     0
 75
     0
  3
tfrom線あり
100
AcDbAlignedDimension
 13
440.0613150856473
 23
2362.800161404109
 33
0.0
 14
540.0613150856473
 24
2362.800161404109
 34
0.0
100
AcDbRotatedDimension
  0
DIMENSION
  5
3F32
102
{ACAD_REACTORS
330
3F34
102
}
102
{ACAD_XDICTIONARY
360
3F33
102
}
330
A
100
AcDbEntity
  8
DIM
100
AcDbDimension
  2
*D32
 10
640.0613150856473
 20
2477.759676098313
 30
0.0
 11
590.0613150856473
 21
2509.764177786446
 31
0.0
 70
    32
 71
     5
 42
100.0
 73
     0
 74
     0
 75
     0
  3
tfrom線あり
100
AcDbAlignedDimension
 13
540.0613150856473
 23
2362.800161404109
 33
0.0
 14
640.0613150856473
 24
2362.800161404109
 34
0.0
100
AcDbRotatedDimension
  0
LINE
  5
3F48
102
{ACAD_REACTORS
330
3F4E
102
}
330
A
100
AcDbEntity
  8
DIM
100
AcDbLine
 10
1308.466152285873
 20
2427.612412431863
 30
0.0
 11
1768.466152285873
 21
2427.612412431863
 31
0.0
  0
HATCH
  5
3F4E
330
A
100
AcDbEntity
  8
DIM
100
AcDbHatch
 10
0.0
 20
0.0
 30
0.0
210
0.0
220
0.0
230
1.0
  2
ANSI31
 70
     0
 71
     1
 91
        1
 92
        1
 93
        4
 72
     1
 10
1308.466152285873
 20
2017.612412431863
 11
1308.466152285873
 21
2427.612412431863
 72
     1
 10
1768.466152285873
 20
2027.612412431863
 11
1308.466152285873
 21
2027.612412431863
 72
     1
 10
1768.466152285873
 20
2427.612412431863
 11
1768.466152285873
 21
2017.612412431863
 72
     1
 10
1308.466152285873
 20
2427.612412431863
 11
1768.466152285873
 21
2427.612412431863
 97
        4
330
3DB7
330
3DB6
330
3DB5
330
3F48
 75
     0
 76
     1
 52
0.0
 41
6.0
 77
     0
 78
     1
 53
45.0
 43
0.0
 44
0.0
 45
-13.47038418160373
 46
13.47038418160373
 79
     0
 98
        1
 10
0.0
 20
0.0
1001
ACAD
1010
0.0
1020
0.0
1030
0.0
  0
VIEWPORT
  5
349
330
B
100
AcDbEntity
 67
     1
  8
0
100
AcDbViewport
 10
202.5
 20
128.5
 30
0.0
 40
486.0
 41
308.4
 68
     1
 69
     1
 12
202.5
 22
128.5
 13
0.0
 23
0.0
 14
0.5
 24
0.5
 15
0.0
 25
0.0
 16
0.0
 26
0.0
 36
1.0
 17
0.0
 27
0.0
 37
0.0
 42
50.0
 43
0.0
 44
0.0
 45
308.4
 50
0.0
 51
0.0
 72
   100
 90
   557152
  1

281
     0
 71
     1
 74
     0
110
0.0
120
0.0
130
0.0
111
1.0
121
0.0
131
0.0
112
0.0
122
1.0
132
0.0
 79
     0
146
0.0
170
     0
 61
     5
348
26C
292
     1
282
     1
141
0.0
142
0.0
 63
   256
  0
VIEWPORT
  5
34A
330
B
100
AcDbEntity
 67
     1
  8
0
100
AcDbViewport
 10
202.5
 20
128.5
 30
0.0
 40
324.0
 41
205.6
 68
     2
 69
     2
 12
986.6781359294573
 22
1427.077061889956
 13
0.0
 23
0.0
 14
0.5
 24
0.5
 15
0.0
 25
0.0
 16
0.0
 26
0.0
 36
1.0
 17
0.0
 27
0.0
 37
0.0
 42
50.0
 43
0.0
 44
0.0
 45
2890.021615685494
 50
0.0
 51
0.0
 72
   100
 90
   557152
  1

281
     0
 71
     1
 74
     0
110
0.0
120
0.0
130
0.0
111
1.0
121
0.0
131
0.0
112
0.0
122
1.0
132
0.0
 79
     0
146
0.0
170
     0
 61
     5
348
26C
292
     1
282
     1
141
0.0
142
0.0
 63
   256
  0
ENDSEC
  0
SECTION
  2
OBJECTS
  0
DICTIONARY
  5
19
330
0
100
AcDbDictionary
281
     1
  3
ACAD_COLOR
350
674
  3
ACAD_DETAILVIEWSTYLE
350
BBF
  3
ACAD_FIELDLIST
350
146A
  3
ACAD_GROUP
350
1A
  3
ACAD_IMAGE_VARS
350
27B
  3
ACAD_LAYOUT
350
1E
  3
ACAD_MATERIAL
350
263
  3
ACAD_MLEADERSTYLE
350
336
  3
ACAD_MLINESTYLE
350
1B
  3
ACAD_PLOTSETTINGS
350
22
  3
ACAD_PLOTSTYLENAME
350
1F
  3
ACAD_SCALELIST
350
241
  3
ACAD_SECTIONVIEWSTYLE
350
BC0
  3
ACAD_TABLESTYLE
350
278
  3
ACAD_VISUALSTYLE
350
267
  3
ACDB_RECOMPOSE_DATA
350
3F5B
  3
AcDbVariableDictionary
350
330
  3
APPDATA
350
27A
  3
DimOffsetDictionary
350
E3E
  0
SUN
  5
904
330
15
100
AcDbSun
 90
        1
290
     0
 63
     7
421
 16777215
 40
1.0
291
     1
 91
  2455826
 92
 54000000
292
     0
 70
     2
 71
   256
280
     1
  0
DICTIONARY
  5
2E1
330
2
100
AcDbDictionary
280
     1
281
     1
  3
ACAD_LAYERSTATES
360
2E2
  3
ACLYDICTIONARY
360
DF9
  0
DICTIONARY
  5
374D
330
A
100
AcDbDictionary
280
     1
281
     1
  3
ACAD_SORTENTS
360
374E
  0
DICTIONARY
  5
1468
330
1466
100
AcDbDictionary
280
     1
281
     1
  3
ACAD_FIELD
360
3F4F
  0
DICTIONARY
  5
3C2D
330
3C2C
100
AcDbDictionary
280
     1
281
     1
  3
ACAD_DIMASSOC
360
3C2E
  0
DICTIONARY
  5
3C3C
330
3C3B
100
AcDbDictionary
280
     1
281
     1
  3
ACAD_DIMASSOC
360
3C3D
  0
DICTIONARY
  5
3C87
330
3C86
100
AcDbDictionary
280
     1
281
     1
  3
ACAD_DIMASSOC
360
3C88
  0
DICTIONARY
  5
3C96
330
3C95
100
AcDbDictionary
280
     1
281
     1
  3
ACAD_DIMASSOC
360
3C97
  0
DICTIONARY
  5
3CCE
330
3CCD
100
AcDbDictionary
280
     1
281
     1
  3
ACAD_DIMASSOC
360
3CCF
  0
DICTIONARY
  5
3CEE
330
3CED
100
AcDbDictionary
280
     1
281
     1
  3
ACAD_DIMASSOC
360
3CEF
  0
DICTIONARY
  5
3CFD
330
3CFC
100
AcDbDictionary
280
     1
281
     1
  3
ACAD_DIMASSOC
360
3CFE
  0
DICTIONARY
  5
3D79
330
3D78
100
AcDbDictionary
280
     1
281
     1
  3
ACAD_DIMASSOC
360
3D7A
  0
DICTIONARY
  5
3DBD
330
3DBC
100
AcDbDictionary
280
     1
281
     1
  3
ACAD_DIMASSOC
360
3DBE
  0
DICTIONARY
  5
3DDB
330
3DDA
100
AcDbDictionary
280
     1
281
     1
  3
ACAD_DIMASSOC
360
3DDC
  0
DICTIONARY
  5
3F24
330
3F23
100
AcDbDictionary
280
     1
281
     1
  3
ACAD_DIMASSOC
360
3F25
  0
DICTIONARY
  5
3F33
330
3F32
100
AcDbDictionary
280
     1
281
     1
  3
ACAD_DIMASSOC
360
3F34
  0
DICTIONARY
  5
674
102
{ACAD_REACTORS
330
19
102
}
330
19
100
AcDbDictionary
281
     1
  0
DICTIONARY
  5
BBF
102
{ACAD_REACTORS
330
19
102
}
330
19
100
AcDbDictionary
281
     1
  0
FIELDLIST
  5
146A
102
{ACAD_REACTORS
330
19
102
}
330
19
100
AcDbIdSet
 90
        2
330
146B
330
1467
100
AcDbFieldList
  0
DICTIONARY
  5
1A
102
{ACAD_REACTORS
330
19
102
}
330
19
100
AcDbDictionary
281
     1
  3
*A1
350
36AC
  3
*A2
350
3DB9
  3
*A3
350
3F04
  3
*A4
350
3F47
  0
RASTERVARIABLES
  5
27B
102
{ACAD_REACTORS
330
19
102
}
330
19
100
AcDbRasterVariables
 90
        0
 70
     1
 71
     1
 72
     1
  0
DICTIONARY
  5
1E
102
{ACAD_REACTORS
330
19
102
}
330
19
100
AcDbDictionary
281
     1
  3
Layout1
350
21
  3
Model
350
20
  0
DICTIONARY
  5
263
102
{ACAD_REACTORS
330
19
102
}
330
19
100
AcDbDictionary
281
     1
  3
ByBlock
350
265
  3
ByLayer
350
264
  3
Global
350
266
  0
DICTIONARY
  5
336
102
{ACAD_REACTORS
330
19
102
}
330
19
100
AcDbDictionary
281
     1
  3
Standard
350
DAB
  0
DICTIONARY
  5
1B
102
{ACAD_REACTORS
330
19
102
}
330
19
100
AcDbDictionary
281
     1
  3
Standard
350
1C
  0
DICTIONARY
  5
22
102
{ACAD_REACTORS
330
19
102
}
330
19
100
AcDbDictionary
281
     1
  0
ACDBDICTIONARYWDFLT
  5
1F
102
{ACAD_REACTORS
330
19
102
}
330
19
100
AcDbDictionary
281
     1
  3
Normal
350
1D
100
AcDbDictionaryWithDefault
340
1D
  0
DICTIONARY
  5
241
102
{ACAD_REACTORS
330
19
102
}
330
19
100
AcDbDictionary
281
     1
  3
A0
350
242
  3
A1
350
243
  3
A2
350
244
  3
A3
350
245
  3
A4
350
246
  3
A5
350
247
  3
A6
350
248
  3
A7
350
249
  3
A8
350
24A
  3
A9
350
24B
  3
B0
350
24C
  3
B1
350
24D
  3
B2
350
24E
  3
B3
350
24F
  3
B4
350
250
  3
B5
350
251
  3
B6
350
252
  3
B7
350
253
  3
B8
350
254
  3
B9
350
255
  3
C0
350
256
  3
C1
350
257
  3
C2
350
258
  3
C3
350
259
  3
C4
350
25A
  3
C5
350
25B
  3
C6
350
25C
  3
C7
350
25D
  3
C8
350
25E
  3
C9
350
25F
  3
D0
350
260
  3
D1
350
261
  3
D2
350
262
  0
DICTIONARY
  5
BC0
102
{ACAD_REACTORS
330
19
102
}
330
19
100
AcDbDictionary
281
     1
  0
DICTIONARY
  5
278
102
{ACAD_REACTORS
330
19
102
}
330
19
100
AcDbDictionary
281
     1
  3
Standard
350
279
  0
DICTIONARY
  5
267
102
{ACAD_REACTORS
330
19
102
}
330
19
100
AcDbDictionary
281
     1
  3
2dWireframe
350
26C
  3
3D Hidden
350
26E
  3
3dWireframe
350
26D
  3
Basic
350
26F
  3
Brighten
350
273
  3
ColorChange
350
277
  3
Conceptual
350
271
  3
Dim
350
272
  3
EdgeColorOff
350
8FE
  3
Facepattern
350
276
  3
Flat
350
268
  3
FlatWithEdges
350
269
  3
Gouraud
350
26A
  3
GouraudWithEdges
350
26B
  3
Hidden
350
8FB
  3
JitterOff
350
8FC
  3
Linepattern
350
275
  3
OverhangOff
350
8FD
  3
Realistic
350
270
  3
Shaded
350
903
  3
Shaded with edges
350
902
  3
Shades of Gray
350
8FF
  3
Sketchy
350
900
  3
Thicken
350
274
  3
Wireframe
350
8FA
  3
X-Ray
350
901
  0
XRECORD
  5
3F5B
102
{ACAD_REACTORS
330
19
102
}
330
19
100
AcDbXrecord
280
     1
 90
        1
330
279
  0
DICTIONARY
  5
330
102
{ACAD_REACTORS
330
19
102
}
330
19
100
AcDbDictionary
281
     1
  3
CANNOSCALE
350
331
  3
CMLEADERSTYLE
350
DB1
  3
CTABLESTYLE
350
335
  3
HPTRANSPARENCY
350
D52
  3
XCLIPFRAME
350
896
  0
DICTIONARY
  5
27A
102
{ACAD_REACTORS
330
19
102
}
330
19
100
AcDbDictionary
281
     1
  0
DICTIONARY
  5
E3E
102
{ACAD_REACTORS
330
19
102
}
330
19
100
AcDbDictionary
281
     1
  3
DIMRAILANGLE
350
ECE
  3
DIMRAILFIRSTOFFSET
350
ECC
  3
DIMRAILOFFSET
350
ECD
  3
DIMRAILSENABLED
350
ECF
  0
DICTIONARY
  5
2E2
102
{ACAD_REACTORS
330
2E1
102
}
330
2E1
100
AcDbDictionary
281
     1
  0
DICTIONARY
  5
DF9
102
{ACAD_REACTORS
330
2E1
102
}
330
2E1
100
AcDbDictionary
281
     1
1001
ACAD
1000
<All
  0
SORTENTSTABLE
  5
374E
102
{ACAD_REACTORS
330
374D
102
}
330
374D
100
AcDbSortentsTable
330
A
331
17A
  5
180
331
17B
  5
181
331
17C
  5
182
331
17E
  5
183
331
180
  5
184
331
181
  5
185
331
182
  5
186
331
183
  5
187
331
184
  5
188
331
185
  5
189
331
186
  5
68C
331
187
  5
7D9
331
188
  5
DAC
331
189
  5
121B
331
68C
  5
1466
331
DAC
  5
262A
331
121B
  5
262B
331
1466
  5
262C
331
146D
  5
2812
331
262A
  5
2813
331
262B
  5
2814
331
262C
  5
28CA
331
2812
  5
2A52
331
2813
  5
2B9B
331
2814
  5
35AE
331
28CA
  5
369A
331
2A52
  5
369B
331
2B9B
  5
369C
331
369B
  5
36A7
331
369C
  5
36A8
331
36A7
  5
36A9
331
36A8
  5
38BF
331
36A9
  5
38C0
331
36AA
  5
38C1
331
36AB
  5
38C2
331
3AB7
  5
3AC7
331
3ABF
  5
3ACD
331
3AC3
  5
3AD2
331
3AC8
  5
3ADA
331
3ACD
  5
3ADE
331
3AD2
  5
3AE2
331
3AD6
  5
3AE3
331
3ADA
  5
3AE4
331
3ADE
  5
3AE5
331
3AE2
  5
3AE6
331
3AE3
  5
3AE8
331
3AE4
  5
3AE9
331
3AE5
  5
3AEB
331
3AE6
  5
3AEC
331
3AE8
  5
3AEE
331
3AE9
  5
3B34
331
3AEA
  5
3B35
331
3AEB
  5
3B3A
331
3AEC
  5
3B3B
331
3AED
  5
3B3C
331
3BA2
  5
3BAF
331
3BA3
  5
3BB3
331
3BA4
  5
3BBB
331
3BA6
  5
3BC7
331
3BC7
  5
3BE3
331
3BC9
  5
3BE6
331
3BCA
  5
3BEB
331
3BCB
  5
3BEF
331
3BCC
  5
3BF7
331
3BCD
  5
3BFB
331
3BDE
  5
3C01
331
3BE2
  5
3C02
331
3BE3
  5
3C06
331
3BE4
  5
3C0A
331
3BE5
  5
3C0E
331
3BE6
  5
3C0F
331
3BEB
  5
3C10
331
3BEF
  5
3C11
331
3BF3
  5
3C12
331
3BF7
  5
3C13
331
3BFB
  5
3C14
331
3C00
  5
3C24
331
3C01
  5
3C25
331
3C02
  5
3C26
331
3C06
  5
3C27
331
3C0A
  5
3C28
331
3C0E
  5
3C29
331
3C26
  5
3C84
331
3C2B
  5
3CB6
331
3C2C
  5
3CB7
331
3C3B
  5
3CB8
331
3C4A
  5
3CB9
331
3C59
  5
3CBA
331
3C86
  5
3CDE
331
3C95
  5
3CED
331
3CBA
  5
3D54
331
3CBB
  5
3D55
331
3CBD
  5
3D5A
331
3CCD
  5
3D5E
331
3CED
  5
3D60
331
3CFC
  5
3D61
331
3D56
  5
3D6C
331
3D5A
  5
3D70
331
3D60
  5
3D72
331
3D61
  5
3D73
331
3D62
  5
3D74
331
3D63
  5
3D75
331
3D64
  5
3D76
331
3D65
  5
3D77
331
3D66
  5
3D78
331
3D67
  5
3D87
331
3D68
  5
3D95
331
3D6C
  5
3D96
331
3D70
  5
3D97
331
3D71
  5
3D98
331
3D72
  5
3D99
331
3D73
  5
3D9A
331
3D74
  5
3D9B
331
3D75
  5
3D9C
331
3D76
  5
3D9D
331
3D77
  5
3D9E
331
3D78
  5
3D9F
331
3D87
  5
3DA0
331
3D95
  5
3DA1
331
3D98
  5
3DA4
331
3D99
  5
3DA5
331
3D9A
  5
3DA6
331
3D9B
  5
3DA7
331
3D9C
  5
3DA8
331
3D9D
  5
3DA9
331
3D9E
  5
3DAA
331
3D9F
  5
3DAB
331
3DA0
  5
3DAC
331
3DA1
  5
3DAD
331
3DA2
  5
3DB0
331
3DB0
  5
3DBC
331
3DB4
  5
3E15
331
3DB5
  5
3E7C
331
3DB6
  5
3E7D
331
3DB7
  5
3E7E
331
3DBC
  5
3EA7
331
3DDA
  5
3EAC
331
3E30
  5
3EB5
331
3E55
  5
3EB7
331
3E56
  5
3EB8
331
3E57
  5
3EBC
331
3E7D
  5
3EF2
331
3E7E
  5
3EF3
331
3EA7
  5
3EFF
331
3EA8
  5
3F00
331
3EAF
  5
3BF3
331
3EB0
  5
3BB7
331
3EB1
  5
3BBF
331
3EB3
  5
3F01
331
3EBE
  5
3AEA
331
3EBF
  5
3AE7
331
3EC0
  5
3B39
331
3EEC
  5
3F02
331
3EED
  5
3F03
331
3EF9
  5
3F09
331
3EFA
  5
3F0A
331
3EFB
  5
3F0B
331
3EFC
  5
3F0C
331
3EFD
  5
3F23
331
3F09
  5
3F32
331
3F0A
  5
3F48
331
3F0B
  5
3F49
331
3F0C
  5
3F4A
331
3F23
  5
3F4B
331
3F32
  5
3F4C
331
3F48
  5
3F4D
331
3F4E
  5
3E57
  0
DICTIONARY
  5
3F4F
102
{ACAD_REACTORS
330
1468
102
}
330
1468
100
AcDbDictionary
280
     1
281
     1
  3
TEXT
360
1467
  0
DIMASSOC
  5
3C2E
102
{ACAD_REACTORS
330
3C2D
102
}
330
3C2D
100
AcDbDimAssoc
330
3C2C
 90
        3
 70
     0
 71
     1
  1
AcDbOsnapPointRef
 72
    13
331
3BCD
 73
     0
 91
        0
 40
0.0
 10
0.0
 20
0.0
 30
0.0
 75
     0
  1
AcDbOsnapPointRef
 72
    13
331
3BC9
 73
     0
 91
        0
 40
0.0
 10
0.0
 20
0.0
 30
0.0
 75
     0
  0
DIMASSOC
  5
3C3D
102
{ACAD_REACTORS
330
3C3C
102
}
330
3C3C
100
AcDbDimAssoc
330
3C3B
 90
        2
 70
     0
 71
     1
  1
AcDbOsnapPointRef
 72
    13
331
3BC9
 73
     0
 91
        0
 40
0.0
 10
0.0
 20
0.0
 30
0.0
 75
     0
  0
DIMASSOC
  5
3C88
102
{ACAD_REACTORS
330
3C87
102
}
330
3C87
100
AcDbDimAssoc
330
3C86
 90
        1
 70
     0
 71
     1
  1
AcDbOsnapPointRef
 72
    10
331
3AE3
 73
     0
 91
        0
 40
2.861101328573896
 10
0.0
 20
0.0
 30
0.0
 75
     0
  0
DIMASSOC
  5
3C97
102
{ACAD_REACTORS
330
3C96
102
}
330
3C96
100
AcDbDimAssoc
330
3C95
 90
        3
 70
     0
 71
     1
  1
AcDbOsnapPointRef
 72
    10
331
3C0E
 73
     0
 91
        0
 40
2.506324747424061
 10
0.0
 20
0.0
 30
0.0
 75
     0
  1
AcDbOsnapPointRef
 72
    10
331
3BE3
 73
     0
 91
        0
 40
0.9318355105541373
 10
0.0
 20
0.0
 30
0.0
 75
     0
  0
DIMASSOC
  5
3CCF
102
{ACAD_REACTORS
330
3CCE
102
}
330
3CCE
100
AcDbDimAssoc
330
3CCD
 90
        3
 70
     0
 71
     1
  1
AcDbOsnapPointRef
 72
     6
331
3C06
 73
     2
 91
        1
 40
0.4710232620680095
 10
0.0
 20
0.0
 30
0.0
332
3BDE
 74
     2
 92
        1
 75
     0
  1
AcDbOsnapPointRef
 72
    10
331
3BE2
 73
     0
 91
        0
 40
2.519260007304959
 10
0.0
 20
0.0
 30
0.0
 75
     0
  0
DIMASSOC
  5
3CEF
102
{ACAD_REACTORS
330
3CEE
102
}
330
3CEE
100
AcDbDimAssoc
330
3CED
 90
        3
 70
     0
 71
     1
  1
AcDbOsnapPointRef
 72
    10
331
3BE2
 73
     0
 91
        0
 40
2.073297156459593
 10
0.0
 20
0.0
 30
0.0
 75
     0
  1
AcDbOsnapPointRef
 72
    10
331
3BE2
 73
     0
 91
        0
 40
4.944084870840252
 10
0.0
 20
0.0
 30
0.0
 75
     0
  0
DIMASSOC
  5
3CFE
102
{ACAD_REACTORS
330
3CFD
102
}
330
3CFD
100
AcDbDimAssoc
330
3CFC
 90
        2
 70
     0
 71
     1
  1
AcDbOsnapPointRef
 72
    10
331
3BE3
 73
     0
 91
        0
 40
1.962039930828902
 10
0.0
 20
0.0
 30
0.0
 75
     0
  0
DIMASSOC
  5
3D7A
102
{ACAD_REACTORS
330
3D79
102
}
330
3D79
100
AcDbDimAssoc
330
3D78
 90
        3
 70
     0
 71
     1
  1
AcDbOsnapPointRef
 72
    13
331
3D56
 73
     2
 91
        1
 40
0.0
 10
0.0
 20
0.0
 30
0.0
 75
     0
  1
AcDbOsnapPointRef
 72
    13
331
3D68
 73
     2
 91
        1
 40
0.0
 10
0.0
 20
0.0
 30
0.0
 75
     0
  0
DIMASSOC
  5
3DBE
102
{ACAD_REACTORS
330
3DBD
102
}
330
3DBD
100
AcDbDimAssoc
330
3DBC
 90
        3
 70
     0
 71
     1
  1
AcDbOsnapPointRef
 72
    13
331
3DB7
 73
     0
 91
        0
 40
0.0
 10
0.0
 20
0.0
 30
0.0
 75
     0
  1
AcDbOsnapPointRef
 72
    13
331
3DB6
 73
     0
 91
        0
 40
0.0
 10
0.0
 20
0.0
 30
0.0
 75
     0
  0
DIMASSOC
  5
3DDC
102
{ACAD_REACTORS
330
3DDB
102
}
330
3DDB
100
AcDbDimAssoc
330
3DDA
 90
        3
 70
     0
 71
     1
  1
AcDbOsnapPointRef
 72
    13
331
3DB5
 73
     0
 91
        0
 40
0.0
 10
0.0
 20
0.0
 30
0.0
 75
     0
  1
AcDbOsnapPointRef
 72
    13
331
3DB6
 73
     0
 91
        0
 40
0.0
 10
0.0
 20
0.0
 30
0.0
 75
     0
  0
DIMASSOC
  5
3F25
102
{ACAD_REACTORS
330
3F24
102
}
330
3F24
100
AcDbDimAssoc
330
3F23
 90
        3
 70
     0
 71
     1
  1
AcDbOsnapPointRef
 72
     3
331
3C2B
 73
     0
 91
        0
 40
0.0
 10
0.0
 20
0.0
 30
0.0
 75
     0
  1
AcDbOsnapPointRef
 72
     3
331
3EA8
 73
     0
 91
        0
 40
0.0
 10
0.0
 20
0.0
 30
0.0
 75
     0
  0
DIMASSOC
  5
3F34
102
{ACAD_REACTORS
330
3F33
102
}
330
3F33
100
AcDbDimAssoc
330
3F32
 90
        3
 70
     0
 71
     1
  1
AcDbOsnapPointRef
 72
     3
331
3EA8
 73
     0
 91
        0
 40
0.0
 10
0.0
 20
0.0
 30
0.0
 75
     0
  1
AcDbOsnapPointRef
 72
     3
331
3C26
 73
     0
 91
        0
 40
0.0
 10
0.0
 20
0.0
 30
0.0
 75
     0
  0
GROUP
  5
36AC
102
{ACAD_REACTORS
330
1A
102
}
330
1A
100
AcDbGroup
300

 70
     1
 71
     1
340
369B
340
369C
340
36A7
340
36A8
340
36A9
340
36AA
340
36AB
  0
GROUP
  5
3DB9
102
{ACAD_REACTORS
330
1A
102
}
330
1A
100
AcDbGroup
300

 70
     1
 71
     1
340
3DB7
340
3DB4
340
3DB5
340
3DB6
  0
GROUP
  5
3F04
102
{ACAD_REACTORS
330
1A
102
}
330
1A
100
AcDbGroup
300

 70
     1
 71
     1
340
3DB0
340
3DB7
340
3DB6
340
3DB5
340
3DB4
  0
GROUP
  5
3F47
102
{ACAD_REACTORS
330
1A
102
}
330
1A
100
AcDbGroup
300

 70
     1
 71
     1
340
3D95
340
3D98
340
3DA0
340
3DA1
340
3DA2
  0
LAYOUT
  5
21
102
{ACAD_REACTORS
330
1E
102
}
330
1E
100
AcDbPlotSettings
  1

  2
none_device
  4
ISO_A3_(420.00_x_297.00_MM)
  6

 40
7.5
 41
20.0
 42
7.5
 43
20.0
 44
420.0
 45
297.0
 46
0.0
 47
0.0
 48
0.0
 49
0.0
140
0.0
141
0.0
142
1.0
143
1.0
 70
     0
 72
     1
 73
     0
 74
     0
  7

 75
     0
 76
     0
 77
     2
 78
   300
147
1.0
148
0.0
149
0.0
100
AcDbLayout
  1
Layout1
 70
     0
 71
     0
 10
-7.5
 20
-20.0
 11
412.5
 21
277.0
 12
0.0
 22
0.0
 32
0.0
 14
0.0
 24
0.0
 34
0.0
 15
0.0
 25
0.0
 35
0.0
146
0.0
 13
0.0
 23
0.0
 33
0.0
 16
0.0
 26
0.0
 36
0.0
 17
0.0
 27
0.0
 37
0.0
 76
     0
330
B
331
349
  0
LAYOUT
  5
20
102
{ACAD_REACTORS
330
1E
102
}
330
1E
100
AcDbPlotSettings
  1

  2
Adobe PDF
  4
A4
  6

 40
0.0
 41
0.0400000000000205
 42
0.0600000000000023
 43
0.0
 44
210.0
 45
297.0
 46
0.0
 47
0.0224285714285486
 48
0.0
 49
0.0
140
0.0
141
0.0
142
1.0
143
10.00285795941698
 70
  1712
 72
     1
 73
     0
 74
     1
  7
monochrome.ctb
 75
     0
 76
   349
 77
     2
 78
   300
147
0.0999714285714286
148
-91.02013567089853
149
73.59871453016603
100
AcDbLayout
  1
Model
 70
     0
 71
     1
 10
0.0
 20
0.0
 11
2100.0
 21
2970.0
 12
0.0
 22
0.0
 32
0.0
 14
0.0
 24
0.0
 34
-0.0000000000000142
 15
2100.0
 25
2970.0
 35
34.99521132346014
146
0.0
 13
0.0
 23
0.0
 33
0.0
 16
0.0
 26
0.0
 36
0.0
 17
0.0
 27
0.0
 37
0.0
 76
     0
330
A
331
15
1001
PLOTTRANSPARENCY
1071
        0
  0
MATERIAL
  5
265
102
{ACAD_REACTORS
330
263
102
}
330
263
100
AcDbMaterial
  1
ByBlock
 72
     1
 94
      127
  0
MATERIAL
  5
264
102
{ACAD_REACTORS
330
263
102
}
330
263
100
AcDbMaterial
  1
ByLayer
 72
     1
 94
      127
  0
MATERIAL
  5
266
102
{ACAD_REACTORS
330
263
102
}
330
263
100
AcDbMaterial
  1
Global
 72
     1
 94
      127
  0
MLEADERSTYLE
  5
DAB
102
{ACAD_REACTORS
330
336
102
}
330
336
100
AcDbMLeaderStyle
170
     2
171
     1
172
     0
 90
        2
 40
0.0
 41
0.0
173
     1
 91
-1056964608
340
11
 92
       -2
290
     1
 42
2.0
291
     1
 43
8.0
  3
Standard
341
0
 44
4.0
300

342
17
174
     1
178
     6
175
     1
176
     0
 93
-1056964608
 45
4.0
292
     0
297
     0
 46
4.0
343
0
 94
-1056964608
 47
1.0
 49
1.0
140
1.0
293
     1
141
0.0
294
     1
177
     0
142
1.0
295
     0
296
     0
143
3.75
1001
ACAD_MLEADERVER
1070
     2
  0
MLINESTYLE
  5
1C
102
{ACAD_REACTORS
330
1B
102
}
330
1B
100
AcDbMlineStyle
  2
Standard
 70
     0
  3

 62
     0
 51
90.0
 52
90.0
 71
     2
 49
0.5
 62
   256
  6
BYLAYER
 49
-0.5
 62
   256
  6
BYLAYER
  0
ACDBPLACEHOLDER
  5
1D
102
{ACAD_REACTORS
330
1F
102
}
330
1F
  0
SCALE
  5
242
102
{ACAD_REACTORS
330
241
102
}
330
241
100
AcDbScale
 70
     0
300
1:1
140
1.0
141
1.0
290
     1
  0
SCALE
  5
243
102
{ACAD_REACTORS
330
241
102
}
330
241
100
AcDbScale
 70
     0
300
1:2
140
1.0
141
2.0
290
     0
  0
SCALE
  5
244
102
{ACAD_REACTORS
330
241
102
}
330
241
100
AcDbScale
 70
     0
300
1:4
140
1.0
141
4.0
290
     0
  0
SCALE
  5
245
102
{ACAD_REACTORS
330
241
102
}
330
241
100
AcDbScale
 70
     0
300
1:5
140
1.0
141
5.0
290
     0
  0
SCALE
  5
246
102
{ACAD_REACTORS
330
241
102
}
330
241
100
AcDbScale
 70
     0
300
1:8
140
1.0
141
8.0
290
     0
  0
SCALE
  5
247
102
{ACAD_REACTORS
330
241
102
}
330
241
100
AcDbScale
 70
     0
300
1:10
140
1.0
141
10.0
290
     0
  0
SCALE
  5
248
102
{ACAD_REACTORS
330
241
102
}
330
241
100
AcDbScale
 70
     0
300
1:16
140
1.0
141
16.0
290
     0
  0
SCALE
  5
249
102
{ACAD_REACTORS
330
241
102
}
330
241
100
AcDbScale
 70
     0
300
1:20
140
1.0
141
20.0
290
     0
  0
SCALE
  5
24A
102
{ACAD_REACTORS
330
241
102
}
330
241
100
AcDbScale
 70
     0
300
1:30
140
1.0
141
30.0
290
     0
  0
SCALE
  5
24B
102
{ACAD_REACTORS
330
241
102
}
330
241
100
AcDbScale
 70
     0
300
1:40
140
1.0
141
40.0
290
     0
  0
SCALE
  5
24C
102
{ACAD_REACTORS
330
241
102
}
330
241
100
AcDbScale
 70
     0
300
1:50
140
1.0
141
50.0
290
     0
  0
SCALE
  5
24D
102
{ACAD_REACTORS
330
241
102
}
330
241
100
AcDbScale
 70
     0
300
1:100
140
1.0
141
100.0
290
     0
  0
SCALE
  5
24E
102
{ACAD_REACTORS
330
241
102
}
330
241
100
AcDbScale
 70
     0
300
2:1
140
2.0
141
1.0
290
     0
  0
SCALE
  5
24F
102
{ACAD_REACTORS
330
241
102
}
330
241
100
AcDbScale
 70
     0
300
4:1
140
4.0
141
1.0
290
     0
  0
SCALE
  5
250
102
{ACAD_REACTORS
330
241
102
}
330
241
100
AcDbScale
 70
     0
300
8:1
140
8.0
141
1.0
290
     0
  0
SCALE
  5
251
102
{ACAD_REACTORS
330
241
102
}
330
241
100
AcDbScale
 70
     0
300
10:1
140
10.0
141
1.0
290
     0
  0
SCALE
  5
252
102
{ACAD_REACTORS
330
241
102
}
330
241
100
AcDbScale
 70
     0
300
100:1
140
100.0
141
1.0
290
     0
  0
SCALE
  5
253
102
{ACAD_REACTORS
330
241
102
}
330
241
100
AcDbScale
 70
     0
300
1/128" = 1'-0"
140
0.0078125
141
12.0
290
     0
  0
SCALE
  5
254
102
{ACAD_REACTORS
330
241
102
}
330
241
100
AcDbScale
 70
     0
300
1/64" = 1'-0"
140
0.015625
141
12.0
290
     0
  0
SCALE
  5
255
102
{ACAD_REACTORS
330
241
102
}
330
241
100
AcDbScale
 70
     0
300
1/32" = 1'-0"
140
0.03125
141
12.0
290
     0
  0
SCALE
  5
256
102
{ACAD_REACTORS
330
241
102
}
330
241
100
AcDbScale
 70
     0
300
1/16" = 1'-0"
140
0.0625
141
12.0
290
     0
  0
SCALE
  5
257
102
{ACAD_REACTORS
330
241
102
}
330
241
100
AcDbScale
 70
     0
300
3/32" = 1'-0"
140
0.09375
141
12.0
290
     0
  0
SCALE
  5
258
102
{ACAD_REACTORS
330
241
102
}
330
241
100
AcDbScale
 70
     0
300
1/8" = 1'-0"
140
0.125
141
12.0
290
     0
  0
SCALE
  5
259
102
{ACAD_REACTORS
330
241
102
}
330
241
100
AcDbScale
 70
     0
300
3/16" = 1'-0"
140
0.1875
141
12.0
290
     0
  0
SCALE
  5
25A
102
{ACAD_REACTORS
330
241
102
}
330
241
100
AcDbScale
 70
     0
300
1/4" = 1'-0"
140
0.25
141
12.0
290
     0
  0
SCALE
  5
25B
102
{ACAD_REACTORS
330
241
102
}
330
241
100
AcDbScale
 70
     0
300
3/8" = 1'-0"
140
0.375
141
12.0
290
     0
  0
SCALE
  5
25C
102
{ACAD_REACTORS
330
241
102
}
330
241
100
AcDbScale
 70
     0
300
1/2" = 1'-0"
140
0.5
141
12.0
290
     0
  0
SCALE
  5
25D
102
{ACAD_REACTORS
330
241
102
}
330
241
100
AcDbScale
 70
     0
300
3/4" = 1'-0"
140
0.75
141
12.0
290
     0
  0
SCALE
  5
25E
102
{ACAD_REACTORS
330
241
102
}
330
241
100
AcDbScale
 70
     0
300
1" = 1'-0"
140
1.0
141
12.0
290
     0
  0
SCALE
  5
25F
102
{ACAD_REACTORS
330
241
102
}
330
241
100
AcDbScale
 70
     0
300
1-1/2" = 1'-0"
140
1.5
141
12.0
290
     0
  0
SCALE
  5
260
102
{ACAD_REACTORS
330
241
102
}
330
241
100
AcDbScale
 70
     0
300
3" = 1'-0"
140
3.0
141
12.0
290
     0
  0
SCALE
  5
261
102
{ACAD_REACTORS
330
241
102
}
330
241
100
AcDbScale
 70
     0
300
6" = 1'-0"
140
6.0
141
12.0
290
     0
  0
SCALE
  5
262
102
{ACAD_REACTORS
330
241
102
}
330
241
100
AcDbScale
 70
     0
300
1'-0" = 1'-0"
140
12.0
141
12.0
290
     0
  0
TABLESTYLE
  5
279
102
{ACAD_REACTORS
330
278
102
}
102
{ACAD_XDICTIONARY
360
3F59
102
}
330
278
100
AcDbTableStyle
  3
Standard
 70
     0
 71
     0
 40
0.06
 41
0.06
280
     0
281
     0
  7
Standard
140
4.5
170
     2
 62
     0
 63
   257
283
     0
 90
        4
 91
        0
  1

274
    -2
284
     1
 64
     0
275
    -2
285
     1
 65
     0
276
    -2
286
     1
 66
     0
277
    -2
287
     1
 67
     0
278
    -2
288
     1
 68
     0
279
    -2
289
     1
 69
     0
  7
Standard
140
6.0
170
     5
 62
     0
 63
   257
283
     0
 90
        4
 91
        0
  1

274
    -2
284
     1
 64
     0
275
    -2
285
     1
 65
     0
276
    -2
286
     1
 66
     0
277
    -2
287
     1
 67
     0
278
    -2
288
     1
 68
     0
279
    -2
289
     1
 69
     0
  7
Standard
140
4.5
170
     5
 62
     0
 63
   257
283
     0
 90
        4
 91
        0
  1

274
    -2
284
     1
 64
     0
275
    -2
285
     1
 65
     0
276
    -2
286
     1
 66
     0
277
    -2
287
     1
 67
     0
278
    -2
288
     1
 68
     0
279
    -2
289
     1
 69
     0
  0
VISUALSTYLE
  5
26C
102
{ACAD_REACTORS
330
267
102
}
330
267
100
AcDbVisualStyle
  2
2dWireframe
 70
     4
 71
     0
 72
     2
 73
     0
 90
        0
 40
-0.6
 41
-30.0
 62
     5
 63
     7
421
 16777215
 74
     1
 91
        4
 64
     7
 65
   257
 75
     1
175
     1
 42
1.0
 92
        0
 66
   257
 43
1.0
 76
     1
 77
     6
 78
     2
 67
     7
 79
     5
170
     0
171
     0
290
     0
174
     0
 93
        1
 44
0.0
173
     0
291
     0
 45
0.0
  0
VISUALSTYLE
  5
26E
102
{ACAD_REACTORS
330
267
102
}
330
267
100
AcDbVisualStyle
  2
3D Hidden
 70
     6
 71
     1
 72
     2
 73
     2
 90
        0
 40
-0.6
 41
-30.0
 62
     5
 63
     7
421
 16777215
 74
     2
 91
        2
 64
     7
 65
   257
 75
     2
175
     1
 42
40.0
 92
        0
 66
   257
 43
1.0
 76
     1
 77
     6
 78
     2
 67
     7
 79
     3
170
     0
171
     0
290
     0
174
     0
 93
        1
 44
0.0
173
     0
291
     0
 45
0.0
  0
VISUALSTYLE
  5
26D
102
{ACAD_REACTORS
330
267
102
}
330
267
100
AcDbVisualStyle
  2
3dWireframe
 70
     5
 71
     0
 72
     2
 73
     0
 90
        0
 40
-0.6
 41
-30.0
 62
     5
 63
     7
421
 16777215
 74
     1
 91
        4
 64
     7
 65
   257
 75
     1
175
     1
 42
1.0
 92
        0
 66
   257
 43
1.0
 76
     1
 77
     6
 78
     2
 67
     7
 79
     5
170
     0
171
     0
290
     0
174
     0
 93
        1
 44
0.0
173
     0
291
     0
 45
0.0
  0
VISUALSTYLE
  5
26F
102
{ACAD_REACTORS
330
267
102
}
330
267
100
AcDbVisualStyle
  2
Basic
 70
     7
 71
     1
 72
     0
 73
     1
 90
        0
 40
-0.6
 41
-30.0
 62
     5
 63
     7
421
 16777215
 74
     0
 91
        4
 64
     7
 65
   257
 75
     1
175
     1
 42
1.0
 92
        8
 66
     7
 43
1.0
 76
     1
 77
     6
 78
     2
 67
     7
 79
     5
170
     0
171
     0
290
     0
174
     0
 93
        1
 44
0.0
173
     0
291
     1
 45
0.0
  0
VISUALSTYLE
  5
273
102
{ACAD_REACTORS
330
267
102
}
330
267
100
AcDbVisualStyle
  2
Brighten
 70
    12
 71
     2
 72
     2
 73
     0
 90
        0
 40
-0.6
 41
-30.0
 62
     5
 63
     7
421
 16777215
 74
     1
 91
        4
 64
     7
 65
   257
 75
     1
175
     1
 42
1.0
 92
        8
 66
     7
 43
1.0
 76
     1
 77
     6
 78
     2
 67
     7
 79
     5
170
     0
171
     0
290
     0
174
     0
 93
        1
 44
50.0
173
     0
291
     1
 45
0.0
  0
VISUALSTYLE
  5
277
102
{ACAD_REACTORS
330
267
102
}
330
267
100
AcDbVisualStyle
  2
ColorChange
 70
    16
 71
     2
 72
     2
 73
     3
 90
        0
 40
-0.6
 41
-30.0
 62
     5
 63
     8
421
  8421504
 74
     1
 91
        4
 64
     7
 65
   257
 75
     1
175
     1
 42
1.0
 92
        8
 66
     8
424
  8421504
 43
1.0
 76
     1
 77
     6
 78
     2
 67
     7
 79
     5
170
     0
171
     0
290
     0
174
     0
 93
        1
 44
0.0
173
     0
291
     1
 45
0.0
  0
VISUALSTYLE
  5
271
102
{ACAD_REACTORS
330
267
102
}
330
267
100
AcDbVisualStyle
  2
Conceptual
 70
     9
 71
     3
 72
     2
 73
     0
 90
        0
 40
-0.6
 41
-30.0
 62
     5
 63
     7
421
 16777215
 74
     2
 91
        2
 64
     7
 65
   257
 75
     1
175
     1
 42
40.0
 92
        8
 66
     7
 43
1.0
 76
     1
 77
     6
 78
     2
 67
     7
 79
     3
170
     0
171
     0
290
     0
174
     0
 93
        1
 44
0.0
173
     0
291
     0
 45
0.0
  0
VISUALSTYLE
  5
272
102
{ACAD_REACTORS
330
267
102
}
330
267
100
AcDbVisualStyle
  2
Dim
 70
    11
 71
     2
 72
     2
 73
     0
 90
        0
 40
-0.6
 41
-30.0
 62
     5
 63
     7
421
 16777215
 74
     1
 91
        4
 64
     7
 65
   257
 75
     1
175
     1
 42
1.0
 92
        8
 66
     7
 43
1.0
 76
     1
 77
     6
 78
     2
 67
     7
 79
     5
170
     0
171
     0
290
     0
174
     0
 93
        1
 44
-50.0
173
     0
291
     1
 45
0.0
  0
VISUALSTYLE
  5
8FE
102
{ACAD_REACTORS
330
267
102
}
330
267
100
AcDbVisualStyle
  2
EdgeColorOff
 70
    22
 71
     2
 72
     2
 73
     0
 90
        0
 40
0.6
 41
30.0
 62
     5
 63
     7
421
 16777215
 74
     1
 91
        4
 64
     7
 65
   257
 75
     1
175
     1
 42
1.0
 92
        8
 66
     7
 43
1.0
 76
     1
 77
     6
 78
     2
 67
     7
 79
     5
170
     0
171
     0
290
     0
174
     0
 93
        1
 44
0.0
173
     0
291
     1
 45
0.0
  0
VISUALSTYLE
  5
276
102
{ACAD_REACTORS
330
267
102
}
330
267
100
AcDbVisualStyle
  2
Facepattern
 70
    15
 71
     2
 72
     2
 73
     0
 90
        0
 40
-0.6
 41
-30.0
 62
     5
 63
     7
421
 16777215
 74
     1
 91
        4
 64
     7
 65
   257
 75
     1
175
     1
 42
1.0
 92
        8
 66
     7
 43
1.0
 76
     1
 77
     6
 78
     2
 67
     7
 79
     5
170
     0
171
     0
290
     0
174
     0
 93
        1
 44
0.0
173
     0
291
     1
 45
0.0
  0
VISUALSTYLE
  5
268
102
{ACAD_REACTORS
330
267
102
}
330
267
100
AcDbVisualStyle
  2
Flat
 70
     0
 71
     2
 72
     1
 73
     1
 90
        2
 40
-0.6
 41
30.0
 62
     5
 63
     7
421
 16777215
 74
     0
 91
        4
 64
     7
 65
   257
 75
     1
175
     1
 42
1.0
 92
        8
 66
     7
 43
1.0
 76
     1
 77
     6
 78
     2
 67
     7
 79
     5
170
     0
171
     0
290
     0
174
     0
 93
       13
 44
0.0
173
     0
291
     1
 45
0.0
  0
VISUALSTYLE
  5
269
102
{ACAD_REACTORS
330
267
102
}
330
267
100
AcDbVisualStyle
  2
FlatWithEdges
 70
     1
 71
     2
 72
     1
 73
     1
 90
        2
 40
-0.6
 41
30.0
 62
     5
 63
     7
421
 16777215
 74
     1
 91
        4
 64
     7
 65
   257
 75
     1
175
     1
 42
1.0
 92
        0
 66
   257
 43
1.0
 76
     1
 77
     6
 78
     2
 67
     7
 79
     5
170
     0
171
     0
290
     0
174
     0
 93
       13
 44
0.0
173
     0
291
     1
 45
0.0
  0
VISUALSTYLE
  5
26A
102
{ACAD_REACTORS
330
267
102
}
330
267
100
AcDbVisualStyle
  2
Gouraud
 70
     2
 71
     2
 72
     2
 73
     1
 90
        2
 40
-0.6
 41
30.0
 62
     5
 63
     7
421
 16777215
 74
     0
 91
        4
 64
     7
 65
   257
 75
     1
175
     1
 42
1.0
 92
        0
 66
     7
 43
1.0
 76
     1
 77
     6
 78
     2
 67
     7
 79
     5
170
     0
171
     0
290
     0
174
     0
 93
       13
 44
0.0
173
     0
291
     1
 45
0.0
  0
VISUALSTYLE
  5
26B
102
{ACAD_REACTORS
330
267
102
}
330
267
100
AcDbVisualStyle
  2
GouraudWithEdges
 70
     3
 71
     2
 72
     2
 73
     1
 90
        2
 40
-0.6
 41
30.0
 62
     5
 63
     7
421
 16777215
 74
     1
 91
        4
 64
     7
 65
   257
 75
     1
175
     1
 42
1.0
 92
        0
 66
   257
 43
1.0
 76
     1
 77
     6
 78
     2
 67
     7
 79
     5
170
     0
171
     0
290
     0
174
     0
 93
       13
 44
0.0
173
     0
291
     1
 45
0.0
  0
VISUALSTYLE
  5
8FB
102
{ACAD_REACTORS
330
267
102
}
330
267
100
AcDbVisualStyle
  2
Hidden
 70
     6
 71
     1
 72
     2
 73
     2
 90
        0
 40
0.6
 41
30.0
 62
     5
 63
     7
421
 16777215
 74
     2
 91
        2
 64
     7
 65
   257
 75
     2
175
     1
 42
40.0
 92
        0
 66
   257
 43
1.0
 76
     1
 77
     6
 78
     2
 67
     7
 79
     3
170
     0
171
     0
290
     0
174
     0
 93
        1
 44
0.0
173
     0
291
     0
 45
0.0
  0
VISUALSTYLE
  5
8FC
102
{ACAD_REACTORS
330
267
102
}
330
267
100
AcDbVisualStyle
  2
JitterOff
 70
    20
 71
     2
 72
     2
 73
     0
 90
        0
 40
0.6
 41
30.0
 62
     5
 63
     7
421
 16777215
 74
     1
 91
        4
 64
     7
 65
   257
 75
     1
175
     1
 42
1.0
 92
       10
 66
     7
 43
1.0
 76
     1
 77
     6
 78
     2
 67
     7
 79
     5
170
     0
171
     0
290
     0
174
     0
 93
        1
 44
0.0
173
     0
291
     1
 45
0.0
  0
VISUALSTYLE
  5
275
102
{ACAD_REACTORS
330
267
102
}
330
267
100
AcDbVisualStyle
  2
Linepattern
 70
    14
 71
     2
 72
     2
 73
     0
 90
        0
 40
-0.6
 41
-30.0
 62
     5
 63
     7
421
 16777215
 74
     1
 91
        4
 64
     7
 65
   257
 75
     7
175
     7
 42
1.0
 92
        8
 66
     7
 43
1.0
 76
     1
 77
     6
 78
     2
 67
     7
 79
     5
170
     0
171
     0
290
     0
174
     0
 93
        1
 44
0.0
173
     0
291
     1
 45
0.0
  0
VISUALSTYLE
  5
8FD
102
{ACAD_REACTORS
330
267
102
}
330
267
100
AcDbVisualStyle
  2
OverhangOff
 70
    21
 71
     2
 72
     2
 73
     0
 90
        0
 40
0.6
 41
30.0
 62
     5
 63
     7
421
 16777215
 74
     1
 91
        4
 64
     7
 65
   257
 75
     1
175
     1
 42
1.0
 92
        9
 66
     7
 43
1.0
 76
     1
 77
     6
 78
     2
 67
     7
 79
     5
170
     0
171
     0
290
     0
174
     0
 93
        1
 44
0.0
173
     0
291
     1
 45
0.0
  0
VISUALSTYLE
  5
270
102
{ACAD_REACTORS
330
267
102
}
330
267
100
AcDbVisualStyle
  2
Realistic
 70
     8
 71
     2
 72
     2
 73
     0
 90
        0
 40
-0.6
 41
-30.0
 62
     5
 63
     7
421
 16777215
 74
     1
 91
        0
 64
     7
 65
   257
 75
     1
175
     1
 42
1.0
 92
        8
 66
     8
424
  7895160
 43
1.0
 76
     1
 77
     6
 78
     2
 67
     7
 79
     5
170
     0
171
     0
290
     0
174
     0
 93
       13
 44
0.0
173
     0
291
     0
 45
0.0
  0
VISUALSTYLE
  5
903
102
{ACAD_REACTORS
330
267
102
}
330
267
100
AcDbVisualStyle
  2
Shaded
 70
    27
 71
     2
 72
     2
 73
     1
 90
        2
 40
0.6
 41
30.0
 62
     5
 63
     7
421
 16777215
 74
     0
 91
        4
 64
     7
 65
   257
 75
     1
175
     1
 42
1.0
 92
        8
 66
   257
 43
1.0
 76
     1
 77
     6
 78
     2
 67
     8
425
  7895160
 79
     3
170
     0
171
     0
290
     0
174
     0
 93
        5
 44
0.0
173
     0
291
     0
 45
0.0
  0
VISUALSTYLE
  5
902
102
{ACAD_REACTORS
330
267
102
}
330
267
100
AcDbVisualStyle
  2
Shaded with edges
 70
    26
 71
     2
 72
     2
 73
     1
 90
        2
 40
0.6
 41
30.0
 62
     5
 63
     7
421
 16777215
 74
     1
 91
       10
 64
     7
 65
   257
 75
     2
175
     1
 42
1.0
 92
        8
 66
   257
 43
1.0
 76
     1
 77
     6
 78
     2
 67
     7
 79
     3
170
     0
171
     0
290
     0
174
     0
 93
        5
 44
0.0
173
     0
291
     0
 45
0.0
  0
VISUALSTYLE
  5
8FF
102
{ACAD_REACTORS
330
267
102
}
330
267
100
AcDbVisualStyle
  2
Shades of Gray
 70
    23
 71
     2
 72
     2
 73
     3
 90
        0
 40
0.6
 41
30.0
 62
     5
 63
     7
421
 16777215
 74
     2
 91
        2
 64
     7
 65
     7
 75
     1
175
     1
 42
40.0
 92
        8
 66
     7
 43
1.0
 76
     1
 77
     6
 78
     2
 67
     7
 79
     3
170
     0
171
     0
290
     0
174
     0
 93
        1
 44
0.0
173
     0
291
     0
 45
0.0
  0
VISUALSTYLE
  5
900
102
{ACAD_REACTORS
330
267
102
}
330
267
100
AcDbVisualStyle
  2
Sketchy
 70
    24
 71
     1
 72
     2
 73
     2
 90
        0
 40
0.6
 41
30.0
 62
     5
 63
     7
421
 16777215
 74
     2
 91
        2
 64
     7
 65
     7
 75
     1
175
     1
 42
40.0
 92
       11
 66
     7
 43
1.0
 76
     1
 77
     6
 78
     2
 67
     7
 79
     6
170
     0
171
     0
290
     0
174
     0
 93
        1
 44
0.0
173
     0
291
     0
 45
0.0
  0
VISUALSTYLE
  5
274
102
{ACAD_REACTORS
330
267
102
}
330
267
100
AcDbVisualStyle
  2
Thicken
 70
    13
 71
     2
 72
     2
 73
     0
 90
        0
 40
-0.6
 41
-30.0
 62
     5
 63
     7
421
 16777215
 74
     1
 91
        4
 64
     7
 65
   257
 75
     1
175
     1
 42
1.0
 92
       12
 66
     7
 43
1.0
 76
     1
 77
     6
 78
     2
 67
     7
 79
     5
170
     0
171
     0
290
     0
174
     0
 93
        1
 44
0.0
173
     0
291
     1
 45
0.0
  0
VISUALSTYLE
  5
8FA
102
{ACAD_REACTORS
330
267
102
}
330
267
100
AcDbVisualStyle
  2
Wireframe
 70
     5
 71
     0
 72
     2
 73
     0
 90
        0
 40
0.6
 41
30.0
 62
     5
 63
     7
421
 16777215
 74
     1
 91
        4
 64
     7
 65
   257
 75
     1
175
     1
 42
1.0
 92
        0
 66
   257
 43
1.0
 76
     1
 77
     6
 78
     2
 67
     7
 79
     3
170
     0
171
     0
290
     0
174
     0
 93
        1
 44
0.0
173
     0
291
     0
 45
0.0
  0
VISUALSTYLE
  5
901
102
{ACAD_REACTORS
330
267
102
}
330
267
100
AcDbVisualStyle
  2
X-Ray
 70
    25
 71
     2
 72
     2
 73
     1
 90
        1
 40
0.5
 41
30.0
 62
     5
 63
     7
421
 16777215
 74
     1
 91
        0
 64
     7
 65
   257
 75
     1
175
     1
 42
1.0
 92
        8
 66
     7
 43
1.0
 76
     1
 77
     6
 78
     2
 67
     7
 79
     3
170
     0
171
     0
290
     0
174
     0
 93
       13
 44
0.0
173
     0
291
     0
 45
0.0
  0
DICTIONARYVAR
  5
331
102
{ACAD_REACTORS
330
330
102
}
330
330
100
DictionaryVariables
280
     0
  1
1:1
  0
DICTIONARYVAR
  5
DB1
102
{ACAD_REACTORS
330
330
102
}
330
330
100
DictionaryVariables
280
     0
  1
Standard
  0
DICTIONARYVAR
  5
335
102
{ACAD_REACTORS
330
330
102
}
330
330
100
DictionaryVariables
280
     0
  1
Standard
  0
DICTIONARYVAR
  5
D52
102
{ACAD_REACTORS
330
330
102
}
330
330
100
DictionaryVariables
280
     0
  1
ByLayer
  0
DICTIONARYVAR
  5
896
102
{ACAD_REACTORS
330
330
102
}
330
330
100
DictionaryVariables
280
     0
  1
0
  0
DICTIONARYVAR
  5
ECE
102
{ACAD_REACTORS
330
E3E
102
}
330
E3E
100
DictionaryVariables
280
     0
  1
0.261799
  0
DICTIONARYVAR
  5
ECC
102
{ACAD_REACTORS
330
E3E
102
}
330
E3E
100
DictionaryVariables
280
     0
  1
0.400000
  0
DICTIONARYVAR
  5
ECD
102
{ACAD_REACTORS
330
E3E
102
}
330
E3E
100
DictionaryVariables
280
     0
  1
0.250000
  0
DICTIONARYVAR
  5
ECF
102
{ACAD_REACTORS
330
E3E
102
}
330
E3E
100
DictionaryVariables
280
     0
  1
1
  0
FIELD
  5
1467
102
{ACAD_REACTORS
330
3F4F
102
}
330
3F4F
100
AcDbField
  1
_text
  2
{%<\_FldIdx 0>%M}
 90
        1
360
146B
 97
        0
 91
       63
 92
        0
 94
       11
 95
        2
 96
        0
300

 93
        1
  6
ACFD_FIELDTEXT_CHECKSUM
 93
        2
 90
        2
140
4502.0
 94
        0
300

302

304
ACVALUE_END
  7
ACFD_FIELD_VALUE
 93
        6
 90
        4
  1
{20240416M}
 94
        0
300

302

304
ACVALUE_END
301
{20240416M}
 98
       11
  0
DICTIONARY
  5
3F59
330
279
100
AcDbDictionary
280
     1
281
     1
  3
ACAD_ROUNDTRIP_2008_TABLESTYLE_CELLSTYLEMAP
360
3F5A
  0
FIELD
  5
146B
330
1467
100
AcDbField
  1
AcVar
  2
\AcVar Date \f "yyyyMMdd"
 90
        0
 97
        0
 91
       63
 92
        0
 94
        8
 95
       64
 96
        0
300
Variable not supported
 93
        1
  6
Variable
 93
        2
 90
        4
  1
Date
 94
        0
300

302

304
ACVALUE_END
  7
ACFD_FIELD_VALUE
 93
        6
 90
        8
 92
       16
310
E807040000001000060026002A000000
 94
        0
300
yyyyMMdd
302

304
ACVALUE_END
301
20240416
 98
        8
  0
CELLSTYLEMAP
  5
3F5A
102
{ACAD_REACTORS
330
3F59
102
}
330
3F59
100
AcDbCellStyleMap
 90
        3
300
CELLSTYLE
  1
TABLEFORMAT_BEGIN
 90
        5
170
     1
 91
        0
 92
    32768
 62
   257
 93
        1
300
CONTENTFORMAT
  1
CONTENTFORMAT_BEGIN
 90
        0
 91
        0
 92
        4
 93
        0
300

 40
0.0
140
1.0
 94
        5
 62
     0
340
17
144
6.0
309
CONTENTFORMAT_END
171
     1
301
MARGIN
  1
CELLMARGIN_BEGIN
 40
0.06
 40
0.06
 40
0.06
 40
0.06
 40
0.18
 40
0.18
309
CELLMARGIN_END
 94
        6
 95
        1
302
GRIDFORMAT
  1
GRIDFORMAT_BEGIN
 90
        0
 91
        1
 62
     0
 92
       -2
340
0
 93
        0
 40
0.045
309
GRIDFORMAT_END
 95
        2
302
GRIDFORMAT
  1
GRIDFORMAT_BEGIN
 90
        0
 91
        1
 62
     0
 92
       -2
340
0
 93
        0
 40
0.045
309
GRIDFORMAT_END
 95
        4
302
GRIDFORMAT
  1
GRIDFORMAT_BEGIN
 90
        0
 91
        1
 62
     0
 92
       -2
340
0
 93
        0
 40
0.045
309
GRIDFORMAT_END
 95
        8
302
GRIDFORMAT
  1
GRIDFORMAT_BEGIN
 90
        0
 91
        1
 62
     0
 92
       -2
340
0
 93
        0
 40
0.045
309
GRIDFORMAT_END
 95
       16
302
GRIDFORMAT
  1
GRIDFORMAT_BEGIN
 90
        0
 91
        1
 62
     0
 92
       -2
340
0
 93
        0
 40
0.045
309
GRIDFORMAT_END
 95
       32
302
GRIDFORMAT
  1
GRIDFORMAT_BEGIN
 90
        0
 91
        1
 62
     0
 92
       -2
340
0
 93
        0
 40
0.045
309
GRIDFORMAT_END
309
TABLEFORMAT_END
  1
CELLSTYLE_BEGIN
 90
        1
 91
        1
300
_TITLE
309
CELLSTYLE_END
300
CELLSTYLE
  1
TABLEFORMAT_BEGIN
 90
        5
170
     1
 91
        0
 92
        0
 62
   257
 93
        1
300
CONTENTFORMAT
  1
CONTENTFORMAT_BEGIN
 90
        0
 91
        0
 92
        4
 93
        0
300

 40
0.0
140
1.0
 94
        5
 62
     0
340
17
144
4.5
309
CONTENTFORMAT_END
171
     1
301
MARGIN
  1
CELLMARGIN_BEGIN
 40
0.06
 40
0.06
 40
0.06
 40
0.06
 40
0.18
 40
0.18
309
CELLMARGIN_END
 94
        6
 95
        1
302
GRIDFORMAT
  1
GRIDFORMAT_BEGIN
 90
        0
 91
        1
 62
     0
 92
       -2
340
0
 93
        0
 40
0.045
309
GRIDFORMAT_END
 95
        2
302
GRIDFORMAT
  1
GRIDFORMAT_BEGIN
 90
        0
 91
        1
 62
     0
 92
       -2
340
0
 93
        0
 40
0.045
309
GRIDFORMAT_END
 95
        4
302
GRIDFORMAT
  1
GRIDFORMAT_BEGIN
 90
        0
 91
        1
 62
     0
 92
       -2
340
0
 93
        0
 40
0.045
309
GRIDFORMAT_END
 95
        8
302
GRIDFORMAT
  1
GRIDFORMAT_BEGIN
 90
        0
 91
        1
 62
     0
 92
       -2
340
0
 93
        0
 40
0.045
309
GRIDFORMAT_END
 95
       16
302
GRIDFORMAT
  1
GRIDFORMAT_BEGIN
 90
        0
 91
        1
 62
     0
 92
       -2
340
0
 93
        0
 40
0.045
309
GRIDFORMAT_END
 95
       32
302
GRIDFORMAT
  1
GRIDFORMAT_BEGIN
 90
        0
 91
        1
 62
     0
 92
       -2
340
0
 93
        0
 40
0.045
309
GRIDFORMAT_END
309
TABLEFORMAT_END
  1
CELLSTYLE_BEGIN
 90
        2
 91
        1
300
_HEADER
309
CELLSTYLE_END
300
CELLSTYLE
  1
TABLEFORMAT_BEGIN
 90
        5
170
     1
 91
        0
 92
        0
 62
   257
 93
        1
300
CONTENTFORMAT
  1
CONTENTFORMAT_BEGIN
 90
        0
 91
        0
 92
        4
 93
        0
300

 40
0.0
140
1.0
 94
        2
 62
     0
340
17
144
4.5
309
CONTENTFORMAT_END
171
     1
301
MARGIN
  1
CELLMARGIN_BEGIN
 40
0.06
 40
0.06
 40
0.06
 40
0.06
 40
0.18
 40
0.18
309
CELLMARGIN_END
 94
        6
 95
        1
302
GRIDFORMAT
  1
GRIDFORMAT_BEGIN
 90
        0
 91
        1
 62
     0
 92
       -2
340
0
 93
        0
 40
0.045
309
GRIDFORMAT_END
 95
        2
302
GRIDFORMAT
  1
GRIDFORMAT_BEGIN
 90
        0
 91
        1
 62
     0
 92
       -2
340
0
 93
        0
 40
0.045
309
GRIDFORMAT_END
 95
        4
302
GRIDFORMAT
  1
GRIDFORMAT_BEGIN
 90
        0
 91
        1
 62
     0
 92
       -2
340
0
 93
        0
 40
0.045
309
GRIDFORMAT_END
 95
        8
302
GRIDFORMAT
  1
GRIDFORMAT_BEGIN
 90
        0
 91
        1
 62
     0
 92
       -2
340
0
 93
        0
 40
0.045
309
GRIDFORMAT_END
 95
       16
302
GRIDFORMAT
  1
GRIDFORMAT_BEGIN
 90
        0
 91
        1
 62
     0
 92
       -2
340
0
 93
        0
 40
0.045
309
GRIDFORMAT_END
 95
       32
302
GRIDFORMAT
  1
GRIDFORMAT_BEGIN
 90
        0
 91
        1
 62
     0
 92
       -2
340
0
 93
        0
 40
0.045
309
GRIDFORMAT_END
309
TABLEFORMAT_END
  1
CELLSTYLE_BEGIN
 90
        3
 91
        2
300
_DATA
309
CELLSTYLE_END
  0
ENDSEC
  0
EOF
