  0
SECTION
  2
HEADER
  9
$ACADVER
  1
AC1021
  9
$ACADMAINTVER
 70
    25
  9
$DWGCODEPAGE
  3
ANSI_932
  9
$LASTSAVEDBY
  1
tform
  9
$INSBASE
 10
0.0
 20
0.0
 30
0.0
  9
$EXTMIN
 10
0.0
 20
0.0
 30
-0.0000000000000142
  9
$EXTMAX
 10
2100.0
 20
2970.0
 30
34.99521132346014
  9
$LIMMIN
 10
0.0
 20
0.0
  9
$LIMMAX
 10
2100.0
 20
2970.0
  9
$ORTHOMODE
 70
     1
  9
$REGENMODE
 70
     1
  9
$FILLMODE
 70
     1
  9
$QTEXTMODE
 70
     0
  9
$MIRRTEXT
 70
     1
  9
$LTSCALE
 40
5.0
  9
$ATTMODE
 70
     1
  9
$TEXTSIZE
 40
2.5
  9
$TRACEWID
 40
1.0
  9
$TEXTSTYLE
  7
ＭＳ ゴシック
  9
$CLAYER
  8
DIM
  9
$CELTYPE
  6
ByLayer
  9
$CECOLOR
 62
   256
  9
$CELTSCALE
 40
1.0
  9
$DISPSILH
 70
     0
  9
$DIMSCALE
 40
1.0
  9
$DIMASZ
 40
10.0
  9
$DIMEXO
 40
30.0
  9
$DIMDLI
 40
0.9999999999999999
  9
$DIMRND
 40
0.0
  9
$DIMDLE
 40
0.0
  9
$DIMEXE
 40
0.0
  9
$DIMTP
 40
0.0
  9
$DIMTM
 40
0.0
  9
$DIMTXT
 40
24.0
  9
$DIMCEN
 40
0.0
  9
$DIMTSZ
 40
0.0
  9
$DIMTOL
 70
     0
  9
$DIMLIM
 70
     0
  9
$DIMTIH
 70
     0
  9
$DIMTOH
 70
     0
  9
$DIMSE1
 70
     0
  9
$DIMSE2
 70
     0
  9
$DIMTAD
 70
     1
  9
$DIMZIN
 70
    11
  9
$DIMBLK
  1
DOT
  9
$DIMASO
 70
     1
  9
$DIMSHO
 70
     1
  9
$DIMPOST
  1
<>
  9
$DIMAPOST
  1
[]
  9
$DIMALT
 70
     0
  9
$DIMALTD
 70
     1
  9
$DIMALTF
 40
1.0
  9
$DIMLFAC
 40
1.0
  9
$DIMTOFL
 70
     0
  9
$DIMTVP
 40
0.0
  9
$DIMTIX
 70
     1
  9
$DIMSOXD
 70
     0
  9
$DIMSAH
 70
     0
  9
$DIMBLK1
  1

  9
$DIMBLK2
  1

  9
$DIMSTYLE
  2
tfrom線あり
  9
$DIMCLRD
 70
     0
  9
$DIMCLRE
 70
     0
  9
$DIMCLRT
 70
     0
  9
$DIMTFAC
 40
1.0
  9
$DIMGAP
 40
20.0
  9
$DIMJUST
 70
     0
  9
$DIMSD1
 70
     0
  9
$DIMSD2
 70
     0
  9
$DIMTOLJ
 70
     1
  9
$DIMTZIN
 70
    11
  9
$DIMALTZ
 70
    11
  9
$DIMALTTZ
 70
    11
  9
$DIMUPT
 70
     0
  9
$DIMDEC
 70
     0
  9
$DIMTDEC
 70
     1
  9
$DIMALTU
 70
     2
  9
$DIMALTTD
 70
     2
  9
$DIMTXSTY
  7
ＭＳ ゴシック
  9
$DIMAUNIT
 70
     0
  9
$DIMADEC
 70
     2
  9
$DIMALTRND
 40
0.0
  9
$DIMAZIN
 70
     0
  9
$DIMDSEP
 70
    46
  9
$DIMATFIT
 70
     0
  9
$DIMFRAC
 70
     2
  9
$DIMLDRBLK
  1
DOT
  9
$DIMLUNIT
 70
     2
  9
$DIMLWD
 70
    -2
  9
$DIMLWE
 70
    -2
  9
$DIMTMOVE
 70
     0
  9
$DIMFXL
 40
1.0
  9
$DIMFXLON
 70
     0
  9
$DIMJOGANG
 40
0.7853981633974483
  9
$DIMTFILL
 70
     0
  9
$DIMTFILLCLR
 70
     0
  9
$DIMARCSYM
 70
     0
  9
$DIMLTYPE
  6

  9
$DIMLTEX1
  6

  9
$DIMLTEX2
  6

  9
$LUNITS
 70
     2
  9
$LUPREC
 70
     0
  9
$SKETCHINC
 40
0.1
  9
$FILLETRAD
 40
0.0
  9
$AUNITS
 70
     0
  9
$AUPREC
 70
     0
  9
$MENU
  1
acad
  9
$ELEVATION
 40
0.0
  9
$PELEVATION
 40
0.0
  9
$THICKNESS
 40
0.0
  9
$LIMCHECK
 70
     0
  9
$CHAMFERA
 40
0.0
  9
$CHAMFERB
 40
0.0
  9
$CHAMFERC
 40
0.0
  9
$CHAMFERD
 40
0.0
  9
$SKPOLY
 70
     0
  9
$TDCREATE
 40
2447893.375
  9
$TDUCREATE
 40
0.0
  9
$TDUPDATE
 40
2460417.682961736
  9
$TDUUPDATE
 40
2460417.307961736
  9
$TDINDWG
 40
0.17287625
  9
$TDUSRTIMER
 40
0.0003347569
  9
$USRTIMER
 70
     1
  9
$ANGBASE
 50
0.0
  9
$ANGDIR
 70
     0
  9
$PDMODE
 70
     1
  9
$PDSIZE
 40
-2.0
  9
$PLINEWID
 40
0.0
  9
$SPLFRAME
 70
     0
  9
$SPLINETYPE
 70
     6
  9
$SPLINESEGS
 70
     8
  9
$HANDSEED
  5
3F2E
  9
$SURFTAB1
 70
     6
  9
$SURFTAB2
 70
     6
  9
$SURFTYPE
 70
     6
  9
$SURFU
 70
     6
  9
$SURFV
 70
     6
  9
$UCSBASE
  2

  9
$UCSNAME
  2

  9
$UCSORG
 10
0.0
 20
0.0
 30
0.0
  9
$UCSXDIR
 10
1.0
 20
0.0
 30
0.0
  9
$UCSYDIR
 10
0.0
 20
1.0
 30
0.0
  9
$UCSORTHOREF
  2

  9
$UCSORTHOVIEW
 70
     0
  9
$UCSORGTOP
 10
0.0
 20
0.0
 30
0.0
  9
$UCSORGBOTTOM
 10
0.0
 20
0.0
 30
0.0
  9
$UCSORGLEFT
 10
0.0
 20
0.0
 30
0.0
  9
$UCSORGRIGHT
 10
0.0
 20
0.0
 30
0.0
  9
$UCSORGFRONT
 10
0.0
 20
0.0
 30
0.0
  9
$UCSORGBACK
 10
0.0
 20
0.0
 30
0.0
  9
$PUCSBASE
  2

  9
$PUCSNAME
  2

  9
$PUCSORG
 10
0.0
 20
0.0
 30
0.0
  9
$PUCSXDIR
 10
1.0
 20
0.0
 30
0.0
  9
$PUCSYDIR
 10
0.0
 20
1.0
 30
0.0
  9
$PUCSORTHOREF
  2

  9
$PUCSORTHOVIEW
 70
     0
  9
$PUCSORGTOP
 10
0.0
 20
0.0
 30
0.0
  9
$PUCSORGBOTTOM
 10
0.0
 20
0.0
 30
0.0
  9
$PUCSORGLEFT
 10
0.0
 20
0.0
 30
0.0
  9
$PUCSORGRIGHT
 10
0.0
 20
0.0
 30
0.0
  9
$PUCSORGFRONT
 10
0.0
 20
0.0
 30
0.0
  9
$PUCSORGBACK
 10
0.0
 20
0.0
 30
0.0
  9
$USERI1
 70
     0
  9
$USERI2
 70
     0
  9
$USERI3
 70
     0
  9
$USERI4
 70
     0
  9
$USERI5
 70
     0
  9
$USERR1
 40
0.0
  9
$USERR2
 40
0.0
  9
$USERR3
 40
0.0
  9
$USERR4
 40
0.0
  9
$USERR5
 40
0.0
  9
$WORLDVIEW
 70
     1
  9
$SHADEDGE
 70
     3
  9
$SHADEDIF
 70
    70
  9
$TILEMODE
 70
     1
  9
$MAXACTVP
 70
    64
  9
$PINSBASE
 10
0.0
 20
0.0
 30
0.0
  9
$PLIMCHECK
 70
     0
  9
$PEXTMIN
 10
0.0
 20
0.0
 30
0.0
  9
$PEXTMAX
 10
0.0
 20
0.0
 30
0.0
  9
$PLIMMIN
 10
-7.5
 20
-20.0
  9
$PLIMMAX
 10
412.5
 20
277.0
  9
$UNITMODE
 70
     0
  9
$VISRETAIN
 70
     0
  9
$PLINEGEN
 70
     1
  9
$PSLTSCALE
 70
     0
  9
$TREEDEPTH
 70
  3020
  9
$CMLSTYLE
  2
Standard
  9
$CMLJUST
 70
     0
  9
$CMLSCALE
 40
1.0
  9
$PROXYGRAPHICS
 70
     0
  9
$MEASUREMENT
 70
     1
  9
$CELWEIGHT
370
    -1
  9
$ENDCAPS
280
     0
  9
$JOINSTYLE
280
     0
  9
$LWDISPLAY
290
     1
  9
$INSUNITS
 70
     4
  9
$HYPERLINKBASE
  1

  9
$STYLESHEET
  1

  9
$XEDIT
290
     1
  9
$CEPSNTYPE
380
     0
  9
$PSTYLEMODE
290
     1
  9
$FINGERPRINTGUID
  2

  9
$VERSIONGUID
  2

  9
$EXTNAMES
290
     1
  9
$PSVPSCALE
 40
0.0
  9
$OLESTARTUP
290
     0
  9
$SORTENTS
280
   127
  9
$INDEXCTL
280
     0
  9
$HIDETEXT
280
     1
  9
$XCLIPFRAME
290
     0
  9
$HALOGAP
280
     0
  9
$OBSCOLOR
 70
   257
  9
$OBSLTYPE
280
     0
  9
$INTERSECTIONDISPLAY
280
     0
  9
$INTERSECTIONCOLOR
 70
   257
  9
$DIMASSOC
280
     2
  9
$PROJECTNAME
  1

  9
$CAMERADISPLAY
290
     0
  9
$LENSLENGTH
 40
50.0
  9
$CAMERAHEIGHT
 40
0.0
  9
$STEPSPERSEC
 40
2.0
  9
$STEPSIZE
 40
6.0
  9
$3DDWFPREC
 40
2.0
  9
$PSOLWIDTH
 40
0.25
  9
$PSOLHEIGHT
 40
4.0
  9
$LOFTANG1
 40
1.570796326794897
  9
$LOFTANG2
 40
1.570796326794897
  9
$LOFTMAG1
 40
0.0
  9
$LOFTMAG2
 40
0.0
  9
$LOFTPARAM
 70
     7
  9
$LOFTNORMALS
280
     1
  9
$LATITUDE
 40
37.795
  9
$LONGITUDE
 40
-122.394
  9
$NORTHDIRECTION
 40
0.0
  9
$TIMEZONE
 70
 -8000
  9
$LIGHTGLYPHDISPLAY
280
     1
  9
$TILEMODELIGHTSYNCH
280
     1
  9
$SOLIDHIST
280
     1
  9
$SHOWHIST
280
     1
  9
$DWFFRAME
280
     2
  9
$DGNFRAME
280
     2
  9
$REALWORLDSCALE
290
     1
  9
$INTERFERECOLOR
 62
   256
  9
$CSHADOW
280
     0
  9
$SHADOWPLANELOCATION
 40
0.0
  0
ENDSEC
  0
SECTION
  2
CLASSES
  0
CLASS
  1
LWPOLYLINE
  2
AcDbPolyline
  3
ObjectDBX Classes
 90
        0
 91
        1
280
     0
281
     1
  0
CLASS
  1
IMAGE
  2
AcDbRasterImage
  3
ISM
 90
      127
 91
        4
280
     0
281
     1
  0
CLASS
  1
OLE2FRAME
  2
AcDbOle2Frame
  3
ObjectDBX Classes
 90
        0
 91
        1
280
     0
281
     1
  0
CLASS
  1
HATCH
  2
AcDbHatch
  3
ObjectDBX Classes
 90
        0
 91
        1
280
     0
281
     1
  0
CLASS
  1
DICTIONARYVAR
  2
AcDbDictionaryVar
  3
ObjectDBX Classes
 90
        0
 91
        3
280
     0
281
     0
  0
CLASS
  1
RASTERVARIABLES
  2
AcDbRasterVariables
  3
ISM
 90
        0
 91
        3
280
     0
281
     0
  0
CLASS
  1
IMAGEDEF
  2
AcDbRasterImageDef
  3
ISM
 90
        0
 91
        3
280
     0
281
     0
  0
CLASS
  1
IMAGEDEF_REACTOR
  2
AcDbRasterImageDefReactor
  3
ISM
 90
        1
 91
        3
280
     0
281
     0
  0
CLASS
  1
IDBUFFER
  2
AcDbIdBuffer
  3
ObjectDBX Classes
 90
        0
 91
        3
280
     0
281
     0
  0
CLASS
  1
SPATIAL_FILTER
  2
AcDbSpatialFilter
  3
ObjectDBX Classes
 90
        0
 91
        3
280
     0
281
     0
  0
CLASS
  1
XRECORD
  2
AcDbXrecord
  3
ObjectDBX Classes
 90
        0
 91
        1
280
     0
281
     0
  0
CLASS
  1
SORTENTSTABLE
  2
AcDbSortentsTable
  3
ObjectDBX Classes
 90
        0
 91
        3
280
     0
281
     0
  0
CLASS
  1
LAYER_INDEX
  2
AcDbLayerIndex
  3
ObjectDBX Classes
 90
        0
 91
        3
280
     0
281
     0
  0
CLASS
  1
SPATIAL_INDEX
  2
AcDbSpatialIndex
  3
AutoCAD 2000
 90
        0
 91
        3
280
     0
281
     0
  0
CLASS
  1
OBJECT_PTR
  2
CAseDLPNTableRecord
  3
ASE-LPNTableRecord
 90
        1
 91
        3
280
     0
281
     0
  0
CLASS
  1
LAYOUT
  2
AcDbLayout
  3
ObjectDBX Classes
 90
        0
 91
        1
280
     0
281
     0
  0
CLASS
  1
PLOTSETTINGS
  2
AcDbPlotSettings
  3
ObjectDBX Classes
 90
        0
 91
        3
280
     0
281
     0
  0
CLASS
  1
ACDBDICTIONARYWDFLT
  2
AcDbDictionaryWithDefault
  3
ObjectDBX Classes
 90
        0
 91
        3
280
     0
281
     0
  0
CLASS
  1
ACDBPLACEHOLDER
  2
AcDbPlaceHolder
  3
ObjectDBX Classes
 90
        0
 91
        1
280
     0
281
     0
  0
CLASS
  1
SCALE
  2
AcDbScale
  3
ObjectDBX Classes
 90
     1153
 91
        3
280
     0
281
     0
  0
CLASS
  1
MATERIAL
  2
AcDbMaterial
  3
ObjectDBX Classes
 90
     1153
 91
        3
280
     0
281
     0
  0
CLASS
  1
VISUALSTYLE
  2
AcDbVisualStyle
  3
ObjectDBX Classes
 90
     4095
 91
        3
280
     0
281
     0
  0
CLASS
  1
TABLESTYLE
  2
AcDbTableStyle
  3
ObjectDBX Classes
 90
     4095
 91
        3
280
     0
281
     0
  0
CLASS
  1
DIMASSOC
  2
AcDbDimAssoc
  3
"AcDbDimAssoc|Product Desc:     AcDim ARX App For Dimension|Company:          Autodesk, Inc.|WEB Address:      www.autodesk.com"
 90
        0
 91
        3
280
     0
281
     0
  0
CLASS
  1
CELLSTYLEMAP
  2
AcDbCellStyleMap
  3
ObjectDBX Classes
 90
     1152
 91
        3
280
     0
281
     0
  0
CLASS
  1
SUN
  2
AcDbSun
  3
SCENEOE
 90
     1153
 91
        3
280
     0
281
     0
  0
CLASS
  1
MLEADERSTYLE
  2
AcDbMLeaderStyle
  3
ACDB_MLEADERSTYLE_CLASS
 90
     4095
 91
        3
280
     0
281
     0
  0
CLASS
  1
FIELD
  2
AcDbField
  3
ObjectDBX Classes
 90
     1152
 91
        3
280
     0
281
     0
  0
CLASS
  1
FIELDLIST
  2
AcDbFieldList
  3
ObjectDBX Classes
 90
     1152
 91
        3
280
     0
281
     0
  0
CLASS
  1
MULTILEADER
  2
AcDbMLeader
  3
ACDB_MLEADER_CLASS
 90
     1025
 91
        3
280
     0
281
     1
  0
ENDSEC
  0
SECTION
  2
TABLES
  0
TABLE
  2
VPORT
  5
7
330
0
100
AcDbSymbolTable
 70
     1
  0
VPORT
  5
15
330
7
100
AcDbSymbolTableRecord
100
AcDbViewportTableRecord
  2
*ACTIVE
 70
     0
 10
0.0
 20
0.0
 11
1.0
 21
1.0
 12
1141.020135670899
 22
1411.401285469834
 13
0.0
 23
0.0
 14
1.0
 24
1.0
 15
0.0
 25
0.0
 16
0.0
 26
0.0
 36
1.0
 17
-91.02013567089875
 27
73.59871453016603
 37
-46.86809886248109
 40
3029.4
 41
2.136546184738956
 42
50.0
 43
0.0
 44
0.0
 50
0.0
 51
0.0
 71
    16
 72
  2000
 73
     1
 74
     1
 75
     0
 76
     0
 77
     0
 78
     0
281
     0
 65
     1
110
0.0
120
0.0
130
0.0
111
1.0
121
0.0
131
0.0
112
0.0
122
1.0
132
0.0
 79
     0
146
0.0
348
26C
 60
     3
 61
     5
292
     1
282
     1
141
0.0
142
0.0
 63
   256
361
904
  0
ENDTAB
  0
TABLE
  2
LTYPE
  5
4
330
0
100
AcDbSymbolTable
 70
    15
  0
LTYPE
  5
11
330
4
100
AcDbSymbolTableRecord
100
AcDbLinetypeTableRecord
  2
ByBlock
 70
     0
  3

 72
    65
 73
     0
 40
0.0
  0
LTYPE
  5
12
330
4
100
AcDbSymbolTableRecord
100
AcDbLinetypeTableRecord
  2
ByLayer
 70
     0
  3

 72
    65
 73
     0
 40
0.0
  0
LTYPE
  5
13
330
4
100
AcDbSymbolTableRecord
100
AcDbLinetypeTableRecord
  2
Continuous
 70
     0
  3
Solid line
 72
    65
 73
     0
 40
0.0
  0
LTYPE
  5
DAF
330
4
100
AcDbSymbolTableRecord
100
AcDbLinetypeTableRecord
  2
BORDER
 70
     0
  3
Border __  __  . __  __  . __  __  . __  __  . 
 72
    65
 73
     6
 40
44.45
 49
12.7
 74
     0
 49
-6.35
 74
     0
 49
12.7
 74
     0
 49
-6.35
 74
     0
 49
0.0
 74
     0
 49
-6.35
 74
     0
  0
LTYPE
  5
33DD
330
4
100
AcDbSymbolTableRecord
100
AcDbLinetypeTableRecord
  2
HIDDEN
 70
     0
  3
Hidden _ _ _ _ _ _ _ _ _ _ _ _ _ _ _ _ _ _ _ _ 
 72
    65
 73
     2
 40
9.524999999999999
 49
6.35
 74
     0
 49
-3.175
 74
     0
  0
LTYPE
  5
3779
330
4
100
AcDbSymbolTableRecord
100
AcDbLinetypeTableRecord
  2
AI-Linetype-1
 70
     0
  3
Adobe Illustrator Linetype No. 1
 72
    65
 73
     2
 40
1.058122392397357
 49
0.7054149282649048
 74
     0
 49
-0.3527074641324524
 74
     0
  0
LTYPE
  5
377A
330
4
100
AcDbSymbolTableRecord
100
AcDbLinetypeTableRecord
  2
AI-Linetype-2
 70
     0
  3
Adobe Illustrator Linetype No. 2
 72
    65
 73
     2
 40
1.058122392397357
 49
0.7054149282649048
 74
     0
 49
-0.3527074641324524
 74
     0
  0
LTYPE
  5
377B
330
4
100
AcDbSymbolTableRecord
100
AcDbLinetypeTableRecord
  2
AI-Linetype-3
 70
     0
  3
Adobe Illustrator Linetype No. 3
 72
    65
 73
     2
 40
1.058122392397357
 49
0.7054149282649048
 74
     0
 49
-0.3527074641324524
 74
     0
  0
LTYPE
  5
377C
330
4
100
AcDbSymbolTableRecord
100
AcDbLinetypeTableRecord
  2
AI-Linetype-4
 70
     0
  3
Adobe Illustrator Linetype No. 4
 72
    65
 73
     2
 40
0.5290611961986786
 49
0.3527074641324524
 74
     0
 49
-0.1763537320662262
 74
     0
  0
LTYPE
  5
377D
330
4
100
AcDbSymbolTableRecord
100
AcDbLinetypeTableRecord
  2
AI-Linetype-5
 70
     0
  3
Adobe Illustrator Linetype No. 5
 72
    65
 73
     2
 40
0.5290611961986786
 49
0.3527074641324524
 74
     0
 49
-0.1763537320662262
 74
     0
  0
LTYPE
  5
3A6E
330
4
100
AcDbSymbolTableRecord
100
AcDbLinetypeTableRecord
  2
AI-Linetype-8
 70
     0
  3
Adobe Illustrator Linetype No. 8
 72
    65
 73
     2
 40
1.237580549911208
 49
0.8250419527406053
 74
     0
 49
-0.4125385971706028
 74
     0
  0
LTYPE
  5
3A6F
330
4
100
AcDbSymbolTableRecord
100
AcDbLinetypeTableRecord
  2
AI-Linetype-9
 70
     0
  3
Adobe Illustrator Linetype No. 9
 72
    65
 73
     2
 40
0.8534934893893988
 49
0.5689956595929325
 74
     0
 49
-0.2844978297964663
 74
     0
  0
LTYPE
  5
3A70
330
4
100
AcDbSymbolTableRecord
100
AcDbLinetypeTableRecord
  2
AI-Linetype-10
 70
     0
  3
Adobe Illustrator Linetype No. 10
 72
    65
 73
     2
 40
1.048960732737734
 49
0.6993118652530802
 74
     0
 49
-0.3496488674846537
 74
     0
  0
LTYPE
  5
3A71
330
4
100
AcDbSymbolTableRecord
100
AcDbLinetypeTableRecord
  2
AI-Linetype-11
 70
     0
  3
Adobe Illustrator Linetype No. 11
 72
    65
 73
     2
 40
1.048921916511774
 49
0.6992765815980639
 74
     0
 49
-0.3496453349137104
 74
     0
  0
LTYPE
  5
3A72
330
4
100
AcDbSymbolTableRecord
100
AcDbLinetypeTableRecord
  2
AI-Linetype-12
 70
     0
  3
Adobe Illustrator Linetype No. 12
 72
    65
 73
     2
 40
0.8534934893893988
 49
0.5689956595929325
 74
     0
 49
-0.2844978297964663
 74
     0
  0
LTYPE
  5
3AF8
330
4
100
AcDbSymbolTableRecord
100
AcDbLinetypeTableRecord
  2
AI-Linetype-6
 70
     0
  3
Adobe Illustrator Linetype No. 6
 72
    65
 73
     2
 40
1.081723183460906
 49
0.7211487889739376
 74
     0
 49
-0.3605743944869688
 74
     0
  0
LTYPE
  5
3AF9
330
4
100
AcDbSymbolTableRecord
100
AcDbLinetypeTableRecord
  2
AI-Linetype-7
 70
     0
  3
Adobe Illustrator Linetype No. 7
 72
    65
 73
     2
 40
0.9043428925867423
 49
0.6028976167717903
 74
     0
 49
-0.3014452758149519
 74
     0
  0
ENDTAB
  0
TABLE
  2
LAYER
  5
2
102
{ACAD_XDICTIONARY
360
2E1
102
}
330
0
100
AcDbSymbolTable
 70
    11
  0
LAYER
  5
14
330
2
100
AcDbSymbolTableRecord
100
AcDbLayerTableRecord
  2
0
 70
     0
 62
     7
  6
Continuous
370
    -3
390
1D
347
266
  0
LAYER
  5
4B
330
2
100
AcDbSymbolTableRecord
100
AcDbLayerTableRecord
  2
TEMPLATE
 70
     0
 62
     7
  6
Continuous
370
    20
390
1D
347
266
  0
LAYER
  5
4C
330
2
100
AcDbSymbolTableRecord
100
AcDbLayerTableRecord
  2
DIM
 70
     0
 62
     3
  6
Continuous
370
    13
390
1D
347
266
  0
LAYER
  5
4D
330
2
100
AcDbSymbolTableRecord
100
AcDbLayerTableRecord
  2
MODEL
 70
     0
 62
     7
  6
Continuous
370
    20
390
1D
347
266
  0
LAYER
  5
D5D
330
2
100
AcDbSymbolTableRecord
100
AcDbLayerTableRecord
  2
Defpoints
 70
     0
 62
     7
  6
Continuous
290
     0
370
    -3
390
1D
347
266
  0
LAYER
  5
DAE
330
2
100
AcDbSymbolTableRecord
100
AcDbLayerTableRecord
  2
BORDER
 70
     0
 62
     4
  6
BORDER
290
     0
370
    20
390
1D
347
266
1001
AcAecLayerStandard
1000

1000

  0
LAYER
  5
157B
330
2
100
AcDbSymbolTableRecord
100
AcDbLayerTableRecord
  2
Layer3
 70
     0
 62
     7
  6
Continuous
370
    -3
390
1D
347
266
  0
LAYER
  5
157F
330
2
100
AcDbSymbolTableRecord
100
AcDbLayerTableRecord
  2
Layer9
 70
     0
 62
     7
  6
Continuous
370
    -3
390
1D
347
266
  0
LAYER
  5
1582
330
2
100
AcDbSymbolTableRecord
100
AcDbLayerTableRecord
  2
Standard
 70
     0
 62
     7
  6
Continuous
370
    -3
390
1D
347
266
  0
LAYER
  5
33DC
330
2
100
AcDbSymbolTableRecord
100
AcDbLayerTableRecord
  2
HIDDEN
 70
     0
 62
     8
  6
HIDDEN
370
    20
390
1D
347
266
1001
AcAecLayerStandard
1000

1000

  0
LAYER
  5
3777
330
2
100
AcDbSymbolTableRecord
100
AcDbLayerTableRecord
  2
レイヤー 1
 70
     0
 62
     7
  6
Continuous
370
    -3
390
1D
347
266
  0
ENDTAB
  0
TABLE
  2
STYLE
  5
3
330
0
100
AcDbSymbolTable
 70
     2
  0
STYLE
  5
17
330
3
100
AcDbSymbolTableRecord
100
AcDbTextStyleTableRecord
  2
Standard
 70
     0
 40
0.0
 41
1.0
 50
0.0
 71
     0
 42
2.5
  3
txt
  4
BIGFONT.SHX
  0
STYLE
  5
39
330
3
100
AcDbSymbolTableRecord
100
AcDbTextStyleTableRecord
  2
ＭＳ ゴシック
 70
     0
 40
0.0
 41
1.0
 50
0.0
 71
     0
 42
2.5
  3
msgothic.ttc
  4
ＭＳ ゴシック
1001
ACAD
1000
ＭＳ ゴシック
1071
        0
  0
ENDTAB
  0
TABLE
  2
VIEW
  5
5
330
0
100
AcDbSymbolTable
 70
     0
  0
ENDTAB
  0
TABLE
  2
UCS
  5
6
330
0
100
AcDbSymbolTable
 70
     0
  0
ENDTAB
  0
TABLE
  2
APPID
  5
8
330
0
100
AcDbSymbolTable
 70
     6
  0
APPID
  5
16
330
8
100
AcDbSymbolTableRecord
100
AcDbRegAppTableRecord
  2
ACAD
 70
     0
  0
APPID
  5
7AC
330
8
100
AcDbSymbolTableRecord
100
AcDbRegAppTableRecord
  2
AcAecLayerStandard
 70
     0
  0
APPID
  5
F3A
330
8
100
AcDbSymbolTableRecord
100
AcDbRegAppTableRecord
  2
ACAD_MLEADERVER
 70
     0
  0
APPID
  5
3E42
330
8
100
AcDbSymbolTableRecord
100
AcDbRegAppTableRecord
  2
ACAD_DSTYLE_DIMJAG
 70
     0
  0
APPID
  5
3E43
330
8
100
AcDbSymbolTableRecord
100
AcDbRegAppTableRecord
  2
ACAD_DSTYLE_DIMTALN
 70
     0
  0
APPID
  5
3EA3
330
8
100
AcDbSymbolTableRecord
100
AcDbRegAppTableRecord
  2
PLOTTRANSPARENCY
 70
     0
  0
ENDTAB
  0
TABLE
  2
DIMSTYLE
  5
9
330
0
100
AcDbSymbolTable
 70
     5
100
AcDbDimStyleTable
  0
DIMSTYLE
105
18
330
9
100
AcDbSymbolTableRecord
100
AcDbDimStyleTableRecord
  2
Standard
 70
     0
178
     0
340
17
  0
DIMSTYLE
105
57
102
{ACAD_REACTORS
330
3C2C
330
3C3B
330
3C4A
330
3C59
330
3C86
330
3C95
330
3CBD
330
3CCD
330
3CED
330
3CFC
330
3D78
330
3D87
330
3DBC
330
3DDA
330
3EB9
330
3EC8
102
}
330
9
100
AcDbSymbolTableRecord
100
AcDbDimStyleTableRecord
  2
tfrom線あり
 70
     0
  3
<>
  4
[]
 41
10.0
 42
30.0
 43
0.9999999999999999
 44
0.0
 73
     0
 74
     0
 77
     1
 78
    11
140
24.0
141
0.0
143
1.0
147
20.0
171
     1
174
     1
178
     0
179
     2
271
     0
272
     1
276
     2
284
    11
285
    11
286
    11
289
     0
340
39
341
4E
342
4E
  0
DIMSTYLE
105
3E37
330
9
100
AcDbSymbolTableRecord
100
AcDbDimStyleTableRecord
  2
tform線あり
 70
     0
  3
<>
  4
[]
 41
9.999389648437498
 42
25.0
 43
0.9999999999999999
 44
0.0
 73
     0
 74
     0
 77
     1
 78
    11
140
24.4326171875
141
0.0
143
1.0
146
0.8
147
10.0
171
     1
172
     1
174
     1
178
     0
179
     2
271
     1
272
     1
276
     2
284
    11
285
    11
286
    11
289
     0
340
39
341
4E
342
4E
  0
DIMSTYLE
105
3E41
330
9
100
AcDbSymbolTableRecord
100
AcDbDimStyleTableRecord
  2
scala  A3
 70
     0
 41
5.0
 42
0.625
 43
0.0
 44
1.25
 49
10.0
 90
        2
290
     1
 73
     0
 74
     0
 77
     1
 78
     8
140
6.0
141
2.5
143
0.03937007874016
147
2.0
171
     3
176
   256
177
   256
178
     0
271
     0
272
     0
274
     3
278
    44
283
     0
284
     8
340
17
371
    -1
372
     0
345
12
346
12
347
12
1001
ACAD_DSTYLE_DIMJAG
1070
   388
1040
1.5
1001
ACAD_DSTYLE_DIMTALN
1070
   392
1070
     0
  0
DIMSTYLE
105
3E44
330
9
100
AcDbSymbolTableRecord
100
AcDbDimStyleTableRecord
  2
Standard1
 70
     0
 41
0.0
 42
5.0
 44
0.0
 73
     0
 74
     0
 77
     2
140
20.0
141
0.0
147
2.0
178
     0
271
     0
272
     0
340
17
341
3E45
342
3E45
1001
ACAD_DSTYLE_DIMJAG
1070
   388
1040
1.5
1001
ACAD_DSTYLE_DIMTALN
1070
   392
1070
     0
  0
ENDTAB
  0
TABLE
  2
BLOCK_RECORD
  5
1
330
0
100
AcDbSymbolTable
 70
    33
  0
BLOCK_RECORD
  5
A
102
{ACAD_XDICTIONARY
360
374D
102
}
330
1
100
AcDbSymbolTableRecord
100
AcDbBlockTableRecord
  2
*MODEL_SPACE
340
20
 70
     0
280
     1
281
     0
  0
BLOCK_RECORD
  5
B
330
1
100
AcDbSymbolTableRecord
100
AcDbBlockTableRecord
  2
*PAPER_SPACE
340
21
 70
     0
280
     1
281
     0
  0
BLOCK_RECORD
  5
4E
330
1
100
AcDbSymbolTableRecord
100
AcDbBlockTableRecord
  2
_DOT
340
0
102
{BLKREFS
331
373A
331
373B
331
3746
331
3747
331
39FF
331
3A00
331
3A0F
331
3A10
331
3A1E
331
3A1F
331
3BD7
331
3BD8
331
3C1E
331
3C1F
331
3C35
331
3C36
331
3C44
331
3C45
331
3C53
331
3C54
331
3C62
331
3C63
331
3C8F
331
3C90
331
3C9E
331
3C9F
331
3CAD
331
3CAE
331
3CC6
331
3CC7
331
3CD6
331
3CD7
331
3CE7
331
3CE8
331
3CF6
331
3CF7
331
3D05
331
3D06
331
3D15
331
3D16
331
3D81
331
3D82
331
3D8E
331
3D8F
331
3DC5
331
3DC6
331
3DD4
331
3DD5
331
3DE3
331
3DE4
331
3DF2
331
3DF3
331
3EC2
331
3EC3
331
3ED1
331
3ED2
102
}
 70
     0
280
     1
281
     0
  0
BLOCK_RECORD
  5
68D
330
1
100
AcDbSymbolTableRecord
100
AcDbBlockTableRecord
  2
block 2
340
0
102
{BLKREFS
331
68C
102
}
 70
     0
280
     1
281
     0
  0
BLOCK_RECORD
  5
199A
330
1
100
AcDbSymbolTableRecord
100
AcDbBlockTableRecord
  2
SEANNOT_GROUP
340
0
102
{BLKREFS
331
28CA
102
}
 70
     0
280
     1
281
     0
  0
BLOCK_RECORD
  5
1F2F
330
1
100
AcDbSymbolTableRecord
100
AcDbBlockTableRecord
  2
SEANNOT_GROUP1
340
0
102
{BLKREFS
331
2B9B
102
}
 70
     0
280
     1
281
     0
  0
BLOCK_RECORD
  5
3734
330
1
100
AcDbSymbolTableRecord
100
AcDbBlockTableRecord
  2
*D4
340
0
 70
     0
280
     1
281
     0
  0
BLOCK_RECORD
  5
3740
330
1
100
AcDbSymbolTableRecord
100
AcDbBlockTableRecord
  2
*D5
340
0
 70
     0
280
     1
281
     0
  0
BLOCK_RECORD
  5
39F9
330
1
100
AcDbSymbolTableRecord
100
AcDbBlockTableRecord
  2
*D6
340
0
 70
     0
280
     1
281
     0
  0
BLOCK_RECORD
  5
3A09
330
1
100
AcDbSymbolTableRecord
100
AcDbBlockTableRecord
  2
*D7
340
0
 70
     0
280
     1
281
     0
  0
BLOCK_RECORD
  5
3A18
330
1
100
AcDbSymbolTableRecord
100
AcDbBlockTableRecord
  2
*D8
340
0
 70
     0
280
     1
281
     0
  0
BLOCK_RECORD
  5
3BD1
330
1
100
AcDbSymbolTableRecord
100
AcDbBlockTableRecord
  2
*D9
340
0
 70
     0
280
     1
281
     0
  0
BLOCK_RECORD
  5
3C17
330
1
100
AcDbSymbolTableRecord
100
AcDbBlockTableRecord
  2
*D10
340
0
 70
     0
280
     1
281
     0
  0
BLOCK_RECORD
  5
3C2F
330
1
100
AcDbSymbolTableRecord
100
AcDbBlockTableRecord
  2
*D11
340
0
 70
     0
280
     1
281
     0
  0
BLOCK_RECORD
  5
3C3E
330
1
100
AcDbSymbolTableRecord
100
AcDbBlockTableRecord
  2
*D12
340
0
 70
     0
280
     1
281
     0
  0
BLOCK_RECORD
  5
3C4D
330
1
100
AcDbSymbolTableRecord
100
AcDbBlockTableRecord
  2
*D13
340
0
 70
     0
280
     1
281
     0
  0
BLOCK_RECORD
  5
3C5C
330
1
100
AcDbSymbolTableRecord
100
AcDbBlockTableRecord
  2
*D14
340
0
 70
     0
280
     1
281
     0
  0
BLOCK_RECORD
  5
3C89
330
1
100
AcDbSymbolTableRecord
100
AcDbBlockTableRecord
  2
*D15
340
0
 70
     0
280
     1
281
     0
  0
BLOCK_RECORD
  5
3C98
330
1
100
AcDbSymbolTableRecord
100
AcDbBlockTableRecord
  2
*D16
340
0
 70
     0
280
     1
281
     0
  0
BLOCK_RECORD
  5
3CA7
330
1
100
AcDbSymbolTableRecord
100
AcDbBlockTableRecord
  2
*D17
340
0
 70
     0
280
     1
281
     0
  0
BLOCK_RECORD
  5
3CC0
330
1
100
AcDbSymbolTableRecord
100
AcDbBlockTableRecord
  2
*D18
340
0
 70
     0
280
     1
281
     0
  0
BLOCK_RECORD
  5
3CD0
330
1
100
AcDbSymbolTableRecord
100
AcDbBlockTableRecord
  2
*D19
340
0
 70
     0
280
     1
281
     0
  0
BLOCK_RECORD
  5
3CE1
330
1
100
AcDbSymbolTableRecord
100
AcDbBlockTableRecord
  2
*D20
340
0
 70
     0
280
     1
281
     0
  0
BLOCK_RECORD
  5
3CF0
330
1
100
AcDbSymbolTableRecord
100
AcDbBlockTableRecord
  2
*D21
340
0
 70
     0
280
     1
281
     0
  0
BLOCK_RECORD
  5
3CFF
330
1
100
AcDbSymbolTableRecord
100
AcDbBlockTableRecord
  2
*D22
340
0
 70
     0
280
     1
281
     0
  0
BLOCK_RECORD
  5
3D0F
330
1
100
AcDbSymbolTableRecord
100
AcDbBlockTableRecord
  2
*D23
340
0
 70
     0
280
     1
281
     0
  0
BLOCK_RECORD
  5
3D7B
330
1
100
AcDbSymbolTableRecord
100
AcDbBlockTableRecord
  2
*D24
340
0
 70
     0
280
     1
281
     0
  0
BLOCK_RECORD
  5
3D88
330
1
100
AcDbSymbolTableRecord
100
AcDbBlockTableRecord
  2
*D25
340
0
 70
     0
280
     1
281
     0
  0
BLOCK_RECORD
  5
3DBF
330
1
100
AcDbSymbolTableRecord
100
AcDbBlockTableRecord
  2
*D26
340
0
 70
     0
280
     1
281
     0
  0
BLOCK_RECORD
  5
3DCE
330
1
100
AcDbSymbolTableRecord
100
AcDbBlockTableRecord
  2
*D27
340
0
 70
     0
280
     1
281
     0
  0
BLOCK_RECORD
  5
3DDD
330
1
100
AcDbSymbolTableRecord
100
AcDbBlockTableRecord
  2
*D28
340
0
 70
     0
280
     1
281
     0
  0
BLOCK_RECORD
  5
3DEC
330
1
100
AcDbSymbolTableRecord
100
AcDbBlockTableRecord
  2
*D29
340
0
 70
     0
280
     1
281
     0
  0
BLOCK_RECORD
  5
3E45
330
1
100
AcDbSymbolTableRecord
100
AcDbBlockTableRecord
  2
_None
340
0
 70
     0
280
     1
281
     0
  0
BLOCK_RECORD
  5
3EBC
330
1
100
AcDbSymbolTableRecord
100
AcDbBlockTableRecord
  2
*D31
340
0
 70
     0
280
     1
281
     0
  0
BLOCK_RECORD
  5
3ECB
330
1
100
AcDbSymbolTableRecord
100
AcDbBlockTableRecord
  2
*D32
340
0
 70
     0
280
     1
281
     0
  0
ENDTAB
  0
ENDSEC
  0
SECTION
  2
BLOCKS
  0
BLOCK
  5
D
330
A
100
AcDbEntity
  8
0
390
1D
100
AcDbBlockBegin
  2
*MODEL_SPACE
 70
     0
 10
0.0
 20
0.0
 30
0.0
  3
*MODEL_SPACE
  1
*MODEL_SPACE
  0
ENDBLK
  5
E
330
A
100
AcDbEntity
  8
0
390
1D
100
AcDbBlockEnd
  0
BLOCK
  5
F
330
B
100
AcDbEntity
 67
     1
  8
0
390
1D
100
AcDbBlockBegin
  2
*PAPER_SPACE
 70
     0
 10
0.0
 20
0.0
 30
0.0
  3
*PAPER_SPACE
  1
*PAPER_SPACE
  0
ENDBLK
  5
10
330
B
100
AcDbEntity
 67
     1
  8
0
390
1D
100
AcDbBlockEnd
  0
BLOCK
  5
EC4
330
4E
100
AcDbEntity
  8
0
390
1D
100
AcDbBlockBegin
  2
_DOT
 70
     0
 10
0.0
 20
0.0
 30
0.0
  3
_DOT
  1
_DOT
  0
POLYLINE
  5
EC6
330
4E
100
AcDbEntity
  8
0
  6
ByBlock
 62
     0
370
    -2
390
1D
100
AcDb2dPolyline
 66
     1
 10
0.0
 20
0.0
 30
0.0
 70
     1
 40
0.5
 41
0.5
  0
VERTEX
  5
EC7
330
EC6
100
AcDbEntity
  8
0
  6
ByBlock
 62
     0
370
    -2
390
1D
100
AcDbVertex
100
AcDb2dVertex
 10
-0.25
 20
0.0
 30
0.0
 42
1.0
  0
VERTEX
  5
EC8
330
EC6
100
AcDbEntity
  8
0
  6
ByBlock
 62
     0
370
    -2
390
1D
100
AcDbVertex
100
AcDb2dVertex
 10
0.25
 20
0.0
 30
0.0
 42
1.0
  0
SEQEND
  5
EC9
330
EC6
100
AcDbEntity
  8
0
390
1D
  0
LINE
  5
ECA
330
4E
100
AcDbEntity
  8
0
  6
ByBlock
 62
     0
370
    -2
390
1D
100
AcDbLine
 10
-0.5
 20
0.0
 30
0.0
 11
-1.0
 21
0.0
 31
0.0
  0
ENDBLK
  5
ECB
330
4E
100
AcDbEntity
  8
0
390
1D
100
AcDbBlockEnd
  0
BLOCK
  5
68E
330
68D
100
AcDbEntity
  8
0
100
AcDbBlockBegin
  2
block 2
 70
     0
 10
0.0
 20
0.0
 30
0.0
  3
block 2
  1
block 2
  0
ENDBLK
  5
6B0
330
68D
100
AcDbEntity
  8
0
100
AcDbBlockEnd
  0
BLOCK
  5
199B
330
199A
100
AcDbEntity
  8
0
100
AcDbBlockBegin
  2
SEANNOT_GROUP
 70
     0
 10
0.0
 20
0.0
 30
0.0
  3
SEANNOT_GROUP
  1
SEANNOT_GROUP
  0
ENDBLK
  5
199C
330
199A
100
AcDbEntity
  8
0
100
AcDbBlockEnd
  0
BLOCK
  5
1F30
330
1F2F
100
AcDbEntity
  8
0
100
AcDbBlockBegin
  2
SEANNOT_GROUP1
 70
     0
 10
0.0
 20
0.0
 30
0.0
  3
SEANNOT_GROUP1
  1
SEANNOT_GROUP1
  0
ENDBLK
  5
1F31
330
1F2F
100
AcDbEntity
  8
0
100
AcDbBlockEnd
  0
BLOCK
  5
3735
330
3734
100
AcDbEntity
  8
0
100
AcDbBlockBegin
  2
*D4
 70
     1
 10
0.0
 20
0.0
 30
0.0
  3
*D4
  1

  0
LINE
  5
3737
330
3734
100
AcDbEntity
  8
DIM
 62
     0
370
    -2
100
AcDbLine
 10
792.5747720364734
 20
1624.375151854103
 30
0.0
 11
792.5747720364734
 21
1945.106376948328
 31
0.0
  0
LINE
  5
3738
330
3734
100
AcDbEntity
  8
DIM
 62
     0
370
    -2
100
AcDbLine
 10
1363.464741641327
 20
1624.375151854103
 30
0.0
 11
1363.464741641327
 21
1945.106376948328
 31
0.0
  0
LINE
  5
3739
330
3734
100
AcDbEntity
  8
DIM
 62
     0
370
    -2
100
AcDbLine
 10
802.5747720364734
 20
1945.106376948328
 30
0.0
 11
1353.464741641327
 21
1945.106376948328
 31
0.0
  0
INSERT
  5
373A
330
3734
100
AcDbEntity
  8
DIM
 62
     0
370
    -2
100
AcDbBlockReference
  2
_DOT
 10
792.5747720364734
 20
1945.106376948328
 30
0.0
 41
10.0
 42
10.0
 43
10.0
 50
180.0
  0
INSERT
  5
373B
330
3734
100
AcDbEntity
  8
DIM
 62
     0
370
    -2
100
AcDbBlockReference
  2
_DOT
 10
1363.464741641327
 20
1945.106376948328
 30
0.0
 41
10.0
 42
10.0
 43
10.0
  0
MTEXT
  5
373C
330
3734
100
AcDbEntity
  8
DIM
 62
     0
100
AcDbMText
 10
1078.019756838897
 20
1977.106376948328
 30
0.0
 40
24.0
 41
0.0
 46
0.0
 71
     5
 72
     1
  1
\A1;571
  7
ＭＳ ゴシック
 73
     1
 44
1.0
  0
POINT
  5
373D
330
3734
100
AcDbEntity
  8
Defpoints
 62
     0
100
AcDbPoint
 10
792.5747720364734
 20
1594.375151854103
 30
0.0
  0
POINT
  5
373E
330
3734
100
AcDbEntity
  8
Defpoints
 62
     0
100
AcDbPoint
 10
1363.464741641327
 20
1594.375151854103
 30
0.0
  0
POINT
  5
373F
330
3734
100
AcDbEntity
  8
Defpoints
 62
     0
100
AcDbPoint
 10
1363.464741641327
 20
1945.106376948328
 30
0.0
  0
ENDBLK
  5
3736
330
3734
100
AcDbEntity
  8
0
100
AcDbBlockEnd
  0
BLOCK
  5
3741
330
3740
100
AcDbEntity
  8
0
100
AcDbBlockBegin
  2
*D5
 70
     1
 10
0.0
 20
0.0
 30
0.0
  3
*D5
  1

  0
LINE
  5
3743
330
3740
100
AcDbEntity
  8
DIM
 62
     0
370
    -2
100
AcDbLine
 10
888.5851999139768
 20
1564.375151854103
 30
0.0
 11
888.5851999139768
 21
1160.881823708206
 31
0.0
  0
LINE
  5
3744
330
3740
100
AcDbEntity
  8
DIM
 62
     0
370
    -2
100
AcDbLine
 10
1267.454313763824
 20
1564.375151854103
 30
0.0
 11
1267.454313763824
 21
1160.881823708206
 31
0.0
  0
LINE
  5
3745
330
3740
100
AcDbEntity
  8
DIM
 62
     0
370
    -2
100
AcDbLine
 10
898.5851999139768
 20
1160.881823708206
 30
0.0
 11
1257.454313763824
 21
1160.881823708206
 31
0.0
  0
INSERT
  5
3746
330
3740
100
AcDbEntity
  8
DIM
 62
     0
370
    -2
100
AcDbBlockReference
  2
_DOT
 10
888.5851999139768
 20
1160.881823708206
 30
0.0
 41
10.0
 42
10.0
 43
10.0
 50
180.0
  0
INSERT
  5
3747
330
3740
100
AcDbEntity
  8
DIM
 62
     0
370
    -2
100
AcDbBlockReference
  2
_DOT
 10
1267.454313763824
 20
1160.881823708206
 30
0.0
 41
10.0
 42
10.0
 43
10.0
  0
MTEXT
  5
3748
330
3740
100
AcDbEntity
  8
DIM
 62
     0
100
AcDbMText
 10
1078.0197568389
 20
1192.881823708206
 30
0.0
 40
24.0
 41
0.0
 46
0.0
 71
     5
 72
     1
  1
\A1;379
  7
ＭＳ ゴシック
 73
     1
 44
1.0
  0
POINT
  5
3749
330
3740
100
AcDbEntity
  8
Defpoints
 62
     0
100
AcDbPoint
 10
888.5851999139768
 20
1594.375151854103
 30
0.0
  0
POINT
  5
374A
330
3740
100
AcDbEntity
  8
Defpoints
 62
     0
100
AcDbPoint
 10
1267.454313763824
 20
1594.375151854103
 30
0.0
  0
POINT
  5
374B
330
3740
100
AcDbEntity
  8
Defpoints
 62
     0
100
AcDbPoint
 10
1267.454313763824
 20
1160.881823708206
 30
0.0
  0
ENDBLK
  5
3742
330
3740
100
AcDbEntity
  8
0
100
AcDbBlockEnd
  0
BLOCK
  5
39FA
330
39F9
100
AcDbEntity
  8
0
100
AcDbBlockBegin
  2
*D6
 70
     1
 10
0.0
 20
0.0
 30
0.0
  3
*D6
  1

  0
LINE
  5
39FC
330
39F9
100
AcDbEntity
  8
DIM
 62
     0
370
    -2
100
AcDbLine
 10
3137.270341015266
 20
1043.656761067386
 30
0.0
 11
3336.904816242005
 21
1043.656761067386
 31
0.0
  0
LINE
  5
39FD
330
39F9
100
AcDbEntity
  8
DIM
 62
     0
370
    -2
100
AcDbLine
 10
3137.270341015266
 20
143.6567611531113
 30
0.0
 11
3336.904816242005
 21
143.6567611531113
 31
0.0
  0
LINE
  5
39FE
330
39F9
100
AcDbEntity
  8
DIM
 62
     0
370
    -2
100
AcDbLine
 10
3336.904816242005
 20
1033.656761067386
 30
0.0
 11
3336.904816242005
 21
153.6567611531113
 31
0.0
  0
INSERT
  5
39FF
330
39F9
100
AcDbEntity
  8
DIM
 62
     0
370
    -2
100
AcDbBlockReference
  2
_DOT
 10
3336.904816242005
 20
1043.656761067386
 30
0.0
 41
10.0
 42
10.0
 43
10.0
 50
90.0
  0
INSERT
  5
3A00
330
39F9
100
AcDbEntity
  8
DIM
 62
     0
370
    -2
100
AcDbBlockReference
  2
_DOT
 10
3336.904816242005
 20
143.6567611531113
 30
0.0
 41
10.0
 42
10.0
 43
10.0
 50
270.0
  0
MTEXT
  5
3A01
330
39F9
100
AcDbEntity
  8
DIM
 62
     0
100
AcDbMText
 10
3304.900314553872
 20
593.6567611102487
 30
0.0
 40
24.0
 41
0.0
 46
0.0
 71
     5
 72
     1
  1
\A1;899.99999991
  7
ＭＳ ゴシック
 11
0.0
 21
1.0
 31
0.0
 73
     1
 44
1.0
  0
POINT
  5
3A02
330
39F9
100
AcDbEntity
  8
Defpoints
 62
     0
100
AcDbPoint
 10
3107.270341015266
 20
1043.656761067386
 30
0.0
  0
POINT
  5
3A03
330
39F9
100
AcDbEntity
  8
Defpoints
 62
     0
100
AcDbPoint
 10
3107.270341015266
 20
143.6567611531113
 30
0.0
  0
POINT
  5
3A04
330
39F9
100
AcDbEntity
  8
Defpoints
 62
     0
100
AcDbPoint
 10
3336.904816242005
 20
143.6567611531113
 30
0.0
  0
ENDBLK
  5
39FB
330
39F9
100
AcDbEntity
  8
0
100
AcDbBlockEnd
  0
BLOCK
  5
3A0A
330
3A09
100
AcDbEntity
  8
0
100
AcDbBlockBegin
  2
*D7
 70
     1
 10
0.0
 20
0.0
 30
0.0
  3
*D7
  1

  0
LINE
  5
3A0C
330
3A09
100
AcDbEntity
  8
DIM
 62
     0
370
    -2
100
AcDbLine
 10
4351.658790769584
 20
1982.209994149385
 30
0.0
 11
4351.658790769584
 21
1888.257715266244
 31
0.0
  0
LINE
  5
3A0D
330
3A09
100
AcDbEntity
  8
DIM
 62
     0
370
    -2
100
AcDbLine
 10
4708.113216813483
 20
1981.397163952127
 30
0.0
 11
4708.113216813483
 21
1888.257715266244
 31
0.0
  0
LINE
  5
3A0E
330
3A09
100
AcDbEntity
  8
DIM
 62
     0
370
    -2
100
AcDbLine
 10
4361.658790769584
 20
1888.257715266244
 30
0.0
 11
4698.113216813483
 21
1888.257715266244
 31
0.0
  0
INSERT
  5
3A0F
330
3A09
100
AcDbEntity
  8
DIM
 62
     0
370
    -2
100
AcDbBlockReference
  2
_DOT
 10
4351.658790769584
 20
1888.257715266244
 30
0.0
 41
10.0
 42
10.0
 43
10.0
 50
180.0
  0
INSERT
  5
3A10
330
3A09
100
AcDbEntity
  8
DIM
 62
     0
370
    -2
100
AcDbBlockReference
  2
_DOT
 10
4708.113216813483
 20
1888.257715266244
 30
0.0
 41
10.0
 42
10.0
 43
10.0
  0
MTEXT
  5
3A11
330
3A09
100
AcDbEntity
  8
DIM
 62
     0
100
AcDbMText
 10
4529.886003791533
 20
1920.262216954377
 30
0.0
 40
24.0
 41
0.0
 46
0.0
 71
     5
 72
     1
  1
\A1;356
  7
ＭＳ ゴシック
 73
     1
 44
1.0
  0
POINT
  5
3A12
330
3A09
100
AcDbEntity
  8
Defpoints
 62
     0
100
AcDbPoint
 10
4351.658790769584
 20
2012.209994149385
 30
0.0
  0
POINT
  5
3A13
330
3A09
100
AcDbEntity
  8
Defpoints
 62
     0
100
AcDbPoint
 10
4708.113216813483
 20
2011.397163952127
 30
0.0
  0
POINT
  5
3A14
330
3A09
100
AcDbEntity
  8
Defpoints
 62
     0
100
AcDbPoint
 10
4708.113216813483
 20
1888.257715266244
 30
0.0
  0
ENDBLK
  5
3A0B
330
3A09
100
AcDbEntity
  8
0
100
AcDbBlockEnd
  0
BLOCK
  5
3A19
330
3A18
100
AcDbEntity
  8
0
100
AcDbBlockBegin
  2
*D8
 70
     1
 10
0.0
 20
0.0
 30
0.0
  3
*D8
  1

  0
LINE
  5
3A1B
330
3A18
100
AcDbEntity
  8
DIM
 62
     0
370
    -2
100
AcDbLine
 10
5972.766092132339
 20
2550.657101359189
 30
0.0
 11
6049.179698566782
 21
2550.657101359189
 31
0.0
  0
LINE
  5
3A1C
330
3A18
100
AcDbEntity
  8
DIM
 62
     0
370
    -2
100
AcDbLine
 10
5972.766092132339
 20
2385.657101359189
 30
0.0
 11
6049.179698566782
 21
2385.657101359189
 31
0.0
  0
LINE
  5
3A1D
330
3A18
100
AcDbEntity
  8
DIM
 62
     0
370
    -2
100
AcDbLine
 10
6049.179698566782
 20
2540.657101359189
 30
0.0
 11
6049.179698566782
 21
2395.657101359189
 31
0.0
  0
INSERT
  5
3A1E
330
3A18
100
AcDbEntity
  8
DIM
 62
     0
370
    -2
100
AcDbBlockReference
  2
_DOT
 10
6049.179698566782
 20
2550.657101359189
 30
0.0
 41
10.0
 42
10.0
 43
10.0
 50
90.0
  0
INSERT
  5
3A1F
330
3A18
100
AcDbEntity
  8
DIM
 62
     0
370
    -2
100
AcDbBlockReference
  2
_DOT
 10
6049.179698566782
 20
2385.657101359189
 30
0.0
 41
10.0
 42
10.0
 43
10.0
 50
270.0
  0
MTEXT
  5
3A20
330
3A18
100
AcDbEntity
  8
DIM
 62
     0
100
AcDbMText
 10
6017.175196878648
 20
2468.157101359189
 30
0.0
 40
24.0
 41
0.0
 46
0.0
 71
     5
 72
     1
  1
\A1;165
  7
ＭＳ ゴシック
 11
0.0
 21
1.0
 31
0.0
 73
     1
 44
1.0
  0
POINT
  5
3A21
330
3A18
100
AcDbEntity
  8
Defpoints
 62
     0
100
AcDbPoint
 10
5942.766092132339
 20
2550.657101359189
 30
0.0
  0
POINT
  5
3A22
330
3A18
100
AcDbEntity
  8
Defpoints
 62
     0
100
AcDbPoint
 10
5942.766092132339
 20
2385.657101359189
 30
0.0
  0
POINT
  5
3A23
330
3A18
100
AcDbEntity
  8
Defpoints
 62
     0
100
AcDbPoint
 10
6049.179698566782
 20
2385.657101359189
 30
0.0
  0
ENDBLK
  5
3A1A
330
3A18
100
AcDbEntity
  8
0
100
AcDbBlockEnd
  0
BLOCK
  5
3BD2
330
3BD1
100
AcDbEntity
  8
0
100
AcDbBlockBegin
  2
*D9
 70
     1
 10
0.0
 20
0.0
 30
0.0
  3
*D9
  1

  0
LINE
  5
3BD4
330
3BD1
100
AcDbEntity
  8
DIM
 62
     0
370
    -2
100
AcDbLine
 10
3352.058368186681
 20
2774.246965857637
 30
0.0
 11
3352.058368186681
 21
1606.137955991413
 31
0.0
  0
LINE
  5
3BD5
330
3BD1
100
AcDbEntity
  8
DIM
 62
     0
370
    -2
100
AcDbLine
 10
3952.063483908805
 20
2774.527126783389
 30
0.0
 11
3952.063483908805
 21
1606.137955991413
 31
0.0
  0
LINE
  5
3BD6
330
3BD1
100
AcDbEntity
  8
DIM
 62
     0
370
    -2
100
AcDbLine
 10
3362.058368186681
 20
1606.137955991413
 30
0.0
 11
3942.063483908805
 21
1606.137955991413
 31
0.0
  0
INSERT
  5
3BD7
330
3BD1
100
AcDbEntity
  8
DIM
 62
     0
370
    -2
100
AcDbBlockReference
  2
_DOT
 10
3352.058368186681
 20
1606.137955991413
 30
0.0
 41
10.0
 42
10.0
 43
10.0
 50
180.0
  0
INSERT
  5
3BD8
330
3BD1
100
AcDbEntity
  8
DIM
 62
     0
370
    -2
100
AcDbBlockReference
  2
_DOT
 10
3952.063483908805
 20
1606.137955991413
 30
0.0
 41
10.0
 42
10.0
 43
10.0
  0
MTEXT
  5
3BD9
330
3BD1
100
AcDbEntity
  8
DIM
 62
     0
100
AcDbMText
 10
3652.060926047743
 20
1638.137955991413
 30
0.0
 40
24.0
 41
0.0
 46
0.0
 71
     5
 72
     1
  1
\A1;600
  7
ＭＳ ゴシック
 73
     1
 44
1.0
  0
POINT
  5
3BDA
330
3BD1
100
AcDbEntity
  8
Defpoints
 62
     0
100
AcDbPoint
 10
3352.058368186681
 20
2804.246965857637
 30
0.0
  0
POINT
  5
3BDB
330
3BD1
100
AcDbEntity
  8
Defpoints
 62
     0
100
AcDbPoint
 10
3952.063483908805
 20
2804.527126783389
 30
0.0
  0
POINT
  5
3BDC
330
3BD1
100
AcDbEntity
  8
Defpoints
 62
     0
100
AcDbPoint
 10
3952.063483908805
 20
1606.137955991413
 30
0.0
  0
ENDBLK
  5
3BD3
330
3BD1
100
AcDbEntity
  8
0
100
AcDbBlockEnd
  0
BLOCK
  5
3C18
330
3C17
100
AcDbEntity
  8
0
100
AcDbBlockBegin
  2
*D10
 70
     1
 10
0.0
 20
0.0
 30
0.0
  3
*D10
  1

  0
LINE
  5
3C1A
330
3C17
100
AcDbEntity
  8
DIM
 62
     0
370
    -2
100
AcDbLine
 10
709.7971738341186
 20
2362.706770671863
 30
0.0
 11
785.3030798351735
 21
2362.706770671863
 31
0.0
  0
LINE
  5
3C1B
330
3C17
100
AcDbEntity
  8
DIM
 62
     0
370
    -2
100
AcDbLine
 10
675.6697124264349
 20
2360.19184930855
 30
0.0
 11
785.3030798351735
 21
2360.19184930855
 31
0.0
  0
LINE
  5
3C1C
330
3C17
100
AcDbEntity
  8
DIM
 62
     0
370
    -2
100
AcDbLine
 10
785.3030798351735
 20
2372.706770671863
 30
0.0
 11
785.3030798351735
 21
2382.706770671863
 31
0.0
  0
LINE
  5
3C1D
330
3C17
100
AcDbEntity
  8
DIM
 62
     0
370
    -2
100
AcDbLine
 10
785.3030798351735
 20
2350.19184930855
 30
0.0
 11
785.3030798351735
 21
2340.19184930855
 31
0.0
  0
INSERT
  5
3C1E
330
3C17
100
AcDbEntity
  8
DIM
 62
     0
370
    -2
100
AcDbBlockReference
  2
_DOT
 10
785.3030798351735
 20
2362.706770671863
 30
0.0
 41
10.0
 42
10.0
 43
10.0
 50
270.0
  0
INSERT
  5
3C1F
330
3C17
100
AcDbEntity
  8
DIM
 62
     0
370
    -2
100
AcDbBlockReference
  2
_DOT
 10
785.3030798351735
 20
2360.19184930855
 30
0.0
 41
10.0
 42
10.0
 43
10.0
 50
90.0
  0
MTEXT
  5
3C20
330
3C17
100
AcDbEntity
  8
DIM
 62
     0
100
AcDbMText
 10
753.2985781470404
 20
2361.449309990207
 30
0.0
 40
24.0
 41
0.0
 46
0.0
 71
     5
 72
     1
  1
\A1;3
  7
ＭＳ ゴシック
 11
0.0
 21
1.0
 31
0.0
 73
     1
 44
1.0
  0
POINT
  5
3C21
330
3C17
100
AcDbEntity
  8
Defpoints
 62
     0
100
AcDbPoint
 10
679.7971738341186
 20
2362.706770671863
 30
0.0
  0
POINT
  5
3C22
330
3C17
100
AcDbEntity
  8
Defpoints
 62
     0
100
AcDbPoint
 10
645.6697124264349
 20
2360.19184930855
 30
0.0
  0
POINT
  5
3C23
330
3C17
100
AcDbEntity
  8
Defpoints
 62
     0
100
AcDbPoint
 10
785.3030798351735
 20
2360.19184930855
 30
0.0
  0
ENDBLK
  5
3C19
330
3C17
100
AcDbEntity
  8
0
100
AcDbBlockEnd
  0
BLOCK
  5
3C30
330
3C2F
100
AcDbEntity
  8
0
100
AcDbBlockBegin
  2
*D11
 70
     1
 10
0.0
 20
0.0
 30
0.0
  3
*D11
  1

  0
LINE
  5
3C32
330
3C2F
100
AcDbEntity
  8
DIM
 62
     0
370
    -2
100
AcDbLine
 10
265.0587572245852
 20
2457.575268444201
 30
0.0
 11
265.0587572245852
 21
2560.670453605898
 31
0.0
  0
LINE
  5
3C33
330
3C2F
100
AcDbEntity
  8
DIM
 62
     0
370
    -2
100
AcDbLine
 10
865.0638729467094
 20
2457.575268444201
 30
0.0
 11
865.0638729467094
 21
2560.670453605898
 31
0.0
  0
LINE
  5
3C34
330
3C2F
100
AcDbEntity
  8
DIM
 62
     0
370
    -2
100
AcDbLine
 10
275.0587572245852
 20
2560.670453605898
 30
0.0
 11
855.0638729467094
 21
2560.670453605898
 31
0.0
  0
INSERT
  5
3C35
330
3C2F
100
AcDbEntity
  8
DIM
 62
     0
370
    -2
100
AcDbBlockReference
  2
_DOT
 10
265.0587572245852
 20
2560.670453605898
 30
0.0
 41
10.0
 42
10.0
 43
10.0
 50
180.0
  0
INSERT
  5
3C36
330
3C2F
100
AcDbEntity
  8
DIM
 62
     0
370
    -2
100
AcDbBlockReference
  2
_DOT
 10
865.0638729467094
 20
2560.670453605898
 30
0.0
 41
10.0
 42
10.0
 43
10.0
  0
MTEXT
  5
3C37
330
3C2F
100
AcDbEntity
  8
DIM
 62
     0
100
AcDbMText
 10
565.0613150856473
 20
2592.670453605898
 30
0.0
 40
24.0
 41
0.0
 46
0.0
 71
     5
 72
     1
  1
\A1;600
  7
ＭＳ ゴシック
 73
     1
 44
1.0
  0
POINT
  5
3C38
330
3C2F
100
AcDbEntity
  8
Defpoints
 62
     0
100
AcDbPoint
 10
265.0587572245852
 20
2427.575268444201
 30
0.0
  0
POINT
  5
3C39
330
3C2F
100
AcDbEntity
  8
Defpoints
 62
     0
100
AcDbPoint
 10
865.0638729467094
 20
2427.575268444201
 30
0.0
  0
POINT
  5
3C3A
330
3C2F
100
AcDbEntity
  8
Defpoints
 62
     0
100
AcDbPoint
 10
865.0638729467094
 20
2560.670453605898
 30
0.0
  0
ENDBLK
  5
3C31
330
3C2F
100
AcDbEntity
  8
0
100
AcDbBlockEnd
  0
BLOCK
  5
3C3F
330
3C3E
100
AcDbEntity
  8
0
100
AcDbBlockBegin
  2
*D12
 70
     1
 10
0.0
 20
0.0
 30
0.0
  3
*D12
  1

  0
LINE
  5
3C41
330
3C3E
100
AcDbEntity
  8
DIM
 62
     0
370
    -2
100
AcDbLine
 10
890.1415072739612
 20
1967.61268108703
 30
0.0
 11
989.7419235917647
 21
1967.61268108703
 31
0.0
  0
LINE
  5
3C42
330
3C3E
100
AcDbEntity
  8
DIM
 62
     0
370
    -2
100
AcDbLine
 10
895.0638729467094
 20
2427.575268444201
 30
0.0
 11
989.7419235917647
 21
2427.575268444201
 31
0.0
  0
LINE
  5
3C43
330
3C3E
100
AcDbEntity
  8
DIM
 62
     0
370
    -2
100
AcDbLine
 10
989.7419235917647
 20
1977.61268108703
 30
0.0
 11
989.7419235917647
 21
2417.575268444201
 31
0.0
  0
INSERT
  5
3C44
330
3C3E
100
AcDbEntity
  8
DIM
 62
     0
370
    -2
100
AcDbBlockReference
  2
_DOT
 10
989.7419235917647
 20
1967.61268108703
 30
0.0
 41
10.0
 42
10.0
 43
10.0
 50
270.0
  0
INSERT
  5
3C45
330
3C3E
100
AcDbEntity
  8
DIM
 62
     0
370
    -2
100
AcDbBlockReference
  2
_DOT
 10
989.7419235917647
 20
2427.575268444201
 30
0.0
 41
10.0
 42
10.0
 43
10.0
 50
90.0
  0
MTEXT
  5
3C46
330
3C3E
100
AcDbEntity
  8
DIM
 62
     0
100
AcDbMText
 10
957.7419235917647
 20
2197.593974765616
 30
0.0
 40
24.0
 41
0.0
 46
0.0
 71
     5
 72
     1
  1
\A1;460
  7
ＭＳ ゴシック
 11
0.0
 21
1.0
 31
0.0
 73
     1
 44
1.0
  0
POINT
  5
3C47
330
3C3E
100
AcDbEntity
  8
Defpoints
 62
     0
100
AcDbPoint
 10
860.1415072739612
 20
1967.61268108703
 30
0.0
  0
POINT
  5
3C48
330
3C3E
100
AcDbEntity
  8
Defpoints
 62
     0
100
AcDbPoint
 10
865.0638729467094
 20
2427.575268444201
 30
0.0
  0
POINT
  5
3C49
330
3C3E
100
AcDbEntity
  8
Defpoints
 62
     0
100
AcDbPoint
 10
989.7419235917647
 20
2427.575268444201
 30
0.0
  0
ENDBLK
  5
3C40
330
3C3E
100
AcDbEntity
  8
0
100
AcDbBlockEnd
  0
BLOCK
  5
3C4E
330
3C4D
100
AcDbEntity
  8
0
100
AcDbBlockBegin
  2
*D13
 70
     1
 10
0.0
 20
0.0
 30
0.0
  3
*D13
  1

  0
LINE
  5
3C50
330
3C4D
100
AcDbEntity
  8
DIM
 62
     0
370
    -2
100
AcDbLine
 10
249.792569024494
 20
2302.389999125469
 30
0.0
 11
168.0365912752344
 21
2302.389999125469
 31
0.0
  0
LINE
  5
3C51
330
3C4D
100
AcDbEntity
  8
DIM
 62
     0
370
    -2
100
AcDbLine
 10
240.0760153615959
 20
1976.545762981939
 30
0.0
 11
168.0365912752344
 21
1976.545762981939
 31
0.0
  0
LINE
  5
3C52
330
3C4D
100
AcDbEntity
  8
DIM
 62
     0
370
    -2
100
AcDbLine
 10
168.0365912752344
 20
2292.389999125469
 30
0.0
 11
168.0365912752344
 21
1986.545762981939
 31
0.0
  0
INSERT
  5
3C53
330
3C4D
100
AcDbEntity
  8
DIM
 62
     0
370
    -2
100
AcDbBlockReference
  2
_DOT
 10
168.0365912752344
 20
2302.389999125469
 30
0.0
 41
10.0
 42
10.0
 43
10.0
 50
90.0
  0
INSERT
  5
3C54
330
3C4D
100
AcDbEntity
  8
DIM
 62
     0
370
    -2
100
AcDbBlockReference
  2
_DOT
 10
168.0365912752344
 20
1976.545762981939
 30
0.0
 41
10.0
 42
10.0
 43
10.0
 50
270.0
  0
MTEXT
  5
3C55
330
3C4D
100
AcDbEntity
  8
DIM
 62
     0
100
AcDbMText
 10
136.0320895871013
 20
2139.467881053704
 30
0.0
 40
24.0
 41
0.0
 46
0.0
 71
     5
 72
     1
  1
\A1;325
  7
ＭＳ ゴシック
 11
8.722483407036419E-17
 21
1.0
 31
0.0
 73
     1
 44
1.0
  0
POINT
  5
3C56
330
3C4D
100
AcDbEntity
  8
Defpoints
 62
     0
100
AcDbPoint
 10
279.792569024494
 20
2302.389999125469
 30
0.0
  0
POINT
  5
3C57
330
3C4D
100
AcDbEntity
  8
Defpoints
 62
     0
100
AcDbPoint
 10
270.0760153615959
 20
1976.545762981939
 30
0.0
  0
POINT
  5
3C58
330
3C4D
100
AcDbEntity
  8
Defpoints
 62
     0
100
AcDbPoint
 10
168.0365912752344
 20
1976.545762981939
 30
0.0
  0
ENDBLK
  5
3C4F
330
3C4D
100
AcDbEntity
  8
0
100
AcDbBlockEnd
  0
BLOCK
  5
3C5D
330
3C5C
100
AcDbEntity
  8
0
100
AcDbBlockBegin
  2
*D14
 70
     1
 10
0.0
 20
0.0
 30
0.0
  3
*D14
  1

  0
LINE
  5
3C5F
330
3C5C
100
AcDbEntity
  8
DIM
 62
     0
370
    -2
100
AcDbLine
 10
274.4836646233297
 20
1951.761658507186
 30
0.0
 11
274.4836646233297
 21
1839.658360311719
 31
0.0
  0
LINE
  5
3C60
330
3C5C
100
AcDbEntity
  8
DIM
 62
     0
370
    -2
100
AcDbLine
 10
855.8181258709029
 20
1951.904114505181
 30
0.0
 11
855.8181258709028
 21
1839.658360311719
 31
0.0
  0
LINE
  5
3C61
330
3C5C
100
AcDbEntity
  8
DIM
 62
     0
370
    -2
100
AcDbLine
 10
284.4836646233297
 20
1839.658360311719
 30
0.0
 11
845.8181258709028
 21
1839.658360311719
 31
0.0
  0
INSERT
  5
3C62
330
3C5C
100
AcDbEntity
  8
DIM
 62
     0
370
    -2
100
AcDbBlockReference
  2
_DOT
 10
274.4836646233297
 20
1839.658360311719
 30
0.0
 41
10.0
 42
10.0
 43
10.0
 50
180.0
  0
INSERT
  5
3C63
330
3C5C
100
AcDbEntity
  8
DIM
 62
     0
370
    -2
100
AcDbBlockReference
  2
_DOT
 10
855.8181258709028
 20
1839.658360311719
 30
0.0
 41
10.0
 42
10.0
 43
10.0
  0
MTEXT
  5
3C64
330
3C5C
100
AcDbEntity
  8
DIM
 62
     0
100
AcDbMText
 10
565.1508952471162
 20
1871.662861999852
 30
0.0
 40
24.0
 41
0.0
 46
0.0
 71
     5
 72
     1
  1
\A1;580
  7
ＭＳ ゴシック
 73
     1
 44
1.0
  0
POINT
  5
3C65
330
3C5C
100
AcDbEntity
  8
Defpoints
 62
     0
100
AcDbPoint
 10
274.4836646233297
 20
1981.761658507186
 30
0.0
  0
POINT
  5
3C66
330
3C5C
100
AcDbEntity
  8
Defpoints
 62
     0
100
AcDbPoint
 10
855.8181258709029
 20
1981.904114505181
 30
0.0
  0
POINT
  5
3C67
330
3C5C
100
AcDbEntity
  8
Defpoints
 62
     0
100
AcDbPoint
 10
855.8181258709029
 20
1839.658360311719
 30
0.0
  0
ENDBLK
  5
3C5E
330
3C5C
100
AcDbEntity
  8
0
100
AcDbBlockEnd
  0
BLOCK
  5
3C8A
330
3C89
100
AcDbEntity
  8
0
100
AcDbBlockBegin
  2
*D15
 70
     1
 10
0.0
 20
0.0
 30
0.0
  3
*D15
  1

  0
LINE
  5
3C8C
330
3C89
100
AcDbEntity
  8
DIM
 62
     0
370
    -2
100
AcDbLine
 10
625.1569162085735
 20
852.0559676534281
 30
0.0
 11
989.3939240559148
 21
852.0559676534281
 31
0.0
  0
LINE
  5
3C8D
330
3C89
100
AcDbEntity
  8
DIM
 62
     0
370
    -2
100
AcDbLine
 10
851.0453524325903
 20
1014.058244623822
 30
0.0
 11
989.3939240559148
 21
1014.058244623822
 31
0.0
  0
LINE
  5
3C8E
330
3C89
100
AcDbEntity
  8
DIM
 62
     0
370
    -2
100
AcDbLine
 10
989.3939240559148
 20
862.0559676534281
 30
0.0
 11
989.3939240559148
 21
1004.058244623822
 31
0.0
  0
INSERT
  5
3C8F
330
3C89
100
AcDbEntity
  8
DIM
 62
     0
370
    -2
100
AcDbBlockReference
  2
_DOT
 10
989.3939240559148
 20
852.0559676534281
 30
0.0
 41
10.0
 42
10.0
 43
10.0
 50
270.0
  0
INSERT
  5
3C90
330
3C89
100
AcDbEntity
  8
DIM
 62
     0
370
    -2
100
AcDbBlockReference
  2
_DOT
 10
989.3939240559148
 20
1014.058244623822
 30
0.0
 41
10.0
 42
10.0
 43
10.0
 50
90.0
  0
MTEXT
  5
3C91
330
3C89
100
AcDbEntity
  8
DIM
 62
     0
100
AcDbMText
 10
957.3894223677818
 20
933.0571061386247
 30
0.0
 40
24.0
 41
0.0
 46
0.0
 71
     5
 72
     1
  1
\A1;160
  7
ＭＳ ゴシック
 11
0.0
 21
1.0
 31
0.0
 73
     1
 44
1.0
  0
POINT
  5
3C92
330
3C89
100
AcDbEntity
  8
Defpoints
 62
     0
100
AcDbPoint
 10
595.1569162085735
 20
852.0559676534281
 30
0.0
  0
POINT
  5
3C93
330
3C89
100
AcDbEntity
  8
Defpoints
 62
     0
100
AcDbPoint
 10
821.0453524325903
 20
1014.058244623822
 30
0.0
  0
POINT
  5
3C94
330
3C89
100
AcDbEntity
  8
Defpoints
 62
     0
100
AcDbPoint
 10
989.3939240559148
 20
1014.058244623822
 30
0.0
  0
ENDBLK
  5
3C8B
330
3C89
100
AcDbEntity
  8
0
100
AcDbBlockEnd
  0
BLOCK
  5
3C99
330
3C98
100
AcDbEntity
  8
0
100
AcDbBlockBegin
  2
*D16
 70
     1
 10
0.0
 20
0.0
 30
0.0
  3
*D16
  1

  0
LINE
  5
3C9B
330
3C98
100
AcDbEntity
  8
DIM
 62
     0
370
    -2
100
AcDbLine
 10
1570.25957666758
 20
821.8974931565635
 30
0.0
 11
1570.25957666758
 21
733.1225023701348
 31
0.0
  0
LINE
  5
3C9C
330
3C98
100
AcDbEntity
  8
DIM
 62
     0
370
    -2
100
AcDbLine
 10
1784.616115577083
 20
844.8547048279625
 30
0.0
 11
1784.616115577083
 21
733.1225023701348
 31
0.0
  0
LINE
  5
3C9D
330
3C98
100
AcDbEntity
  8
DIM
 62
     0
370
    -2
100
AcDbLine
 10
1580.25957666758
 20
733.1225023701348
 30
0.0
 11
1774.616115577083
 21
733.1225023701348
 31
0.0
  0
INSERT
  5
3C9E
330
3C98
100
AcDbEntity
  8
DIM
 62
     0
370
    -2
100
AcDbBlockReference
  2
_DOT
 10
1570.25957666758
 20
733.1225023701348
 30
0.0
 41
10.0
 42
10.0
 43
10.0
 50
180.0
  0
INSERT
  5
3C9F
330
3C98
100
AcDbEntity
  8
DIM
 62
     0
370
    -2
100
AcDbBlockReference
  2
_DOT
 10
1784.616115577083
 20
733.1225023701348
 30
0.0
 41
10.0
 42
10.0
 43
10.0
  0
MTEXT
  5
3CA0
330
3C98
100
AcDbEntity
  8
DIM
 62
     0
100
AcDbMText
 10
1677.437846122331
 20
765.1270040582679
 30
0.0
 40
24.0
 41
0.0
 46
0.0
 71
     5
 72
     1
  1
\A1;215
  7
ＭＳ ゴシック
 73
     1
 44
1.0
  0
POINT
  5
3CA1
330
3C98
100
AcDbEntity
  8
Defpoints
 62
     0
100
AcDbPoint
 10
1570.25957666758
 20
851.8974931565635
 30
0.0
  0
POINT
  5
3CA2
330
3C98
100
AcDbEntity
  8
Defpoints
 62
     0
100
AcDbPoint
 10
1784.616115577083
 20
874.8547048279625
 30
0.0
  0
POINT
  5
3CA3
330
3C98
100
AcDbEntity
  8
Defpoints
 62
     0
100
AcDbPoint
 10
1784.616115577083
 20
733.1225023701348
 30
0.0
  0
ENDBLK
  5
3C9A
330
3C98
100
AcDbEntity
  8
0
100
AcDbBlockEnd
  0
BLOCK
  5
3CA8
330
3CA7
100
AcDbEntity
  8
0
100
AcDbBlockBegin
  2
*D17
 70
     1
 10
0.0
 20
0.0
 30
0.0
  3
*D17
  1

  0
LINE
  5
3CAA
330
3CA7
100
AcDbEntity
  8
DIM
 62
     0
370
    -2
100
AcDbLine
 10
1298.691878288434
 20
1014.058244623821
 30
0.0
 11
1159.990976235728
 21
1014.058244623821
 31
0.0
  0
LINE
  5
3CAB
330
3CA7
100
AcDbEntity
  8
DIM
 62
     0
370
    -2
100
AcDbLine
 10
1420.912395192318
 20
874.0563619357736
 30
0.0
 11
1159.990976235728
 21
874.0563619357736
 31
0.0
  0
LINE
  5
3CAC
330
3CA7
100
AcDbEntity
  8
DIM
 62
     0
370
    -2
100
AcDbLine
 10
1159.990976235728
 20
1004.058244623821
 30
0.0
 11
1159.990976235728
 21
884.0563619357736
 31
0.0
  0
INSERT
  5
3CAD
330
3CA7
100
AcDbEntity
  8
DIM
 62
     0
370
    -2
100
AcDbBlockReference
  2
_DOT
 10
1159.990976235728
 20
1014.058244623821
 30
0.0
 41
10.0
 42
10.0
 43
10.0
 50
90.0
  0
INSERT
  5
3CAE
330
3CA7
100
AcDbEntity
  8
DIM
 62
     0
370
    -2
100
AcDbBlockReference
  2
_DOT
 10
1159.990976235728
 20
874.0563619357736
 30
0.0
 41
10.0
 42
10.0
 43
10.0
 50
270.0
  0
MTEXT
  5
3CAF
330
3CA7
100
AcDbEntity
  8
DIM
 62
     0
100
AcDbMText
 10
1127.986474547595
 20
944.0573032797976
 30
0.0
 40
24.0
 41
0.0
 46
0.0
 71
     5
 72
     1
  1
\A1;140
  7
ＭＳ ゴシック
 11
0.0
 21
1.0
 31
0.0
 73
     1
 44
1.0
  0
POINT
  5
3CB0
330
3CA7
100
AcDbEntity
  8
Defpoints
 62
     0
100
AcDbPoint
 10
1328.691878288434
 20
1014.058244623821
 30
0.0
  0
POINT
  5
3CB1
330
3CA7
100
AcDbEntity
  8
Defpoints
 62
     0
100
AcDbPoint
 10
1450.912395192318
 20
874.0563619357736
 30
0.0
  0
POINT
  5
3CB2
330
3CA7
100
AcDbEntity
  8
Defpoints
 62
     0
100
AcDbPoint
 10
1159.990976235728
 20
874.0563619357736
 30
0.0
  0
ENDBLK
  5
3CA9
330
3CA7
100
AcDbEntity
  8
0
100
AcDbBlockEnd
  0
BLOCK
  5
3CC1
330
3CC0
100
AcDbEntity
  8
0
100
AcDbBlockBegin
  2
*D18
 70
     1
 10
0.0
 20
0.0
 30
0.0
  3
*D18
  1

  0
LINE
  5
3CC3
330
3CC0
100
AcDbEntity
  8
DIM
 62
     0
370
    -2
100
AcDbLine
 10
1784.734981913652
 20
1044.058244623821
 30
0.0
 11
1784.734981913652
 21
1080.612632394973
 31
0.0
  0
LINE
  5
3CC4
330
3CC0
100
AcDbEntity
  8
DIM
 62
     0
370
    -2
100
AcDbLine
 10
1719.616115577084
 20
1035.341730173942
 30
0.0
 11
1719.616115577084
 21
1080.612632394973
 31
0.0
  0
LINE
  5
3CC5
330
3CC0
100
AcDbEntity
  8
DIM
 62
     0
370
    -2
100
AcDbLine
 10
1774.734981913652
 20
1080.612632394973
 30
0.0
 11
1729.616115577084
 21
1080.612632394973
 31
0.0
  0
INSERT
  5
3CC6
330
3CC0
100
AcDbEntity
  8
DIM
 62
     0
370
    -2
100
AcDbBlockReference
  2
_DOT
 10
1784.734981913652
 20
1080.612632394973
 30
0.0
 41
10.0
 42
10.0
 43
10.0
  0
INSERT
  5
3CC7
330
3CC0
100
AcDbEntity
  8
DIM
 62
     0
370
    -2
100
AcDbBlockReference
  2
_DOT
 10
1719.616115577084
 20
1080.612632394973
 30
0.0
 41
10.0
 42
10.0
 43
10.0
 50
180.0
  0
MTEXT
  5
3CC8
330
3CC0
100
AcDbEntity
  8
DIM
 62
     0
100
AcDbMText
 10
1752.175548745367
 20
1112.617134083107
 30
0.0
 40
24.0
 41
0.0
 46
0.0
 71
     5
 72
     1
  1
\A1;65
  7
ＭＳ ゴシック
 73
     1
 44
1.0
  0
POINT
  5
3CC9
330
3CC0
100
AcDbEntity
  8
Defpoints
 62
     0
100
AcDbPoint
 10
1784.734981913652
 20
1014.058244623821
 30
0.0
  0
POINT
  5
3CCA
330
3CC0
100
AcDbEntity
  8
Defpoints
 62
     0
100
AcDbPoint
 10
1719.616115577084
 20
1005.341730173942
 30
0.0
  0
POINT
  5
3CCB
330
3CC0
100
AcDbEntity
  8
Defpoints
 62
     0
100
AcDbPoint
 10
1719.616115577084
 20
1080.612632394973
 30
0.0
  0
ENDBLK
  5
3CC2
330
3CC0
100
AcDbEntity
  8
0
100
AcDbBlockEnd
  0
BLOCK
  5
3CD1
330
3CD0
100
AcDbEntity
  8
0
100
AcDbBlockBegin
  2
*D19
 70
     1
 10
0.0
 20
0.0
 30
0.0
  3
*D19
  1

  0
LINE
  5
3CD3
330
3CD0
100
AcDbEntity
  8
DIM
 62
     0
370
    -2
100
AcDbLine
 10
1569.787986718937
 20
1014.058244623821
 30
0.0
 11
1569.787986718937
 21
1204.139024916431
 31
0.0
  0
LINE
  5
3CD4
330
3CD0
100
AcDbEntity
  8
DIM
 62
     0
370
    -2
100
AcDbLine
 10
1569.787986718937
 20
909.0402108765147
 30
0.0
 11
1569.787986718937
 21
1004.058244623821
 31
0.0
  0
LINE
  5
3CD5
330
3CD0
100
AcDbEntity
  8
DIM
 62
     0
370
    -2
100
AcDbLine
 10
1569.787986718937
 20
1004.058244623821
 30
0.0
 11
1569.787986718937
 21
994.0582446238213
 31
0.0
  0
INSERT
  5
3CD6
330
3CD0
100
AcDbEntity
  8
DIM
 62
     0
370
    -2
100
AcDbBlockReference
  2
_DOT
 10
1569.787986718937
 20
899.0402108765147
 30
0.0
 41
10.0
 42
10.0
 43
10.0
 50
270.0
  0
INSERT
  5
3CD7
330
3CD0
100
AcDbEntity
  8
DIM
 62
     0
370
    -2
100
AcDbBlockReference
  2
_DOT
 10
1569.787986718937
 20
1014.058244623821
 30
0.0
 41
10.0
 42
10.0
 43
10.0
 50
90.0
  0
MTEXT
  5
3CD8
330
3CD0
100
AcDbEntity
  8
DIM
 62
     0
100
AcDbMText
 10
1535.778733248885
 20
1119.098634770126
 30
0.0
 40
24.0
 41
0.0
 46
0.0
 71
     5
 72
     1
  1
\A1;115(深さ)
  7
ＭＳ ゴシック
 11
0.0
 21
1.0
 31
0.0
 73
     1
 44
1.0
  0
POINT
  5
3CD9
330
3CD0
100
AcDbEntity
  8
Defpoints
 62
     0
100
AcDbPoint
 10
1569.621344893726
 20
899.0402108765147
 30
0.0
  0
POINT
  5
3CDA
330
3CD0
100
AcDbEntity
  8
Defpoints
 62
     0
100
AcDbPoint
 10
1569.929507185008
 20
1014.058244623821
 30
0.0
  0
POINT
  5
3CDB
330
3CD0
100
AcDbEntity
  8
Defpoints
 62
     0
100
AcDbPoint
 10
1569.787986718937
 20
1014.058244623821
 30
0.0
  0
ENDBLK
  5
3CD2
330
3CD0
100
AcDbEntity
  8
0
100
AcDbBlockEnd
  0
BLOCK
  5
3CE2
330
3CE1
100
AcDbEntity
  8
0
100
AcDbBlockBegin
  2
*D20
 70
     1
 10
0.0
 20
0.0
 30
0.0
  3
*D20
  1

  0
LINE
  5
3CE4
330
3CE1
100
AcDbEntity
  8
DIM
 62
     0
370
    -2
100
AcDbLine
 10
371.538083916715
 20
844.3032920267548
 30
0.0
 11
371.538083916715
 21
737.716532953414
 31
0.0
  0
LINE
  5
3CE5
330
3CE1
100
AcDbEntity
  8
DIM
 62
     0
370
    -2
100
AcDbLine
 10
757.8950692275918
 20
844.0816680074386
 30
0.0
 11
757.8950692275918
 21
737.716532953414
 31
0.0
  0
LINE
  5
3CE6
330
3CE1
100
AcDbEntity
  8
DIM
 62
     0
370
    -2
100
AcDbLine
 10
381.538083916715
 20
737.716532953414
 30
0.0
 11
747.8950692275918
 21
737.716532953414
 31
0.0
  0
INSERT
  5
3CE7
330
3CE1
100
AcDbEntity
  8
DIM
 62
     0
370
    -2
100
AcDbBlockReference
  2
_DOT
 10
371.538083916715
 20
737.716532953414
 30
0.0
 41
10.0
 42
10.0
 43
10.0
 50
180.0
  0
INSERT
  5
3CE8
330
3CE1
100
AcDbEntity
  8
DIM
 62
     0
370
    -2
100
AcDbBlockReference
  2
_DOT
 10
757.8950692275918
 20
737.716532953414
 30
0.0
 41
10.0
 42
10.0
 43
10.0
  0
MTEXT
  5
3CE9
330
3CE1
100
AcDbEntity
  8
DIM
 62
     0
100
AcDbMText
 10
564.7165765721534
 20
769.721034641547
 30
0.0
 40
24.0
 41
0.0
 46
0.0
 71
     5
 72
     1
  1
\A1;386
  7
ＭＳ ゴシック
 73
     1
 44
1.0
  0
POINT
  5
3CEA
330
3CE1
100
AcDbEntity
  8
Defpoints
 62
     0
100
AcDbPoint
 10
371.538083916715
 20
874.3032920267548
 30
0.0
  0
POINT
  5
3CEB
330
3CE1
100
AcDbEntity
  8
Defpoints
 62
     0
100
AcDbPoint
 10
757.8950692275918
 20
874.0816680074386
 30
0.0
  0
POINT
  5
3CEC
330
3CE1
100
AcDbEntity
  8
Defpoints
 62
     0
100
AcDbPoint
 10
757.8950692275918
 20
737.716532953414
 30
0.0
  0
ENDBLK
  5
3CE3
330
3CE1
100
AcDbEntity
  8
0
100
AcDbBlockEnd
  0
BLOCK
  5
3CF1
330
3CF0
100
AcDbEntity
  8
0
100
AcDbBlockBegin
  2
*D21
 70
     1
 10
0.0
 20
0.0
 30
0.0
  3
*D21
  1

  0
LINE
  5
3CF3
330
3CF0
100
AcDbEntity
  8
DIM
 62
     0
370
    -2
100
AcDbLine
 10
1305.911801748003
 20
1014.058244623821
 30
0.0
 11
1274.949139441773
 21
1014.058244623821
 31
0.0
  0
LINE
  5
3CF4
330
3CF0
100
AcDbEntity
  8
DIM
 62
     0
370
    -2
100
AcDbLine
 10
1306.782696923812
 20
934.0561844884387
 30
0.0
 11
1274.949139441773
 21
934.0561844884387
 31
0.0
  0
LINE
  5
3CF5
330
3CF0
100
AcDbEntity
  8
DIM
 62
     0
370
    -2
100
AcDbLine
 10
1274.949139441773
 20
1004.058244623821
 30
0.0
 11
1274.949139441773
 21
944.0561844884387
 31
0.0
  0
INSERT
  5
3CF6
330
3CF0
100
AcDbEntity
  8
DIM
 62
     0
370
    -2
100
AcDbBlockReference
  2
_DOT
 10
1274.949139441773
 20
1014.058244623821
 30
0.0
 41
10.0
 42
10.0
 43
10.0
 50
90.0
  0
INSERT
  5
3CF7
330
3CF0
100
AcDbEntity
  8
DIM
 62
     0
370
    -2
100
AcDbBlockReference
  2
_DOT
 10
1274.949139441773
 20
934.0561844884387
 30
0.0
 41
10.0
 42
10.0
 43
10.0
 50
270.0
  0
MTEXT
  5
3CF8
330
3CF0
100
AcDbEntity
  8
DIM
 62
     0
100
AcDbMText
 10
1242.949139441773
 20
974.05721455613
 30
0.0
 40
24.0
 41
0.0
 46
0.0
 71
     5
 72
     1
  1
\A1;80
  7
ＭＳ ゴシック
 11
0.0
 21
1.0
 31
0.0
 73
     1
 44
1.0
  0
POINT
  5
3CF9
330
3CF0
100
AcDbEntity
  8
Defpoints
 62
     0
100
AcDbPoint
 10
1335.911801748003
 20
1014.058244623821
 30
0.0
  0
POINT
  5
3CFA
330
3CF0
100
AcDbEntity
  8
Defpoints
 62
     0
100
AcDbPoint
 10
1336.782696923812
 20
934.0561844884387
 30
0.0
  0
POINT
  5
3CFB
330
3CF0
100
AcDbEntity
  8
Defpoints
 62
     0
100
AcDbPoint
 10
1274.949139441773
 20
934.0561844884387
 30
0.0
  0
ENDBLK
  5
3CF2
330
3CF0
100
AcDbEntity
  8
0
100
AcDbBlockEnd
  0
BLOCK
  5
3D00
330
3CFF
100
AcDbEntity
  8
0
100
AcDbBlockBegin
  2
*D22
 70
     1
 10
0.0
 20
0.0
 30
0.0
  3
*D22
  1

  0
LINE
  5
3D02
330
3CFF
100
AcDbEntity
  8
DIM
 62
     0
370
    -2
100
AcDbLine
 10
1306.768000567721
 20
934.0561844884387
 30
0.0
 11
1274.949139441773
 21
934.0561844884387
 31
0.0
  0
LINE
  5
3D03
330
3CFF
100
AcDbEntity
  8
DIM
 62
     0
370
    -2
100
AcDbLine
 10
1409.959281329203
 20
874.0563619357736
 30
0.0
 11
1274.949139441773
 21
874.0563619357736
 31
0.0
  0
LINE
  5
3D04
330
3CFF
100
AcDbEntity
  8
DIM
 62
     0
370
    -2
100
AcDbLine
 10
1274.949139441773
 20
924.0561844884387
 30
0.0
 11
1274.949139441773
 21
884.0563619357736
 31
0.0
  0
INSERT
  5
3D05
330
3CFF
100
AcDbEntity
  8
DIM
 62
     0
370
    -2
100
AcDbBlockReference
  2
_DOT
 10
1274.949139441773
 20
934.0561844884387
 30
0.0
 41
10.0
 42
10.0
 43
10.0
 50
90.0
  0
INSERT
  5
3D06
330
3CFF
100
AcDbEntity
  8
DIM
 62
     0
370
    -2
100
AcDbBlockReference
  2
_DOT
 10
1274.949139441773
 20
874.0563619357736
 30
0.0
 41
10.0
 42
10.0
 43
10.0
 50
270.0
  0
MTEXT
  5
3D07
330
3CFF
100
AcDbEntity
  8
DIM
 62
     0
100
AcDbMText
 10
1242.949139441773
 20
904.0562732121061
 30
0.0
 40
24.0
 41
0.0
 46
0.0
 71
     5
 72
     1
  1
\A1;60
  7
ＭＳ ゴシック
 11
0.0
 21
1.0
 31
0.0
 73
     1
 44
1.0
  0
POINT
  5
3D08
330
3CFF
100
AcDbEntity
  8
Defpoints
 62
     0
100
AcDbPoint
 10
1336.768000567721
 20
934.0561844884387
 30
0.0
  0
POINT
  5
3D09
330
3CFF
100
AcDbEntity
  8
Defpoints
 62
     0
100
AcDbPoint
 10
1439.959281329203
 20
874.0563619357736
 30
0.0
  0
POINT
  5
3D0A
330
3CFF
100
AcDbEntity
  8
Defpoints
 62
     0
100
AcDbPoint
 10
1274.949139441773
 20
874.0563619357736
 30
0.0
  0
ENDBLK
  5
3D01
330
3CFF
100
AcDbEntity
  8
0
100
AcDbBlockEnd
  0
BLOCK
  5
3D10
330
3D0F
100
AcDbEntity
  8
0
100
AcDbBlockBegin
  2
*D23
 70
     1
 10
0.0
 20
0.0
 30
0.0
  3
*D23
  1

  0
LINE
  5
3D12
330
3D0F
100
AcDbEntity
  8
DIM
 62
     0
370
    -2
100
AcDbLine
 10
1784.616115577083
 20
844.0563619357736
 30
0.0
 11
1784.616115577083
 21
658.3910220518242
 31
0.0
  0
LINE
  5
3D13
330
3D0F
100
AcDbEntity
  8
DIM
 62
     0
370
    -2
100
AcDbLine
 10
1436.513588460985
 20
844.1880830687923
 30
0.0
 11
1436.513588460985
 21
658.3910220518242
 31
0.0
  0
LINE
  5
3D14
330
3D0F
100
AcDbEntity
  8
DIM
 62
     0
370
    -2
100
AcDbLine
 10
1774.616115577083
 20
658.3910220518242
 30
0.0
 11
1446.513588460985
 21
658.3910220518242
 31
0.0
  0
INSERT
  5
3D15
330
3D0F
100
AcDbEntity
  8
DIM
 62
     0
370
    -2
100
AcDbBlockReference
  2
_DOT
 10
1784.616115577083
 20
658.3910220518242
 30
0.0
 41
10.0
 42
10.0
 43
10.0
  0
INSERT
  5
3D16
330
3D0F
100
AcDbEntity
  8
DIM
 62
     0
370
    -2
100
AcDbBlockReference
  2
_DOT
 10
1436.513588460985
 20
658.3910220518242
 30
0.0
 41
10.0
 42
10.0
 43
10.0
 50
180.0
  0
MTEXT
  5
3D17
330
3D0F
100
AcDbEntity
  8
DIM
 62
     0
100
AcDbMText
 10
1610.564852019034
 20
690.3955237399572
 30
0.0
 40
24.0
 41
0.0
 46
0.0
 71
     5
 72
     1
  1
\A1;348
  7
ＭＳ ゴシック
 73
     1
 44
1.0
  0
POINT
  5
3D18
330
3D0F
100
AcDbEntity
  8
Defpoints
 62
     0
100
AcDbPoint
 10
1784.616115577083
 20
874.0563619357736
 30
0.0
  0
POINT
  5
3D19
330
3D0F
100
AcDbEntity
  8
Defpoints
 62
     0
100
AcDbPoint
 10
1436.513588460985
 20
874.1880830687923
 30
0.0
  0
POINT
  5
3D1A
330
3D0F
100
AcDbEntity
  8
Defpoints
 62
     0
100
AcDbPoint
 10
1436.513588460985
 20
658.3910220518242
 30
0.0
  0
ENDBLK
  5
3D11
330
3D0F
100
AcDbEntity
  8
0
100
AcDbBlockEnd
  0
BLOCK
  5
3D7C
330
3D7B
100
AcDbEntity
  8
0
100
AcDbBlockBegin
  2
*D24
 70
     1
 10
0.0
 20
0.0
 30
0.0
  3
*D24
  1

  0
LINE
  5
3D7E
330
3D7B
100
AcDbEntity
  8
DIM
 62
     0
370
    -2
100
AcDbLine
 10
426.0485769990355
 20
1005.815200118548
 30
0.0
 11
426.0485769990355
 21
1082.385954491693
 31
0.0
  0
LINE
  5
3D7F
330
3D7B
100
AcDbEntity
  8
DIM
 62
     0
370
    -2
100
AcDbLine
 10
706.0106809237004
 20
1005.815200118548
 30
0.0
 11
706.0106809237004
 21
1082.385954491693
 31
0.0
  0
LINE
  5
3D80
330
3D7B
100
AcDbEntity
  8
DIM
 62
     0
370
    -2
100
AcDbLine
 10
436.0485769990355
 20
1082.385954491693
 30
0.0
 11
696.0106809237004
 21
1082.385954491693
 31
0.0
  0
INSERT
  5
3D81
330
3D7B
100
AcDbEntity
  8
DIM
 62
     0
370
    -2
100
AcDbBlockReference
  2
_DOT
 10
426.0485769990355
 20
1082.385954491693
 30
0.0
 41
10.0
 42
10.0
 43
10.0
 50
180.0
  0
INSERT
  5
3D82
330
3D7B
100
AcDbEntity
  8
DIM
 62
     0
370
    -2
100
AcDbBlockReference
  2
_DOT
 10
706.0106809237004
 20
1082.385954491693
 30
0.0
 41
10.0
 42
10.0
 43
10.0
  0
MTEXT
  5
3D83
330
3D7B
100
AcDbEntity
  8
DIM
 62
     0
100
AcDbMText
 10
566.029628961368
 20
1114.390456179826
 30
0.0
 40
24.0
 41
0.0
 46
0.0
 71
     5
 72
     1
  1
\A1;280
  7
ＭＳ ゴシック
 73
     1
 44
1.0
  0
POINT
  5
3D84
330
3D7B
100
AcDbEntity
  8
Defpoints
 62
     0
100
AcDbPoint
 10
426.0485769990355
 20
975.8152001185478
 30
0.0
  0
POINT
  5
3D85
330
3D7B
100
AcDbEntity
  8
Defpoints
 62
     0
100
AcDbPoint
 10
706.0106809237004
 20
975.8152001185478
 30
0.0
  0
POINT
  5
3D86
330
3D7B
100
AcDbEntity
  8
Defpoints
 62
     0
100
AcDbPoint
 10
706.0106809237004
 20
1082.385954491693
 30
0.0
  0
ENDBLK
  5
3D7D
330
3D7B
100
AcDbEntity
  8
0
100
AcDbBlockEnd
  0
BLOCK
  5
3D89
330
3D88
100
AcDbEntity
  8
0
100
AcDbBlockBegin
  2
*D25
 70
     1
 10
0.0
 20
0.0
 30
0.0
  3
*D25
  1

  0
LINE
  5
3D8B
330
3D88
100
AcDbEntity
  8
DIM
 62
     0
370
    -2
100
AcDbLine
 10
360.9422382798344
 20
959.2472959987438
 30
0.0
 11
209.0797304306343
 21
959.2472959987438
 31
0.0
  0
LINE
  5
3D8C
330
3D88
100
AcDbEntity
  8
DIM
 62
     0
370
    -2
100
AcDbLine
 10
255.011734121352
 20
1014.058244623822
 30
0.0
 11
209.0797304306343
 21
1014.058244623822
 31
0.0
  0
LINE
  5
3D8D
330
3D88
100
AcDbEntity
  8
DIM
 62
     0
370
    -2
100
AcDbLine
 10
209.0797304306343
 20
969.2472959987438
 30
0.0
 11
209.0797304306343
 21
1004.058244623822
 31
0.0
  0
INSERT
  5
3D8E
330
3D88
100
AcDbEntity
  8
DIM
 62
     0
370
    -2
100
AcDbBlockReference
  2
_DOT
 10
209.0797304306343
 20
959.2472959987438
 30
0.0
 41
10.0
 42
10.0
 43
10.0
 50
270.0
  0
INSERT
  5
3D8F
330
3D88
100
AcDbEntity
  8
DIM
 62
     0
370
    -2
100
AcDbBlockReference
  2
_DOT
 10
209.0797304306343
 20
1014.058244623822
 30
0.0
 41
10.0
 42
10.0
 43
10.0
 50
90.0
  0
MTEXT
  5
3D90
330
3D88
100
AcDbEntity
  8
DIM
 62
     0
100
AcDbMText
 10
177.0752287425013
 20
986.6527703112829
 30
0.0
 40
24.0
 41
0.0
 46
0.0
 71
     5
 72
     1
  1
\A1;55
  7
ＭＳ ゴシック
 11
0.0
 21
1.0
 31
0.0
 73
     1
 44
1.0
  0
POINT
  5
3D91
330
3D88
100
AcDbEntity
  8
Defpoints
 62
     0
100
AcDbPoint
 10
390.9422382798344
 20
959.2472959987438
 30
0.0
  0
POINT
  5
3D92
330
3D88
100
AcDbEntity
  8
Defpoints
 62
     0
100
AcDbPoint
 10
285.011734121352
 20
1014.058244623822
 30
0.0
  0
POINT
  5
3D93
330
3D88
100
AcDbEntity
  8
Defpoints
 62
     0
100
AcDbPoint
 10
209.0797304306343
 20
1014.058244623822
 30
0.0
  0
ENDBLK
  5
3D8A
330
3D88
100
AcDbEntity
  8
0
100
AcDbBlockEnd
  0
BLOCK
  5
3DC0
330
3DBF
100
AcDbEntity
  8
0
100
AcDbBlockBegin
  2
*D26
 70
     1
 10
0.0
 20
0.0
 30
0.0
  3
*D26
  1

  0
LINE
  5
3DC2
330
3DBF
100
AcDbEntity
  8
DIM
 62
     0
370
    -2
100
AcDbLine
 10
1275.966152285873
 20
1997.612412431863
 30
0.0
 11
1275.966152285873
 21
1840.00386926208
 31
0.0
  0
LINE
  5
3DC3
330
3DBF
100
AcDbEntity
  8
DIM
 62
     0
370
    -2
100
AcDbLine
 10
1800.966152285873
 20
1987.612412431863
 30
0.0
 11
1800.966152285873
 21
1840.00386926208
 31
0.0
  0
LINE
  5
3DC4
330
3DBF
100
AcDbEntity
  8
DIM
 62
     0
370
    -2
100
AcDbLine
 10
1285.966152285873
 20
1840.00386926208
 30
0.0
 11
1790.966152285873
 21
1840.00386926208
 31
0.0
  0
INSERT
  5
3DC5
330
3DBF
100
AcDbEntity
  8
DIM
 62
     0
370
    -2
100
AcDbBlockReference
  2
_DOT
 10
1275.966152285873
 20
1840.00386926208
 30
0.0
 41
10.0
 42
10.0
 43
10.0
 50
180.0
  0
INSERT
  5
3DC6
330
3DBF
100
AcDbEntity
  8
DIM
 62
     0
370
    -2
100
AcDbBlockReference
  2
_DOT
 10
1800.966152285873
 20
1840.00386926208
 30
0.0
 41
10.0
 42
10.0
 43
10.0
  0
MTEXT
  5
3DC7
330
3DBF
100
AcDbEntity
  8
DIM
 62
     0
100
AcDbMText
 10
1538.466152285873
 20
1872.008370950213
 30
0.0
 40
24.0
 41
0.0
 46
0.0
 71
     5
 72
     1
  1
\A1;525
  7
ＭＳ ゴシック
 73
     1
 44
1.0
  0
POINT
  5
3DC8
330
3DBF
100
AcDbEntity
  8
Defpoints
 62
     0
100
AcDbPoint
 10
1275.966152285873
 20
2027.612412431863
 30
0.0
  0
POINT
  5
3DC9
330
3DBF
100
AcDbEntity
  8
Defpoints
 62
     0
100
AcDbPoint
 10
1800.966152285873
 20
2017.612412431863
 30
0.0
  0
POINT
  5
3DCA
330
3DBF
100
AcDbEntity
  8
Defpoints
 62
     0
100
AcDbPoint
 10
1800.966152285873
 20
1840.00386926208
 30
0.0
  0
ENDBLK
  5
3DC1
330
3DBF
100
AcDbEntity
  8
0
100
AcDbBlockEnd
  0
BLOCK
  5
3DCF
330
3DCE
100
AcDbEntity
  8
0
100
AcDbBlockBegin
  2
*D27
 70
     1
 10
0.0
 20
0.0
 30
0.0
  3
*D27
  1

  0
LINE
  5
3DD1
330
3DCE
100
AcDbEntity
  8
DIM
 62
     0
370
    -2
100
AcDbLine
 10
1388.466152285873
 20
2132.612412431863
 30
0.0
 11
1388.466152285873
 21
1913.118878680875
 31
0.0
  0
LINE
  5
3DD2
330
3DCE
100
AcDbEntity
  8
DIM
 62
     0
370
    -2
100
AcDbLine
 10
1688.466152285873
 20
2132.612412431863
 30
0.0
 11
1688.466152285873
 21
1913.118878680875
 31
0.0
  0
LINE
  5
3DD3
330
3DCE
100
AcDbEntity
  8
DIM
 62
     0
370
    -2
100
AcDbLine
 10
1398.466152285873
 20
1913.118878680875
 30
0.0
 11
1678.466152285873
 21
1913.118878680875
 31
0.0
  0
INSERT
  5
3DD4
330
3DCE
100
AcDbEntity
  8
DIM
 62
     0
370
    -2
100
AcDbBlockReference
  2
_DOT
 10
1388.466152285873
 20
1913.118878680875
 30
0.0
 41
10.0
 42
10.0
 43
10.0
 50
180.0
  0
INSERT
  5
3DD5
330
3DCE
100
AcDbEntity
  8
DIM
 62
     0
370
    -2
100
AcDbBlockReference
  2
_DOT
 10
1688.466152285873
 20
1913.118878680875
 30
0.0
 41
10.0
 42
10.0
 43
10.0
  0
MTEXT
  5
3DD6
330
3DCE
100
AcDbEntity
  8
DIM
 62
     0
100
AcDbMText
 10
1538.466152285873
 20
1945.123380369008
 30
0.0
 40
24.0
 41
0.0
 46
0.0
 71
     5
 72
     1
  1
\A1;300
  7
ＭＳ ゴシック
 73
     1
 44
1.0
  0
POINT
  5
3DD7
330
3DCE
100
AcDbEntity
  8
Defpoints
 62
     0
100
AcDbPoint
 10
1388.466152285873
 20
2162.612412431863
 30
0.0
  0
POINT
  5
3DD8
330
3DCE
100
AcDbEntity
  8
Defpoints
 62
     0
100
AcDbPoint
 10
1688.466152285873
 20
2162.612412431863
 30
0.0
  0
POINT
  5
3DD9
330
3DCE
100
AcDbEntity
  8
Defpoints
 62
     0
100
AcDbPoint
 10
1688.466152285873
 20
1913.118878680875
 30
0.0
  0
ENDBLK
  5
3DD0
330
3DCE
100
AcDbEntity
  8
0
100
AcDbBlockEnd
  0
BLOCK
  5
3DDE
330
3DDD
100
AcDbEntity
  8
0
100
AcDbBlockBegin
  2
*D28
 70
     1
 10
0.0
 20
0.0
 30
0.0
  3
*D28
  1

  0
LINE
  5
3DE0
330
3DDD
100
AcDbEntity
  8
DIM
 62
     0
370
    -2
100
AcDbLine
 10
1830.966152285873
 20
2427.612412431863
 30
0.0
 11
1975.902187298694
 21
2427.612412431863
 31
0.0
  0
LINE
  5
3DE1
330
3DDD
100
AcDbEntity
  8
DIM
 62
     0
370
    -2
100
AcDbLine
 10
1830.966152285873
 20
2017.612412431863
 30
0.0
 11
1975.902187298694
 21
2017.612412431863
 31
0.0
  0
LINE
  5
3DE2
330
3DDD
100
AcDbEntity
  8
DIM
 62
     0
370
    -2
100
AcDbLine
 10
1975.902187298694
 20
2417.612412431863
 30
0.0
 11
1975.902187298694
 21
2027.612412431863
 31
0.0
  0
INSERT
  5
3DE3
330
3DDD
100
AcDbEntity
  8
DIM
 62
     0
370
    -2
100
AcDbBlockReference
  2
_DOT
 10
1975.902187298694
 20
2427.612412431863
 30
0.0
 41
10.0
 42
10.0
 43
10.0
 50
90.0
  0
INSERT
  5
3DE4
330
3DDD
100
AcDbEntity
  8
DIM
 62
     0
370
    -2
100
AcDbBlockReference
  2
_DOT
 10
1975.902187298694
 20
2017.612412431863
 30
0.0
 41
10.0
 42
10.0
 43
10.0
 50
270.0
  0
MTEXT
  5
3DE5
330
3DDD
100
AcDbEntity
  8
DIM
 62
     0
100
AcDbMText
 10
1943.897685610561
 20
2222.612412431863
 30
0.0
 40
24.0
 41
0.0
 46
0.0
 71
     5
 72
     1
  1
\A1;410
  7
ＭＳ ゴシック
 11
0.0
 21
1.0
 31
0.0
 73
     1
 44
1.0
  0
POINT
  5
3DE6
330
3DDD
100
AcDbEntity
  8
Defpoints
 62
     0
100
AcDbPoint
 10
1800.966152285873
 20
2427.612412431863
 30
0.0
  0
POINT
  5
3DE7
330
3DDD
100
AcDbEntity
  8
Defpoints
 62
     0
100
AcDbPoint
 10
1800.966152285873
 20
2017.612412431863
 30
0.0
  0
POINT
  5
3DE8
330
3DDD
100
AcDbEntity
  8
Defpoints
 62
     0
100
AcDbPoint
 10
1975.902187298694
 20
2017.612412431863
 30
0.0
  0
ENDBLK
  5
3DDF
330
3DDD
100
AcDbEntity
  8
0
100
AcDbBlockEnd
  0
BLOCK
  5
3DED
330
3DEC
100
AcDbEntity
  8
0
100
AcDbBlockBegin
  2
*D29
 70
     1
 10
0.0
 20
0.0
 30
0.0
  3
*D29
  1

  0
LINE
  5
3DEF
330
3DEC
100
AcDbEntity
  8
DIM
 62
     0
370
    -2
100
AcDbLine
 10
1718.466152285873
 20
2427.612412431863
 30
0.0
 11
1895.571356339658
 21
2427.612412431863
 31
0.0
  0
LINE
  5
3DF0
330
3DEC
100
AcDbEntity
  8
DIM
 62
     0
370
    -2
100
AcDbLine
 10
1718.466152285873
 20
2162.612412431863
 30
0.0
 11
1895.571356339658
 21
2162.612412431863
 31
0.0
  0
LINE
  5
3DF1
330
3DEC
100
AcDbEntity
  8
DIM
 62
     0
370
    -2
100
AcDbLine
 10
1895.571356339658
 20
2417.612412431863
 30
0.0
 11
1895.571356339658
 21
2172.612412431863
 31
0.0
  0
INSERT
  5
3DF2
330
3DEC
100
AcDbEntity
  8
DIM
 62
     0
370
    -2
100
AcDbBlockReference
  2
_DOT
 10
1895.571356339658
 20
2427.612412431863
 30
0.0
 41
10.0
 42
10.0
 43
10.0
 50
90.0
  0
INSERT
  5
3DF3
330
3DEC
100
AcDbEntity
  8
DIM
 62
     0
370
    -2
100
AcDbBlockReference
  2
_DOT
 10
1895.571356339658
 20
2162.612412431863
 30
0.0
 41
10.0
 42
10.0
 43
10.0
 50
270.0
  0
MTEXT
  5
3DF4
330
3DEC
100
AcDbEntity
  8
DIM
 62
     0
100
AcDbMText
 10
1863.566854651524
 20
2295.112412431863
 30
0.0
 40
24.0
 41
0.0
 46
0.0
 71
     5
 72
     1
  1
\A1;265
  7
ＭＳ ゴシック
 11
0.0
 21
1.0
 31
0.0
 73
     1
 44
1.0
  0
POINT
  5
3DF5
330
3DEC
100
AcDbEntity
  8
Defpoints
 62
     0
100
AcDbPoint
 10
1688.466152285873
 20
2427.612412431863
 30
0.0
  0
POINT
  5
3DF6
330
3DEC
100
AcDbEntity
  8
Defpoints
 62
     0
100
AcDbPoint
 10
1688.466152285873
 20
2162.612412431863
 30
0.0
  0
POINT
  5
3DF7
330
3DEC
100
AcDbEntity
  8
Defpoints
 62
     0
100
AcDbPoint
 10
1895.571356339658
 20
2162.612412431863
 30
0.0
  0
ENDBLK
  5
3DEE
330
3DEC
100
AcDbEntity
  8
0
100
AcDbBlockEnd
  0
BLOCK
  5
3E46
330
3E45
100
AcDbEntity
  8
0
100
AcDbBlockBegin
  2
_None
 70
     0
 10
0.0
 20
0.0
 30
0.0
  3
_None
  1

  0
ENDBLK
  5
3E47
330
3E45
100
AcDbEntity
  8
0
100
AcDbBlockEnd
  0
BLOCK
  5
3EBD
330
3EBC
100
AcDbEntity
  8
0
100
AcDbBlockBegin
  2
*D31
 70
     1
 10
0.0
 20
0.0
 30
0.0
  3
*D31
  1

  0
LINE
  5
3EBF
330
3EBC
100
AcDbEntity
  8
DIM
 62
     0
370
    -2
100
AcDbLine
 10
465.0613150856509
 20
2392.612412431863
 30
0.0
 11
465.0613150856509
 21
2481.354630282795
 31
0.0
  0
LINE
  5
3EC0
330
3EBC
100
AcDbEntity
  8
DIM
 62
     0
370
    -2
100
AcDbLine
 10
565.0613150856509
 20
2392.485234746602
 30
0.0
 11
565.0613150856509
 21
2481.354630282795
 31
0.0
  0
LINE
  5
3EC1
330
3EBC
100
AcDbEntity
  8
DIM
 62
     0
370
    -2
100
AcDbLine
 10
475.0613150856509
 20
2481.354630282795
 30
0.0
 11
555.0613150856509
 21
2481.354630282795
 31
0.0
  0
INSERT
  5
3EC2
330
3EBC
100
AcDbEntity
  8
DIM
 62
     0
370
    -2
100
AcDbBlockReference
  2
_DOT
 10
465.0613150856509
 20
2481.354630282795
 30
0.0
 41
10.0
 42
10.0
 43
10.0
 50
180.0
  0
INSERT
  5
3EC3
330
3EBC
100
AcDbEntity
  8
DIM
 62
     0
370
    -2
100
AcDbBlockReference
  2
_DOT
 10
565.0613150856509
 20
2481.354630282795
 30
0.0
 41
10.0
 42
10.0
 43
10.0
  0
MTEXT
  5
3EC4
330
3EBC
100
AcDbEntity
  8
DIM
 62
     0
100
AcDbMText
 10
515.0613150856509
 20
2513.359131970928
 30
0.0
 40
24.0
 41
0.0
 46
0.0
 71
     5
 72
     1
  1
\A1;100
  7
ＭＳ ゴシック
 73
     1
 44
1.0
  0
POINT
  5
3EC5
330
3EBC
100
AcDbEntity
  8
Defpoints
 62
     0
100
AcDbPoint
 10
465.0613150856509
 20
2362.612412431863
 30
0.0
  0
POINT
  5
3EC6
330
3EBC
100
AcDbEntity
  8
Defpoints
 62
     0
100
AcDbPoint
 10
565.0613150856509
 20
2362.485234746602
 30
0.0
  0
POINT
  5
3EC7
330
3EBC
100
AcDbEntity
  8
Defpoints
 62
     0
100
AcDbPoint
 10
565.0613150856509
 20
2481.354630282795
 30
0.0
  0
ENDBLK
  5
3EBE
330
3EBC
100
AcDbEntity
  8
0
100
AcDbBlockEnd
  0
BLOCK
  5
3ECC
330
3ECB
100
AcDbEntity
  8
0
100
AcDbBlockBegin
  2
*D32
 70
     1
 10
0.0
 20
0.0
 30
0.0
  3
*D32
  1

  0
LINE
  5
3ECE
330
3ECB
100
AcDbEntity
  8
DIM
 62
     0
370
    -2
100
AcDbLine
 10
565.0613150856509
 20
2392.485234746602
 30
0.0
 11
565.0613150856509
 21
2481.354630282795
 31
0.0
  0
LINE
  5
3ECF
330
3ECB
100
AcDbEntity
  8
DIM
 62
     0
370
    -2
100
AcDbLine
 10
665.0613150856509
 20
2392.612412431863
 30
0.0
 11
665.0613150856509
 21
2481.354630282795
 31
0.0
  0
LINE
  5
3ED0
330
3ECB
100
AcDbEntity
  8
DIM
 62
     0
370
    -2
100
AcDbLine
 10
575.0613150856509
 20
2481.354630282795
 30
0.0
 11
655.0613150856509
 21
2481.354630282795
 31
0.0
  0
INSERT
  5
3ED1
330
3ECB
100
AcDbEntity
  8
DIM
 62
     0
370
    -2
100
AcDbBlockReference
  2
_DOT
 10
565.0613150856509
 20
2481.354630282795
 30
0.0
 41
10.0
 42
10.0
 43
10.0
 50
180.0
  0
INSERT
  5
3ED2
330
3ECB
100
AcDbEntity
  8
DIM
 62
     0
370
    -2
100
AcDbBlockReference
  2
_DOT
 10
665.0613150856509
 20
2481.354630282795
 30
0.0
 41
10.0
 42
10.0
 43
10.0
  0
MTEXT
  5
3ED3
330
3ECB
100
AcDbEntity
  8
DIM
 62
     0
100
AcDbMText
 10
615.0613150856509
 20
2513.359131970928
 30
0.0
 40
24.0
 41
0.0
 46
0.0
 71
     5
 72
     1
  1
\A1;100
  7
ＭＳ ゴシック
 73
     1
 44
1.0
  0
POINT
  5
3ED4
330
3ECB
100
AcDbEntity
  8
Defpoints
 62
     0
100
AcDbPoint
 10
565.0613150856509
 20
2362.485234746602
 30
0.0
  0
POINT
  5
3ED5
330
3ECB
100
AcDbEntity
  8
Defpoints
 62
     0
100
AcDbPoint
 10
665.0613150856509
 20
2362.612412431863
 30
0.0
  0
POINT
  5
3ED6
330
3ECB
100
AcDbEntity
  8
Defpoints
 62
     0
100
AcDbPoint
 10
665.0613150856509
 20
2481.354630282795
 30
0.0
  0
ENDBLK
  5
3ECD
330
3ECB
100
AcDbEntity
  8
0
100
AcDbBlockEnd
  0
ENDSEC
  0
SECTION
  2
ENTITIES
  0
MTEXT
  5
177
330
A
100
AcDbEntity
  8
TEMPLATE
390
1D
100
AcDbMText
 10
79.20214454773075
 20
343.7317516314282
 30
0.0
 40
16.28841145833333
 41
0.0
 46
0.0
 71
     1
 72
     1
  1
品名
  7
ＭＳ ゴシック
 73
     1
 44
0.7828267384257843
  0
MTEXT
  5
178
330
A
100
AcDbEntity
  8
TEMPLATE
390
1D
100
AcDbMText
 10
79.20214454773075
 20
258.731751631428
 30
0.0
 40
16.28841145833333
 41
0.0
 46
0.0
 71
     1
 72
     1
  1
仕様
  7
ＭＳ ゴシック
 73
     1
 44
0.7828267384257843
  0
LINE
  5
179
330
A
100
AcDbEntity
  8
TEMPLATE
390
1D
100
AcDbLine
 10
2022.202144547248
 20
267.1466735064284
 30
0.0
 11
72.20214454724874
 21
267.1466735064284
 31
0.0
  0
LWPOLYLINE
  5
17A
330
A
100
AcDbEntity
  8
TEMPLATE
390
1D
100
AcDbPolyline
 90
        5
 70
   128
 43
0.0
 10
2022.202144547248
 20
2897.146673506426
 10
72.20214454724874
 20
2897.146673506426
 10
72.20214454724874
 20
97.14667350642826
 10
2022.202144547248
 20
97.14667350642826
 10
2022.202144547248
 20
2897.146673506426
  0
LINE
  5
17B
330
A
100
AcDbEntity
  8
TEMPLATE
390
1D
100
AcDbLine
 10
2022.202144547248
 20
352.1466735064282
 30
0.0
 11
72.20214454724874
 21
352.1466735064282
 31
0.0
  0
LINE
  5
17C
330
A
100
AcDbEntity
  8
TEMPLATE
390
1D
100
AcDbLine
 10
2022.202144547732
 20
182.1466735064282
 30
0.0
 11
1269.20214454773
 21
182.1466735064282
 31
0.0
  0
MTEXT
  5
17E
330
A
100
AcDbEntity
  8
TEMPLATE
390
1D
100
AcDbMText
 10
1299.073550799991
 20
152.2362790331201
 30
0.0
 40
24.4326171875
 41
0.0
 46
0.0
 71
     1
 72
     1
  1
大洋金物株式会社 ティーフォルム事業部
  7
ＭＳ ゴシック
 73
     1
 44
0.7828267384257843
  0
MTEXT
  5
180
330
A
100
AcDbEntity
  8
TEMPLATE
390
1D
100
AcDbMText
 10
1831.20214454799
 20
230.1492906939282
 30
0.0
 40
24.4326171875
 41
0.0
 46
24.4326171875
 71
     1
 72
     1
  1
{1:10}
  7
ＭＳ ゴシック
 73
     1
 44
0.7828267384257843
1001
ACAD
1000
ACAD_MTEXT_DEFINED_HEIGHT_BEGIN
1070
    46
1040
24.4326171875
1000
ACAD_MTEXT_DEFINED_HEIGHT_END
  0
MTEXT
  5
181
330
A
100
AcDbEntity
  8
TEMPLATE
390
1D
100
AcDbMText
 10
1778.20214454799
 20
258.731751631428
 30
0.0
 40
16.28841145833333
 41
0.0
 46
0.0
 71
     1
 72
     1
  1
縮尺
  7
ＭＳ ゴシック
 73
     1
 44
0.7828267384257843
  0
LINE
  5
182
330
A
100
AcDbEntity
  8
TEMPLATE
390
1D
100
AcDbLine
 10
1771.20214454799
 20
182.1466735064282
 30
0.0
 11
1771.20214454799
 21
267.1466735064284
 31
0.0
  0
MTEXT
  5
183
330
A
100
AcDbEntity
  8
TEMPLATE
390
1D
100
AcDbMText
 10
1527.20214454799
 20
258.731751631428
 30
0.0
 40
16.28841145833333
 41
0.0
 46
0.0
 71
     1
 72
     1
  1
容量
  7
ＭＳ ゴシック
 73
     1
 44
0.7828267384257843
  0
LINE
  5
184
330
A
100
AcDbEntity
  8
TEMPLATE
390
1D
100
AcDbLine
 10
1520.20214454799
 20
182.1466735064282
 30
0.0
 11
1520.20214454799
 21
267.1466735064284
 31
0.0
  0
MTEXT
  5
185
330
A
100
AcDbEntity
  8
TEMPLATE
390
1D
100
AcDbMText
 10
1276.20214454799
 20
343.7317516314282
 30
0.0
 40
16.28841145833333
 41
0.0
 46
0.0
 71
     1
 72
     1
  1
品番
  7
ＭＳ ゴシック
 73
     1
 44
0.7828267384257843
  0
MTEXT
  5
186
330
A
100
AcDbEntity
  8
TEMPLATE
390
1D
100
AcDbMText
 10
1276.20214454799
 20
258.731751631428
 30
0.0
 40
16.28841145833333
 41
0.0
 46
0.0
 71
     1
 72
     1
  1
重量
  7
ＭＳ ゴシック
 73
     1
 44
0.7828267384257843
  0
MTEXT
  5
187
330
A
100
AcDbEntity
  8
TEMPLATE
390
1D
100
AcDbMText
 10
1329.20214454799
 20
315.1492906939282
 30
0.0
 40
24.4326171875
 41
0.0
 46
24.4326171875
 71
     1
 72
     1
  1
{GAR70-1002-001}
  7
ＭＳ ゴシック
 73
     1
 44
0.7828267384257843
1001
ACAD
1000
ACAD_MTEXT_DEFINED_HEIGHT_BEGIN
1070
    46
1040
24.4326171875
1000
ACAD_MTEXT_DEFINED_HEIGHT_END
  0
LINE
  5
188
330
A
100
AcDbEntity
  8
TEMPLATE
390
1D
100
AcDbLine
 10
1269.20214454799
 20
97.14667350642826
 30
0.0
 11
1269.20214454799
 21
352.1466735064282
 31
0.0
  0
MTEXT
  5
189
330
A
100
AcDbEntity
  8
TEMPLATE
390
1D
100
AcDbMText
 10
132.2021445477307
 20
315.1492906939282
 30
0.0
 40
24.4326171875
 41
0.0
 46
27.53672361022102
 71
     1
 72
     1
  1
{洗面器　-LAUFEN, MEDA-}
  7
ＭＳ ゴシック
 73
     1
 44
0.7828267384257843
1001
ACAD
1000
ACAD_MTEXT_DEFINED_HEIGHT_BEGIN
1070
    46
1040
27.53672361022102
1000
ACAD_MTEXT_DEFINED_HEIGHT_END
  0
INSERT
  5
68C
330
A
100
AcDbEntity
  8
TEMPLATE
100
AcDbBlockReference
  2
block 2
 10
919.2743017702577
 20
8.373076514336368
 30
0.0
 41
0.3809999999999999
 42
0.3809999999999999
 43
0.3809999999999999
  0
LWPOLYLINE
  5
DAC
330
A
100
AcDbEntity
  8
BORDER
100
AcDbPolyline
 90
        4
 70
     1
 43
0.0
 10
0.0
 20
0.0
 10
0.0
 20
2970.0
 10
2100.0
 20
2970.0
 10
2100.0
 20
0.0
  0
MTEXT
  5
121B
330
A
100
AcDbEntity
  8
TEMPLATE
390
1D
100
AcDbMText
 10
1329.20214454799
 20
227.1688729773101
 30
0.0
 40
24.4326171875
 41
0.0
 46
28.40135167875453
 71
     1
 72
     1
  1
{15kg}
  7
ＭＳ ゴシック
 73
     1
 44
0.7828267384257843
1001
ACAD
1000
ACAD_MTEXT_DEFINED_HEIGHT_BEGIN
1070
    46
1040
28.40135167875453
1000
ACAD_MTEXT_DEFINED_HEIGHT_END
  0
MTEXT
  5
1466
102
{ACAD_XDICTIONARY
360
1468
102
}
330
A
100
AcDbEntity
  8
TEMPLATE
 48
0.05
100
AcDbMText
 10
74.728656548571
 20
83.86172105142839
 30
0.0
 40
22.0
 41
0.0
 46
22.0
 71
     1
 72
     1
  1
{20240405M}
  7
ＭＳ ゴシック
 73
     1
 44
1.0
1001
ACAD
1000
ACAD_MTEXT_DEFINED_HEIGHT_BEGIN
1070
    46
1040
22.0
1000
ACAD_MTEXT_DEFINED_HEIGHT_END
  0
MTEXT
  5
146D
330
A
100
AcDbEntity
  8
TEMPLATE
390
1D
100
AcDbMText
 10
1583.904999862276
 20
227.1688729773101
 30
0.0
 40
24.4326171875
 41
0.0
 46
24.4326171875
 71
     1
 72
     1
  1
{5L}
  7
ＭＳ ゴシック
 73
     1
 44
0.7828267384257843
1001
ACAD
1000
ACAD_MTEXT_DEFINED_HEIGHT_BEGIN
1070
    46
1040
24.4326171875
1000
ACAD_MTEXT_DEFINED_HEIGHT_END
  0
POINT
  5
262A
330
A
100
AcDbEntity
  8
Layer9
  6
Continuous
 62
     7
100
AcDbPoint
 10
1037.460145007193
 20
1010.220672371878
 30
0.0
  0
POINT
  5
262B
330
A
100
AcDbEntity
  8
Layer9
  6
Continuous
 62
     7
100
AcDbPoint
 10
1037.460146257193
 20
1010.220672788578
 30
0.0
  0
POINT
  5
262C
330
A
100
AcDbEntity
  8
Layer9
  6
Continuous
 62
     7
100
AcDbPoint
 10
1037.853693340493
 20
1015.267975288578
 30
0.0
  0
POINT
  5
2812
330
A
100
AcDbEntity
  8
Layer9
  6
Continuous
 62
     7
100
AcDbPoint
 10
925.7934783404928
 20
1010.220672371878
 30
0.0
  0
POINT
  5
2813
330
A
100
AcDbEntity
  8
Layer9
  6
Continuous
 62
     7
100
AcDbPoint
 10
925.7934795904928
 20
1010.220672788578
 30
0.0
  0
POINT
  5
2814
330
A
100
AcDbEntity
  8
Layer9
  6
Continuous
 62
     7
100
AcDbPoint
 10
926.1870266737928
 20
1015.267975288578
 30
0.0
  0
INSERT
  5
28CA
330
A
100
AcDbEntity
  8
Layer3
100
AcDbBlockReference
  2
SEANNOT_GROUP
 10
859.7083018867928
 20
826.1905269541776
 30
0.0
  0
POINT
  5
2A52
330
A
100
AcDbEntity
  8
Standard
  6
Continuous
 62
     7
100
AcDbPoint
 10
1036.111241014893
 20
1018.794321538578
 30
0.0
  0
INSERT
  5
2B9B
330
A
100
AcDbEntity
  8
Layer3
100
AcDbBlockReference
  2
SEANNOT_GROUP1
 10
859.7083018867928
 20
826.1905269541776
 30
0.0
  0
HATCH
  5
369B
102
{ACAD_REACTORS
330
36AC
102
}
330
A
100
AcDbEntity
  8
TEMPLATE
100
AcDbHatch
 10
0.0
 20
0.0
 30
0.0
210
0.0
220
0.0
230
1.0
  2
SOLID
 70
     1
 71
     1
 91
        6
 92
        1
 93
        8
 72
     1
 10
1934.476782902687
 20
153.1053194253001
 11
1934.476782902687
 21
147.1959117946397
 72
     1
 10
1934.476782902687
 20
147.1959117946397
 11
1925.116191352377
 21
147.1959117946397
 72
     1
 10
1925.116191352377
 20
147.1959117946397
 11
1925.116191352377
 21
123.105319426746
 72
     1
 10
1925.116191352377
 20
123.105319426746
 11
1916.883578199102
 21
123.105319426746
 72
     1
 10
1916.883578199102
 20
123.105319426746
 11
1916.883578199102
 21
147.1959117946397
 72
     1
 10
1916.883578199102
 20
147.1959117946397
 11
1907.688876764557
 21
147.1959117946397
 72
     1
 10
1907.688876764557
 20
147.1959117946397
 11
1907.688876764557
 21
153.1053194253001
 72
     1
 10
1907.688876764557
 20
153.1053194253001
 11
1934.476782902687
 21
153.1053194253001
 97
        1
330
369C
 92
        1
 93
        1
 72
     4
 94
        3
 73
     0
 74
     1
 95
       56
 96
       52
 40
0.0
 40
0.0
 40
0.0
 40
0.0
 40
1.0
 40
1.0
 40
1.0
 40
2.0
 40
2.0
 40
2.0
 40
3.0
 40
3.0
 40
3.0
 40
4.0
 40
4.0
 40
4.0
 40
5.0
 40
5.0
 40
5.0
 40
6.0
 40
6.0
 40
6.0
 40
7.0
 40
7.0
 40
7.0
 40
8.0
 40
8.0
 40
8.0
 40
9.0
 40
9.0
 40
9.0
 40
10.0
 40
10.0
 40
10.0
 40
11.0
 40
11.0
 40
11.0
 40
12.0
 40
12.0
 40
12.0
 40
13.0
 40
13.0
 40
13.0
 40
14.0
 40
14.0
 40
14.0
 40
15.0
 40
15.0
 40
15.0
 40
16.0
 40
16.0
 40
16.0
 40
17.0
 40
17.0
 40
17.0
 40
17.0
 10
1947.01896833698
 20
152.3909504648878
 10
1948.1728345189
 20
152.715738018898
 10
1949.662423612235
 20
152.4440650580081
 10
1949.662423612235
 20
152.4440650580081
 10
1949.662423612235
 20
152.4440650580081
 10
1948.946790018651
 20
150.2964947655846
 10
1948.946790018651
 20
150.2964947655846
 10
1948.946790018651
 20
150.2964947655846
 10
1947.484427733556
 20
150.6348957237139
 10
1946.356523726704
 20
149.7454866546012
 10
1945.480058550036
 20
149.0499384113589
 10
1944.912238256914
 20
147.2017886193686
 10
1944.69442379101
 20
146.4990989182278
 10
1944.69442379101
 20
146.4990989182278
 10
1943.723334297183
 20
143.518432927829
 10
1943.723334297183
 20
143.518432927829
 10
1943.723334297183
 20
143.518432927829
 10
1946.907457447503
 20
143.518432927829
 10
1946.907457447503
 20
143.518432927829
 10
1946.907457447503
 20
143.518432927829
 10
1946.412241976351
 20
141.642461206109
 10
1946.412241976351
 20
141.642461206109
 10
1946.412241976351
 20
141.642461206109
 10
1943.202156650962
 20
141.642461206109
 10
1943.202156650962
 20
141.642461206109
 10
1943.202156650962
 20
141.642461206109
 10
1937.458713526257
 20
123.105319426746
 10
1937.458713526257
 20
123.105319426746
 10
1937.458713526257
 20
123.105319426746
 10
1935.660479549369
 20
123.105319426746
 10
1935.660479549369
 20
123.105319426746
 10
1935.660479549369
 20
123.105319426746
 10
1941.409129987127
 20
141.642461206109
 10
1941.409129987127
 20
141.642461206109
 10
1941.409129987127
 20
141.642461206109
 10
1939.040397670409
 20
141.642461206109
 10
1939.040397670409
 20
141.642461206109
 10
1939.040397670409
 20
141.642461206109
 10
1939.536952164915
 20
143.518432927829
 10
1939.536952164915
 20
143.518432927829
 10
1939.536952164915
 20
143.518432927829
 10
1941.930307633347
 20
143.518432927829
 10
1941.930307633347
 20
143.518432927829
 10
1941.930307633347
 20
143.518432927829
 10
1942.77686795507
 20
146.1179236028939
 10
1942.77686795507
 20
146.1179236028939
 10
1943.461406450716
 20
148.2973328951149
 10
1944.042245026465
 20
149.4674161376772
 10
1944.540138544327
 20
150.3496093587049
 10
1945.032750358952
 20
151.232546481597
 10
1946.007708142475
 20
152.0998616653363
 10
1947.01896833698
 20
152.3909504648878
 97
        1
330
36A7
 92
        1
 93
        1
 72
     4
 94
        3
 73
     0
 74
     1
 95
       32
 96
       28
 40
0.0
 40
0.0
 40
0.0
 40
0.0
 40
1.0
 40
1.0
 40
1.0
 40
2.0
 40
2.0
 40
2.0
 40
3.0
 40
3.0
 40
3.0
 40
4.0
 40
4.0
 40
4.0
 40
5.0
 40
5.0
 40
5.0
 40
6.0
 40
6.0
 40
6.0
 40
7.0
 40
7.0
 40
7.0
 40
8.0
 40
8.0
 40
8.0
 40
9.0
 40
9.0
 40
9.0
 40
9.0
 10
1951.394524713372
 20
142.3847264864374
 10
1950.311998720255
 20
140.9844800070205
 10
1949.478382290974
 20
139.7243102486757
 10
1948.128795528524
 20
135.7635535518901
 10
1946.888041608841
 20
132.1406026917421
 10
1946.098464169936
 20
129.5048096056932
 10
1945.979216701069
 20
126.2947242803041
 10
1945.888460673606
 20
123.9059066132458
 10
1947.343086379314
 20
123.105319426746
 10
1949.475853024634
 20
123.105319426746
 10
1950.395018168326
 20
123.105319426746
 10
1952.714504181618
 20
123.1637901132903
 10
1954.3662638814
 20
125.2056519507783
 10
1955.522584939468
 20
126.6401923061455
 10
1956.588298750451
 20
128.1272521331414
 10
1958.017036671275
 20
133.0053142189559
 10
1959.205940631009
 20
137.0833842397621
 10
1960.029142434186
 20
139.7191029356247
 10
1959.968291261677
 20
141.2197761667398
 10
1959.968291261677
 20
141.2197761667398
 10
1959.968291261677
 20
141.2197761667398
 10
1959.968291261677
 20
141.2197761667398
 10
1959.580569609936
 20
143.7233035012931
 10
1957.762919794387
 20
144.2522921170894
 10
1956.724432791643
 20
144.2522921170894
 10
1955.70156772805
 20
144.2522921170894
 10
1952.960735698745
 20
144.4292663706373
 10
1951.394524713372
 20
142.3847264864374
 97
        1
330
36AA
 92
        1
 93
        1
 72
     4
 94
        3
 73
     0
 74
     1
 95
       38
 96
       34
 40
0.0
 40
0.0
 40
0.0
 40
0.0
 40
1.0
 40
1.0
 40
1.0
 40
2.0
 40
2.0
 40
2.0
 40
3.0
 40
3.0
 40
3.0
 40
4.0
 40
4.0
 40
4.0
 40
5.0
 40
5.0
 40
5.0
 40
6.0
 40
6.0
 40
6.0
 40
7.0
 40
7.0
 40
7.0
 40
8.0
 40
8.0
 40
8.0
 40
9.0
 40
9.0
 40
9.0
 40
10.0
 40
10.0
 40
10.0
 40
11.0
 40
11.0
 40
11.0
 40
11.0
 10
1966.542747159137
 20
143.4464976175386
 10
1966.542747159137
 20
143.4464976175386
 10
1968.39149207262
 20
143.4464976175386
 10
1968.39149207262
 20
143.4464976175386
 10
1968.39149207262
 20
143.4464976175386
 10
1967.56561222273
 20
140.8022984404216
 10
1967.56561222273
 20
140.8022984404216
 10
1968.193167835563
 20
141.54456372075
 10
1969.183598777865
 20
142.5331349083912
 10
1970.034176169654
 20
143.0316235477459
 10
1971.304760554101
 20
143.7738888280742
 10
1972.030808773784
 20
143.8717863134333
 10
1972.829313035064
 20
143.8522960845852
 10
1972.829313035064
 20
143.8522960845852
 10
1972.048959979278
 20
141.3520419182353
 10
1972.048959979278
 20
141.3520419182353
 10
1971.540726225497
 20
141.5672527276151
 10
1969.974515240128
 20
141.1575859708734
 10
1969.076030568268
 20
140.5112840310564
 10
1968.265772657532
 20
139.9285113104618
 10
1967.705614553615
 20
139.4326263276327
 10
1967.04190531017
 20
138.1859955832205
 10
1966.383254599404
 20
136.9375050841474
 10
1965.86341597654
 20
134.9467493047458
 10
1964.968799594376
 20
132.058773486655
 10
1964.968799594376
 20
132.058773486655
 10
1962.174852971949
 20
123.105319426746
 10
1962.174852971949
 20
123.105319426746
 10
1962.174852971949
 20
123.105319426746
 10
1960.380561674943
 20
123.105319426746
 10
1960.380561674943
 20
123.105319426746
 10
1960.380561674943
 20
123.105319426746
 10
1966.542747159137
 20
143.4464976175386
 10
1966.542747159137
 20
143.4464976175386
 97
        1
330
36A8
 92
        1
 93
        1
 72
     4
 94
        3
 73
     0
 74
     1
 95
      104
 96
      100
 40
0.0
 40
0.0
 40
0.0
 40
0.0
 40
1.0
 40
1.0
 40
1.0
 40
2.0
 40
2.0
 40
2.0
 40
3.0
 40
3.0
 40
3.0
 40
4.0
 40
4.0
 40
4.0
 40
5.0
 40
5.0
 40
5.0
 40
6.0
 40
6.0
 40
6.0
 40
7.0
 40
7.0
 40
7.0
 40
8.0
 40
8.0
 40
8.0
 40
9.0
 40
9.0
 40
9.0
 40
10.0
 40
10.0
 40
10.0
 40
11.0
 40
11.0
 40
11.0
 40
12.0
 40
12.0
 40
12.0
 40
13.0
 40
13.0
 40
13.0
 40
14.0
 40
14.0
 40
14.0
 40
15.0
 40
15.0
 40
15.0
 40
16.0
 40
16.0
 40
16.0
 40
17.0
 40
17.0
 40
17.0
 40
18.0
 40
18.0
 40
18.0
 40
19.0
 40
19.0
 40
19.0
 40
20.0
 40
20.0
 40
20.0
 40
21.0
 40
21.0
 40
21.0
 40
22.0
 40
22.0
 40
22.0
 40
23.0
 40
23.0
 40
23.0
 40
24.0
 40
24.0
 40
24.0
 40
25.0
 40
25.0
 40
25.0
 40
26.0
 40
26.0
 40
26.0
 40
27.0
 40
27.0
 40
27.0
 40
28.0
 40
28.0
 40
28.0
 40
29.0
 40
29.0
 40
29.0
 40
30.0
 40
30.0
 40
30.0
 40
31.0
 40
31.0
 40
31.0
 40
32.0
 40
32.0
 40
32.0
 40
33.0
 40
33.0
 40
33.0
 40
33.0
 10
1976.718878323425
 20
143.4575073651321
 10
1976.718878323425
 20
143.4575073651321
 10
1978.332996588864
 20
143.4575073651321
 10
1978.332996588864
 20
143.4575073651321
 10
1978.332996588864
 20
143.4575073651321
 10
1977.517531365076
 20
140.810778921676
 10
1977.517531365076
 20
140.810778921676
 10
1978.225279598895
 20
141.920531723033
 10
1978.860571791119
 20
142.4151520726926
 10
1979.704602846502
 20
143.054312554611
 10
1980.551163168223
 20
143.6843974337833
 10
1981.556025806694
 20
143.812794895584
 10
1982.253508194784
 20
143.812794895584
 10
1983.117029479015
 20
143.812794895584
 10
1983.950645908296
 20
143.6422925882567
 10
1984.388804106443
 20
142.6958262461422
 10
1984.72460140805
 20
141.9536353560001
 10
1984.740223347202
 20
141.8660781065566
 10
1984.644260006691
 20
140.4010377747479
 10
1985.521915426345
 20
141.9030500292188
 10
1986.170151511008
 20
142.5500214807137
 10
1987.272167732975
 20
143.1716258786317
 10
1988.42863757142
 20
143.812794895584
 10
1989.102761440966
 20
143.8607765658398
 10
1989.885941323838
 20
143.7453229964802
 10
1991.039733115569
 20
143.5748950793392
 10
1991.776195961356
 20
143.1632197875635
 10
1992.161239566385
 20
141.9121256319649
 10
1992.54762219477
 20
140.6648997660613
 10
1992.338883331611
 20
139.9959088193793
 10
1991.861744675765
 20
138.0103603530286
 10
1991.64393020986
 20
137.1060732466272
 10
1991.328813380087
 20
136.0111240923725
 10
1990.916542966819
 20
134.7082543670094
 10
1990.916542966819
 20
134.7082543670094
 10
1987.272167732975
 20
123.105319426746
 10
1987.272167732975
 20
123.105319426746
 10
1987.272167732975
 20
123.105319426746
 10
1985.376705782409
 20
123.105319426746
 10
1985.376705782409
 20
123.105319426746
 10
1985.376705782409
 20
123.105319426746
 10
1988.567449659321
 20
133.2490164697431
 10
1988.567449659321
 20
133.2490164697431
 10
1989.233836949479
 20
135.3713684889626
 10
1989.684939040069
 20
136.9212880235028
 10
1989.918375445127
 20
137.893047029008
 10
1990.211323999339
 20
139.1052351170969
 10
1990.327967811683
 20
139.505231149601
 10
1990.189304504152
 20
140.3874987608153
 10
1990.062246065708
 20
141.2087664191461
 10
1989.647297605728
 20
141.7435574694851
 10
1988.936871325198
 20
141.7435574694851
 10
1988.17972800758
 20
141.7435574694851
 10
1987.566455310545
 20
141.659273388245
 10
1986.708290119737
 20
140.7971655175569
 10
1985.84997614856
 20
139.9285113104618
 10
1985.140740111011
 20
138.9088450248874
 10
1984.584599077163
 20
137.7361581257997
 10
1984.029648286297
 20
136.5563297688134
 10
1983.466960916042
 20
135.0608638507494
 10
1982.896536966398
 20
133.2490164697431
 10
1982.896536966398
 20
133.2490164697431
 10
1979.704602846502
 20
123.105319426746
 10
1979.704602846502
 20
123.105319426746
 10
1979.704602846502
 20
123.105319426746
 10
1977.921916418581
 20
123.105319426746
 10
1977.921916418581
 20
123.105319426746
 10
1977.921916418581
 20
123.105319426746
 10
1981.571498965475
 20
134.7030470539584
 10
1981.571498965475
 20
134.7030470539584
 10
1981.956542570504
 20
135.9373290274211
 10
1982.245771615394
 20
136.9433819088763
 10
1982.436359273062
 20
137.729686179579
 10
1982.760402925207
 20
139.0832156219098
 10
1982.851158952669
 20
139.9985124759046
 10
1982.606117678524
 20
140.810778921676
 10
1982.364944694076
 20
141.6204417109219
 10
1981.941069411725
 20
141.8272464292334
 10
1981.233172397533
 20
141.8272464292334
 10
1980.639389929345
 20
141.8272464292334
 10
1980.059890376953
 20
141.5724600406662
 10
1979.398710399847
 20
141.0654909200569
 10
1978.566284213549
 20
140.4276694614944
 10
1978.233164958657
 20
139.9038881587491
 10
1977.824762835085
 20
139.2815398589669
 10
1977.273680333915
 20
138.458263665602
 10
1977.015695167332
 20
137.9040567766015
 10
1976.550310160944
 20
136.687926008631
 10
1976.084776374184
 20
135.4646537827621
 10
1975.644088909695
 20
134.0411231749885
 10
1975.336708659311
 20
133.0564946672286
 10
1975.336708659311
 20
133.0564946672286
 10
1972.205774492298
 20
123.105319426746
 10
1972.205774492298
 20
123.105319426746
 10
1972.205774492298
 20
123.105319426746
 10
1970.338878373326
 20
123.105319426746
 10
1970.338878373326
 20
123.105319426746
 10
1970.338878373326
 20
123.105319426746
 10
1976.718878323425
 20
143.4575073651321
 10
1976.718878323425
 20
143.4575073651321
 97
        1
330
36A9
 92
       16
 93
        1
 72
     4
 94
        3
 73
     0
 74
     1
 95
       29
 96
       25
 40
0.0
 40
0.0
 40
0.0
 40
0.0
 40
1.0
 40
1.0
 40
1.0
 40
2.0
 40
2.0
 40
2.0
 40
3.0
 40
3.0
 40
3.0
 40
4.0
 40
4.0
 40
4.0
 40
5.0
 40
5.0
 40
5.0
 40
6.0
 40
6.0
 40
6.0
 40
7.0
 40
7.0
 40
7.0
 40
8.0
 40
8.0
 40
8.0
 40
8.0
 10
1947.916188375669
 20
126.8949043045264
 10
1947.908303015907
 20
128.3120373562658
 10
1948.355685597176
 20
130.8298476066162
 10
1949.501740809517
 20
134.1986815898748
 10
1951.062744481836
 20
138.7603622127471
 10
1951.998870588036
 20
140.4276694614944
 10
1952.818055321147
 20
141.2392663955878
 10
1954.014844640642
 20
142.4210288974216
 10
1955.623755593032
 20
142.4799459250845
 10
1956.098364982539
 20
142.4210288974216
 10
1956.77382787544
 20
142.3399435941987
 10
1957.727956406759
 20
141.8978427161679
 10
1957.784939289575
 20
140.4095182560024
 10
1957.830466083678
 20
139.1357350935386
 10
1957.463424903768
 20
136.7501905946838
 10
1956.178706383896
 20
133.0053142189559
 10
1954.698044112936
 20
128.6536370924121
 10
1953.808635043822
 20
126.9429603649685
 10
1953.095679496951
 20
126.1974219164366
 10
1951.752490290537
 20
124.7997790935452
 10
1950.311998720255
 20
124.9339789898883
 10
1950.0993915674
 20
124.9339789898883
 10
1949.823255195324
 20
124.9339789898883
 10
1947.920056665365
 20
125.2336226608809
 10
1947.916188375669
 20
126.8949043045264
 97
        1
330
36AB
 75
     0
 76
     1
 98
        1
 10
1859.334883625664
 20
72.26751235270598
1001
ACAD
1010
0.0
1020
0.0
1030
0.0
  0
POLYLINE
  5
369C
102
{ACAD_REACTORS
330
369B
330
36AC
102
}
330
A
100
AcDbEntity
  8
TEMPLATE
100
AcDb2dPolyline
 66
     1
 10
0.0
 20
0.0
 30
0.0
  0
VERTEX
  5
369D
330
369C
100
AcDbEntity
  8
TEMPLATE
100
AcDbVertex
100
AcDb2dVertex
 10
1934.476782902687
 20
153.1053194253001
 30
0.0
  0
VERTEX
  5
369E
330
369C
100
AcDbEntity
  8
TEMPLATE
100
AcDbVertex
100
AcDb2dVertex
 10
1934.476782902687
 20
147.1959117946397
 30
0.0
  0
VERTEX
  5
369F
330
369C
100
AcDbEntity
  8
TEMPLATE
100
AcDbVertex
100
AcDb2dVertex
 10
1925.116191352377
 20
147.1959117946397
 30
0.0
  0
VERTEX
  5
36A0
330
369C
100
AcDbEntity
  8
TEMPLATE
100
AcDbVertex
100
AcDb2dVertex
 10
1925.116191352377
 20
123.105319426746
 30
0.0
  0
VERTEX
  5
36A1
330
369C
100
AcDbEntity
  8
TEMPLATE
100
AcDbVertex
100
AcDb2dVertex
 10
1916.883578199102
 20
123.105319426746
 30
0.0
  0
VERTEX
  5
36A2
330
369C
100
AcDbEntity
  8
TEMPLATE
100
AcDbVertex
100
AcDb2dVertex
 10
1916.883578199102
 20
147.1959117946397
 30
0.0
  0
VERTEX
  5
36A3
330
369C
100
AcDbEntity
  8
TEMPLATE
100
AcDbVertex
100
AcDb2dVertex
 10
1907.688876764557
 20
147.1959117946397
 30
0.0
  0
VERTEX
  5
36A4
330
369C
100
AcDbEntity
  8
TEMPLATE
100
AcDbVertex
100
AcDb2dVertex
 10
1907.688876764557
 20
153.1053194253001
 30
0.0
  0
VERTEX
  5
36A5
330
369C
100
AcDbEntity
  8
TEMPLATE
100
AcDbVertex
100
AcDb2dVertex
 10
1934.476782902687
 20
153.1053194253001
 30
0.0
  0
SEQEND
  5
36A6
330
369C
100
AcDbEntity
  8
TEMPLATE
  0
SPLINE
  5
36A7
102
{ACAD_REACTORS
330
369B
330
36AC
102
}
330
A
100
AcDbEntity
  8
TEMPLATE
100
AcDbSpline
210
0.0
220
0.0
230
1.0
 70
    11
 71
     3
 72
    56
 73
    52
 74
     0
 42
0.000000001
 43
0.0000000001
 40
0.0
 40
0.0
 40
0.0
 40
0.0
 40
1.0
 40
1.0
 40
1.0
 40
2.0
 40
2.0
 40
2.0
 40
3.0
 40
3.0
 40
3.0
 40
4.0
 40
4.0
 40
4.0
 40
5.0
 40
5.0
 40
5.0
 40
6.0
 40
6.0
 40
6.0
 40
7.0
 40
7.0
 40
7.0
 40
8.0
 40
8.0
 40
8.0
 40
9.0
 40
9.0
 40
9.0
 40
10.0
 40
10.0
 40
10.0
 40
11.0
 40
11.0
 40
11.0
 40
12.0
 40
12.0
 40
12.0
 40
13.0
 40
13.0
 40
13.0
 40
14.0
 40
14.0
 40
14.0
 40
15.0
 40
15.0
 40
15.0
 40
16.0
 40
16.0
 40
16.0
 40
17.0
 40
17.0
 40
17.0
 40
17.0
 10
1947.01896833698
 20
152.3909504648878
 30
0.0
 10
1948.1728345189
 20
152.715738018898
 30
0.0
 10
1949.662423612235
 20
152.4440650580081
 30
0.0
 10
1949.662423612235
 20
152.4440650580081
 30
0.0
 10
1949.662423612235
 20
152.4440650580081
 30
0.0
 10
1948.946790018651
 20
150.2964947655846
 30
0.0
 10
1948.946790018651
 20
150.2964947655846
 30
0.0
 10
1948.946790018651
 20
150.2964947655846
 30
0.0
 10
1947.484427733556
 20
150.6348957237139
 30
0.0
 10
1946.356523726704
 20
149.7454866546012
 30
0.0
 10
1945.480058550036
 20
149.0499384113589
 30
0.0
 10
1944.912238256914
 20
147.2017886193686
 30
0.0
 10
1944.69442379101
 20
146.4990989182278
 30
0.0
 10
1944.69442379101
 20
146.4990989182278
 30
0.0
 10
1943.723334297183
 20
143.518432927829
 30
0.0
 10
1943.723334297183
 20
143.518432927829
 30
0.0
 10
1943.723334297183
 20
143.518432927829
 30
0.0
 10
1946.907457447503
 20
143.518432927829
 30
0.0
 10
1946.907457447503
 20
143.518432927829
 30
0.0
 10
1946.907457447503
 20
143.518432927829
 30
0.0
 10
1946.412241976351
 20
141.642461206109
 30
0.0
 10
1946.412241976351
 20
141.642461206109
 30
0.0
 10
1946.412241976351
 20
141.642461206109
 30
0.0
 10
1943.202156650962
 20
141.642461206109
 30
0.0
 10
1943.202156650962
 20
141.642461206109
 30
0.0
 10
1943.202156650962
 20
141.642461206109
 30
0.0
 10
1937.458713526257
 20
123.105319426746
 30
0.0
 10
1937.458713526257
 20
123.105319426746
 30
0.0
 10
1937.458713526257
 20
123.105319426746
 30
0.0
 10
1935.660479549369
 20
123.105319426746
 30
0.0
 10
1935.660479549369
 20
123.105319426746
 30
0.0
 10
1935.660479549369
 20
123.105319426746
 30
0.0
 10
1941.409129987127
 20
141.642461206109
 30
0.0
 10
1941.409129987127
 20
141.642461206109
 30
0.0
 10
1941.409129987127
 20
141.642461206109
 30
0.0
 10
1939.040397670409
 20
141.642461206109
 30
0.0
 10
1939.040397670409
 20
141.642461206109
 30
0.0
 10
1939.040397670409
 20
141.642461206109
 30
0.0
 10
1939.536952164915
 20
143.518432927829
 30
0.0
 10
1939.536952164915
 20
143.518432927829
 30
0.0
 10
1939.536952164915
 20
143.518432927829
 30
0.0
 10
1941.930307633347
 20
143.518432927829
 30
0.0
 10
1941.930307633347
 20
143.518432927829
 30
0.0
 10
1941.930307633347
 20
143.518432927829
 30
0.0
 10
1942.77686795507
 20
146.1179236028939
 30
0.0
 10
1942.77686795507
 20
146.1179236028939
 30
0.0
 10
1943.461406450716
 20
148.2973328951149
 30
0.0
 10
1944.042245026465
 20
149.4674161376772
 30
0.0
 10
1944.540138544327
 20
150.3496093587049
 30
0.0
 10
1945.032750358952
 20
151.232546481597
 30
0.0
 10
1946.007708142475
 20
152.0998616653363
 30
0.0
 10
1947.01896833698
 20
152.3909504648878
 30
0.0
  0
SPLINE
  5
36A8
102
{ACAD_REACTORS
330
369B
330
36AC
102
}
330
A
100
AcDbEntity
  8
TEMPLATE
100
AcDbSpline
210
0.0
220
0.0
230
1.0
 70
    11
 71
     3
 72
    38
 73
    34
 74
     0
 42
0.000000001
 43
0.0000000001
 40
0.0
 40
0.0
 40
0.0
 40
0.0
 40
1.0
 40
1.0
 40
1.0
 40
2.0
 40
2.0
 40
2.0
 40
3.0
 40
3.0
 40
3.0
 40
4.0
 40
4.0
 40
4.0
 40
5.0
 40
5.0
 40
5.0
 40
6.0
 40
6.0
 40
6.0
 40
7.0
 40
7.0
 40
7.0
 40
8.0
 40
8.0
 40
8.0
 40
9.0
 40
9.0
 40
9.0
 40
10.0
 40
10.0
 40
10.0
 40
11.0
 40
11.0
 40
11.0
 40
11.0
 10
1966.542747159137
 20
143.4464976175386
 30
0.0
 10
1966.542747159137
 20
143.4464976175386
 30
0.0
 10
1968.39149207262
 20
143.4464976175386
 30
0.0
 10
1968.39149207262
 20
143.4464976175386
 30
0.0
 10
1968.39149207262
 20
143.4464976175386
 30
0.0
 10
1967.56561222273
 20
140.8022984404216
 30
0.0
 10
1967.56561222273
 20
140.8022984404216
 30
0.0
 10
1968.193167835563
 20
141.54456372075
 30
0.0
 10
1969.183598777865
 20
142.5331349083912
 30
0.0
 10
1970.034176169654
 20
143.0316235477459
 30
0.0
 10
1971.304760554101
 20
143.7738888280742
 30
0.0
 10
1972.030808773784
 20
143.8717863134333
 30
0.0
 10
1972.829313035064
 20
143.8522960845852
 30
0.0
 10
1972.829313035064
 20
143.8522960845852
 30
0.0
 10
1972.048959979278
 20
141.3520419182353
 30
0.0
 10
1972.048959979278
 20
141.3520419182353
 30
0.0
 10
1971.540726225497
 20
141.5672527276151
 30
0.0
 10
1969.974515240128
 20
141.1575859708734
 30
0.0
 10
1969.076030568268
 20
140.5112840310564
 30
0.0
 10
1968.265772657532
 20
139.9285113104618
 30
0.0
 10
1967.705614553615
 20
139.4326263276327
 30
0.0
 10
1967.04190531017
 20
138.1859955832205
 30
0.0
 10
1966.383254599404
 20
136.9375050841474
 30
0.0
 10
1965.86341597654
 20
134.9467493047458
 30
0.0
 10
1964.968799594376
 20
132.058773486655
 30
0.0
 10
1964.968799594376
 20
132.058773486655
 30
0.0
 10
1962.174852971949
 20
123.105319426746
 30
0.0
 10
1962.174852971949
 20
123.105319426746
 30
0.0
 10
1962.174852971949
 20
123.105319426746
 30
0.0
 10
1960.380561674943
 20
123.105319426746
 30
0.0
 10
1960.380561674943
 20
123.105319426746
 30
0.0
 10
1960.380561674943
 20
123.105319426746
 30
0.0
 10
1966.542747159137
 20
143.4464976175386
 30
0.0
 10
1966.542747159137
 20
143.4464976175386
 30
0.0
  0
SPLINE
  5
36A9
102
{ACAD_REACTORS
330
369B
330
36AC
102
}
330
A
100
AcDbEntity
  8
TEMPLATE
100
AcDbSpline
210
0.0
220
0.0
230
1.0
 70
    11
 71
     3
 72
   104
 73
   100
 74
     0
 42
0.000000001
 43
0.0000000001
 40
0.0
 40
0.0
 40
0.0
 40
0.0
 40
1.0
 40
1.0
 40
1.0
 40
2.0
 40
2.0
 40
2.0
 40
3.0
 40
3.0
 40
3.0
 40
4.0
 40
4.0
 40
4.0
 40
5.0
 40
5.0
 40
5.0
 40
6.0
 40
6.0
 40
6.0
 40
7.0
 40
7.0
 40
7.0
 40
8.0
 40
8.0
 40
8.0
 40
9.0
 40
9.0
 40
9.0
 40
10.0
 40
10.0
 40
10.0
 40
11.0
 40
11.0
 40
11.0
 40
12.0
 40
12.0
 40
12.0
 40
13.0
 40
13.0
 40
13.0
 40
14.0
 40
14.0
 40
14.0
 40
15.0
 40
15.0
 40
15.0
 40
16.0
 40
16.0
 40
16.0
 40
17.0
 40
17.0
 40
17.0
 40
18.0
 40
18.0
 40
18.0
 40
19.0
 40
19.0
 40
19.0
 40
20.0
 40
20.0
 40
20.0
 40
21.0
 40
21.0
 40
21.0
 40
22.0
 40
22.0
 40
22.0
 40
23.0
 40
23.0
 40
23.0
 40
24.0
 40
24.0
 40
24.0
 40
25.0
 40
25.0
 40
25.0
 40
26.0
 40
26.0
 40
26.0
 40
27.0
 40
27.0
 40
27.0
 40
28.0
 40
28.0
 40
28.0
 40
29.0
 40
29.0
 40
29.0
 40
30.0
 40
30.0
 40
30.0
 40
31.0
 40
31.0
 40
31.0
 40
32.0
 40
32.0
 40
32.0
 40
33.0
 40
33.0
 40
33.0
 40
33.0
 10
1976.718878323425
 20
143.4575073651321
 30
0.0
 10
1976.718878323425
 20
143.4575073651321
 30
0.0
 10
1978.332996588864
 20
143.4575073651321
 30
0.0
 10
1978.332996588864
 20
143.4575073651321
 30
0.0
 10
1978.332996588864
 20
143.4575073651321
 30
0.0
 10
1977.517531365076
 20
140.810778921676
 30
0.0
 10
1977.517531365076
 20
140.810778921676
 30
0.0
 10
1978.225279598895
 20
141.920531723033
 30
0.0
 10
1978.860571791119
 20
142.4151520726926
 30
0.0
 10
1979.704602846502
 20
143.054312554611
 30
0.0
 10
1980.551163168223
 20
143.6843974337833
 30
0.0
 10
1981.556025806694
 20
143.812794895584
 30
0.0
 10
1982.253508194784
 20
143.812794895584
 30
0.0
 10
1983.117029479015
 20
143.812794895584
 30
0.0
 10
1983.950645908296
 20
143.6422925882567
 30
0.0
 10
1984.388804106443
 20
142.6958262461422
 30
0.0
 10
1984.72460140805
 20
141.9536353560001
 30
0.0
 10
1984.740223347202
 20
141.8660781065566
 30
0.0
 10
1984.644260006691
 20
140.4010377747479
 30
0.0
 10
1985.521915426345
 20
141.9030500292188
 30
0.0
 10
1986.170151511008
 20
142.5500214807137
 30
0.0
 10
1987.272167732975
 20
143.1716258786317
 30
0.0
 10
1988.42863757142
 20
143.812794895584
 30
0.0
 10
1989.102761440966
 20
143.8607765658398
 30
0.0
 10
1989.885941323838
 20
143.7453229964802
 30
0.0
 10
1991.039733115569
 20
143.5748950793392
 30
0.0
 10
1991.776195961356
 20
143.1632197875635
 30
0.0
 10
1992.161239566385
 20
141.9121256319649
 30
0.0
 10
1992.54762219477
 20
140.6648997660613
 30
0.0
 10
1992.338883331611
 20
139.9959088193793
 30
0.0
 10
1991.861744675765
 20
138.0103603530286
 30
0.0
 10
1991.64393020986
 20
137.1060732466272
 30
0.0
 10
1991.328813380087
 20
136.0111240923725
 30
0.0
 10
1990.916542966819
 20
134.7082543670094
 30
0.0
 10
1990.916542966819
 20
134.7082543670094
 30
0.0
 10
1987.272167732975
 20
123.105319426746
 30
0.0
 10
1987.272167732975
 20
123.105319426746
 30
0.0
 10
1987.272167732975
 20
123.105319426746
 30
0.0
 10
1985.376705782409
 20
123.105319426746
 30
0.0
 10
1985.376705782409
 20
123.105319426746
 30
0.0
 10
1985.376705782409
 20
123.105319426746
 30
0.0
 10
1988.567449659321
 20
133.2490164697431
 30
0.0
 10
1988.567449659321
 20
133.2490164697431
 30
0.0
 10
1989.233836949479
 20
135.3713684889626
 30
0.0
 10
1989.684939040069
 20
136.9212880235028
 30
0.0
 10
1989.918375445127
 20
137.893047029008
 30
0.0
 10
1990.211323999339
 20
139.1052351170969
 30
0.0
 10
1990.327967811683
 20
139.505231149601
 30
0.0
 10
1990.189304504152
 20
140.3874987608153
 30
0.0
 10
1990.062246065708
 20
141.2087664191461
 30
0.0
 10
1989.647297605728
 20
141.7435574694851
 30
0.0
 10
1988.936871325198
 20
141.7435574694851
 30
0.0
 10
1988.17972800758
 20
141.7435574694851
 30
0.0
 10
1987.566455310545
 20
141.659273388245
 30
0.0
 10
1986.708290119737
 20
140.7971655175569
 30
0.0
 10
1985.84997614856
 20
139.9285113104618
 30
0.0
 10
1985.140740111011
 20
138.9088450248874
 30
0.0
 10
1984.584599077163
 20
137.7361581257997
 30
0.0
 10
1984.029648286297
 20
136.5563297688134
 30
0.0
 10
1983.466960916042
 20
135.0608638507494
 30
0.0
 10
1982.896536966398
 20
133.2490164697431
 30
0.0
 10
1982.896536966398
 20
133.2490164697431
 30
0.0
 10
1979.704602846502
 20
123.105319426746
 30
0.0
 10
1979.704602846502
 20
123.105319426746
 30
0.0
 10
1979.704602846502
 20
123.105319426746
 30
0.0
 10
1977.921916418581
 20
123.105319426746
 30
0.0
 10
1977.921916418581
 20
123.105319426746
 30
0.0
 10
1977.921916418581
 20
123.105319426746
 30
0.0
 10
1981.571498965475
 20
134.7030470539584
 30
0.0
 10
1981.571498965475
 20
134.7030470539584
 30
0.0
 10
1981.956542570504
 20
135.9373290274211
 30
0.0
 10
1982.245771615394
 20
136.9433819088763
 30
0.0
 10
1982.436359273062
 20
137.729686179579
 30
0.0
 10
1982.760402925207
 20
139.0832156219098
 30
0.0
 10
1982.851158952669
 20
139.9985124759046
 30
0.0
 10
1982.606117678524
 20
140.810778921676
 30
0.0
 10
1982.364944694076
 20
141.6204417109219
 30
0.0
 10
1981.941069411725
 20
141.8272464292334
 30
0.0
 10
1981.233172397533
 20
141.8272464292334
 30
0.0
 10
1980.639389929345
 20
141.8272464292334
 30
0.0
 10
1980.059890376953
 20
141.5724600406662
 30
0.0
 10
1979.398710399847
 20
141.0654909200569
 30
0.0
 10
1978.566284213549
 20
140.4276694614944
 30
0.0
 10
1978.233164958657
 20
139.9038881587491
 30
0.0
 10
1977.824762835085
 20
139.2815398589669
 30
0.0
 10
1977.273680333915
 20
138.458263665602
 30
0.0
 10
1977.015695167332
 20
137.9040567766015
 30
0.0
 10
1976.550310160944
 20
136.687926008631
 30
0.0
 10
1976.084776374184
 20
135.4646537827621
 30
0.0
 10
1975.644088909695
 20
134.0411231749885
 30
0.0
 10
1975.336708659311
 20
133.0564946672286
 30
0.0
 10
1975.336708659311
 20
133.0564946672286
 30
0.0
 10
1972.205774492298
 20
123.105319426746
 30
0.0
 10
1972.205774492298
 20
123.105319426746
 30
0.0
 10
1972.205774492298
 20
123.105319426746
 30
0.0
 10
1970.338878373326
 20
123.105319426746
 30
0.0
 10
1970.338878373326
 20
123.105319426746
 30
0.0
 10
1970.338878373326
 20
123.105319426746
 30
0.0
 10
1976.718878323425
 20
143.4575073651321
 30
0.0
 10
1976.718878323425
 20
143.4575073651321
 30
0.0
  0
SPLINE
  5
36AA
102
{ACAD_REACTORS
330
369B
330
36AC
102
}
330
A
100
AcDbEntity
  8
TEMPLATE
100
AcDbSpline
210
0.0
220
0.0
230
1.0
 70
    11
 71
     3
 72
    32
 73
    28
 74
     0
 42
0.000000001
 43
0.0000000001
 40
0.0
 40
0.0
 40
0.0
 40
0.0
 40
1.0
 40
1.0
 40
1.0
 40
2.0
 40
2.0
 40
2.0
 40
3.0
 40
3.0
 40
3.0
 40
4.0
 40
4.0
 40
4.0
 40
5.0
 40
5.0
 40
5.0
 40
6.0
 40
6.0
 40
6.0
 40
7.0
 40
7.0
 40
7.0
 40
8.0
 40
8.0
 40
8.0
 40
9.0
 40
9.0
 40
9.0
 40
9.0
 10
1951.394524713372
 20
142.3847264864374
 30
0.0
 10
1950.311998720255
 20
140.9844800070205
 30
0.0
 10
1949.478382290974
 20
139.7243102486757
 30
0.0
 10
1948.128795528524
 20
135.7635535518901
 30
0.0
 10
1946.888041608841
 20
132.1406026917421
 30
0.0
 10
1946.098464169936
 20
129.5048096056932
 30
0.0
 10
1945.979216701069
 20
126.2947242803041
 30
0.0
 10
1945.888460673606
 20
123.9059066132458
 30
0.0
 10
1947.343086379314
 20
123.105319426746
 30
0.0
 10
1949.475853024634
 20
123.105319426746
 30
0.0
 10
1950.395018168326
 20
123.105319426746
 30
0.0
 10
1952.714504181618
 20
123.1637901132903
 30
0.0
 10
1954.3662638814
 20
125.2056519507783
 30
0.0
 10
1955.522584939468
 20
126.6401923061455
 30
0.0
 10
1956.588298750451
 20
128.1272521331414
 30
0.0
 10
1958.017036671275
 20
133.0053142189559
 30
0.0
 10
1959.205940631009
 20
137.0833842397621
 30
0.0
 10
1960.029142434186
 20
139.7191029356247
 30
0.0
 10
1959.968291261677
 20
141.2197761667398
 30
0.0
 10
1959.968291261677
 20
141.2197761667398
 30
0.0
 10
1959.968291261677
 20
141.2197761667398
 30
0.0
 10
1959.968291261677
 20
141.2197761667398
 30
0.0
 10
1959.580569609936
 20
143.7233035012931
 30
0.0
 10
1957.762919794387
 20
144.2522921170894
 30
0.0
 10
1956.724432791643
 20
144.2522921170894
 30
0.0
 10
1955.70156772805
 20
144.2522921170894
 30
0.0
 10
1952.960735698745
 20
144.4292663706373
 30
0.0
 10
1951.394524713372
 20
142.3847264864374
 30
0.0
  0
SPLINE
  5
36AB
102
{ACAD_REACTORS
330
369B
330
36AC
102
}
330
A
100
AcDbEntity
  8
TEMPLATE
100
AcDbSpline
210
0.0
220
0.0
230
1.0
 70
    11
 71
     3
 72
    29
 73
    25
 74
     0
 42
0.000000001
 43
0.0000000001
 40
0.0
 40
0.0
 40
0.0
 40
0.0
 40
1.0
 40
1.0
 40
1.0
 40
2.0
 40
2.0
 40
2.0
 40
3.0
 40
3.0
 40
3.0
 40
4.0
 40
4.0
 40
4.0
 40
5.0
 40
5.0
 40
5.0
 40
6.0
 40
6.0
 40
6.0
 40
7.0
 40
7.0
 40
7.0
 40
8.0
 40
8.0
 40
8.0
 40
8.0
 10
1947.916188375669
 20
126.8949043045264
 30
0.0
 10
1947.908303015907
 20
128.3120373562658
 30
0.0
 10
1948.355685597176
 20
130.8298476066162
 30
0.0
 10
1949.501740809517
 20
134.1986815898748
 30
0.0
 10
1951.062744481836
 20
138.7603622127471
 30
0.0
 10
1951.998870588036
 20
140.4276694614944
 30
0.0
 10
1952.818055321147
 20
141.2392663955878
 30
0.0
 10
1954.014844640642
 20
142.4210288974216
 30
0.0
 10
1955.623755593032
 20
142.4799459250845
 30
0.0
 10
1956.098364982539
 20
142.4210288974216
 30
0.0
 10
1956.77382787544
 20
142.3399435941987
 30
0.0
 10
1957.727956406759
 20
141.8978427161679
 30
0.0
 10
1957.784939289575
 20
140.4095182560024
 30
0.0
 10
1957.830466083678
 20
139.1357350935386
 30
0.0
 10
1957.463424903768
 20
136.7501905946838
 30
0.0
 10
1956.178706383896
 20
133.0053142189559
 30
0.0
 10
1954.698044112936
 20
128.6536370924121
 30
0.0
 10
1953.808635043822
 20
126.9429603649685
 30
0.0
 10
1953.095679496951
 20
126.1974219164366
 30
0.0
 10
1951.752490290537
 20
124.7997790935452
 30
0.0
 10
1950.311998720255
 20
124.9339789898883
 30
0.0
 10
1950.0993915674
 20
124.9339789898883
 30
0.0
 10
1949.823255195324
 20
124.9339789898883
 30
0.0
 10
1947.920056665365
 20
125.2336226608809
 30
0.0
 10
1947.916188375669
 20
126.8949043045264
 30
0.0
  0
SPLINE
  5
3AB6
330
A
100
AcDbEntity
  8
HIDDEN
 48
0.7
100
AcDbSpline
210
0.0
220
0.0
230
1.0
 70
     8
 71
     3
 72
    14
 73
    10
 74
     0
 42
0.000000001
 43
0.0000000001
 40
0.0
 40
0.0
 40
0.0
 40
0.0
 40
1.0
 40
1.0
 40
1.0
 40
2.0
 40
2.0
 40
2.0
 40
3.0
 40
3.0
 40
3.0
 40
3.0
 10
277.1099505876691
 20
1002.813445541829
 30
0.0
 10
290.0635181576063
 20
965.6201701468776
 30
0.0
 10
326.5884445875154
 20
946.3896344619384
 30
0.0
 10
362.4312416613493
 20
933.9183805781172
 30
0.0
 10
415.9405000380093
 20
915.3010722940921
 30
0.0
 10
473.7733561009145
 20
904.3938927923768
 30
0.0
 10
530.1007044435855
 20
898.8955167706767
 30
0.0
 10
530.1007044435855
 20
898.8955167706767
 30
0.0
 10
533.9247629549236
 20
895.6846856602529
 30
0.0
 10
533.9247629549236
 20
895.6846856602529
 30
0.0
  0
POLYLINE
  5
3AB7
330
A
100
AcDbEntity
  8
HIDDEN
 48
0.7
100
AcDb2dPolyline
 66
     1
 10
0.0
 20
0.0
 30
0.0
  0
VERTEX
  5
3AB8
330
3AB7
100
AcDbEntity
  8
HIDDEN
 48
0.7
100
AcDbVertex
100
AcDb2dVertex
 10
545.4038286844507
 20
898.8955167706767
 30
0.0
  0
VERTEX
  5
3AB9
330
3AB7
100
AcDbEntity
  8
HIDDEN
 48
0.7
100
AcDbVertex
100
AcDb2dVertex
 10
590.7757661568057
 20
898.8955167706767
 30
0.0
  0
SEQEND
  5
3ABA
330
3AB7
100
AcDbEntity
  8
HIDDEN
 48
0.7
  0
POLYLINE
  5
3ABF
330
A
100
AcDbEntity
  8
HIDDEN
100
AcDb2dPolyline
 66
     1
 10
0.0
 20
0.0
 30
0.0
  0
VERTEX
  5
3AC0
330
3ABF
100
AcDbEntity
  8
HIDDEN
100
AcDbVertex
100
AcDb2dVertex
 10
530.1007044435855
 20
898.8955167706767
 30
0.0
  0
VERTEX
  5
3AC1
330
3ABF
100
AcDbEntity
  8
HIDDEN
100
AcDbVertex
100
AcDb2dVertex
 10
537.1562646518896
 20
898.8955167706767
 30
0.0
  0
SEQEND
  5
3AC2
330
3ABF
100
AcDbEntity
  8
HIDDEN
  0
POLYLINE
  5
3AC3
330
A
100
AcDbEntity
  8
HIDDEN
100
AcDb2dPolyline
 66
     1
 10
0.0
 20
0.0
 30
0.0
  0
VERTEX
  5
3AC4
330
3AC3
100
AcDbEntity
  8
HIDDEN
100
AcDbVertex
100
AcDb2dVertex
 10
594.9029932708463
 20
898.8955167706767
 30
0.0
  0
VERTEX
  5
3AC5
330
3AC3
100
AcDbEntity
  8
HIDDEN
100
AcDbVertex
100
AcDb2dVertex
 10
601.9585534791504
 20
898.8955167706767
 30
0.0
  0
SEQEND
  5
3AC6
330
3AC3
100
AcDbEntity
  8
HIDDEN
  0
SPLINE
  5
3AC7
330
A
100
AcDbEntity
  8
HIDDEN
 48
0.7
100
AcDbSpline
210
0.0
220
0.0
230
1.0
 70
     8
 71
     3
 72
    14
 73
    10
 74
     0
 42
0.000000001
 43
0.0000000001
 40
0.0
 40
0.0
 40
0.0
 40
0.0
 40
1.0
 40
1.0
 40
1.0
 40
2.0
 40
2.0
 40
2.0
 40
3.0
 40
3.0
 40
3.0
 40
3.0
 10
600.8354516100544
 20
897.9446697894778
 30
0.0
 10
600.8354516100544
 20
897.9446697894778
 30
0.0
 10
601.9585534791504
 20
898.8955167706767
 30
0.0
 10
601.9585534791504
 20
898.8955167706767
 30
0.0
 10
658.2859018218251
 20
904.3938927923768
 30
0.0
 10
716.1222029824849
 20
915.3010722940921
 30
0.0
 10
769.6383515546613
 20
933.9183805781172
 30
0.0
 10
806.5215681513973
 20
946.7548148242818
 30
0.0
 10
844.1489258638567
 20
966.763942602523
 30
0.0
 10
856.0414033243387
 20
1006.148300171542
 30
0.0
  0
POLYLINE
  5
3AC8
330
A
100
AcDbEntity
  8
HIDDEN
100
AcDb2dPolyline
 66
     1
 10
0.0
 20
0.0
 30
0.0
  0
VERTEX
  5
3AC9
330
3AC8
100
AcDbEntity
  8
HIDDEN
100
AcDbVertex
100
AcDb2dVertex
 10
589.8662603487055
 20
881.8560632597978
 30
0.0
  0
VERTEX
  5
3ACA
330
3AC8
100
AcDbEntity
  8
HIDDEN
100
AcDbVertex
100
AcDb2dVertex
 10
590.0729662141848
 20
888.9116234681019
 30
0.0
  0
VERTEX
  5
3ACB
330
3AC8
100
AcDbEntity
  8
HIDDEN
100
AcDbVertex
100
AcDb2dVertex
 10
595.4679893031525
 20
893.4522623130938
 30
0.0
  0
SEQEND
  5
3ACC
330
3AC8
100
AcDbEntity
  8
HIDDEN
  0
POLYLINE
  5
3ACD
330
A
100
AcDbEntity
  8
HIDDEN
100
AcDb2dPolyline
 66
     1
 10
0.0
 20
0.0
 30
0.0
  0
VERTEX
  5
3ACE
330
3ACD
100
AcDbEntity
  8
HIDDEN
100
AcDbVertex
100
AcDb2dVertex
 10
536.5843784240706
 20
893.4522623130938
 30
0.0
  0
VERTEX
  5
3ACF
330
3ACD
100
AcDbEntity
  8
HIDDEN
100
AcDbVertex
100
AcDb2dVertex
 10
541.9862917085547
 20
888.9116234681019
 30
0.0
  0
VERTEX
  5
3AD0
330
3ACD
100
AcDbEntity
  8
HIDDEN
100
AcDbVertex
100
AcDb2dVertex
 10
542.1929975740304
 20
881.8560632597978
 30
0.0
  0
SEQEND
  5
3AD1
330
3ACD
100
AcDbEntity
  8
HIDDEN
  0
POLYLINE
  5
3AD2
330
A
100
AcDbEntity
  8
HIDDEN
100
AcDb2dPolyline
 66
     1
 10
0.0
 20
0.0
 30
0.0
  0
VERTEX
  5
3AD3
330
3AD2
100
AcDbEntity
  8
HIDDEN
100
AcDbVertex
100
AcDb2dVertex
 10
542.3583622664146
 20
876.1716519591605
 30
0.0
  0
VERTEX
  5
3AD4
330
3AD2
100
AcDbEntity
  8
HIDDEN
100
AcDbVertex
100
AcDb2dVertex
 10
542.7648838018531
 20
861.9502884142962
 30
0.0
  0
SEQEND
  5
3AD5
330
3AD2
100
AcDbEntity
  8
HIDDEN
  0
POLYLINE
  5
3AD6
330
A
100
AcDbEntity
  8
HIDDEN
100
AcDb2dPolyline
 66
     1
 10
0.0
 20
0.0
 30
0.0
  0
VERTEX
  5
3AD7
330
3AD6
100
AcDbEntity
  8
HIDDEN
100
AcDbVertex
100
AcDb2dVertex
 10
542.8475661480434
 20
859.1115278617394
 30
0.0
  0
VERTEX
  5
3AD8
330
3AD6
100
AcDbEntity
  8
HIDDEN
100
AcDbVertex
100
AcDb2dVertex
 10
543.0473818180062
 20
852.0559676534281
 30
0.0
  0
SEQEND
  5
3AD9
330
3AD6
100
AcDbEntity
  8
HIDDEN
  0
POLYLINE
  5
3ADA
330
A
100
AcDbEntity
  8
HIDDEN
100
AcDb2dPolyline
 66
     1
 10
0.0
 20
0.0
 30
0.0
  0
VERTEX
  5
3ADB
330
3ADA
100
AcDbEntity
  8
HIDDEN
100
AcDbVertex
100
AcDb2dVertex
 10
589.3770564670767
 20
864.7959391623695
 30
0.0
  0
VERTEX
  5
3ADC
330
3ADA
100
AcDbEntity
  8
HIDDEN
100
AcDbVertex
100
AcDb2dVertex
 10
589.7835780025152
 20
879.0104125117173
 30
0.0
  0
SEQEND
  5
3ADD
330
3ADA
100
AcDbEntity
  8
HIDDEN
  0
POLYLINE
  5
3ADE
330
A
100
AcDbEntity
  8
HIDDEN
100
AcDb2dPolyline
 66
     1
 10
0.0
 20
0.0
 30
0.0
  0
VERTEX
  5
3ADF
330
3ADE
100
AcDbEntity
  8
HIDDEN
100
AcDbVertex
100
AcDb2dVertex
 10
589.0049859092169
 20
852.0559676534281
 30
0.0
  0
VERTEX
  5
3AE0
330
3ADE
100
AcDbEntity
  8
HIDDEN
100
AcDbVertex
100
AcDb2dVertex
 10
589.2048015791761
 20
859.1115278617394
 30
0.0
  0
SEQEND
  5
3AE1
330
3ADE
100
AcDbEntity
  8
HIDDEN
  0
SPLINE
  5
3AE2
102
{ACAD_REACTORS
102
}
330
A
100
AcDbEntity
  8
MODEL
100
AcDbSpline
210
0.0
220
0.0
230
1.0
 70
     8
 71
     3
 72
    44
 73
    40
 74
     0
 42
0.000000001
 43
0.0000000001
 40
0.0
 40
0.0
 40
0.0
 40
0.0
 40
1.0
 40
1.0
 40
1.0
 40
2.0
 40
2.0
 40
2.0
 40
3.0
 40
3.0
 40
3.0
 40
4.0
 40
4.0
 40
4.0
 40
5.0
 40
5.0
 40
5.0
 40
6.0
 40
6.0
 40
6.0
 40
7.0
 40
7.0
 40
7.0
 40
8.0
 40
8.0
 40
8.0
 40
9.0
 40
9.0
 40
9.0
 40
10.0
 40
10.0
 40
10.0
 40
11.0
 40
11.0
 40
11.0
 40
12.0
 40
12.0
 40
12.0
 40
13.0
 40
13.0
 40
13.0
 40
13.0
 10
813.8045048117301
 20
933.994172728791
 30
0.0
 10
813.8045048117301
 20
933.994172728791
 30
0.0
 10
813.5288969910935
 20
932.9675335969109
 30
0.0
 10
813.5288969910935
 20
932.9675335969109
 30
0.0
 10
813.5288969910935
 20
932.9675335969109
 30
0.0
 10
811.3722657946082
 20
924.8922244522578
 30
0.0
 10
811.3722657946082
 20
924.8922244522578
 30
0.0
 10
810.1251404062268
 20
920.3791463893244
 30
0.0
 10
807.8789366680385
 20
916.2036879066759
 30
0.0
 10
804.7783486858707
 20
912.6896881935568
 30
0.0
 10
804.7783486858707
 20
912.6896881935568
 30
0.0
 10
779.3328566455666
 20
884.1091571935062
 30
0.0
 10
779.3328566455666
 20
884.1091571935062
 30
0.0
 10
773.565762998739
 20
877.7632871233395
 30
0.0
 10
765.4835636585585
 20
874.1390442819643
 30
0.0
 10
756.9052702412364
 20
874.056361935774
 30
0.0
 10
756.9052702412364
 20
874.056361935774
 30
0.0
 10
756.9052702412364
 20
873.9530090030344
 30
0.0
 10
756.9052702412364
 20
873.9530090030344
 30
0.0
 10
756.9052702412364
 20
873.9530090030344
 30
0.0
 10
375.1539876814995
 20
873.9530090030344
 30
0.0
 10
375.1539876814995
 20
873.9530090030344
 30
0.0
 10
375.1539876814995
 20
873.9530090030344
 30
0.0
 10
375.1539876814995
 20
874.056361935774
 30
0.0
 10
375.1539876814995
 20
874.056361935774
 30
0.0
 10
366.5825844596939
 20
874.1390442819643
 30
0.0
 10
358.4866047284841
 20
877.7632871233395
 30
0.0
 10
352.7298463749275
 20
884.1091571935062
 30
0.0
 10
352.7298463749275
 20
884.1091571935062
 30
0.0
 10
327.2809092368652
 20
912.6896881935568
 30
0.0
 10
327.2809092368652
 20
912.6896881935568
 30
0.0
 10
324.1837663524557
 20
916.2036879066759
 30
0.0
 10
321.9341175165091
 20
920.3791463893244
 30
0.0
 10
320.6904372258859
 20
924.8922244522578
 30
0.0
 10
320.6904372258859
 20
924.8922244522578
 30
0.0
 10
318.5338060294007
 20
932.9675335969109
 30
0.0
 10
318.5338060294007
 20
932.9675335969109
 30
0.0
 10
318.5338060294007
 20
932.9675335969109
 30
0.0
 10
318.258198208764
 20
933.994172728791
 30
0.0
 10
318.258198208764
 20
933.994172728791
 30
0.0
  0
SPLINE
  5
3AE3
102
{ACAD_REACTORS
330
3C88
102
}
330
A
100
AcDbEntity
  8
MODEL
100
AcDbSpline
210
0.0
220
0.0
230
1.0
 70
     8
 71
     3
 72
    20
 73
    16
 74
     0
 42
0.000000001
 43
0.0000000001
 40
0.0
 40
0.0
 40
0.0
 40
0.0
 40
1.0
 40
1.0
 40
1.0
 40
2.0
 40
2.0
 40
2.0
 40
3.0
 40
3.0
 40
3.0
 40
4.0
 40
4.0
 40
4.0
 40
5.0
 40
5.0
 40
5.0
 40
5.0
 10
527.9923046157119
 20
873.9530090030344
 30
0.0
 10
527.9923046157119
 20
873.9530090030344
 30
0.0
 10
529.5288182157628
 20
855.4941752158734
 30
0.0
 10
529.5288182157628
 20
855.4941752158734
 30
0.0
 10
529.8044260363995
 20
853.523579298318
 30
0.0
 10
531.5063043288346
 20
852.0559676534281
 30
0.0
 10
533.4837904419064
 20
852.0559676534281
 30
0.0
 10
533.4837904419064
 20
852.0559676534281
 30
0.0
 10
598.5754674808331
 20
852.0559676534281
 30
0.0
 10
598.5754674808331
 20
852.0559676534281
 30
0.0
 10
600.5667339849342
 20
852.0559676534281
 30
0.0
 10
602.24794169082
 20
853.523579298318
 30
0.0
 10
602.5304397069731
 20
855.4941752158734
 30
0.0
 10
602.5304397069731
 20
855.4941752158734
 30
0.0
 10
604.0738435025405
 20
873.9530090030344
 30
0.0
 10
604.0738435025405
 20
873.9530090030344
 30
0.0
  0
LINE
  5
3AE4
330
A
100
AcDbEntity
  8
MODEL
100
AcDbLine
 10
270.5056981856569
 20
1014.058244623822
 30
0.0
 11
861.553559737079
 21
1014.058244623822
 31
0.0
  0
LINE
  5
3AE5
330
A
100
AcDbEntity
  8
MODEL
100
AcDbLine
 10
269.1178822197826
 20
938.8489719795866
 30
0.0
 11
266.0683946535237
 21
1008.69141630649
 31
0.0
  0
SPLINE
  5
3AE6
330
A
100
AcDbEntity
  8
MODEL
100
AcDbSpline
210
0.0
220
0.0
230
1.0
 70
  1064
 71
     3
 72
    18
 73
    14
 74
    12
 42
0.000000001
 43
0.0000000001
 44
0.0
 40
0.0
 40
0.0
 40
0.0
 40
0.0
 40
0.9137569901635598
 40
1.767610740321644
 40
2.695137403212931
 40
3.365729563004323
 40
4.145638549930711
 40
4.661169284303834
 40
5.227491985832265
 40
5.932864550703753
 40
6.533815969375144
 40
7.472085027936149
 40
7.992868777716015
 40
7.992868777716015
 40
7.992868777716015
 40
7.992868777716015
 10
266.0683946535237
 20
1008.69141630649
 30
0.0
 10
266.0489092383589
 20
1008.995352542271
 30
0.0
 10
266.0112158149478
 20
1009.583299841742
 30
0.0
 10
266.050232553827
 20
1010.485488222283
 30
0.0
 10
266.2762330303891
 20
1011.279552538661
 30
0.0
 10
266.6277362481588
 20
1011.992734082364
 30
0.0
 10
267.0152130844053
 20
1012.526329601983
 30
0.0
 10
267.4514893172648
 20
1012.969482872995
 30
0.0
 10
267.9203643363766
 20
1013.339647465057
 30
0.0
 10
268.4644795192779
 20
1013.651962291795
 30
0.0
 10
269.1642710781957
 20
1013.921396176172
 30
0.0
 10
269.8452932113723
 20
1014.055403502754
 30
0.0
 10
270.331982745627
 20
1014.057497284514
 30
0.0
 10
270.5056981856569
 20
1014.058244623822
 30
0.0
 11
266.0683946535237
 21
1008.69141630649
 31
0.0
 11
266.0268495379996
 21
1009.604228357489
 31
0.0
 11
266.0809639326098
 21
1010.456365587608
 31
0.0
 11
266.3298683504099
 21
1011.349871212198
 31
0.0
 11
266.6268536914495
 21
1011.951114550607
 31
0.0
 11
267.0848082421535
 21
1012.582411356696
 31
0.0
 11
267.4464687123282
 21
1012.949798948207
 31
0.0
 11
267.8909998385961
 21
1013.300674253758
 31
0.0
 11
268.5028978247237
 21
1013.651574965992
 31
0.0
 11
269.0635231730839
 21
1013.868004692183
 31
0.0
 11
269.9851044657544
 21
1014.044177185078
 31
0.0
 11
270.5056981856569
 21
1014.058244623822
 31
0.0
  0
SPLINE
  5
3AE7
330
A
100
AcDbEntity
  8
MODEL
100
AcDbSpline
210
0.0
220
0.0
230
1.0
 70
     8
 71
     3
 72
    14
 73
    10
 74
     0
 42
0.000000001
 43
0.0000000001
 40
0.0
 40
0.0
 40
0.0
 40
0.0
 40
1.0
 40
1.0
 40
1.0
 40
2.0
 40
2.0
 40
2.0
 40
3.0
 40
3.0
 40
3.0
 40
3.0
 10
270.5056981856569
 20
1014.058244623822
 30
0.0
 10
271.4220941892736
 20
1014.037574037272
 30
0.0
 10
272.2626980422165
 20
1013.768856412152
 30
0.0
 10
273.0033940601779
 20
1013.27965253052
 30
0.0
 10
273.9266802593111
 20
1012.659534934082
 30
0.0
 10
274.5330174647124
 20
1011.70868795289
 30
0.0
 10
274.7879546988033
 20
1010.682048821017
 30
0.0
 10
274.8878625337848
 20
1010.289307676608
 30
0.0
 10
274.9843252710079
 20
1009.903456727715
 30
0.0
 10
275.0842331059857
 20
1009.510715583306
 30
0.0
  0
SPLINE
  5
3AE8
330
A
100
AcDbEntity
  8
MODEL
100
AcDbSpline
210
0.0
220
0.0
230
1.0
 70
  1064
 71
     3
 72
    16
 73
    12
 74
    10
 42
0.000000001
 43
0.0000000001
 44
0.0
 40
0.0
 40
0.0
 40
0.0
 40
0.0
 40
2.411883803659794
 40
3.238984597674999
 40
4.722617909169551
 40
5.675884697395722
 40
6.82411421125736
 40
7.645315139486368
 40
8.50081869654524
 40
9.371960203452717
 40
9.856661591480194
 40
9.856661591480194
 40
9.856661591480194
 40
9.856661591480194
 10
276.2804335324572
 20
933.994172728791
 30
0.0
 10
275.475525856358
 20
933.9667392375195
 30
0.0
 10
274.3945933663765
 20
933.9298980532326
 30
0.0
 10
272.8260220996913
 20
934.109294190491
 30
0.0
 10
271.7926916143585
 20
934.5122092555293
 30
0.0
 10
270.808567408512
 20
935.199155082073
 30
0.0
 10
270.1371801536205
 20
935.9183163806682
 30
0.0
 10
269.638579335672
 20
936.7218130288906
 30
0.0
 10
269.3176976380672
 20
937.5121405637194
 30
0.0
 10
269.1555217232335
 20
938.2362382592457
 30
0.0
 10
269.1277944613603
 20
938.687610534774
 30
0.0
 10
269.1178822197826
 20
938.8489719795866
 30
0.0
 11
276.2804335324572
 21
933.994172728791
 31
0.0
 11
273.8685580910487
 21
934.0005239087654
 31
0.0
 11
273.0486883734147
 21
934.1096539668029
 31
0.0
 11
271.6627975438851
 21
934.6392523161226
 31
0.0
 11
270.8814514549404
 21
935.1853437542773
 31
0.0
 11
270.0976814419946
 21
936.0244716249322
 31
0.0
 11
269.6649680463115
 21
936.7224186728668
 31
0.0
 11
269.3419648904301
 21
937.5146025514146
 31
0.0
 11
269.1567831609746
 21
938.3658341603982
 31
0.0
 11
269.1178822197826
 21
938.8489719795866
 31
0.0
  0
LINE
  5
3AE9
330
A
100
AcDbEntity
  8
MODEL
100
AcDbLine
 10
566.0261838636097
 20
933.994172728791
 30
0.0
 11
276.2804335324572
 21
933.994172728791
 31
0.0
  0
LINE
  5
3AEA
330
A
100
AcDbEntity
  8
MODEL
100
AcDbLine
 10
566.0261838636097
 20
933.994172728791
 30
0.0
 11
855.7719341947659
 21
933.994172728791
 31
0.0
  0
SPLINE
  5
3AEB
330
A
100
AcDbEntity
  8
MODEL
100
AcDbSpline
210
0.0
220
0.0
230
1.0
 70
  1064
 71
     3
 72
    16
 73
    12
 74
    10
 42
0.000000001
 43
0.0000000001
 44
0.0
 40
0.0
 40
0.0
 40
0.0
 40
0.0
 40
2.411883803656156
 40
3.238984597671305
 40
4.72261790917276
 40
5.675884697395949
 40
6.824114211257548
 40
7.645315139486557
 40
8.50081869654545
 40
9.371960203452154
 40
9.856661591479918
 40
9.856661591479918
 40
9.856661591479918
 40
9.856661591479918
 10
855.7719341947659
 20
933.994172728791
 30
0.0
 10
856.576841870864
 20
933.9667392375192
 30
0.0
 10
857.6577743608441
 20
933.929898053232
 30
0.0
 10
859.2263456275305
 20
934.1092941904922
 30
0.0
 10
860.2596761128657
 20
934.5122092555257
 30
0.0
 10
861.2438003187115
 20
935.1991550820748
 30
0.0
 10
861.9151875736031
 20
935.9183163806679
 30
0.0
 10
862.4137883915505
 20
936.7218130288909
 30
0.0
 10
862.7346700891578
 20
937.512140563719
 30
0.0
 10
862.8968460039838
 20
938.2362382592464
 30
0.0
 10
862.924573265861
 20
938.687610534774
 30
0.0
 10
862.9344855074405
 20
938.8489719795866
 30
0.0
 11
855.7719341947659
 21
933.994172728791
 31
0.0
 11
858.1838096361707
 21
934.0005239087654
 31
0.0
 11
859.0036793538047
 21
934.1096539668029
 31
0.0
 11
860.3895701833417
 21
934.6392523161226
 31
0.0
 11
861.1709162722827
 21
935.1853437542773
 31
0.0
 11
861.9546862852285
 21
936.0244716249322
 31
0.0
 11
862.3873996809116
 21
936.7224186728668
 31
0.0
 11
862.710402836793
 21
937.5146025514146
 31
0.0
 11
862.8955845662449
 21
938.3658341603982
 31
0.0
 11
862.9344855074405
 21
938.8489719795866
 31
0.0
  0
LINE
  5
3AEC
330
A
100
AcDbEntity
  8
MODEL
100
AcDbLine
 10
862.9344855074405
 20
938.8489719795866
 30
0.0
 11
865.9839730736994
 21
1008.69141630649
 31
0.0
  0
SPLINE
  5
3AED
330
A
100
AcDbEntity
  8
MODEL
100
AcDbSpline
210
0.0
220
0.0
230
1.0
 70
  1064
 71
     3
 72
    18
 73
    14
 74
    12
 42
0.000000001
 43
0.0000000001
 44
0.0
 40
0.0
 40
0.0
 40
0.0
 40
0.0
 40
0.9137569901635598
 40
1.767610740321648
 40
2.69513740321292
 40
3.365729563004286
 40
4.145638549930707
 40
4.66116928430379
 40
5.227491985835167
 40
5.932864550703499
 40
6.533815969374837
 40
7.472085027935842
 40
7.992868777719345
 40
7.992868777719345
 40
7.992868777719345
 40
7.992868777719345
 10
865.9839730736994
 20
1008.69141630649
 30
0.0
 10
866.0034584888645
 20
1008.995352542271
 30
0.0
 10
866.0411519122754
 20
1009.583299841742
 30
0.0
 10
866.0021351733959
 20
1010.485488222283
 30
0.0
 10
865.7761346968341
 20
1011.279552538661
 30
0.0
 10
865.4246314790646
 20
1011.992734082364
 30
0.0
 10
865.0371546428173
 20
1012.526329601983
 30
0.0
 10
864.6008784099583
 20
1012.969482872996
 30
0.0
 10
864.1320033908437
 20
1013.339647465055
 30
0.0
 10
863.5878882079446
 20
1013.651962291796
 30
0.0
 10
862.8880966490269
 20
1013.921396176172
 30
0.0
 10
862.2070745158497
 20
1014.055403502755
 30
0.0
 10
861.7203849815936
 20
1014.057497284514
 30
0.0
 10
861.5466695415626
 20
1014.058244623822
 30
0.0
 11
865.9839730736994
 21
1008.69141630649
 31
0.0
 11
866.0255181892235
 21
1009.604228357489
 31
0.0
 11
865.9714037946133
 21
1010.456365587608
 31
0.0
 11
865.7224993768132
 21
1011.349871212198
 31
0.0
 11
865.4255140357736
 21
1011.951114550607
 31
0.0
 11
864.9675594850696
 21
1012.582411356696
 31
0.0
 11
864.6058990148949
 21
1012.949798948207
 31
0.0
 11
864.1613678886233
 21
1013.300674253758
 31
0.0
 11
863.5494699024994
 21
1013.651574965992
 31
0.0
 11
862.9888445541392
 21
1013.868004692183
 31
0.0
 11
862.0672632614687
 21
1014.044177185078
 31
0.0
 11
861.5466695415626
 21
1014.058244623822
 31
0.0
  0
SPLINE
  5
3AEE
330
A
100
AcDbEntity
  8
MODEL
100
AcDbSpline
210
0.0
220
0.0
230
1.0
 70
     8
 71
     3
 72
    14
 73
    10
 74
     0
 42
0.000000001
 43
0.0000000001
 40
0.0
 40
0.0
 40
0.0
 40
0.0
 40
1.0
 40
1.0
 40
1.0
 40
2.0
 40
2.0
 40
2.0
 40
3.0
 40
3.0
 40
3.0
 40
3.0
 10
856.9784699145084
 20
1009.510715583306
 30
0.0
 10
857.0749326517316
 20
1009.903456727715
 30
0.0
 10
857.1782855844713
 20
1010.289307676608
 30
0.0
 10
857.2747483216908
 20
1010.682048821017
 30
0.0
 10
857.5296855557817
 20
1011.70868795289
 30
0.0
 10
858.1360227611831
 20
1012.659534934082
 30
0.0
 10
859.0661991558327
 20
1013.27965253052
 30
0.0
 10
859.7965598805195
 20
1013.768856412152
 30
0.0
 10
860.6371637334623
 20
1014.037574037272
 30
0.0
 10
861.553559737079
 20
1014.058244623822
 30
0.0
  0
SPLINE
  5
3BA2
330
A
100
AcDbEntity
  8
MODEL
100
AcDbSpline
210
0.0
220
0.0
230
1.0
 70
    11
 71
     3
 72
    17
 73
    13
 74
     0
 42
0.000000001
 43
0.0000000001
 40
0.0
 40
0.0
 40
0.0
 40
0.0
 40
1.0
 40
1.0
 40
1.0
 40
2.0
 40
2.0
 40
2.0
 40
3.0
 40
3.0
 40
3.0
 40
4.0
 40
4.0
 40
4.0
 40
4.0
 10
527.5545357947187
 20
2212.741665267789
 30
0.0
 10
527.5545357947187
 20
2233.439812597626
 30
0.0
 10
544.3459422670232
 20
2250.217438678901
 30
0.0
 10
565.0613150856509
 20
2250.217438678901
 30
0.0
 10
585.7766879042713
 20
2250.217438678901
 30
0.0
 10
602.5749845720923
 20
2233.439812597626
 30
0.0
 10
602.5749845720923
 20
2212.741665267789
 30
0.0
 10
602.5749845720923
 20
2192.057298328986
 30
0.0
 10
585.7766879042713
 20
2175.286562443234
 30
0.0
 10
565.0613150856509
 20
2175.286562443234
 30
0.0
 10
544.3459422670232
 20
2175.286562443234
 30
0.0
 10
527.5545357947187
 20
2192.057298328986
 30
0.0
 10
527.5545357947187
 20
2212.741665267789
 30
0.0
  0
SPLINE
  5
3BA3
330
A
100
AcDbEntity
  8
MODEL
100
AcDbSpline
210
0.0
220
0.0
230
1.0
 70
     8
 71
     3
 72
    80
 73
    76
 74
     0
 42
0.000000001
 43
0.0000000001
 40
0.0
 40
0.0
 40
0.0
 40
0.0
 40
1.0
 40
1.0
 40
1.0
 40
2.0
 40
2.0
 40
2.0
 40
3.0
 40
3.0
 40
3.0
 40
4.0
 40
4.0
 40
4.0
 40
5.0
 40
5.0
 40
5.0
 40
6.0
 40
6.0
 40
6.0
 40
7.0
 40
7.0
 40
7.0
 40
8.0
 40
8.0
 40
8.0
 40
9.0
 40
9.0
 40
9.0
 40
10.0
 40
10.0
 40
10.0
 40
11.0
 40
11.0
 40
11.0
 40
12.0
 40
12.0
 40
12.0
 40
13.0
 40
13.0
 40
13.0
 40
14.0
 40
14.0
 40
14.0
 40
15.0
 40
15.0
 40
15.0
 40
16.0
 40
16.0
 40
16.0
 40
17.0
 40
17.0
 40
17.0
 40
18.0
 40
18.0
 40
18.0
 40
19.0
 40
19.0
 40
19.0
 40
20.0
 40
20.0
 40
20.0
 40
21.0
 40
21.0
 40
21.0
 40
22.0
 40
22.0
 40
22.0
 40
23.0
 40
23.0
 40
23.0
 40
24.0
 40
24.0
 40
24.0
 40
25.0
 40
25.0
 40
25.0
 40
25.0
 10
851.934605391117
 20
2238.765933731429
 30
0.0
 10
851.6383269839346
 20
2240.371349286648
 30
0.0
 10
851.4832975848251
 20
2242.018106014952
 30
0.0
 10
851.2214701552214
 20
2243.623521570156
 30
0.0
 10
850.7977231309917
 20
2246.207344888626
 30
0.0
 10
850.2602878807477
 20
2248.763607425037
 30
0.0
 10
849.6332800888006
 20
2251.299199374898
 30
0.0
 10
849.1406311094099
 20
2253.269795292454
 30
0.0
 10
848.5756350771073
 20
2255.205940232427
 30
0.0
 10
848.0175292403176
 20
2257.155865563433
 30
0.0
 10
847.1149136277302
 20
2260.042857484605
 30
0.0
 10
846.0986097891321
 20
2262.92295921026
 30
0.0
 10
844.8066981298973
 20
2265.665257025594
 30
0.0
 10
843.5216766661754
 20
2268.421335231968
 30
0.0
 10
842.1333022697174
 20
2271.163633047308
 30
0.0
 10
840.4486494660734
 20
2273.699224997163
 30
0.0
 10
838.7192103915761
 20
2276.303718902182
 30
0.0
 10
836.9277595574379
 20
2278.832420656527
 30
0.0
 10
834.8572558049011
 20
2281.188867522967
 30
0.0
 10
832.8418736164961
 20
2283.497083020808
 30
0.0
 10
830.6817973222526
 20
2285.681274999351
 30
0.0
 10
828.3460210423539
 20
2287.679431698973
 30
0.0
 10
825.9068918297191
 20
2289.767160940301
 30
0.0
 10
823.3161783157295
 20
2291.613733338567
 30
0.0
 10
820.6152216734911
 20
2293.329392022028
 30
0.0
 10
818.086519919146
 20
2294.941697772756
 30
0.0
 10
815.3648926903545
 20
2296.285285898357
 30
0.0
 10
812.6053693862261
 20
2297.449728940552
 30
0.0
 10
809.721822562816
 20
2298.67618374238
 30
0.0
 10
806.7555933932083
 20
2299.585689550488
 30
0.0
 10
803.7376877572344
 20
2300.398732621365
 30
0.0
 10
800.7438978055645
 20
2301.211775692249
 30
0.0
 10
797.6398647256422
 20
2301.652748205259
 30
0.0
 10
794.563392427782
 20
2301.983477590034
 30
0.0
 10
791.6798456043682
 20
2302.293536388246
 30
0.0
 10
788.7790732921633
 20
2302.389999125469
 30
0.0
 10
785.864520588929
 20
2302.389999125469
 30
0.0
 10
785.864520588929
 20
2302.389999125469
 30
0.0
 10
344.2718899733984
 20
2302.389999125469
 30
0.0
 10
344.2718899733984
 20
2302.389999125469
 30
0.0
 10
341.3573372701642
 20
2302.389999125469
 30
0.0
 10
338.4565649579592
 20
2302.293536388246
 30
0.0
 10
335.5661279390326
 20
2301.983477590034
 30
0.0
 10
332.4896556411688
 20
2301.652748205259
 30
0.0
 10
329.3856225612465
 20
2301.211775692249
 30
0.0
 10
326.3918326095802
 20
2300.398732621365
 30
0.0
 10
323.3808171691192
 20
2299.585689550488
 30
0.0
 10
320.4111429017569
 20
2298.67618374238
 30
0.0
 10
317.5241509805849
 20
2297.449728940552
 30
0.0
 10
314.7646276764565
 20
2296.285285898357
 30
0.0
 10
312.0430004476686
 20
2294.941697772756
 30
0.0
 10
309.5246339865982
 20
2293.329392022028
 30
0.0
 10
306.8202322465979
 20
2291.613733338567
 30
0.0
 10
304.2260736348537
 20
2289.767160940301
 30
0.0
 10
301.7834993244571
 20
2287.679431698973
 30
0.0
 10
299.4477230445621
 20
2285.681274999351
 30
0.0
 10
297.2876467503186
 20
2283.497083020808
 30
0.0
 10
295.2722645619099
 20
2281.188867522967
 30
0.0
 10
293.2120961026478
 20
2278.832420656527
 30
0.0
 10
291.4103099752349
 20
2276.303718902182
 30
0.0
 10
289.6912061940122
 20
2273.699224997163
 30
0.0
 10
287.9962180970972
 20
2271.163633047308
 30
0.0
 10
286.6147338961521
 20
2268.421335231968
 30
0.0
 10
285.3159320414009
 20
2265.665257025594
 30
0.0
 10
284.0309105776826
 20
2262.92295921026
 30
0.0
 10
283.0146067390845
 20
2260.042857484605
 30
0.0
 10
282.1119911264971
 20
2257.155865563433
 30
0.0
 10
281.5538852897073
 20
2255.205940232427
 30
0.0
 10
280.9888892574011
 20
2253.269795292454
 30
0.0
 10
280.4962402780141
 20
2251.299199374898
 30
0.0
 10
279.8692324860633
 20
2248.763607425037
 30
0.0
 10
279.3317972358229
 20
2246.207344888626
 30
0.0
 10
278.9080502115933
 20
2243.623521570156
 30
0.0
 10
278.6496678797478
 20
2242.018106014952
 30
0.0
 10
278.4911933828801
 20
2240.371349286648
 30
0.0
 10
278.194914975694
 20
2238.765933731429
 30
0.0
  0
SPLINE
  5
3BA4
330
A
100
AcDbEntity
  8
MODEL
100
AcDbSpline
210
0.0
220
0.0
230
1.0
 70
    11
 71
     3
 72
   155
 73
   151
 74
     0
 42
0.000000001
 43
0.0000000001
 40
0.0
 40
0.0
 40
0.0
 40
0.0
 40
1.0
 40
1.0
 40
1.0
 40
2.0
 40
2.0
 40
2.0
 40
3.0
 40
3.0
 40
3.0
 40
4.0
 40
4.0
 40
4.0
 40
5.0
 40
5.0
 40
5.0
 40
6.0
 40
6.0
 40
6.0
 40
7.0
 40
7.0
 40
7.0
 40
8.0
 40
8.0
 40
8.0
 40
9.0
 40
9.0
 40
9.0
 40
10.0
 40
10.0
 40
10.0
 40
11.0
 40
11.0
 40
11.0
 40
12.0
 40
12.0
 40
12.0
 40
13.0
 40
13.0
 40
13.0
 40
14.0
 40
14.0
 40
14.0
 40
15.0
 40
15.0
 40
15.0
 40
16.0
 40
16.0
 40
16.0
 40
17.0
 40
17.0
 40
17.0
 40
18.0
 40
18.0
 40
18.0
 40
19.0
 40
19.0
 40
19.0
 40
20.0
 40
20.0
 40
20.0
 40
21.0
 40
21.0
 40
21.0
 40
22.0
 40
22.0
 40
22.0
 40
23.0
 40
23.0
 40
23.0
 40
24.0
 40
24.0
 40
24.0
 40
25.0
 40
25.0
 40
25.0
 40
26.0
 40
26.0
 40
26.0
 40
27.0
 40
27.0
 40
27.0
 40
28.0
 40
28.0
 40
28.0
 40
29.0
 40
29.0
 40
29.0
 40
30.0
 40
30.0
 40
30.0
 40
31.0
 40
31.0
 40
31.0
 40
32.0
 40
32.0
 40
32.0
 40
33.0
 40
33.0
 40
33.0
 40
34.0
 40
34.0
 40
34.0
 40
35.0
 40
35.0
 40
35.0
 40
36.0
 40
36.0
 40
36.0
 40
37.0
 40
37.0
 40
37.0
 40
38.0
 40
38.0
 40
38.0
 40
39.0
 40
39.0
 40
39.0
 40
40.0
 40
40.0
 40
40.0
 40
41.0
 40
41.0
 40
41.0
 40
42.0
 40
42.0
 40
42.0
 40
43.0
 40
43.0
 40
43.0
 40
44.0
 40
44.0
 40
44.0
 40
45.0
 40
45.0
 40
45.0
 40
46.0
 40
46.0
 40
46.0
 40
47.0
 40
47.0
 40
47.0
 40
48.0
 40
48.0
 40
48.0
 40
49.0
 40
49.0
 40
49.0
 40
50.0
 40
50.0
 40
50.0
 40
50.0
 10
795.44533745382
 20
1976.545762981939
 30
0.0
 10
798.5218097516802
 20
1976.573323763998
 30
0.0
 10
801.5569408764416
 20
1976.704237478803
 30
0.0
 10
804.6058523922395
 20
1977.131429600788
 30
0.0
 10
807.6892148856161
 20
1977.551731527263
 30
0.0
 10
810.6933401305607
 20
1978.28209225195
 30
0.0
 10
813.6492340068901
 20
1979.219158842116
 30
0.0
 10
816.5913474921902
 20
1980.156225432282
 30
0.0
 10
819.4301080447506
 20
1981.368899843084
 30
0.0
 10
822.1724058600878
 20
1982.774499728333
 30
0.0
 10
824.9388193597326
 20
1984.180099613583
 30
0.0
 10
827.5639838512973
 20
1985.861307319468
 30
0.0
 10
830.0616797258183
 20
1987.694099326702
 30
0.0
 10
832.54559520931
 20
1989.526891333935
 30
0.0
 10
834.8503656093847
 20
1991.573279402164
 30
0.0
 10
837.0242222946611
 20
1993.750581185199
 30
0.0
 10
839.2118593709667
 20
1995.962333945808
 30
0.0
 10
841.1962356795514
 20
1998.353231789832
 30
0.0
 10
843.0290276867884
 20
2000.854372762111
 30
0.0
 10
844.8583745962635
 20
2003.348623538881
 30
0.0
 10
846.4637901514755
 20
2005.980678225966
 30
0.0
 10
847.9176214053361
 20
2008.695415259233
 30
0.0
 10
849.3783428547097
 20
2011.437713074574
 30
0.0
 10
850.6082427543035
 20
2014.283363822648
 30
0.0
 10
851.6796681570297
 20
2017.191026330369
 30
0.0
 10
852.7442033642394
 20
2020.078018251541
 30
0.0
 10
853.5848072171823
 20
2023.05458271442
 30
0.0
 10
854.2531561822282
 20
2026.058707959364
 30
0.0
 10
854.9249502450286
 20
2029.049052813276
 30
0.0
 10
855.3693678558041
 20
2032.101409426828
 30
0.0
 10
855.6518658719572
 20
2035.146875844865
 30
0.0
 10
855.920583497081
 20
2038.185452067391
 30
0.0
 10
855.9412540836267
 20
2041.23091848542
 30
0.0
 10
855.9688148656926
 20
2044.276384903464
 30
0.0
 10
855.9688148656926
 20
2044.276384903464
 30
0.0
 10
855.9688148656926
 20
2347.300293498261
 30
0.0
 10
855.9688148656926
 20
2347.300293498261
 30
0.0
 10
855.9619246701761
 20
2350.318199134232
 30
0.0
 10
856.0101560387877
 20
2353.349885161242
 30
0.0
 10
855.8482364441618
 20
2356.374680992729
 30
0.0
 10
855.6863168495395
 20
2359.413257215248
 30
0.0
 10
855.3211364871961
 20
2362.451833437775
 30
0.0
 10
854.7630306504063
 20
2365.442178291687
 30
0.0
 10
854.1911444225836
 20
2368.460083927657
 30
0.0
 10
853.4435582091057
 20
2371.450428781569
 30
0.0
 10
852.4617053480863
 20
2374.3649814848
 30
0.0
 10
851.4764073893086
 20
2377.307094970103
 30
0.0
 10
850.2981839560882
 20
2380.166526109209
 30
0.0
 10
848.9477056349672
 20
2382.950165097642
 30
0.0
 10
847.6282331936666
 20
2385.664902130917
 30
0.0
 10
846.0917195936156
 20
2388.296956818001
 30
0.0
 10
844.3829511056676
 20
2390.784317399248
 30
0.0
 10
842.5846100760093
 20
2393.381921108758
 30
0.0
 10
840.6381298427616
 20
2395.827940516905
 30
0.0
 10
838.4987241350675
 20
2398.163716796804
 30
0.0
 10
836.431665480289
 20
2400.451261708095
 30
0.0
 10
834.1268950802144
 20
2402.518320362866
 30
0.0
 10
831.7118815518836
 20
2404.42690452078
 30
0.0
 10
829.362324880952
 20
2406.294147505596
 30
0.0
 10
826.8577388109145
 20
2408.02358658009
 30
0.0
 10
824.2256841238334
 20
2409.449857051888
 30
0.0
 10
821.3972588645477
 20
2411.007041238485
 30
0.0
 10
818.4895963568263
 20
2412.329958777544
 30
0.0
 10
815.4579103298195
 20
2413.439280255607
 30
0.0
 10
812.6467105593249
 20
2414.459029191963
 30
0.0
 10
809.7114872695377
 20
2415.18938991665
 30
0.0
 10
806.7693737842412
 20
2415.719934971374
 30
0.0
 10
803.8513759832451
 20
2416.243589830581
 30
0.0
 10
800.8369154450295
 20
2416.519197651225
 30
0.0
 10
797.8810215687001
 20
2416.519197651225
 30
0.0
 10
795.0594865049272
 20
2416.519197651225
 30
0.0
 10
792.237951441158
 20
2416.519197651225
 30
0.0
 10
789.4129712796305
 20
2416.519197651225
 30
0.0
 10
789.4129712796305
 20
2416.519197651225
 30
0.0
 10
340.7027686961512
 20
2416.519197651225
 30
0.0
 10
340.7027686961512
 20
2416.519197651225
 30
0.0
 10
337.881233632382
 20
2416.519197651225
 30
0.0
 10
335.0562534708508
 20
2416.519197651225
 30
0.0
 10
332.241608602598
 20
2416.519197651225
 30
0.0
 10
329.2719343352358
 20
2416.519197651225
 30
0.0
 10
326.2643639925329
 20
2416.243589830581
 30
0.0
 10
323.3532563870569
 20
2415.719934971374
 30
0.0
 10
320.4042527062404
 20
2415.18938991665
 30
0.0
 10
317.4690294164568
 20
2414.459029191963
 30
0.0
 10
314.6612747437168
 20
2413.439280255607
 30
0.0
 10
311.619253423439
 20
2412.329958777544
 30
0.0
 10
308.7253713067505
 20
2411.007041238485
 30
0.0
 10
305.8900558519483
 20
2409.449857051888
 30
0.0
 10
303.2580011648636
 20
2408.02358658009
 30
0.0
 10
300.7465248993096
 20
2406.294147505596
 30
0.0
 10
298.4038584238981
 20
2404.42690452078
 30
0.0
 10
295.9922899933256
 20
2402.518320362866
 30
0.0
 10
293.6840744954891
 20
2400.451261708095
 30
0.0
 10
291.6170158407142
 20
2398.163716796804
 30
0.0
 10
289.4845003285366
 20
2395.827940516905
 30
0.0
 10
287.5311298997688
 20
2393.381921108758
 30
0.0
 10
285.7396790656305
 20
2390.784317399248
 30
0.0
 10
284.0240203821661
 20
2388.296956818001
 30
0.0
 10
282.4875067821151
 20
2385.664902130917
 30
0.0
 10
281.174924536331
 20
2382.950165097642
 30
0.0
 10
279.8210011174517
 20
2380.166526109209
 30
0.0
 10
278.6393325864694
 20
2377.307094970103
 30
0.0
 10
277.6540346276954
 20
2374.3649814848
 30
0.0
 10
276.6790719621924
 20
2371.450428781569
 30
0.0
 10
275.9245955531981
 20
2368.460083927657
 30
0.0
 10
275.3595995208918
 20
2365.442178291687
 30
0.0
 10
274.8014936841021
 20
2362.451833437775
 30
0.0
 10
274.4294231262422
 20
2359.413257215248
 30
0.0
 10
274.2743937271327
 20
2356.374680992729
 30
0.0
 10
274.1124741325104
 20
2353.349885161242
 30
0.0
 10
274.160705501122
 20
2350.318199134232
 30
0.0
 10
274.1538153056056
 20
2347.300293498261
 30
0.0
 10
274.1538153056056
 20
2347.300293498261
 30
0.0
 10
274.1538153056056
 20
2044.276384903464
 30
0.0
 10
274.1538153056056
 20
2044.276384903464
 30
0.0
 10
274.1744858921513
 20
2041.23091848542
 30
0.0
 10
274.1951564787007
 20
2038.185452067391
 30
0.0
 10
274.4707642993374
 20
2035.146875844865
 30
0.0
 10
274.746372119974
 20
2032.101409426828
 30
0.0
 10
275.1907897307531
 20
2029.049052813276
 30
0.0
 10
275.8625837935535
 20
2026.058707959364
 30
0.0
 10
276.5309327585994
 20
2023.05458271442
 30
0.0
 10
277.3715366115423
 20
2020.078018251541
 30
0.0
 10
278.436071818752
 20
2017.191026330369
 30
0.0
 10
279.5074972214782
 20
2014.283363822648
 30
0.0
 10
280.7373971210684
 20
2011.437713074574
 30
0.0
 10
282.1981185704456
 20
2008.695415259233
 30
0.0
 10
283.6588400198227
 20
2005.980678225966
 30
0.0
 10
285.2608104772728
 20
2003.348623538881
 30
0.0
 10
287.0867122889933
 20
2000.854372762111
 30
0.0
 10
288.9195042962303
 20
1998.353231789832
 30
0.0
 10
290.903880604815
 20
1995.962333945808
 30
0.0
 10
293.0984078766371
 20
1993.750581185199
 30
0.0
 10
295.2653743663934
 20
1991.573279402164
 30
0.0
 10
297.5701447664717
 20
1989.526891333935
 30
0.0
 10
300.0540602499634
 20
1987.694099326702
 30
0.0
 10
302.5586463200009
 20
1985.861307319468
 30
0.0
 10
305.1769206160527
 20
1984.180099613583
 30
0.0
 10
307.9433341156939
 20
1982.774499728333
 30
0.0
 10
310.6890770287894
 20
1981.368899843084
 30
0.0
 10
313.5243924835916
 20
1980.156225432282
 30
0.0
 10
316.4665059688916
 20
1979.219158842116
 30
0.0
 10
319.422399845221
 20
1978.28209225195
 30
0.0
 10
322.433415285682
 20
1977.551731527263
 30
0.0
 10
325.5098875835422
 20
1977.131429600788
 30
0.0
 10
328.5587990993365
 20
1976.704237478803
 30
0.0
 10
331.5939302241015
 20
1976.573323763998
 30
0.0
 10
334.6704025219581
 20
1976.545762981939
 30
0.0
 10
334.6704025219581
 20
1976.545762981939
 30
0.0
 10
795.44533745382
 20
1976.545762981939
 30
0.0
 10
795.44533745382
 20
1976.545762981939
 30
0.0
  0
SPLINE
  5
3BA6
330
A
100
AcDbEntity
  8
MODEL
100
AcDbSpline
210
0.0
220
0.0
230
1.0
 70
    11
 71
     3
 72
    17
 73
    13
 74
     0
 42
0.000000001
 43
0.0000000001
 40
0.0
 40
0.0
 40
0.0
 40
0.0
 40
1.0
 40
1.0
 40
1.0
 40
2.0
 40
2.0
 40
2.0
 40
3.0
 40
3.0
 40
3.0
 40
4.0
 40
4.0
 40
4.0
 40
4.0
 10
542.0308365736776
 20
2212.741665267789
 30
0.0
 10
542.0308365736776
 20
2225.454075994665
 30
0.0
 10
552.338569065497
 20
2235.754918290975
 30
0.0
 10
565.0613150856509
 20
2235.754918290975
 30
0.0
 10
577.7840611058011
 20
2235.754918290975
 30
0.0
 10
588.0917935976242
 20
2225.454075994665
 30
0.0
 10
588.0917935976242
 20
2212.741665267789
 30
0.0
 10
588.0917935976242
 20
2200.043034931947
 30
0.0
 10
577.7840611058011
 20
2189.742192635636
 30
0.0
 10
565.0613150856509
 20
2189.742192635636
 30
0.0
 10
552.338569065497
 20
2189.742192635636
 30
0.0
 10
542.0308365736776
 20
2200.043034931947
 30
0.0
 10
542.0308365736776
 20
2212.741665267789
 30
0.0
  0
LINE
  5
3BC7
330
A
100
AcDbEntity
  8
MODEL
100
AcDbLine
 10
265.0587572245852
 20
2427.575268444201
 30
0.0
 11
565.0613150856509
 21
2427.612412431863
 31
0.0
  0
LINE
  5
3BC8
330
A
100
AcDbEntity
  8
MODEL
100
AcDbLine
 10
865.0638729467094
 20
2427.575268444201
 30
0.0
 11
565.0613150856509
 21
2427.612412431863
 31
0.0
  0
LINE
  5
3BC9
102
{ACAD_REACTORS
330
3C2E
330
3C3D
102
}
330
A
100
AcDbEntity
  8
MODEL
100
AcDbLine
 10
865.0638729467094
 20
2427.575268444201
 30
0.0
 11
865.0638729467094
 21
1972.817853663637
 31
0.0
  0
SPLINE
  5
3BCA
330
A
100
AcDbEntity
  8
MODEL
100
AcDbSpline
210
0.0
220
0.0
230
1.0
 70
  1064
 71
     3
 72
    18
 73
    14
 74
    12
 42
0.000000001
 43
0.0000000001
 44
0.0
 40
0.0
 40
0.0
 40
0.0
 40
0.0
 40
0.5977805798901757
 40
1.144561586291535
 40
1.845144077290252
 40
2.539112531327492
 40
3.163877912966905
 40
3.931444575032865
 40
4.744632360592892
 40
5.510004066104421
 40
6.437104505167302
 40
7.24751556824534
 40
7.931173406274552
 40
7.931173406274552
 40
7.931173406274552
 40
7.931173406274552
 10
865.0638729467094
 20
1972.817853663637
 30
0.0
 10
865.0595005279888
 20
1972.618410120907
 30
0.0
 10
865.0511287228899
 20
1972.236538535711
 30
0.0
 10
864.9516281875256
 20
1971.627961990052
 30
0.0
 10
864.7801135598021
 20
1971.002376189067
 30
0.0
 10
864.5145108806942
 20
1970.381447912789
 30
0.0
 10
864.1602690546686
 20
1969.781105126107
 30
0.0
 10
863.700651283327
 20
1969.203465645702
 30
0.0
 10
863.1202265490348
 20
1968.674139443342
 30
0.0
 10
862.4195099677373
 20
1968.213556780849
 30
0.0
 10
861.6509695585614
 20
1967.878319449036
 30
0.0
 10
860.8656524586411
 20
1967.674705835832
 30
0.0
 10
860.3688395294184
 20
1967.632152632706
 30
0.0
 10
860.1415072739612
 20
1967.61268108703
 30
0.0
 11
865.0638729467094
 21
1972.817853663637
 31
0.0
 11
865.0362032880178
 21
1972.220713804239
 31
0.0
 11
864.9516714067752
 21
1971.680506593981
 31
0.0
 11
864.764331182748
 21
1971.005436621937
 31
0.0
 11
864.4914350626416
 21
1970.367377124061
 31
0.0
 11
864.1736946010053
 21
1969.82944331667
 31
0.0
 11
863.6956218540756
 21
1969.228939337201
 31
0.0
 11
863.094884447167
 21
1968.680861840377
 31
0.0
 11
862.4552514093696
 21
1968.260548356706
 31
0.0
 11
861.6065844287034
 21
1967.887346561376
 31
0.0
 11
860.8209485503605
 21
1967.688493958125
 31
0.0
 11
860.1415072739612
 21
1967.61268108703
 31
0.0
  0
LINE
  5
3BCB
330
A
100
AcDbEntity
  8
MODEL
100
AcDbLine
 10
269.9811228973333
 20
1967.61268108703
 30
0.0
 11
860.1415072739612
 21
1967.61268108703
 31
0.0
  0
SPLINE
  5
3BCC
330
A
100
AcDbEntity
  8
MODEL
100
AcDbSpline
210
0.0
220
0.0
230
1.0
 70
  1064
 71
     3
 72
    18
 73
    14
 74
    12
 42
0.000000001
 43
0.0000000001
 44
0.0
 40
0.0
 40
0.0
 40
0.0
 40
0.0
 40
0.5977805798901757
 40
1.144561586292097
 40
1.845144077289842
 40
2.539112531328513
 40
3.163877912967955
 40
3.931444575031613
 40
4.744632360594286
 40
5.510004066105862
 40
6.437104505168795
 40
7.247515568243252
 40
7.931173406272464
 40
7.931173406272464
 40
7.931173406272464
 40
7.931173406272464
 10
265.0587572245852
 20
1972.817853663637
 30
0.0
 10
265.0631296433053
 20
1972.618410120907
 30
0.0
 10
265.0715014484033
 20
1972.23653853571
 30
0.0
 10
265.1710019837756
 20
1971.627961990052
 30
0.0
 10
265.3425166114898
 20
1971.002376189064
 30
0.0
 10
265.6081192906049
 20
1970.38144791279
 30
0.0
 10
265.9623611166296
 20
1969.781105126108
 30
0.0
 10
266.4219788879677
 20
1969.203465645699
 30
0.0
 10
267.002403622263
 20
1968.674139443345
 30
0.0
 10
267.7031202035608
 20
1968.213556780847
 30
0.0
 10
268.4716606127356
 20
1967.878319449038
 30
0.0
 10
269.2569777126546
 20
1967.674705835832
 30
0.0
 10
269.753790641876
 20
1967.632152632706
 30
0.0
 10
269.9811228973333
 20
1967.61268108703
 30
0.0
 11
265.0587572245852
 21
1972.817853663637
 31
0.0
 11
265.0864268832768
 21
1972.220713804239
 31
0.0
 11
265.170958764523
 21
1971.680506593981
 31
0.0
 11
265.3582989885465
 21
1971.005436621937
 31
0.0
 11
265.6311951086566
 21
1970.367377124061
 31
0.0
 11
265.9489355702929
 21
1969.82944331667
 31
0.0
 11
266.4270083172189
 21
1969.228939337201
 31
0.0
 11
267.0277457241311
 21
1968.680861840377
 31
0.0
 11
267.6673787619286
 21
1968.260548356706
 31
0.0
 11
268.5160457425948
 21
1967.887346561376
 31
0.0
 11
269.301681620934
 21
1967.688493958125
 31
0.0
 11
269.9811228973333
 21
1967.61268108703
 31
0.0
  0
LINE
  5
3BCD
102
{ACAD_REACTORS
330
3C2E
102
}
330
A
100
AcDbEntity
  8
MODEL
100
AcDbLine
 10
265.0587572245852
 20
2427.575268444201
 30
0.0
 11
265.0587572245852
 21
1972.817853663637
 31
0.0
  0
POLYLINE
  5
3BDE
102
{ACAD_REACTORS
330
3CCF
102
}
330
A
100
AcDbEntity
  8
MODEL
100
AcDb2dPolyline
 66
     1
 10
0.0
 20
0.0
 30
0.0
  0
VERTEX
  5
3BDF
330
3BDE
100
AcDbEntity
  8
MODEL
100
AcDbVertex
100
AcDb2dVertex
 10
1569.621344893726
 20
831.9021457693552
 30
0.0
  0
VERTEX
  5
3BE0
330
3BDE
100
AcDbEntity
  8
MODEL
100
AcDbVertex
100
AcDb2dVertex
 10
1569.621344893726
 20
907.5978337072911
 30
0.0
  0
SEQEND
  5
3BE1
330
3BDE
100
AcDbEntity
  8
MODEL
  0
SPLINE
  5
3BE2
102
{ACAD_REACTORS
330
3CCF
330
3CEF
102
}
330
A
100
AcDbEntity
  8
MODEL
100
AcDbSpline
210
0.0
220
0.0
230
1.0
 70
    11
 71
     3
 72
    26
 73
    22
 74
     0
 42
0.000000001
 43
0.0000000001
 40
0.0
 40
0.0
 40
0.0
 40
0.0
 40
1.0
 40
1.0
 40
1.0
 40
2.0
 40
2.0
 40
2.0
 40
3.0
 40
3.0
 40
3.0
 40
4.0
 40
4.0
 40
4.0
 40
5.0
 40
5.0
 40
5.0
 40
6.0
 40
6.0
 40
6.0
 40
7.0
 40
7.0
 40
7.0
 40
7.0
 10
1324.619772738523
 20
1009.572727342954
 30
0.0
 10
1324.516419805784
 20
1011.942954600435
 30
0.0
 10
1326.356102008535
 20
1013.954891691082
 30
0.0
 10
1328.726329266013
 20
1014.051354428305
 30
0.0
 10
1328.802121416687
 20
1014.058244623821
 30
0.0
 10
1328.864133176331
 20
1014.058244623821
 30
0.0
 10
1328.926144935976
 20
1014.058244623821
 30
0.0
 10
1328.926144935976
 20
1014.058244623821
 30
0.0
 10
1784.616115577083
 20
1014.058244623821
 30
0.0
 10
1784.616115577083
 20
1014.058244623821
 30
0.0
 10
1784.616115577083
 20
1014.058244623821
 30
0.0
 10
1784.616115577083
 20
934.0561844884387
 30
0.0
 10
1784.616115577083
 20
934.0561844884387
 30
0.0
 10
1784.616115577083
 20
934.0561844884387
 30
0.0
 10
1332.701972078702
 20
934.0561844884387
 30
0.0
 10
1332.701972078702
 20
934.0561844884387
 30
0.0
 10
1330.035466414037
 20
934.0561844884387
 30
0.0
 10
1327.823713653429
 20
936.1645843163087
 30
0.0
 10
1327.713470525173
 20
938.837980176485
 30
0.0
 10
1327.713470525173
 20
938.837980176485
 30
0.0
 10
1324.619772738523
 20
1009.572727342954
 30
0.0
 10
1324.619772738523
 20
1009.572727342954
 30
0.0
  0
SPLINE
  5
3BE3
102
{ACAD_REACTORS
330
3C97
330
3CFE
102
}
330
A
100
AcDbEntity
  8
MODEL
100
AcDbSpline
210
0.0
220
0.0
230
1.0
 70
     8
 71
     3
 72
    20
 73
    16
 74
     0
 42
0.000000001
 43
0.0000000001
 40
0.0
 40
0.0
 40
0.0
 40
0.0
 40
1.0
 40
1.0
 40
1.0
 40
2.0
 40
2.0
 40
2.0
 40
3.0
 40
3.0
 40
3.0
 40
4.0
 40
4.0
 40
4.0
 40
5.0
 40
5.0
 40
5.0
 40
5.0
 10
1784.616115577083
 20
934.0561844884387
 30
0.0
 10
1784.616115577083
 20
934.0561844884387
 30
0.0
 10
1784.616115577083
 20
874.0563619357736
 30
0.0
 10
1784.616115577083
 20
874.0563619357736
 30
0.0
 10
1784.616115577083
 20
874.0563619357736
 30
0.0
 10
1438.500924225703
 20
874.0563619357736
 30
0.0
 10
1438.500924225703
 20
874.0563619357736
 30
0.0
 10
1434.2152226148
 20
874.0563619357736
 30
0.0
 10
1430.143117064889
 20
875.8822637474977
 30
0.0
 10
1427.297466316812
 20
879.0793144668814
 30
0.0
 10
1427.297466316812
 20
879.0793144668814
 30
0.0
 10
1408.487232558341
 20
900.2046539187022
 30
0.0
 10
1408.487232558341
 20
900.2046539187022
 30
0.0
 10
1399.860707772405
 20
909.8853786185746
 30
0.0
 10
1393.735323958749
 20
921.5091384539437
 30
0.0
 10
1390.607175194523
 20
934.0561844884387
 30
0.0
  0
SPLINE
  5
3BE4
330
A
100
AcDbEntity
  8
HIDDEN
 48
0.7
100
AcDbSpline
210
0.0
220
0.0
230
1.0
 70
     8
 71
     3
 72
    11
 73
     7
 74
     0
 42
0.000000001
 43
0.0000000001
 40
0.0
 40
0.0
 40
0.0
 40
0.0
 40
1.0
 40
1.0
 40
1.0
 40
2.0
 40
2.0
 40
2.0
 40
2.0
 10
1777.719029865641
 20
1014.058244623821
 30
0.0
 10
1775.803555512218
 20
1013.982452473148
 30
0.0
 10
1774.273932107682
 20
1012.921362363692
 30
0.0
 10
1773.516010600933
 20
1011.171252702649
 30
0.0
 10
1773.516010600933
 20
1011.171252702649
 30
0.0
 10
1770.463653987375
 20
1003.199296490729
 30
0.0
 10
1770.463653987375
 20
1003.199296490729
 30
0.0
  0
SPLINE
  5
3BE5
330
A
100
AcDbEntity
  8
HIDDEN
 48
0.7
100
AcDbSpline
210
0.0
220
0.0
230
1.0
 70
     8
 71
     3
 72
   104
 73
   100
 74
     0
 42
0.000000001
 43
0.0000000001
 40
0.0
 40
0.0
 40
0.0
 40
0.0
 40
1.0
 40
1.0
 40
1.0
 40
2.0
 40
2.0
 40
2.0
 40
3.0
 40
3.0
 40
3.0
 40
4.0
 40
4.0
 40
4.0
 40
5.0
 40
5.0
 40
5.0
 40
6.0
 40
6.0
 40
6.0
 40
7.0
 40
7.0
 40
7.0
 40
8.0
 40
8.0
 40
8.0
 40
9.0
 40
9.0
 40
9.0
 40
10.0
 40
10.0
 40
10.0
 40
11.0
 40
11.0
 40
11.0
 40
12.0
 40
12.0
 40
12.0
 40
13.0
 40
13.0
 40
13.0
 40
14.0
 40
14.0
 40
14.0
 40
15.0
 40
15.0
 40
15.0
 40
16.0
 40
16.0
 40
16.0
 40
17.0
 40
17.0
 40
17.0
 40
18.0
 40
18.0
 40
18.0
 40
19.0
 40
19.0
 40
19.0
 40
20.0
 40
20.0
 40
20.0
 40
21.0
 40
21.0
 40
21.0
 40
22.0
 40
22.0
 40
22.0
 40
23.0
 40
23.0
 40
23.0
 40
24.0
 40
24.0
 40
24.0
 40
25.0
 40
25.0
 40
25.0
 40
26.0
 40
26.0
 40
26.0
 40
27.0
 40
27.0
 40
27.0
 40
28.0
 40
28.0
 40
28.0
 40
29.0
 40
29.0
 40
29.0
 40
30.0
 40
30.0
 40
30.0
 40
31.0
 40
31.0
 40
31.0
 40
32.0
 40
32.0
 40
32.0
 40
33.0
 40
33.0
 40
33.0
 40
33.0
 10
1770.463653987375
 20
1003.199296490729
 30
0.0
 10
1770.318959881542
 20
1002.909908279059
 30
0.0
 10
1770.18804616674
 20
1002.59984948084
 30
0.0
 10
1769.974450105746
 20
1002.365582833302
 30
0.0
 10
1769.636830525466
 20
1001.986622079919
 30
0.0
 10
1769.361222704828
 20
1001.662782890674
 30
0.0
 10
1768.954701169389
 20
1001.373394679004
 30
0.0
 10
1768.520618851885
 20
1001.077116271826
 30
0.0
 10
1768.148548294025
 20
1000.911751579438
 30
0.0
 10
1767.652454216878
 20
1000.718826104991
 30
0.0
 10
1767.273493463504
 20
1000.567241803644
 30
0.0
 10
1766.839411146001
 20
1000.560351608127
 30
0.0
 10
1766.432889610561
 20
1000.512120239512
 30
0.0
 10
1766.432889610561
 20
1000.512120239512
 30
0.0
 10
1663.720745054691
 20
998.7137792098611
 30
0.0
 10
1663.720745054691
 20
998.7137792098611
 30
0.0
 10
1661.412529556856
 20
998.6793282322787
 30
0.0
 10
1659.510835594462
 20
996.8947675936606
 30
0.0
 10
1659.317910120016
 20
994.6003324868534
 30
0.0
 10
1659.042302299381
 20
991.6168778284582
 30
0.0
 10
1658.773584674257
 20
988.633423170063
 30
0.0
 10
1658.394623920884
 20
985.6568587071843
 30
0.0
 10
1658.001882776475
 20
982.6734040487963
 30
0.0
 10
1657.588471045518
 20
979.6899493903938
 30
0.0
 10
1657.140608336985
 20
976.7133849275151
 30
0.0
 10
1656.775427974641
 20
974.4396204072646
 30
0.0
 10
1656.396467221265
 20
972.1589656914903
 30
0.0
 10
1655.989945685825
 20
969.8852011712397
 30
0.0
 10
1655.914153535149
 20
969.499350222347
 30
0.0
 10
1655.838361384475
 20
969.1066090779377
 30
0.0
 10
1655.776349624831
 20
968.720758129045
 30
0.0
 10
1655.211353592526
 20
965.7717544482321
 30
0.0
 10
1654.653247755737
 20
962.8227507674119
 30
0.0
 10
1654.026239963786
 20
959.8806372821155
 30
0.0
 10
1653.364781194258
 20
956.7593787133983
 30
0.0
 10
1652.675761642665
 20
953.6450103402049
 30
0.0
 10
1651.959181309009
 20
950.5375321625279
 30
0.0
 10
1651.24949117087
 20
947.5196265265504
 30
0.0
 10
1650.539801032729
 20
944.5086110860893
 30
0.0
 10
1649.78187952598
 20
941.5044858411447
 30
0.0
 10
1649.113530560934
 20
938.837980176485
 30
0.0
 10
1648.452071791407
 20
936.1714745118252
 30
0.0
 10
1647.76994243533
 20
933.5118590426819
 30
0.0
 10
1647.012020928577
 20
930.5904161439275
 30
0.0
 10
1646.329891572502
 20
927.6276320720744
 30
0.0
 10
1645.303252440629
 20
924.7819813240012
 30
0.0
 10
1645.041425011023
 20
924.0585107948309
 30
0.0
 10
1644.820938754513
 20
923.3143696791112
 30
0.0
 10
1644.517770151814
 20
922.6046795409666
 30
0.0
 10
1644.138809398436
 20
921.7571854925145
 30
0.0
 10
1643.773629036094
 20
920.9165816395716
 30
0.0
 10
1643.415338869264
 20
920.0759777866288
 30
0.0
 10
1643.084609484501
 20
919.3387268664255
 30
0.0
 10
1642.636746775966
 20
918.6428171193138
 30
0.0
 10
1642.264676218106
 20
917.9331269811764
 30
0.0
 10
1641.913276246793
 20
917.271668211647
 30
0.0
 10
1641.49986451584
 20
916.6446604196999
 30
0.0
 10
1641.100233175915
 20
916.0107624322291
 30
0.0
 10
1640.266519518488
 20
914.7154056752361
 30
0.0
 10
1639.288111755227
 20
913.5440724375321
 30
0.0
 10
1638.302813796449
 20
912.3589588087953
 30
0.0
 10
1637.834280501366
 20
911.793962776489
 30
0.0
 10
1637.276174664577
 20
911.2840883083072
 30
0.0
 10
1636.759410000884
 20
910.7535432535833
 30
0.0
 10
1636.249535532706
 20
910.2229981988594
 30
0.0
 10
1635.663868913852
 20
909.6855629486117
 30
0.0
 10
1635.085092490514
 20
909.2377002400781
 30
0.0
 10
1634.485645480631
 20
908.7553865539621
 30
0.0
 10
1633.899978861774
 20
908.2248414992382
 30
0.0
 10
1633.266080874308
 20
907.7907591817375
 30
0.0
 10
1632.604622104781
 20
907.3360062776801
 30
0.0
 10
1631.95005353077
 20
906.8881435691465
 30
0.0
 10
1631.28859476124
 20
906.4265004695872
 30
0.0
 10
1629.951896831152
 20
905.5169946614797
 30
0.0
 10
1628.463614599711
 20
904.8141947188587
 30
0.0
 10
1627.023563736883
 20
904.083833994172
 30
0.0
 10
1625.72820697989
 20
903.4223752246426
 30
0.0
 10
1624.350167876705
 20
902.9056105609516
 30
0.0
 10
1622.979018969035
 20
902.4095164838027
 30
0.0
 10
1621.580309279304
 20
901.8996420156209
 30
0.0
 10
1620.147148611991
 20
901.3966577429555
 30
0.0
 10
1618.69331735813
 20
901.0383675761286
 30
0.0
 10
1617.177474344629
 20
900.6662970182688
 30
0.0
 10
1615.647850940094
 20
900.2597754828339
 30
0.0
 10
1614.111337340043
 20
900.0048382487466
 30
0.0
 10
1612.478361002769
 20
899.7292304281027
 30
0.0
 10
1610.845384665495
 20
899.4949637805648
 30
0.0
 10
1609.191737741673
 20
899.2813677195691
 30
0.0
 10
1609.164176959609
 20
899.2744775240526
 30
0.0
 10
1609.136616177547
 20
899.2675873285361
 30
0.0
 10
1609.109055395483
 20
899.2675873285361
 30
0.0
 10
1608.454486821468
 20
899.1986853733788
 30
0.0
 10
1607.786137856426
 20
899.1297834182215
 30
0.0
 10
1607.110898695865
 20
899.0608814630641
 30
0.0
 10
1607.110898695865
 20
899.0608814630641
 30
0.0
 10
1606.835290875227
 20
899.0402108765147
 30
0.0
 10
1606.835290875227
 20
899.0402108765147
 30
0.0
 10
1606.835290875227
 20
899.0402108765147
 30
0.0
 10
1600.537652173675
 20
893.5487250503238
 30
0.0
 10
1600.537652173675
 20
893.5487250503238
 30
0.0
  0
POLYLINE
  5
3BE6
330
A
100
AcDbEntity
  8
HIDDEN
100
AcDb2dPolyline
 66
     1
 10
0.0
 20
0.0
 30
0.0
  0
VERTEX
  5
3BE7
330
3BE6
100
AcDbEntity
  8
HIDDEN
100
AcDbVertex
100
AcDb2dVertex
 10
1597.940048464171
 20
891.3094115076483
 30
0.0
  0
VERTEX
  5
3BE8
330
3BE6
100
AcDbEntity
  8
HIDDEN
100
AcDbVertex
100
AcDb2dVertex
 10
1592.620817525877
 20
886.6792001209424
 30
0.0
  0
VERTEX
  5
3BE9
330
3BE6
100
AcDbEntity
  8
HIDDEN
100
AcDbVertex
100
AcDb2dVertex
 10
1592.620817525877
 20
879.6236399126383
 30
0.0
  0
SEQEND
  5
3BEA
330
3BE6
100
AcDbEntity
  8
HIDDEN
  0
POLYLINE
  5
3BEB
330
A
100
AcDbEntity
  8
HIDDEN
100
AcDb2dPolyline
 66
     1
 10
0.0
 20
0.0
 30
0.0
  0
VERTEX
  5
3BEC
330
3BEB
100
AcDbEntity
  8
HIDDEN
100
AcDbVertex
100
AcDb2dVertex
 10
1592.620817525877
 20
874.4491030801828
 30
0.0
  0
VERTEX
  5
3BED
330
3BEB
100
AcDbEntity
  8
HIDDEN
100
AcDbVertex
100
AcDb2dVertex
 10
1592.620817525877
 20
861.5368766833444
 30
0.0
  0
SEQEND
  5
3BEE
330
3BEB
100
AcDbEntity
  8
HIDDEN
  0
POLYLINE
  5
3BEF
330
A
100
AcDbEntity
  8
HIDDEN
100
AcDb2dPolyline
 66
     1
 10
0.0
 20
0.0
 30
0.0
  0
VERTEX
  5
3BF0
330
3BEF
100
AcDbEntity
  8
HIDDEN
100
AcDbVertex
100
AcDb2dVertex
 10
1592.620817525877
 20
858.9530533648749
 30
0.0
  0
VERTEX
  5
3BF1
330
3BEF
100
AcDbEntity
  8
HIDDEN
100
AcDbVertex
100
AcDb2dVertex
 10
1592.620817525877
 20
851.8974931565635
 30
0.0
  0
SEQEND
  5
3BF2
330
3BEF
100
AcDbEntity
  8
HIDDEN
  0
POLYLINE
  5
3BF3
330
A
100
AcDbEntity
  8
HIDDEN
100
AcDb2dPolyline
 66
     1
 10
0.0
 20
0.0
 30
0.0
  0
VERTEX
  5
3BF4
330
3BF3
100
AcDbEntity
  8
HIDDEN
100
AcDbVertex
100
AcDb2dVertex
 10
1546.614982066057
 20
851.8974931565635
 30
0.0
  0
VERTEX
  5
3BF5
330
3BF3
100
AcDbEntity
  8
HIDDEN
100
AcDbVertex
100
AcDb2dVertex
 10
1546.614982066057
 20
858.9530533648749
 30
0.0
  0
SEQEND
  5
3BF6
330
3BF3
100
AcDbEntity
  8
HIDDEN
  0
POLYLINE
  5
3BF7
330
A
100
AcDbEntity
  8
HIDDEN
100
AcDb2dPolyline
 66
     1
 10
0.0
 20
0.0
 30
0.0
  0
VERTEX
  5
3BF8
330
3BF7
100
AcDbEntity
  8
HIDDEN
100
AcDbVertex
100
AcDb2dVertex
 10
1546.614982066057
 20
864.1207000018139
 30
0.0
  0
VERTEX
  5
3BF9
330
3BF7
100
AcDbEntity
  8
HIDDEN
100
AcDbVertex
100
AcDb2dVertex
 10
1546.614982066057
 20
877.0329263986523
 30
0.0
  0
SEQEND
  5
3BFA
330
3BF7
100
AcDbEntity
  8
HIDDEN
  0
POLYLINE
  5
3BFB
330
A
100
AcDbEntity
  8
HIDDEN
100
AcDb2dPolyline
 66
     1
 10
0.0
 20
0.0
 30
0.0
  0
VERTEX
  5
3BFC
330
3BFB
100
AcDbEntity
  8
HIDDEN
100
AcDbVertex
100
AcDb2dVertex
 10
1546.614982066057
 20
879.6167497171291
 30
0.0
  0
VERTEX
  5
3BFD
330
3BFB
100
AcDbEntity
  8
HIDDEN
100
AcDbVertex
100
AcDb2dVertex
 10
1546.614982066057
 20
886.6723099254332
 30
0.0
  0
VERTEX
  5
3BFE
330
3BFB
100
AcDbEntity
  8
HIDDEN
100
AcDbVertex
100
AcDb2dVertex
 10
1541.28886093225
 20
891.3025213121318
 30
0.0
  0
SEQEND
  5
3BFF
330
3BFB
100
AcDbEntity
  8
HIDDEN
  0
SPLINE
  5
3C00
330
A
100
AcDbEntity
  8
HIDDEN
 48
0.7
100
AcDbSpline
210
0.0
220
0.0
230
1.0
 70
     8
 71
     3
 72
    86
 73
    82
 74
     0
 42
0.000000001
 43
0.0000000001
 40
0.0
 40
0.0
 40
0.0
 40
0.0
 40
1.0
 40
1.0
 40
1.0
 40
2.0
 40
2.0
 40
2.0
 40
3.0
 40
3.0
 40
3.0
 40
4.0
 40
4.0
 40
4.0
 40
5.0
 40
5.0
 40
5.0
 40
6.0
 40
6.0
 40
6.0
 40
7.0
 40
7.0
 40
7.0
 40
8.0
 40
8.0
 40
8.0
 40
9.0
 40
9.0
 40
9.0
 40
10.0
 40
10.0
 40
10.0
 40
11.0
 40
11.0
 40
11.0
 40
12.0
 40
12.0
 40
12.0
 40
13.0
 40
13.0
 40
13.0
 40
14.0
 40
14.0
 40
14.0
 40
15.0
 40
15.0
 40
15.0
 40
16.0
 40
16.0
 40
16.0
 40
17.0
 40
17.0
 40
17.0
 40
18.0
 40
18.0
 40
18.0
 40
19.0
 40
19.0
 40
19.0
 40
20.0
 40
20.0
 40
20.0
 40
21.0
 40
21.0
 40
21.0
 40
22.0
 40
22.0
 40
22.0
 40
23.0
 40
23.0
 40
23.0
 40
24.0
 40
24.0
 40
24.0
 40
25.0
 40
25.0
 40
25.0
 40
26.0
 40
26.0
 40
26.0
 40
27.0
 40
27.0
 40
27.0
 40
27.0
 10
1535.852496670185
 20
896.0360856315701
 30
0.0
 10
1535.852496670185
 20
896.0360856315701
 30
0.0
 10
1532.434959694287
 20
899.0057598989324
 30
0.0
 10
1532.434959694287
 20
899.0057598989324
 30
0.0
 10
1532.434959694287
 20
899.0057598989324
 30
0.0
 10
1532.118010700556
 20
899.0608814630641
 30
0.0
 10
1532.118010700556
 20
899.0608814630641
 30
0.0
 10
1529.120775651126
 20
899.6327676908868
 30
0.0
 10
1526.116650406185
 20
900.1977637231857
 30
0.0
 10
1523.112525161242
 20
900.8109911241072
 30
0.0
 10
1519.812121509115
 20
901.4862302846623
 30
0.0
 10
1516.518608052505
 20
902.2028106183161
 30
0.0
 10
1513.238874986925
 20
902.9331713430101
 30
0.0
 10
1510.544808540199
 20
903.5257281573822
 30
0.0
 10
1507.857632288988
 20
904.1940771224281
 30
0.0
 10
1505.191126624325
 20
904.8830966740161
 30
0.0
 10
1501.787370039458
 20
905.7650417000505
 30
0.0
 10
1498.411174236658
 20
906.6814377036671
 30
0.0
 10
1495.021198042822
 20
907.6253944893497
 30
0.0
 10
1492.292680618518
 20
908.3902061916187
 30
0.0
 10
1489.56416319421
 20
909.2101394580122
 30
0.0
 10
1486.84942616094
 20
910.064523701988
 30
0.0
 10
1483.893532284607
 20
910.9947000966376
 30
0.0
 10
1480.937638408276
 20
911.9386568823202
 30
0.0
 10
1478.016195509525
 20
912.9446254276436
 30
0.0
 10
1475.032740851128
 20
913.9781547550328
 30
0.0
 10
1472.04239599722
 20
915.0047938869056
 30
0.0
 10
1469.086502120887
 20
916.1210055604852
 30
0.0
 10
1466.165059222137
 20
917.2372172340647
 30
0.0
 10
1463.250506518903
 20
918.3396485166113
 30
0.0
 10
1460.342844011181
 20
919.5040915588061
 30
0.0
 10
1457.235365833497
 20
920.7443267516674
 30
0.0
 10
1454.162338633397
 20
922.0327933131512
 30
0.0
 10
1451.089311433295
 20
923.3281500701441
 30
0.0
 10
1448.560609678952
 20
924.3961303751084
 30
0.0
 10
1446.038798120123
 20
925.5192322442044
 30
0.0
 10
1443.54454734336
 20
926.6698948953663
 30
0.0
 10
1440.388837797068
 20
928.1237261492233
 30
0.0
 10
1437.253798837321
 20
929.5913377941206
 30
0.0
 10
1434.132540268608
 20
931.1002906121021
 30
0.0
 10
1431.369571866723
 20
932.4300983466774
 30
0.0
 10
1428.627274051386
 20
933.8012472543442
 30
0.0
 10
1425.905646822594
 20
935.1861765530512
 30
0.0
 10
1423.418286241348
 20
936.4401921369454
 30
0.0
 10
1420.958486442162
 20
937.7286586984219
 30
0.0
 10
1418.526247425042
 20
939.0584664329972
 30
0.0
 10
1415.666816285934
 20
940.6156506195939
 30
0.0
 10
1412.807385146824
 20
942.1659446106742
 30
0.0
 10
1409.989295180813
 20
943.7713601658861
 30
0.0
 10
1407.074742477577
 20
945.4318972852225
 30
0.0
 10
1404.173970165374
 20
947.1131049911082
 30
0.0
 10
1401.280088048686
 20
948.8218734790598
 30
0.0
 10
1398.48266866922
 20
950.4824105983962
 30
0.0
 10
1395.712810071819
 20
952.2049594773734
 30
0.0
 10
1392.949841669934
 20
953.9206181608415
 30
0.0
 10
1390.400469329042
 20
955.4915827384712
 30
0.0
 10
1387.899328356762
 20
957.1383394667819
 30
0.0
 10
1385.384406993452
 20
958.7782059995689
 30
0.0
 10
1382.890156216686
 20
960.4249627278796
 30
0.0
 10
1380.409685830954
 20
962.106170433758
 30
0.0
 10
1377.970556618317
 20
963.8149389217024
 30
0.0
 10
1375.517647014648
 20
965.5305976051704
 30
0.0
 10
1373.078517802011
 20
967.2669268751879
 30
0.0
 10
1370.694510153501
 20
969.065267904839
 30
0.0
 10
1368.152028008125
 20
970.9738520627534
 30
0.0
 10
1365.630216449298
 20
972.8962166116935
 30
0.0
 10
1363.149746063565
 20
974.8943733113147
 30
0.0
 10
1360.634824700254
 20
976.9338711840273
 30
0.0
 10
1358.147464119006
 20
979.0284906208717
 30
0.0
 10
1355.715225101884
 20
981.171341426324
 30
0.0
 10
1353.324327257859
 20
983.3004118407362
 30
0.0
 10
1351.016111760026
 20
985.5121646013531
 30
0.0
 10
1348.749237435285
 20
987.7721487305707
 30
0.0
 10
1346.5926062388
 20
989.9149995360303
 30
0.0
 10
1344.566888757122
 20
992.2025444473138
 30
0.0
 10
1342.623853621629
 20
994.5314305316961
 30
0.0
 10
1340.66014789959
 20
996.8809872026204
 30
0.0
 10
1338.916928434063
 20
999.3821281748997
 30
0.0
 10
1337.26328151024
 20
1001.95906129786
 30
0.0
 10
1336.381336484205
 20
1003.337100401043
 30
0.0
 10
1335.588963999872
 20
1004.784041459391
 30
0.0
 10
1334.872383666215
 20
1006.27232369083
 30
0.0
  0
SPLINE
  5
3C01
330
A
100
AcDbEntity
  8
HIDDEN
 48
0.7
100
AcDbSpline
210
0.0
220
0.0
230
1.0
 70
     8
 71
     3
 72
    14
 73
    10
 74
     0
 42
0.000000001
 43
0.0000000001
 40
0.0
 40
0.0
 40
0.0
 40
0.0
 40
1.0
 40
1.0
 40
1.0
 40
2.0
 40
2.0
 40
2.0
 40
3.0
 40
3.0
 40
3.0
 40
3.0
 10
1333.453003389935
 20
1009.586507733987
 30
0.0
 10
1333.356540652713
 20
1009.84833516359
 30
0.0
 10
1333.266968111008
 20
1010.103272397685
 30
0.0
 10
1333.170505373783
 20
1010.365099827289
 30
0.0
 10
1333.101603418624
 20
1010.558025301728
 30
0.0
 10
1333.039591658981
 20
1010.764731167207
 30
0.0
 10
1332.970689703822
 20
1010.971437032686
 30
0.0
 10
1332.267889761196
 20
1012.831789821986
 30
0.0
 10
1330.683144792535
 20
1013.982452473148
 30
0.0
 10
1328.691878288434
 20
1014.058244623821
 30
0.0
  0
POLYLINE
  5
3C02
330
A
100
AcDbEntity
  8
HIDDEN
 48
0.7
100
AcDb2dPolyline
 66
     1
 10
0.0
 20
0.0
 30
0.0
  0
VERTEX
  5
3C03
330
3C02
100
AcDbEntity
  8
HIDDEN
 48
0.7
100
AcDbVertex
100
AcDb2dVertex
 10
1606.835290875227
 20
899.0402108765147
 30
0.0
  0
VERTEX
  5
3C04
330
3C02
100
AcDbEntity
  8
HIDDEN
 48
0.7
100
AcDbVertex
100
AcDb2dVertex
 10
1599.779730666921
 20
899.0402108765147
 30
0.0
  0
SEQEND
  5
3C05
330
3C02
100
AcDbEntity
  8
HIDDEN
 48
0.7
  0
POLYLINE
  5
3C06
102
{ACAD_REACTORS
330
3CCF
102
}
330
A
100
AcDbEntity
  8
HIDDEN
 48
0.7
100
AcDb2dPolyline
 66
     1
 10
0.0
 20
0.0
 30
0.0
  0
VERTEX
  5
3C07
330
3C06
100
AcDbEntity
  8
HIDDEN
 48
0.7
100
AcDbVertex
100
AcDb2dVertex
 10
1593.757699786004
 20
899.0402108765147
 30
0.0
  0
VERTEX
  5
3C08
330
3C06
100
AcDbEntity
  8
HIDDEN
 48
0.7
100
AcDbVertex
100
AcDb2dVertex
 10
1542.515315734082
 20
899.0402108765147
 30
0.0
  0
SEQEND
  5
3C09
330
3C06
100
AcDbEntity
  8
HIDDEN
 48
0.7
  0
POLYLINE
  5
3C0A
330
A
100
AcDbEntity
  8
HIDDEN
 48
0.7
100
AcDb2dPolyline
 66
     1
 10
0.0
 20
0.0
 30
0.0
  0
VERTEX
  5
3C0B
330
3C0A
100
AcDbEntity
  8
HIDDEN
 48
0.7
100
AcDbVertex
100
AcDb2dVertex
 10
1539.490519902593
 20
899.0402108765147
 30
0.0
  0
VERTEX
  5
3C0C
330
3C0A
100
AcDbEntity
  8
HIDDEN
 48
0.7
100
AcDbVertex
100
AcDb2dVertex
 10
1532.434959694287
 20
899.0402108765147
 30
0.0
  0
SEQEND
  5
3C0D
330
3C0A
100
AcDbEntity
  8
HIDDEN
 48
0.7
  0
SPLINE
  5
3C0E
102
{ACAD_REACTORS
330
3C97
102
}
330
A
100
AcDbEntity
  8
MODEL
100
AcDbSpline
210
0.0
220
0.0
230
1.0
 70
     8
 71
     3
 72
    29
 73
    25
 74
     0
 42
0.000000001
 43
0.0000000001
 40
0.0
 40
0.0
 40
0.0
 40
0.0
 40
1.0
 40
1.0
 40
1.0
 40
2.0
 40
2.0
 40
2.0
 40
3.0
 40
3.0
 40
3.0
 40
4.0
 40
4.0
 40
4.0
 40
5.0
 40
5.0
 40
5.0
 40
6.0
 40
6.0
 40
6.0
 40
7.0
 40
7.0
 40
7.0
 40
8.0
 40
8.0
 40
8.0
 40
8.0
 10
1533.117089050364
 20
874.06325213129
 30
0.0
 10
1533.117089050364
 20
874.06325213129
 30
0.0
 10
1534.419336002874
 20
855.3425909145253
 30
0.0
 10
1534.419336002874
 20
855.3425909145253
 30
0.0
 10
1534.708724214542
 20
853.3651048014535
 30
0.0
 10
1536.389931920427
 20
851.8974931565635
 30
0.0
 10
1538.388088620045
 20
851.8974931565635
 30
0.0
 10
1538.388088620045
 20
851.8974931565635
 30
0.0
 10
1600.944173709112
 20
851.8974931565635
 30
0.0
 10
1600.944173709112
 20
851.8974931565635
 30
0.0
 10
1602.935440213215
 20
851.8974931565635
 30
0.0
 10
1604.63042831013
 20
853.3651048014535
 30
0.0
 10
1604.906036130768
 20
855.3425909145253
 30
0.0
 10
1604.906036130768
 20
855.3425909145253
 30
0.0
 10
1605.73285959268
 20
857.0513594024769
 30
0.0
 10
1605.73285959268
 20
857.0513594024769
 30
0.0
 10
1607.000655567611
 20
858.9875043424499
 30
0.0
 10
1609.067714222386
 20
860.3379826635673
 30
0.0
 10
1611.465502261929
 20
860.6342610707534
 30
0.0
 10
1611.465502261929
 20
860.6342610707534
 30
0.0
 10
1654.301847784424
 20
865.9534920090473
 30
0.0
 10
1654.301847784424
 20
865.9534920090473
 30
0.0
 10
1660.447902184626
 20
866.7045233202834
 30
0.0
 10
1668.502540742741
 20
869.6810877831622
 30
0.0
 10
1672.44373257785
 20
874.0494717402571
 30
0.0
  0
CIRCLE
  5
3C26
102
{ACAD_REACTORS
330
3ECA
102
}
330
A
100
AcDbEntity
  8
HIDDEN
 48
0.5
100
AcDbCircle
 10
665.0613150856509
 20
2362.612412431863
 30
0.0
 40
17.5
  0
CIRCLE
  5
3C2B
102
{ACAD_REACTORS
330
3EBB
102
}
330
A
100
AcDbEntity
  8
HIDDEN
 48
0.5
100
AcDbCircle
 10
465.0613150856509
 20
2362.612412431863
 30
0.0
 40
17.5
  0
DIMENSION
  5
3C2C
102
{ACAD_REACTORS
330
3C2E
102
}
102
{ACAD_XDICTIONARY
360
3C2D
102
}
330
A
100
AcDbEntity
  8
DIM
100
AcDbDimension
  2
*D11
 10
865.0638729467094
 20
2560.670453605898
 30
0.0
 11
565.0613150856473
 21
2592.670453605898
 31
0.0
 70
    32
 71
     5
 42
600.0051157221242
 73
     0
 74
     0
 75
     0
  3
tfrom線あり
100
AcDbAlignedDimension
 13
265.0587572245852
 23
2427.575268444201
 33
0.0
 14
865.0638729467094
 24
2427.575268444201
 34
0.0
100
AcDbRotatedDimension
  0
DIMENSION
  5
3C3B
102
{ACAD_REACTORS
330
3C3D
102
}
102
{ACAD_XDICTIONARY
360
3C3C
102
}
330
A
100
AcDbEntity
  8
DIM
100
AcDbDimension
  2
*D12
 10
989.7419235917647
 20
2427.575268444201
 30
0.0
 11
989.7419235917647
 21
2197.593974765616
 31
0.0
 70
   160
 71
     5
 42
459.9625873571713
 73
     0
 74
     0
 75
     0
  3
tfrom線あり
100
AcDbAlignedDimension
 13
860.1415072739612
 23
1967.61268108703
 33
0.0
 14
865.0638729467094
 24
2427.575268444201
 34
0.0
 50
90.0
100
AcDbRotatedDimension
  0
DIMENSION
  5
3C4A
330
A
100
AcDbEntity
  8
DIM
100
AcDbDimension
  2
*D13
 10
168.0365912752344
 20
1976.545762981939
 30
0.0
 11
136.0320895871013
 21
2139.467881053704
 31
0.0
 70
    32
  1
325
 71
     5
 42
325.8442361435305
 73
     0
 74
     0
 75
     0
  3
tfrom線あり
100
AcDbAlignedDimension
 13
279.792569024494
 23
2302.389999125469
 33
0.0
 14
270.0760153615959
 24
1976.545762981939
 34
0.0
 50
90.0
100
AcDbRotatedDimension
  0
DIMENSION
  5
3C59
330
A
100
AcDbEntity
  8
DIM
100
AcDbDimension
  2
*D14
 10
855.8181258709028
 20
1839.658360311719
 30
0.0
 11
565.1508952471162
 21
1839.658360311719
 31
0.0
 70
   160
  1
580
 71
     5
 42
581.3344612475732
 73
     0
 74
     0
 75
     0
  3
tfrom線あり
100
AcDbAlignedDimension
 13
274.4836646233297
 23
1981.761658507186
 33
0.0
 14
855.8181258709029
 24
1981.904114505181
 34
0.0
100
AcDbRotatedDimension
  0
DIMENSION
  5
3C86
102
{ACAD_REACTORS
330
3C88
102
}
102
{ACAD_XDICTIONARY
360
3C87
102
}
330
A
100
AcDbEntity
  8
DIM
100
AcDbDimension
  2
*D15
 10
989.3939240559148
 20
1014.058244623822
 30
0.0
 11
989.3939240559148
 21
933.0571061386247
 31
0.0
 70
   160
  1
160
 71
     5
 42
162.002276970394
 73
     0
 74
     0
 75
     0
  3
tfrom線あり
100
AcDbAlignedDimension
 13
595.1569162085735
 23
852.0559676534281
 33
0.0
 14
821.0453524325903
 24
1014.058244623822
 34
0.0
 50
90.0
100
AcDbRotatedDimension
  0
DIMENSION
  5
3C95
102
{ACAD_REACTORS
330
3C97
102
}
102
{ACAD_XDICTIONARY
360
3C96
102
}
330
A
100
AcDbEntity
  8
DIM
100
AcDbDimension
  2
*D16
 10
1784.616115577083
 20
733.1225023701348
 30
0.0
 11
1677.437846122331
 21
765.1270040582679
 31
0.0
 70
    32
  1
215
 71
     5
 42
214.3565389095031
 73
     0
 74
     0
 75
     0
  3
tfrom線あり
100
AcDbAlignedDimension
 13
1570.25957666758
 23
851.8974931565635
 33
0.0
 14
1784.616115577083
 24
874.8547048279625
 34
0.0
100
AcDbRotatedDimension
  0
LINE
  5
3CBA
330
A
100
AcDbEntity
  8
DIM
100
AcDbLine
 10
1737.116115577083
 20
992.7852332008233
 30
0.0
 11
1737.116115577083
 21
1005.341730173942
 31
0.0
  0
LINE
  5
3CBB
330
A
100
AcDbEntity
  8
DIM
100
AcDbLine
 10
1702.116115577084
 20
992.7852332008232
 30
0.0
 11
1702.116115577084
 21
1005.341730173942
 31
0.0
  0
DIMENSION
  5
3CBD
330
A
100
AcDbEntity
  8
DIM
100
AcDbDimension
  2
*D18
 10
1719.616115577084
 20
1080.612632394973
 30
0.0
 11
1752.175548745367
 21
1112.617134083107
 31
0.0
 70
    32
 71
     5
 42
65.11886633656809
 73
     0
 74
     1
 75
     1
  3
tfrom線あり
100
AcDbAlignedDimension
 13
1784.734981913652
 23
1014.058244623821
 33
0.0
 14
1719.616115577084
 24
1005.341730173942
 34
0.0
100
AcDbRotatedDimension
1001
ACAD
1000
DSTYLE
1002
{
1070
   172
1070
     1
1002
}
  0
DIMENSION
  5
3CCD
102
{ACAD_REACTORS
330
3CCF
102
}
102
{ACAD_XDICTIONARY
360
3CCE
102
}
330
A
100
AcDbEntity
  8
DIM
100
AcDbDimension
  2
*D19
 10
1569.787986718937
 20
1014.058244623821
 30
0.0
 11
1569.787986718937
 21
1119.098634770126
 31
0.0
 70
   160
 71
     5
 42
115.0180337473066
 73
     0
 74
     1
 75
     1
  3
tfrom線あり
100
AcDbAlignedDimension
 13
1569.621344893726
 23
899.0402108765147
 33
0.0
 14
1569.929507185008
 24
1014.058244623821
 34
0.0
 50
90.0
100
AcDbRotatedDimension
1001
ACAD
1000
DSTYLE
1002
{
1070
     3
1000
<>(深さ)
1070
    75
1070
     1
1070
    76
1070
     1
1070
   172
1070
     1
1002
}
  0
DIMENSION
  5
3CED
102
{ACAD_REACTORS
330
3CEF
102
}
102
{ACAD_XDICTIONARY
360
3CEE
102
}
330
A
100
AcDbEntity
  8
DIM
100
AcDbDimension
  2
*D21
 10
1274.949139441773
 20
934.0561844884387
 30
0.0
 11
1242.949139441773
 21
974.05721455613
 31
0.0
 70
    32
 71
     5
 42
80.00206013538264
 73
     0
 74
     0
 75
     0
  3
tfrom線あり
100
AcDbAlignedDimension
 13
1335.911801748003
 23
1014.058244623821
 33
0.0
 14
1336.782696923812
 24
934.0561844884387
 34
0.0
 50
90.0
100
AcDbRotatedDimension
  0
DIMENSION
  5
3CFC
102
{ACAD_REACTORS
330
3CFE
102
}
102
{ACAD_XDICTIONARY
360
3CFD
102
}
330
A
100
AcDbEntity
  8
DIM
100
AcDbDimension
  2
*D22
 10
1274.949139441773
 20
874.0563619357736
 30
0.0
 11
1242.949139441773
 21
904.0562732121061
 31
0.0
 70
    32
 71
     5
 42
59.99982255266513
 73
     0
 74
     1
 75
     1
  3
tfrom線あり
100
AcDbAlignedDimension
 13
1336.768000567721
 23
934.0561844884387
 33
0.0
 14
1439.959281329203
 24
874.0563619357736
 34
0.0
 50
90.0
100
AcDbRotatedDimension
1001
ACAD
1000
DSTYLE
1002
{
1070
   172
1070
     1
1002
}
  0
POLYLINE
  5
3D56
102
{ACAD_REACTORS
330
3D7A
102
}
330
A
100
AcDbEntity
  8
HIDDEN
 48
0.5
100
AcDb2dPolyline
 66
     1
 10
0.0
 20
0.0
 30
0.0
  0
VERTEX
  5
3D57
330
3D56
100
AcDbEntity
  8
HIDDEN
 48
0.5
100
AcDbVertex
100
AcDb2dVertex
 10
426.0485769990355
 20
975.8152001185478
 30
0.0
  0
VERTEX
  5
3D58
330
3D56
100
AcDbEntity
  8
HIDDEN
 48
0.5
100
AcDbVertex
100
AcDb2dVertex
 10
426.0485769990355
 20
942.2875087380631
 30
0.0
  0
SEQEND
  5
3D59
330
3D56
100
AcDbEntity
  8
HIDDEN
 48
0.5
  0
POLYLINE
  5
3D5A
330
A
100
AcDbEntity
  8
HIDDEN
 48
0.5
100
AcDb2dPolyline
 66
     1
 10
0.0
 20
0.0
 30
0.0
  0
VERTEX
  5
3D5B
330
3D5A
100
AcDbEntity
  8
HIDDEN
 48
0.5
100
AcDbVertex
100
AcDb2dVertex
 10
398.0433773245677
 20
959.0582446238219
 30
0.0
  0
VERTEX
  5
3D5C
330
3D5A
100
AcDbEntity
  8
HIDDEN
 48
0.5
100
AcDbVertex
100
AcDb2dVertex
 10
454.0158805981682
 20
959.0582446238219
 30
0.0
  0
SEQEND
  5
3D5D
330
3D5A
100
AcDbEntity
  8
HIDDEN
 48
0.5
  0
SPLINE
  5
3D60
330
A
100
AcDbEntity
  8
HIDDEN
 48
0.5
100
AcDbSpline
210
0.0
220
0.0
230
1.0
 70
  1080
 71
     3
 72
     8
 73
     4
 74
     2
 42
0.000000001
 43
0.0000000001
 44
0.0
 40
0.0
 40
0.0
 40
0.0
 40
0.0
 40
5.043877044410078
 40
5.043877044410078
 40
5.043877044410078
 40
5.043877044410078
 10
426.0485769990355
 20
949.0536807347013
 30
0.0
 10
424.3672846511342
 20
949.0537088687788
 30
0.0
 10
422.6859923032329
 20
949.0537370028562
 30
0.0
 10
421.0046999553316
 20
949.0537651369337
 30
0.0
 11
426.0485769990355
 21
949.0536807347013
 31
0.0
 11
421.0046999553316
 21
949.0537651369337
 31
0.0
  0
SPLINE
  5
3D61
330
A
100
AcDbEntity
  8
HIDDEN
 48
0.5
100
AcDbSpline
210
0.0
220
0.0
230
1.0
 70
  1064
 71
     3
 72
    22
 73
    18
 74
    16
 42
0.000000001
 43
0.0000000001
 44
0.0
 40
0.0
 40
0.0
 40
0.0
 40
0.0
 40
1.298862838070707
 40
2.25720206318093
 40
3.602182531782367
 40
4.883495218012598
 40
6.099542425468282
 40
7.340568645545424
 40
8.250752728468385
 40
9.305417217386116
 40
10.46616364178197
 40
11.32218524872312
 40
12.23844686005652
 40
13.12432346282631
 40
14.13279722048545
 40
14.93797134988729
 40
15.67043281211797
 40
15.67043281211797
 40
15.67043281211797
 40
15.67043281211797
 10
421.0046999553316
 20
949.0537651369337
 30
0.0
 10
420.5714536090236
 20
949.071137853791
 30
0.0
 10
419.8185453587541
 20
949.1013286723937
 30
0.0
 10
418.6357189419559
 20
949.3239752731837
 30
0.0
 10
417.48914367653
 20
949.6716378819067
 30
0.0
 10
416.3210526325505
 20
950.206090049589
 30
0.0
 10
415.2586642748843
 20
950.8629638667404
 30
0.0
 10
414.3811015157381
 20
951.5676325390217
 30
0.0
 10
413.6231212990818
 20
952.3227963523638
 30
0.0
 10
412.9590655159486
 20
953.1281109170469
 30
0.0
 10
412.397500419643
 20
953.9870759591709
 30
0.0
 10
411.9472540080582
 20
954.8561613288914
 30
0.0
 10
411.6108982368866
 20
955.6772771787396
 30
0.0
 10
411.3351871980636
 20
956.5739942632096
 30
0.0
 10
411.1550808542885
 20
957.4570602412134
 30
0.0
 10
411.0570252567726
 20
958.3013679360836
 30
0.0
 10
411.0466674763346
 20
958.8140334767763
 30
0.0
 10
411.0417334886938
 20
959.0582446238219
 30
0.0
 11
421.0046999553316
 21
949.0537651369337
 31
0.0
 11
419.7088432209173
 21
949.1420827229184
 31
0.0
 11
418.7660692916961
 21
949.3141042005476
 31
0.0
 11
417.4796987333461
 21
949.7068168786337
 31
0.0
 11
416.3142421687535
 21
950.2392388878919
 31
0.0
 11
415.2799466543455
 21
950.8787727803764
 31
0.0
 11
414.3121913594381
 21
951.6556870408309
 31
0.0
 11
413.6673910110507
 21
952.2980791138874
 31
0.0
 11
412.9964763151193
 21
953.1118300923614
 31
0.0
 11
412.3613777100736
 21
954.0834174654868
 31
0.0
 11
411.9676532694474
 21
954.8435188116267
 31
0.0
 11
411.620302621356
 21
955.6913884169752
 31
0.0
 11
411.3602128523335
 21
956.5382240960681
 31
0.0
 11
411.1573338433523
 21
957.5260800711991
 31
0.0
 11
411.0676224018788
 21
958.3262408275017
 31
0.0
 11
411.0417334886938
 21
959.0582446238219
 31
0.0
  0
SPLINE
  5
3D62
330
A
100
AcDbEntity
  8
HIDDEN
 48
0.5
100
AcDbSpline
210
0.0
220
0.0
230
1.0
 70
  1080
 71
     3
 72
     8
 73
     4
 74
     2
 42
0.000000001
 43
0.0000000001
 44
0.0
 40
0.0
 40
0.0
 40
0.0
 40
0.0
 40
5.043877044410078
 40
5.043877044410078
 40
5.043877044410078
 40
5.043877044410078
 10
426.0485769990355
 20
949.0536807347013
 30
0.0
 10
427.7298693469368
 20
949.0537088687788
 30
0.0
 10
429.4111616948381
 20
949.0537370028562
 30
0.0
 10
431.0924540427394
 20
949.0537651369337
 30
0.0
 11
426.0485769990355
 21
949.0536807347013
 31
0.0
 11
431.0924540427394
 21
949.0537651369337
 31
0.0
  0
SPLINE
  5
3D63
330
A
100
AcDbEntity
  8
HIDDEN
 48
0.5
100
AcDbSpline
210
0.0
220
0.0
230
1.0
 70
  1064
 71
     3
 72
    22
 73
    18
 74
    16
 42
0.000000001
 43
0.0000000001
 44
0.0
 40
0.0
 40
0.0
 40
0.0
 40
0.0
 40
1.298862838070707
 40
2.25720206318093
 40
3.602182531782367
 40
4.883495218012598
 40
6.099542425468282
 40
7.340568645545424
 40
8.250752728468465
 40
9.305417217386196
 40
10.46616364178199
 40
11.32218524872314
 40
12.23844686005654
 40
13.12432346282633
 40
14.13279722048547
 40
14.93797134988731
 40
15.67043281211799
 40
15.67043281211799
 40
15.67043281211799
 40
15.67043281211799
 10
431.0924540427394
 20
949.0537651369337
 30
0.0
 10
431.5257003890473
 20
949.071137853791
 30
0.0
 10
432.2786086393169
 20
949.1013286723937
 30
0.0
 10
433.4614350561151
 20
949.3239752731837
 30
0.0
 10
434.6080103215409
 20
949.6716378819067
 30
0.0
 10
435.7761013655205
 20
950.206090049589
 30
0.0
 10
436.8384897231866
 20
950.8629638667405
 30
0.0
 10
437.7160524823329
 20
951.5676325390219
 30
0.0
 10
438.4740326989893
 20
952.3227963523633
 30
0.0
 10
439.1380884821225
 20
953.1281109170473
 30
0.0
 10
439.6996535784278
 20
953.9870759591711
 30
0.0
 10
440.1498999900128
 20
954.8561613288912
 30
0.0
 10
440.4862557611843
 20
955.6772771787396
 30
0.0
 10
440.7619668000074
 20
956.5739942632096
 30
0.0
 10
440.9420731437825
 20
957.4570602412134
 30
0.0
 10
441.0401287412986
 20
958.3013679360836
 30
0.0
 10
441.0504865217366
 20
958.8140334767763
 30
0.0
 10
441.0554205093772
 20
959.0582446238219
 30
0.0
 11
431.0924540427394
 21
949.0537651369337
 31
0.0
 11
432.3883107771537
 21
949.1420827229184
 31
0.0
 11
433.3310847063749
 21
949.3141042005476
 31
0.0
 11
434.6174552647249
 21
949.7068168786337
 31
0.0
 11
435.7829118293175
 21
950.2392388878919
 31
0.0
 11
436.8172073437255
 21
950.8787727803764
 31
0.0
 11
437.7849626386329
 21
951.6556870408309
 31
0.0
 11
438.4297629870204
 21
952.2980791138874
 31
0.0
 11
439.1006776829518
 21
953.1118300923614
 31
0.0
 11
439.7357762879974
 21
954.0834174654868
 31
0.0
 11
440.1295007286236
 21
954.8435188116267
 31
0.0
 11
440.476851376715
 21
955.6913884169752
 31
0.0
 11
440.7369411457375
 21
956.5382240960681
 31
0.0
 11
440.9398201547187
 21
957.5260800711991
 31
0.0
 11
441.0295315961922
 21
958.3262408275017
 31
0.0
 11
441.0554205093772
 21
959.0582446238219
 31
0.0
  0
SPLINE
  5
3D64
330
A
100
AcDbEntity
  8
HIDDEN
 48
0.5
100
AcDbSpline
210
0.0
220
0.0
230
1.0
 70
  1080
 71
     3
 72
     8
 73
     4
 74
     2
 42
0.000000001
 43
0.0000000001
 44
0.0
 40
0.0
 40
0.0
 40
0.0
 40
0.0
 40
5.043877044410078
 40
5.043877044410078
 40
5.043877044410078
 40
5.043877044410078
 10
426.0485769990355
 20
969.0628085129425
 30
0.0
 10
424.3672846511342
 20
969.062780378865
 30
0.0
 10
422.6859923032329
 20
969.0627522447876
 30
0.0
 10
421.0046999553316
 20
969.0627241107101
 30
0.0
 11
426.0485769990355
 21
969.0628085129425
 31
0.0
 11
421.0046999553316
 21
969.0627241107101
 31
0.0
  0
SPLINE
  5
3D65
330
A
100
AcDbEntity
  8
HIDDEN
 48
0.5
100
AcDbSpline
210
0.0
220
0.0
230
1.0
 70
  1080
 71
     3
 72
     8
 73
     4
 74
     2
 42
0.000000001
 43
0.0000000001
 44
0.0
 40
0.0
 40
0.0
 40
0.0
 40
0.0
 40
5.043877044410078
 40
5.043877044410078
 40
5.043877044410078
 40
5.043877044410078
 10
426.0485769990355
 20
969.0628085129425
 30
0.0
 10
427.7298693469368
 20
969.062780378865
 30
0.0
 10
429.4111616948381
 20
969.0627522447876
 30
0.0
 10
431.0924540427394
 20
969.0627241107101
 30
0.0
 11
426.0485769990355
 21
969.0628085129425
 31
0.0
 11
431.0924540427394
 21
969.0627241107101
 31
0.0
  0
SPLINE
  5
3D66
330
A
100
AcDbEntity
  8
HIDDEN
 48
0.5
100
AcDbSpline
210
0.0
220
0.0
230
1.0
 70
  1064
 71
     3
 72
    22
 73
    18
 74
    16
 42
0.000000001
 43
0.0000000001
 44
0.0
 40
0.0
 40
0.0
 40
0.0
 40
0.0
 40
1.298862838070707
 40
2.25720206318093
 40
3.602182531782367
 40
4.883495218012598
 40
6.099542425468282
 40
7.340568645545424
 40
8.250752728468465
 40
9.305417217386196
 40
10.46616364178199
 40
11.32218524872314
 40
12.23844686005654
 40
13.12432346282633
 40
14.13279722048547
 40
14.93797134988731
 40
15.67043281211799
 40
15.67043281211799
 40
15.67043281211799
 40
15.67043281211799
 10
431.0924540427394
 20
969.0627241107101
 30
0.0
 10
431.5257003890473
 20
969.0453513938525
 30
0.0
 10
432.2786086393169
 20
969.0151605752504
 30
0.0
 10
433.4614350561151
 20
968.7925139744602
 30
0.0
 10
434.6080103215409
 20
968.444851365737
 30
0.0
 10
435.7761013655205
 20
967.9103991980551
 30
0.0
 10
436.8384897231866
 20
967.2535253809026
 30
0.0
 10
437.7160524823329
 20
966.5488567086225
 30
0.0
 10
438.4740326989893
 20
965.7936928952802
 30
0.0
 10
439.1380884821225
 20
964.9883783305968
 30
0.0
 10
439.6996535784278
 20
964.129413288473
 30
0.0
 10
440.1498999900128
 20
963.2603279187522
 30
0.0
 10
440.4862557611843
 20
962.439212068904
 30
0.0
 10
440.7619668000074
 20
961.542494984434
 30
0.0
 10
440.9420731437825
 20
960.6594290064305
 30
0.0
 10
441.0401287412986
 20
959.8151213115607
 30
0.0
 10
441.0504865217366
 20
959.3024557708679
 30
0.0
 10
441.0554205093772
 20
959.0582446238219
 30
0.0
 11
431.0924540427394
 21
969.0627241107101
 31
0.0
 11
432.3883107771537
 21
968.9744065247254
 31
0.0
 11
433.3310847063749
 21
968.8023850470962
 31
0.0
 11
434.6174552647249
 21
968.4096723690101
 31
0.0
 11
435.7829118293175
 21
967.8772503597519
 31
0.0
 11
436.8172073437255
 21
967.2377164672674
 31
0.0
 11
437.7849626386329
 21
966.4608022068129
 31
0.0
 11
438.4297629870204
 21
965.8184101337564
 31
0.0
 11
439.1006776829518
 21
965.0046591552824
 31
0.0
 11
439.7357762879974
 21
964.033071782157
 31
0.0
 11
440.1295007286236
 21
963.2729704360171
 31
0.0
 11
440.476851376715
 21
962.4251008306686
 31
0.0
 11
440.7369411457375
 21
961.5782651515757
 31
0.0
 11
440.9398201547187
 21
960.5904091764447
 31
0.0
 11
441.0295315961922
 21
959.7902484201421
 31
0.0
 11
441.0554205093772
 21
959.0582446238219
 31
0.0
  0
SPLINE
  5
3D67
330
A
100
AcDbEntity
  8
HIDDEN
 48
0.5
100
AcDbSpline
210
0.0
220
0.0
230
1.0
 70
  1064
 71
     3
 72
    22
 73
    18
 74
    16
 42
0.000000001
 43
0.0000000001
 44
0.0
 40
0.0
 40
0.0
 40
0.0
 40
0.0
 40
1.298862838070707
 40
2.25720206318093
 40
3.602182531782367
 40
4.883495218012598
 40
6.099542425468282
 40
7.340568645545424
 40
8.250752728468385
 40
9.305417217386116
 40
10.46616364178197
 40
11.32218524872312
 40
12.23844686005652
 40
13.12432346282631
 40
14.13279722048545
 40
14.93797134988729
 40
15.67043281211797
 40
15.67043281211797
 40
15.67043281211797
 40
15.67043281211797
 10
421.0046999553316
 20
969.0627241107101
 30
0.0
 10
420.5714536090236
 20
969.0453513938525
 30
0.0
 10
419.8185453587541
 20
969.0151605752504
 30
0.0
 10
418.6357189419559
 20
968.7925139744602
 30
0.0
 10
417.48914367653
 20
968.444851365737
 30
0.0
 10
416.3210526325505
 20
967.9103991980551
 30
0.0
 10
415.2586642748843
 20
967.2535253809027
 30
0.0
 10
414.3811015157381
 20
966.5488567086222
 30
0.0
 10
413.6231212990818
 20
965.7936928952804
 30
0.0
 10
412.9590655159486
 20
964.9883783305966
 30
0.0
 10
412.397500419643
 20
964.1294132884726
 30
0.0
 10
411.9472540080582
 20
963.2603279187525
 30
0.0
 10
411.6108982368866
 20
962.439212068904
 30
0.0
 10
411.3351871980636
 20
961.542494984434
 30
0.0
 10
411.1550808542885
 20
960.6594290064305
 30
0.0
 10
411.0570252567726
 20
959.8151213115607
 30
0.0
 10
411.0466674763346
 20
959.3024557708679
 30
0.0
 10
411.0417334886938
 20
959.0582446238219
 30
0.0
 11
421.0046999553316
 21
969.0627241107101
 31
0.0
 11
419.7088432209173
 21
968.9744065247254
 31
0.0
 11
418.7660692916961
 21
968.8023850470962
 31
0.0
 11
417.4796987333461
 21
968.4096723690101
 31
0.0
 11
416.3142421687535
 21
967.8772503597519
 31
0.0
 11
415.2799466543455
 21
967.2377164672674
 31
0.0
 11
414.3121913594381
 21
966.4608022068129
 31
0.0
 11
413.6673910110507
 21
965.8184101337564
 31
0.0
 11
412.9964763151193
 21
965.0046591552824
 31
0.0
 11
412.3613777100736
 21
964.033071782157
 31
0.0
 11
411.9676532694474
 21
963.2729704360171
 31
0.0
 11
411.620302621356
 21
962.4251008306686
 31
0.0
 11
411.3602128523335
 21
961.5782651515757
 31
0.0
 11
411.1573338433523
 21
960.5904091764447
 31
0.0
 11
411.0676224018788
 21
959.7902484201421
 31
0.0
 11
411.0417334886938
 21
959.0582446238219
 31
0.0
  0
POLYLINE
  5
3D68
102
{ACAD_REACTORS
330
3D7A
102
}
330
A
100
AcDbEntity
  8
HIDDEN
 48
0.5
100
AcDb2dPolyline
 66
     1
 10
0.0
 20
0.0
 30
0.0
  0
VERTEX
  5
3D69
330
3D68
100
AcDbEntity
  8
HIDDEN
 48
0.5
100
AcDbVertex
100
AcDb2dVertex
 10
706.0106809237004
 20
975.8152001185478
 30
0.0
  0
VERTEX
  5
3D6A
330
3D68
100
AcDbEntity
  8
HIDDEN
 48
0.5
100
AcDbVertex
100
AcDb2dVertex
 10
706.0106809237004
 20
942.2875087380631
 30
0.0
  0
SEQEND
  5
3D6B
330
3D68
100
AcDbEntity
  8
HIDDEN
 48
0.5
  0
POLYLINE
  5
3D6C
330
A
100
AcDbEntity
  8
HIDDEN
 48
0.5
100
AcDb2dPolyline
 66
     1
 10
0.0
 20
0.0
 30
0.0
  0
VERTEX
  5
3D6D
330
3D6C
100
AcDbEntity
  8
HIDDEN
 48
0.5
100
AcDbVertex
100
AcDb2dVertex
 10
734.0158805981682
 20
959.0582446238219
 30
0.0
  0
VERTEX
  5
3D6E
330
3D6C
100
AcDbEntity
  8
HIDDEN
 48
0.5
100
AcDbVertex
100
AcDb2dVertex
 10
678.0433773245677
 20
959.0582446238219
 30
0.0
  0
SEQEND
  5
3D6F
330
3D6C
100
AcDbEntity
  8
HIDDEN
 48
0.5
  0
SPLINE
  5
3D70
330
A
100
AcDbEntity
  8
HIDDEN
 48
0.5
100
AcDbSpline
210
0.0
220
0.0
230
1.0
 70
  1080
 71
     3
 72
     8
 73
     4
 74
     2
 42
0.000000001
 43
0.0000000001
 44
0.0
 40
0.0
 40
0.0
 40
0.0
 40
0.0
 40
5.043877044410078
 40
5.043877044410078
 40
5.043877044410078
 40
5.043877044410078
 10
706.0106809237004
 20
949.0536807347013
 30
0.0
 10
707.6919732716017
 20
949.0537088687788
 30
0.0
 10
709.373265619503
 20
949.0537370028562
 30
0.0
 10
711.0545579674043
 20
949.0537651369337
 30
0.0
 11
706.0106809237004
 21
949.0536807347013
 31
0.0
 11
711.0545579674043
 21
949.0537651369337
 31
0.0
  0
SPLINE
  5
3D71
330
A
100
AcDbEntity
  8
HIDDEN
 48
0.5
100
AcDbSpline
210
0.0
220
0.0
230
1.0
 70
  1064
 71
     3
 72
    22
 73
    18
 74
    16
 42
0.000000001
 43
0.0000000001
 44
0.0
 40
0.0
 40
0.0
 40
0.0
 40
0.0
 40
1.298862838070707
 40
2.25720206318093
 40
3.602182531782313
 40
4.883495218012595
 40
6.099542425468279
 40
7.340568645545421
 40
8.25075272846842
 40
9.305417217386152
 40
10.46616364178198
 40
11.32218524872312
 40
12.23844686005653
 40
13.12432346282633
 40
14.13279722048548
 40
14.93797134988731
 40
15.67043281211799
 40
15.67043281211799
 40
15.67043281211799
 40
15.67043281211799
 10
711.0545579674043
 20
949.0537651369337
 30
0.0
 10
711.4878043137121
 20
949.071137853791
 30
0.0
 10
712.2407125639818
 20
949.1013286723936
 30
0.0
 10
713.42353898078
 20
949.3239752731837
 30
0.0
 10
714.5701142462059
 20
949.6716378819071
 30
0.0
 10
715.7382052901853
 20
950.2060900495887
 30
0.0
 10
716.8005936478518
 20
950.862963866741
 30
0.0
 10
717.6781564069977
 20
951.5676325390215
 30
0.0
 10
718.4361366236543
 20
952.3227963523638
 30
0.0
 10
719.1001924067873
 20
953.1281109170473
 30
0.0
 10
719.6617575030929
 20
953.9870759591711
 30
0.0
 10
720.1120039146776
 20
954.8561613288912
 30
0.0
 10
720.4483596858493
 20
955.6772771787396
 30
0.0
 10
720.7240707246724
 20
956.5739942632099
 30
0.0
 10
720.9041770684473
 20
957.4570602412132
 30
0.0
 10
721.0022326659633
 20
958.3013679360834
 30
0.0
 10
721.0125904464014
 20
958.8140334767761
 30
0.0
 10
721.0175244340421
 20
959.0582446238219
 30
0.0
 11
711.0545579674043
 21
949.0537651369337
 31
0.0
 11
712.3504147018186
 21
949.1420827229184
 31
0.0
 11
713.2931886310398
 21
949.3141042005476
 31
0.0
 11
714.5795591893898
 21
949.7068168786337
 31
0.0
 11
715.7450157539824
 21
950.2392388878919
 31
0.0
 11
716.7793112683904
 21
950.8787727803764
 31
0.0
 11
717.7470665632978
 21
951.6556870408309
 31
0.0
 11
718.3918669116853
 21
952.2980791138874
 31
0.0
 11
719.0627816076167
 21
953.1118300923614
 31
0.0
 11
719.6978802126623
 21
954.0834174654868
 31
0.0
 11
720.0916046532885
 21
954.8435188116267
 31
0.0
 11
720.4389553013799
 21
955.6913884169752
 31
0.0
 11
720.6990450704025
 21
956.5382240960681
 31
0.0
 11
720.9019240793837
 21
957.5260800711991
 31
0.0
 11
720.9916355208571
 21
958.3262408275017
 31
0.0
 11
721.0175244340421
 21
959.0582446238219
 31
0.0
  0
SPLINE
  5
3D72
330
A
100
AcDbEntity
  8
HIDDEN
 48
0.5
100
AcDbSpline
210
0.0
220
0.0
230
1.0
 70
  1080
 71
     3
 72
     8
 73
     4
 74
     2
 42
0.000000001
 43
0.0000000001
 44
0.0
 40
0.0
 40
0.0
 40
0.0
 40
0.0
 40
5.043877044410078
 40
5.043877044410078
 40
5.043877044410078
 40
5.043877044410078
 10
706.0106809237004
 20
949.0536807347013
 30
0.0
 10
704.3293885757992
 20
949.0537088687788
 30
0.0
 10
702.6480962278978
 20
949.0537370028562
 30
0.0
 10
700.9668038799965
 20
949.0537651369337
 30
0.0
 11
706.0106809237004
 21
949.0536807347013
 31
0.0
 11
700.9668038799965
 21
949.0537651369337
 31
0.0
  0
SPLINE
  5
3D73
330
A
100
AcDbEntity
  8
HIDDEN
 48
0.5
100
AcDbSpline
210
0.0
220
0.0
230
1.0
 70
  1064
 71
     3
 72
    22
 73
    18
 74
    16
 42
0.000000001
 43
0.0000000001
 44
0.0
 40
0.0
 40
0.0
 40
0.0
 40
0.0
 40
1.298862838070707
 40
2.25720206318093
 40
3.602182531782313
 40
4.883495218012595
 40
6.099542425468279
 40
7.340568645545421
 40
8.25075272846842
 40
9.305417217386152
 40
10.46616364178198
 40
11.32218524872312
 40
12.23844686005653
 40
13.12432346282633
 40
14.13279722048548
 40
14.93797134988731
 40
15.67043281211799
 40
15.67043281211799
 40
15.67043281211799
 40
15.67043281211799
 10
700.9668038799965
 20
949.0537651369337
 30
0.0
 10
700.5335575336885
 20
949.071137853791
 30
0.0
 10
699.7806492834192
 20
949.1013286723936
 30
0.0
 10
698.5978228666208
 20
949.3239752731837
 30
0.0
 10
697.4512476011951
 20
949.6716378819071
 30
0.0
 10
696.2831565572155
 20
950.2060900495887
 30
0.0
 10
695.2207681995492
 20
950.862963866741
 30
0.0
 10
694.3432054404029
 20
951.5676325390215
 30
0.0
 10
693.5852252237469
 20
952.3227963523638
 30
0.0
 10
692.9211694406135
 20
953.1281109170473
 30
0.0
 10
692.3596043443081
 20
953.9870759591711
 30
0.0
 10
691.9093579327229
 20
954.8561613288912
 30
0.0
 10
691.5730021615516
 20
955.6772771787396
 30
0.0
 10
691.2972911227284
 20
956.5739942632099
 30
0.0
 10
691.1171847789535
 20
957.4570602412132
 30
0.0
 10
691.0191291814374
 20
958.3013679360834
 30
0.0
 10
691.0087714009996
 20
958.8140334767761
 30
0.0
 10
691.0038374133587
 20
959.0582446238219
 30
0.0
 11
700.9668038799965
 21
949.0537651369337
 31
0.0
 11
699.6709471455822
 21
949.1420827229184
 31
0.0
 11
698.728173216361
 21
949.3141042005476
 31
0.0
 11
697.441802658011
 21
949.7068168786337
 31
0.0
 11
696.2763460934184
 21
950.2392388878919
 31
0.0
 11
695.2420505790104
 21
950.8787727803764
 31
0.0
 11
694.274295284103
 21
951.6556870408309
 31
0.0
 11
693.6294949357156
 21
952.2980791138874
 31
0.0
 11
692.9585802397842
 21
953.1118300923614
 31
0.0
 11
692.3234816347385
 21
954.0834174654868
 31
0.0
 11
691.9297571941123
 21
954.8435188116267
 31
0.0
 11
691.5824065460209
 21
955.6913884169752
 31
0.0
 11
691.3223167769984
 21
956.5382240960681
 31
0.0
 11
691.1194377680172
 21
957.5260800711991
 31
0.0
 11
691.0297263265437
 21
958.3262408275017
 31
0.0
 11
691.0038374133587
 21
959.0582446238219
 31
0.0
  0
SPLINE
  5
3D74
330
A
100
AcDbEntity
  8
HIDDEN
 48
0.5
100
AcDbSpline
210
0.0
220
0.0
230
1.0
 70
  1080
 71
     3
 72
     8
 73
     4
 74
     2
 42
0.000000001
 43
0.0000000001
 44
0.0
 40
0.0
 40
0.0
 40
0.0
 40
0.0
 40
5.043877044410078
 40
5.043877044410078
 40
5.043877044410078
 40
5.043877044410078
 10
706.0106809237004
 20
969.0628085129425
 30
0.0
 10
707.6919732716017
 20
969.062780378865
 30
0.0
 10
709.373265619503
 20
969.0627522447876
 30
0.0
 10
711.0545579674043
 20
969.0627241107101
 30
0.0
 11
706.0106809237004
 21
969.0628085129425
 31
0.0
 11
711.0545579674043
 21
969.0627241107101
 31
0.0
  0
SPLINE
  5
3D75
330
A
100
AcDbEntity
  8
HIDDEN
 48
0.5
100
AcDbSpline
210
0.0
220
0.0
230
1.0
 70
  1080
 71
     3
 72
     8
 73
     4
 74
     2
 42
0.000000001
 43
0.0000000001
 44
0.0
 40
0.0
 40
0.0
 40
0.0
 40
0.0
 40
5.043877044410078
 40
5.043877044410078
 40
5.043877044410078
 40
5.043877044410078
 10
706.0106809237004
 20
969.0628085129425
 30
0.0
 10
704.3293885757992
 20
969.062780378865
 30
0.0
 10
702.6480962278978
 20
969.0627522447876
 30
0.0
 10
700.9668038799965
 20
969.0627241107101
 30
0.0
 11
706.0106809237004
 21
969.0628085129425
 31
0.0
 11
700.9668038799965
 21
969.0627241107101
 31
0.0
  0
SPLINE
  5
3D76
330
A
100
AcDbEntity
  8
HIDDEN
 48
0.5
100
AcDbSpline
210
0.0
220
0.0
230
1.0
 70
  1064
 71
     3
 72
    22
 73
    18
 74
    16
 42
0.000000001
 43
0.0000000001
 44
0.0
 40
0.0
 40
0.0
 40
0.0
 40
0.0
 40
1.298862838070707
 40
2.25720206318093
 40
3.602182531782313
 40
4.883495218012595
 40
6.099542425468279
 40
7.340568645545421
 40
8.25075272846842
 40
9.305417217386152
 40
10.46616364178198
 40
11.32218524872312
 40
12.23844686005653
 40
13.12432346282633
 40
14.13279722048548
 40
14.93797134988731
 40
15.67043281211799
 40
15.67043281211799
 40
15.67043281211799
 40
15.67043281211799
 10
700.9668038799965
 20
969.0627241107101
 30
0.0
 10
700.5335575336885
 20
969.0453513938526
 30
0.0
 10
699.7806492834192
 20
969.0151605752505
 30
0.0
 10
698.5978228666208
 20
968.7925139744602
 30
0.0
 10
697.4512476011951
 20
968.4448513657371
 30
0.0
 10
696.2831565572155
 20
967.9103991980548
 30
0.0
 10
695.2207681995492
 20
967.253525380903
 30
0.0
 10
694.3432054404029
 20
966.5488567086221
 30
0.0
 10
693.5852252237469
 20
965.7936928952804
 30
0.0
 10
692.9211694406135
 20
964.9883783305968
 30
0.0
 10
692.3596043443081
 20
964.129413288473
 30
0.0
 10
691.9093579327229
 20
963.2603279187523
 30
0.0
 10
691.5730021615516
 20
962.4392120689042
 30
0.0
 10
691.2972911227284
 20
961.542494984434
 30
0.0
 10
691.1171847789535
 20
960.6594290064306
 30
0.0
 10
691.0191291814374
 20
959.8151213115603
 30
0.0
 10
691.0087714009996
 20
959.3024557708678
 30
0.0
 10
691.0038374133587
 20
959.0582446238219
 30
0.0
 11
700.9668038799965
 21
969.0627241107101
 31
0.0
 11
699.6709471455822
 21
968.9744065247254
 31
0.0
 11
698.728173216361
 21
968.8023850470962
 31
0.0
 11
697.441802658011
 21
968.4096723690101
 31
0.0
 11
696.2763460934184
 21
967.8772503597519
 31
0.0
 11
695.2420505790104
 21
967.2377164672674
 31
0.0
 11
694.274295284103
 21
966.4608022068129
 31
0.0
 11
693.6294949357156
 21
965.8184101337564
 31
0.0
 11
692.9585802397842
 21
965.0046591552824
 31
0.0
 11
692.3234816347385
 21
964.033071782157
 31
0.0
 11
691.9297571941123
 21
963.2729704360171
 31
0.0
 11
691.5824065460209
 21
962.4251008306686
 31
0.0
 11
691.3223167769984
 21
961.5782651515757
 31
0.0
 11
691.1194377680172
 21
960.5904091764447
 31
0.0
 11
691.0297263265437
 21
959.7902484201421
 31
0.0
 11
691.0038374133587
 21
959.0582446238219
 31
0.0
  0
SPLINE
  5
3D77
330
A
100
AcDbEntity
  8
HIDDEN
 48
0.5
100
AcDbSpline
210
0.0
220
0.0
230
1.0
 70
  1064
 71
     3
 72
    22
 73
    18
 74
    16
 42
0.000000001
 43
0.0000000001
 44
0.0
 40
0.0
 40
0.0
 40
0.0
 40
0.0
 40
1.298862838070707
 40
2.25720206318093
 40
3.602182531782313
 40
4.883495218012595
 40
6.099542425468279
 40
7.340568645545421
 40
8.25075272846842
 40
9.305417217386152
 40
10.46616364178198
 40
11.32218524872312
 40
12.23844686005653
 40
13.12432346282633
 40
14.13279722048548
 40
14.93797134988731
 40
15.67043281211799
 40
15.67043281211799
 40
15.67043281211799
 40
15.67043281211799
 10
711.0545579674043
 20
969.0627241107101
 30
0.0
 10
711.4878043137121
 20
969.0453513938526
 30
0.0
 10
712.2407125639818
 20
969.0151605752505
 30
0.0
 10
713.42353898078
 20
968.7925139744602
 30
0.0
 10
714.5701142462059
 20
968.4448513657371
 30
0.0
 10
715.7382052901853
 20
967.9103991980548
 30
0.0
 10
716.8005936478518
 20
967.253525380903
 30
0.0
 10
717.6781564069977
 20
966.5488567086221
 30
0.0
 10
718.4361366236543
 20
965.7936928952804
 30
0.0
 10
719.1001924067873
 20
964.9883783305968
 30
0.0
 10
719.6617575030929
 20
964.129413288473
 30
0.0
 10
720.1120039146776
 20
963.2603279187523
 30
0.0
 10
720.4483596858493
 20
962.4392120689042
 30
0.0
 10
720.7240707246724
 20
961.542494984434
 30
0.0
 10
720.9041770684473
 20
960.6594290064306
 30
0.0
 10
721.0022326659633
 20
959.8151213115603
 30
0.0
 10
721.0125904464014
 20
959.3024557708678
 30
0.0
 10
721.0175244340421
 20
959.0582446238219
 30
0.0
 11
711.0545579674043
 21
969.0627241107101
 31
0.0
 11
712.3504147018186
 21
968.9744065247254
 31
0.0
 11
713.2931886310398
 21
968.8023850470962
 31
0.0
 11
714.5795591893898
 21
968.4096723690101
 31
0.0
 11
715.7450157539824
 21
967.8772503597519
 31
0.0
 11
716.7793112683904
 21
967.2377164672674
 31
0.0
 11
717.7470665632978
 21
966.4608022068129
 31
0.0
 11
718.3918669116853
 21
965.8184101337564
 31
0.0
 11
719.0627816076167
 21
965.0046591552824
 31
0.0
 11
719.6978802126623
 21
964.033071782157
 31
0.0
 11
720.0916046532885
 21
963.2729704360171
 31
0.0
 11
720.4389553013799
 21
962.4251008306686
 31
0.0
 11
720.6990450704025
 21
961.5782651515757
 31
0.0
 11
720.9019240793837
 21
960.5904091764447
 31
0.0
 11
720.9916355208571
 21
959.7902484201421
 31
0.0
 11
721.0175244340421
 21
959.0582446238219
 31
0.0
  0
DIMENSION
  5
3D78
102
{ACAD_REACTORS
330
3D7A
102
}
102
{ACAD_XDICTIONARY
360
3D79
102
}
330
A
100
AcDbEntity
  8
DIM
100
AcDbDimension
  2
*D24
 10
706.0106809237004
 20
1082.385954491693
 30
0.0
 11
566.029628961368
 21
1114.390456179826
 31
0.0
 70
    32
 71
     5
 42
279.9621039246649
 73
     0
 74
     0
 75
     0
  3
tfrom線あり
100
AcDbAlignedDimension
 13
426.0485769990355
 23
975.8152001185478
 33
0.0
 14
706.0106809237004
 24
975.8152001185478
 34
0.0
100
AcDbRotatedDimension
  0
DIMENSION
  5
3D87
330
A
100
AcDbEntity
  8
DIM
100
AcDbDimension
  2
*D25
 10
209.0797304306343
 20
1014.058244623822
 30
0.0
 11
177.0752287425013
 21
986.6527703112829
 31
0.0
 70
    32
 71
     5
 42
54.81094862507813
 73
     0
 74
     1
 75
     1
  3
tfrom線あり
100
AcDbAlignedDimension
 13
390.9422382798344
 23
959.2472959987438
 33
0.0
 14
285.011734121352
 24
1014.058244623822
 34
0.0
 50
90.0
100
AcDbRotatedDimension
1001
ACAD
1000
DSTYLE
1002
{
1070
   172
1070
     1
1002
}
  0
SPLINE
  5
3D95
330
A
100
AcDbEntity
  8
HIDDEN
100
AcDbSpline
210
0.0
220
0.0
230
1.0
 70
    11
 71
     3
 72
    17
 73
    13
 74
     0
 42
0.000000001
 43
0.0000000001
 40
0.0
 40
0.0
 40
0.0
 40
0.0
 40
1.0
 40
1.0
 40
1.0
 40
2.0
 40
2.0
 40
2.0
 40
3.0
 40
3.0
 40
3.0
 40
4.0
 40
4.0
 40
4.0
 40
4.0
 10
1500.959372994941
 20
2212.741665267789
 30
0.0
 10
1500.959372994941
 20
2233.439812597626
 30
0.0
 10
1517.750779467245
 20
2250.217438678901
 30
0.0
 10
1538.466152285873
 20
2250.217438678901
 30
0.0
 10
1559.181525104493
 20
2250.217438678901
 30
0.0
 10
1575.979821772314
 20
2233.439812597626
 30
0.0
 10
1575.979821772314
 20
2212.741665267789
 30
0.0
 10
1575.979821772314
 20
2192.057298328986
 30
0.0
 10
1559.181525104493
 20
2175.286562443234
 30
0.0
 10
1538.466152285873
 20
2175.286562443234
 30
0.0
 10
1517.750779467245
 20
2175.286562443234
 30
0.0
 10
1500.959372994941
 20
2192.057298328986
 30
0.0
 10
1500.959372994941
 20
2212.741665267789
 30
0.0
  0
SPLINE
  5
3D96
330
A
100
AcDbEntity
  8
HIDDEN
100
AcDbSpline
210
0.0
220
0.0
230
1.0
 70
     8
 71
     3
 72
    80
 73
    76
 74
     0
 42
0.000000001
 43
0.0000000001
 40
0.0
 40
0.0
 40
0.0
 40
0.0
 40
1.0
 40
1.0
 40
1.0
 40
2.0
 40
2.0
 40
2.0
 40
3.0
 40
3.0
 40
3.0
 40
4.0
 40
4.0
 40
4.0
 40
5.0
 40
5.0
 40
5.0
 40
6.0
 40
6.0
 40
6.0
 40
7.0
 40
7.0
 40
7.0
 40
8.0
 40
8.0
 40
8.0
 40
9.0
 40
9.0
 40
9.0
 40
10.0
 40
10.0
 40
10.0
 40
11.0
 40
11.0
 40
11.0
 40
12.0
 40
12.0
 40
12.0
 40
13.0
 40
13.0
 40
13.0
 40
14.0
 40
14.0
 40
14.0
 40
15.0
 40
15.0
 40
15.0
 40
16.0
 40
16.0
 40
16.0
 40
17.0
 40
17.0
 40
17.0
 40
18.0
 40
18.0
 40
18.0
 40
19.0
 40
19.0
 40
19.0
 40
20.0
 40
20.0
 40
20.0
 40
21.0
 40
21.0
 40
21.0
 40
22.0
 40
22.0
 40
22.0
 40
23.0
 40
23.0
 40
23.0
 40
24.0
 40
24.0
 40
24.0
 40
25.0
 40
25.0
 40
25.0
 40
25.0
 10
1825.339442591339
 20
2238.765933731429
 30
0.0
 10
1825.043164184156
 20
2240.371349286648
 30
0.0
 10
1824.888134785047
 20
2242.018106014952
 30
0.0
 10
1824.626307355443
 20
2243.623521570156
 30
0.0
 10
1824.202560331214
 20
2246.207344888626
 30
0.0
 10
1823.66512508097
 20
2248.763607425037
 30
0.0
 10
1823.038117289022
 20
2251.299199374898
 30
0.0
 10
1822.545468309632
 20
2253.269795292454
 30
0.0
 10
1821.980472277329
 20
2255.205940232427
 30
0.0
 10
1821.422366440539
 20
2257.155865563433
 30
0.0
 10
1820.519750827952
 20
2260.042857484605
 30
0.0
 10
1819.503446989354
 20
2262.92295921026
 30
0.0
 10
1818.211535330119
 20
2265.665257025594
 30
0.0
 10
1816.926513866397
 20
2268.421335231968
 30
0.0
 10
1815.538139469939
 20
2271.163633047308
 30
0.0
 10
1813.853486666295
 20
2273.699224997163
 30
0.0
 10
1812.124047591798
 20
2276.303718902182
 30
0.0
 10
1810.33259675766
 20
2278.832420656527
 30
0.0
 10
1808.262093005123
 20
2281.188867522967
 30
0.0
 10
1806.246710816718
 20
2283.497083020808
 30
0.0
 10
1804.086634522474
 20
2285.681274999351
 30
0.0
 10
1801.750858242576
 20
2287.679431698973
 30
0.0
 10
1799.311729029941
 20
2289.767160940301
 30
0.0
 10
1796.721015515951
 20
2291.613733338567
 30
0.0
 10
1794.020058873713
 20
2293.329392022028
 30
0.0
 10
1791.491357119368
 20
2294.941697772756
 30
0.0
 10
1788.769729890576
 20
2296.285285898357
 30
0.0
 10
1786.010206586448
 20
2297.449728940552
 30
0.0
 10
1783.126659763038
 20
2298.67618374238
 30
0.0
 10
1780.16043059343
 20
2299.585689550488
 30
0.0
 10
1777.142524957456
 20
2300.398732621365
 30
0.0
 10
1774.148735005786
 20
2301.211775692249
 30
0.0
 10
1771.044701925864
 20
2301.652748205259
 30
0.0
 10
1767.968229628004
 20
2301.983477590034
 30
0.0
 10
1765.08468280459
 20
2302.293536388246
 30
0.0
 10
1762.183910492385
 20
2302.389999125469
 30
0.0
 10
1759.269357789151
 20
2302.389999125469
 30
0.0
 10
1759.269357789151
 20
2302.389999125469
 30
0.0
 10
1317.67672717362
 20
2302.389999125469
 30
0.0
 10
1317.67672717362
 20
2302.389999125469
 30
0.0
 10
1314.762174470386
 20
2302.389999125469
 30
0.0
 10
1311.861402158181
 20
2302.293536388246
 30
0.0
 10
1308.970965139255
 20
2301.983477590034
 30
0.0
 10
1305.894492841391
 20
2301.652748205259
 30
0.0
 10
1302.790459761468
 20
2301.211775692249
 30
0.0
 10
1299.796669809802
 20
2300.398732621365
 30
0.0
 10
1296.785654369341
 20
2299.585689550488
 30
0.0
 10
1293.815980101979
 20
2298.67618374238
 30
0.0
 10
1290.928988180807
 20
2297.449728940552
 30
0.0
 10
1288.169464876678
 20
2296.285285898357
 30
0.0
 10
1285.447837647891
 20
2294.941697772756
 30
0.0
 10
1282.92947118682
 20
2293.329392022028
 30
0.0
 10
1280.22506944682
 20
2291.613733338567
 30
0.0
 10
1277.630910835076
 20
2289.767160940301
 30
0.0
 10
1275.188336524679
 20
2287.679431698973
 30
0.0
 10
1272.852560244784
 20
2285.681274999351
 30
0.0
 10
1270.69248395054
 20
2283.497083020808
 30
0.0
 10
1268.677101762132
 20
2281.188867522967
 30
0.0
 10
1266.61693330287
 20
2278.832420656527
 30
0.0
 10
1264.815147175457
 20
2276.303718902182
 30
0.0
 10
1263.096043394234
 20
2273.699224997163
 30
0.0
 10
1261.401055297319
 20
2271.163633047308
 30
0.0
 10
1260.019571096374
 20
2268.421335231968
 30
0.0
 10
1258.720769241623
 20
2265.665257025594
 30
0.0
 10
1257.435747777904
 20
2262.92295921026
 30
0.0
 10
1256.419443939306
 20
2260.042857484605
 30
0.0
 10
1255.516828326719
 20
2257.155865563433
 30
0.0
 10
1254.958722489929
 20
2255.205940232427
 30
0.0
 10
1254.393726457623
 20
2253.269795292454
 30
0.0
 10
1253.901077478236
 20
2251.299199374898
 30
0.0
 10
1253.274069686285
 20
2248.763607425037
 30
0.0
 10
1252.736634436045
 20
2246.207344888626
 30
0.0
 10
1252.312887411815
 20
2243.623521570156
 30
0.0
 10
1252.05450507997
 20
2242.018106014952
 30
0.0
 10
1251.896030583102
 20
2240.371349286648
 30
0.0
 10
1251.599752175916
 20
2238.765933731429
 30
0.0
  0
SPLINE
  5
3D97
330
A
100
AcDbEntity
  8
HIDDEN
100
AcDbSpline
210
0.0
220
0.0
230
1.0
 70
    11
 71
     3
 72
   155
 73
   151
 74
     0
 42
0.000000001
 43
0.0000000001
 40
0.0
 40
0.0
 40
0.0
 40
0.0
 40
1.0
 40
1.0
 40
1.0
 40
2.0
 40
2.0
 40
2.0
 40
3.0
 40
3.0
 40
3.0
 40
4.0
 40
4.0
 40
4.0
 40
5.0
 40
5.0
 40
5.0
 40
6.0
 40
6.0
 40
6.0
 40
7.0
 40
7.0
 40
7.0
 40
8.0
 40
8.0
 40
8.0
 40
9.0
 40
9.0
 40
9.0
 40
10.0
 40
10.0
 40
10.0
 40
11.0
 40
11.0
 40
11.0
 40
12.0
 40
12.0
 40
12.0
 40
13.0
 40
13.0
 40
13.0
 40
14.0
 40
14.0
 40
14.0
 40
15.0
 40
15.0
 40
15.0
 40
16.0
 40
16.0
 40
16.0
 40
17.0
 40
17.0
 40
17.0
 40
18.0
 40
18.0
 40
18.0
 40
19.0
 40
19.0
 40
19.0
 40
20.0
 40
20.0
 40
20.0
 40
21.0
 40
21.0
 40
21.0
 40
22.0
 40
22.0
 40
22.0
 40
23.0
 40
23.0
 40
23.0
 40
24.0
 40
24.0
 40
24.0
 40
25.0
 40
25.0
 40
25.0
 40
26.0
 40
26.0
 40
26.0
 40
27.0
 40
27.0
 40
27.0
 40
28.0
 40
28.0
 40
28.0
 40
29.0
 40
29.0
 40
29.0
 40
30.0
 40
30.0
 40
30.0
 40
31.0
 40
31.0
 40
31.0
 40
32.0
 40
32.0
 40
32.0
 40
33.0
 40
33.0
 40
33.0
 40
34.0
 40
34.0
 40
34.0
 40
35.0
 40
35.0
 40
35.0
 40
36.0
 40
36.0
 40
36.0
 40
37.0
 40
37.0
 40
37.0
 40
38.0
 40
38.0
 40
38.0
 40
39.0
 40
39.0
 40
39.0
 40
40.0
 40
40.0
 40
40.0
 40
41.0
 40
41.0
 40
41.0
 40
42.0
 40
42.0
 40
42.0
 40
43.0
 40
43.0
 40
43.0
 40
44.0
 40
44.0
 40
44.0
 40
45.0
 40
45.0
 40
45.0
 40
46.0
 40
46.0
 40
46.0
 40
47.0
 40
47.0
 40
47.0
 40
48.0
 40
48.0
 40
48.0
 40
49.0
 40
49.0
 40
49.0
 40
50.0
 40
50.0
 40
50.0
 40
50.0
 10
1768.850174654042
 20
1976.545762981939
 30
0.0
 10
1771.926646951902
 20
1976.573323763998
 30
0.0
 10
1774.961778076663
 20
1976.704237478803
 30
0.0
 10
1778.010689592461
 20
1977.131429600788
 30
0.0
 10
1781.094052085838
 20
1977.551731527263
 30
0.0
 10
1784.098177330783
 20
1978.28209225195
 30
0.0
 10
1787.054071207112
 20
1979.219158842116
 30
0.0
 10
1789.996184692412
 20
1980.156225432282
 30
0.0
 10
1792.834945244972
 20
1981.368899843084
 30
0.0
 10
1795.57724306031
 20
1982.774499728333
 30
0.0
 10
1798.343656559955
 20
1984.180099613583
 30
0.0
 10
1800.968821051519
 20
1985.861307319468
 30
0.0
 10
1803.46651692604
 20
1987.694099326702
 30
0.0
 10
1805.950432409532
 20
1989.526891333935
 30
0.0
 10
1808.255202809607
 20
1991.573279402164
 30
0.0
 10
1810.429059494883
 20
1993.750581185199
 30
0.0
 10
1812.616696571189
 20
1995.962333945808
 30
0.0
 10
1814.601072879773
 20
1998.353231789832
 30
0.0
 10
1816.43386488701
 20
2000.854372762111
 30
0.0
 10
1818.263211796485
 20
2003.348623538881
 30
0.0
 10
1819.868627351697
 20
2005.980678225966
 30
0.0
 10
1821.322458605558
 20
2008.695415259233
 30
0.0
 10
1822.783180054932
 20
2011.437713074574
 30
0.0
 10
1824.013079954525
 20
2014.283363822648
 30
0.0
 10
1825.084505357252
 20
2017.191026330369
 30
0.0
 10
1826.149040564461
 20
2020.078018251541
 30
0.0
 10
1826.989644417404
 20
2023.05458271442
 30
0.0
 10
1827.65799338245
 20
2026.058707959364
 30
0.0
 10
1828.329787445251
 20
2029.049052813276
 30
0.0
 10
1828.774205056026
 20
2032.101409426828
 30
0.0
 10
1829.056703072179
 20
2035.146875844865
 30
0.0
 10
1829.325420697303
 20
2038.185452067391
 30
0.0
 10
1829.346091283849
 20
2041.23091848542
 30
0.0
 10
1829.373652065914
 20
2044.276384903464
 30
0.0
 10
1829.373652065914
 20
2044.276384903464
 30
0.0
 10
1829.373652065914
 20
2347.300293498261
 30
0.0
 10
1829.373652065914
 20
2347.300293498261
 30
0.0
 10
1829.366761870398
 20
2350.318199134232
 30
0.0
 10
1829.41499323901
 20
2353.349885161242
 30
0.0
 10
1829.253073644384
 20
2356.374680992729
 30
0.0
 10
1829.091154049761
 20
2359.413257215248
 30
0.0
 10
1828.725973687418
 20
2362.451833437775
 30
0.0
 10
1828.167867850628
 20
2365.442178291687
 30
0.0
 10
1827.595981622806
 20
2368.460083927657
 30
0.0
 10
1826.848395409328
 20
2371.450428781569
 30
0.0
 10
1825.866542548308
 20
2374.3649814848
 30
0.0
 10
1824.881244589531
 20
2377.307094970103
 30
0.0
 10
1823.70302115631
 20
2380.166526109209
 30
0.0
 10
1822.352542835189
 20
2382.950165097642
 30
0.0
 10
1821.033070393888
 20
2385.664902130917
 30
0.0
 10
1819.496556793837
 20
2388.296956818001
 30
0.0
 10
1817.78778830589
 20
2390.784317399248
 30
0.0
 10
1815.989447276231
 20
2393.381921108758
 30
0.0
 10
1814.042967042983
 20
2395.827940516905
 30
0.0
 10
1811.903561335289
 20
2398.163716796804
 30
0.0
 10
1809.836502680511
 20
2400.451261708095
 30
0.0
 10
1807.531732280436
 20
2402.518320362866
 30
0.0
 10
1805.116718752105
 20
2404.42690452078
 30
0.0
 10
1802.767162081174
 20
2406.294147505596
 30
0.0
 10
1800.262576011136
 20
2408.02358658009
 30
0.0
 10
1797.630521324055
 20
2409.449857051888
 30
0.0
 10
1794.80209606477
 20
2411.007041238485
 30
0.0
 10
1791.894433557048
 20
2412.329958777544
 30
0.0
 10
1788.862747530041
 20
2413.439280255607
 30
0.0
 10
1786.051547759547
 20
2414.459029191963
 30
0.0
 10
1783.11632446976
 20
2415.18938991665
 30
0.0
 10
1780.174210984463
 20
2415.719934971374
 30
0.0
 10
1777.256213183467
 20
2416.243589830581
 30
0.0
 10
1774.241752645251
 20
2416.519197651225
 30
0.0
 10
1771.285858768922
 20
2416.519197651225
 30
0.0
 10
1768.464323705149
 20
2416.519197651225
 30
0.0
 10
1765.64278864138
 20
2416.519197651225
 30
0.0
 10
1762.817808479852
 20
2416.519197651225
 30
0.0
 10
1762.817808479852
 20
2416.519197651225
 30
0.0
 10
1314.107605896373
 20
2416.519197651225
 30
0.0
 10
1314.107605896373
 20
2416.519197651225
 30
0.0
 10
1311.286070832604
 20
2416.519197651225
 30
0.0
 10
1308.461090671073
 20
2416.519197651225
 30
0.0
 10
1305.64644580282
 20
2416.519197651225
 30
0.0
 10
1302.676771535458
 20
2416.519197651225
 30
0.0
 10
1299.669201192755
 20
2416.243589830581
 30
0.0
 10
1296.758093587279
 20
2415.719934971374
 30
0.0
 10
1293.809089906462
 20
2415.18938991665
 30
0.0
 10
1290.873866616679
 20
2414.459029191963
 30
0.0
 10
1288.066111943939
 20
2413.439280255607
 30
0.0
 10
1285.024090623661
 20
2412.329958777544
 30
0.0
 10
1282.130208506972
 20
2411.007041238485
 30
0.0
 10
1279.29489305217
 20
2409.449857051888
 30
0.0
 10
1276.662838365085
 20
2408.02358658009
 30
0.0
 10
1274.151362099532
 20
2406.294147505596
 30
0.0
 10
1271.80869562412
 20
2404.42690452078
 30
0.0
 10
1269.397127193547
 20
2402.518320362866
 30
0.0
 10
1267.088911695711
 20
2400.451261708095
 30
0.0
 10
1265.021853040936
 20
2398.163716796804
 30
0.0
 10
1262.889337528758
 20
2395.827940516905
 30
0.0
 10
1260.935967099991
 20
2393.381921108758
 30
0.0
 10
1259.144516265852
 20
2390.784317399248
 30
0.0
 10
1257.428857582388
 20
2388.296956818001
 30
0.0
 10
1255.892343982337
 20
2385.664902130917
 30
0.0
 10
1254.579761736553
 20
2382.950165097642
 30
0.0
 10
1253.225838317674
 20
2380.166526109209
 30
0.0
 10
1252.044169786691
 20
2377.307094970103
 30
0.0
 10
1251.058871827917
 20
2374.3649814848
 30
0.0
 10
1250.083909162414
 20
2371.450428781569
 30
0.0
 10
1249.32943275342
 20
2368.460083927657
 30
0.0
 10
1248.764436721114
 20
2365.442178291687
 30
0.0
 10
1248.206330884324
 20
2362.451833437775
 30
0.0
 10
1247.834260326464
 20
2359.413257215248
 30
0.0
 10
1247.679230927355
 20
2356.374680992729
 30
0.0
 10
1247.517311332732
 20
2353.349885161242
 30
0.0
 10
1247.565542701344
 20
2350.318199134232
 30
0.0
 10
1247.558652505827
 20
2347.300293498261
 30
0.0
 10
1247.558652505827
 20
2347.300293498261
 30
0.0
 10
1247.558652505827
 20
2044.276384903464
 30
0.0
 10
1247.558652505827
 20
2044.276384903464
 30
0.0
 10
1247.579323092373
 20
2041.23091848542
 30
0.0
 10
1247.599993678923
 20
2038.185452067391
 30
0.0
 10
1247.875601499559
 20
2035.146875844865
 30
0.0
 10
1248.151209320196
 20
2032.101409426828
 30
0.0
 10
1248.595626930975
 20
2029.049052813276
 30
0.0
 10
1249.267420993775
 20
2026.058707959364
 30
0.0
 10
1249.935769958821
 20
2023.05458271442
 30
0.0
 10
1250.776373811764
 20
2020.078018251541
 30
0.0
 10
1251.840909018974
 20
2017.191026330369
 30
0.0
 10
1252.9123344217
 20
2014.283363822648
 30
0.0
 10
1254.14223432129
 20
2011.437713074574
 30
0.0
 10
1255.602955770667
 20
2008.695415259233
 30
0.0
 10
1257.063677220045
 20
2005.980678225966
 30
0.0
 10
1258.665647677495
 20
2003.348623538881
 30
0.0
 10
1260.491549489215
 20
2000.854372762111
 30
0.0
 10
1262.324341496452
 20
1998.353231789832
 30
0.0
 10
1264.308717805037
 20
1995.962333945808
 30
0.0
 10
1266.503245076859
 20
1993.750581185199
 30
0.0
 10
1268.670211566615
 20
1991.573279402164
 30
0.0
 10
1270.974981966694
 20
1989.526891333935
 30
0.0
 10
1273.458897450185
 20
1987.694099326702
 30
0.0
 10
1275.963483520223
 20
1985.861307319468
 30
0.0
 10
1278.581757816275
 20
1984.180099613583
 30
0.0
 10
1281.348171315916
 20
1982.774499728333
 30
0.0
 10
1284.093914229011
 20
1981.368899843084
 30
0.0
 10
1286.929229683813
 20
1980.156225432282
 30
0.0
 10
1289.871343169114
 20
1979.219158842116
 30
0.0
 10
1292.827237045443
 20
1978.28209225195
 30
0.0
 10
1295.838252485904
 20
1977.551731527263
 30
0.0
 10
1298.914724783764
 20
1977.131429600788
 30
0.0
 10
1301.963636299558
 20
1976.704237478803
 30
0.0
 10
1304.998767424323
 20
1976.573323763998
 30
0.0
 10
1308.07523972218
 20
1976.545762981939
 30
0.0
 10
1308.07523972218
 20
1976.545762981939
 30
0.0
 10
1768.850174654042
 20
1976.545762981939
 30
0.0
 10
1768.850174654042
 20
1976.545762981939
 30
0.0
  0
SPLINE
  5
3D98
330
A
100
AcDbEntity
  8
HIDDEN
100
AcDbSpline
210
0.0
220
0.0
230
1.0
 70
    11
 71
     3
 72
    17
 73
    13
 74
     0
 42
0.000000001
 43
0.0000000001
 40
0.0
 40
0.0
 40
0.0
 40
0.0
 40
1.0
 40
1.0
 40
1.0
 40
2.0
 40
2.0
 40
2.0
 40
3.0
 40
3.0
 40
3.0
 40
4.0
 40
4.0
 40
4.0
 40
4.0
 10
1515.435673773899
 20
2212.741665267789
 30
0.0
 10
1515.435673773899
 20
2225.454075994665
 30
0.0
 10
1525.743406265719
 20
2235.754918290975
 30
0.0
 10
1538.466152285873
 20
2235.754918290975
 30
0.0
 10
1551.188898306023
 20
2235.754918290975
 30
0.0
 10
1561.496630797846
 20
2225.454075994665
 30
0.0
 10
1561.496630797846
 20
2212.741665267789
 30
0.0
 10
1561.496630797846
 20
2200.043034931947
 30
0.0
 10
1551.188898306023
 20
2189.742192635636
 30
0.0
 10
1538.466152285873
 20
2189.742192635636
 30
0.0
 10
1525.743406265719
 20
2189.742192635636
 30
0.0
 10
1515.435673773899
 20
2200.043034931947
 30
0.0
 10
1515.435673773899
 20
2212.741665267789
 30
0.0
  0
LINE
  5
3D99
330
A
100
AcDbEntity
  8
HIDDEN
100
AcDbLine
 10
1238.463594424807
 20
2427.575268444201
 30
0.0
 11
1538.466152285873
 21
2427.612412431863
 31
0.0
  0
LINE
  5
3D9A
330
A
100
AcDbEntity
  8
HIDDEN
100
AcDbLine
 10
1838.468710146931
 20
2427.575268444201
 30
0.0
 11
1538.466152285873
 21
2427.612412431863
 31
0.0
  0
LINE
  5
3D9B
102
{ACAD_REACTORS
330
3C2E
330
3C3D
102
}
330
A
100
AcDbEntity
  8
HIDDEN
100
AcDbLine
 10
1838.468710146931
 20
2427.575268444201
 30
0.0
 11
1838.468710146931
 21
1972.817853663637
 31
0.0
  0
SPLINE
  5
3D9C
330
A
100
AcDbEntity
  8
HIDDEN
100
AcDbSpline
210
0.0
220
0.0
230
1.0
 70
  1064
 71
     3
 72
    18
 73
    14
 74
    12
 42
0.000000001
 43
0.0000000001
 44
0.0
 40
0.0
 40
0.0
 40
0.0
 40
0.0
 40
0.5977805798901442
 40
1.144561586291574
 40
1.845144077290291
 40
2.539112531327711
 40
3.163877912967008
 40
3.931444575032542
 40
4.744632360592905
 40
5.510004066104814
 40
6.437104505167488
 40
7.247515568245747
 40
7.931173406274732
 40
7.931173406274732
 40
7.931173406274732
 40
7.931173406274732
 10
1838.468710146931
 20
1972.817853663637
 30
0.0
 10
1838.464337728211
 20
1972.618410120907
 30
0.0
 10
1838.455965923112
 20
1972.23653853571
 30
0.0
 10
1838.356465387747
 20
1971.627961990052
 30
0.0
 10
1838.184950760025
 20
1971.002376189066
 30
0.0
 10
1837.919348080915
 20
1970.381447912789
 30
0.0
 10
1837.56510625489
 20
1969.781105126107
 30
0.0
 10
1837.105488483549
 20
1969.203465645701
 30
0.0
 10
1836.525063749257
 20
1968.674139443344
 30
0.0
 10
1835.824347167958
 20
1968.213556780847
 30
0.0
 10
1835.055806758784
 20
1967.878319449037
 30
0.0
 10
1834.270489658862
 20
1967.674705835832
 30
0.0
 10
1833.77367672964
 20
1967.632152632706
 30
0.0
 10
1833.546344474183
 20
1967.61268108703
 30
0.0
 11
1838.468710146931
 21
1972.817853663637
 31
0.0
 11
1838.44104048824
 21
1972.220713804239
 31
0.0
 11
1838.356508606997
 21
1971.680506593981
 31
0.0
 11
1838.16916838297
 21
1971.005436621937
 31
0.0
 11
1837.896272262863
 21
1970.367377124061
 31
0.0
 11
1837.578531801227
 21
1969.82944331667
 31
0.0
 11
1837.100459054298
 21
1969.228939337201
 31
0.0
 11
1836.499721647389
 21
1968.680861840377
 31
0.0
 11
1835.860088609591
 21
1968.260548356706
 31
0.0
 11
1835.011421628925
 21
1967.887346561376
 31
0.0
 11
1834.225785750582
 21
1967.688493958125
 31
0.0
 11
1833.546344474183
 21
1967.61268108703
 31
0.0
  0
LINE
  5
3D9D
330
A
100
AcDbEntity
  8
HIDDEN
100
AcDbLine
 10
1243.385960097555
 20
1967.61268108703
 30
0.0
 11
1833.546344474183
 21
1967.61268108703
 31
0.0
  0
SPLINE
  5
3D9E
330
A
100
AcDbEntity
  8
HIDDEN
100
AcDbSpline
210
0.0
220
0.0
230
1.0
 70
  1064
 71
     3
 72
    18
 73
    14
 74
    12
 42
0.000000001
 43
0.0000000001
 44
0.0
 40
0.0
 40
0.0
 40
0.0
 40
0.0
 40
0.5977805798901863
 40
1.144561586292108
 40
1.84514407728967
 40
2.539112531328341
 40
3.163877912968101
 40
3.931444575031795
 40
4.744632360594341
 40
5.51000406610549
 40
6.437104505168996
 40
7.247515568243288
 40
7.931173406272273
 40
7.931173406272273
 40
7.931173406272273
 40
7.931173406272273
 10
1238.463594424807
 20
1972.817853663637
 30
0.0
 10
1238.467966843527
 20
1972.618410120907
 30
0.0
 10
1238.476338648625
 20
1972.23653853571
 30
0.0
 10
1238.575839183998
 20
1971.627961990053
 30
0.0
 10
1238.747353811711
 20
1971.002376189065
 30
0.0
 10
1239.012956490826
 20
1970.381447912789
 30
0.0
 10
1239.367198316852
 20
1969.781105126108
 30
0.0
 10
1239.82681608819
 20
1969.203465645699
 30
0.0
 10
1240.407240822485
 20
1968.674139443345
 30
0.0
 10
1241.107957403782
 20
1968.213556780847
 30
0.0
 10
1241.876497812958
 20
1967.878319449037
 30
0.0
 10
1242.661814912876
 20
1967.674705835832
 30
0.0
 10
1243.158627842098
 20
1967.632152632706
 30
0.0
 10
1243.385960097555
 20
1967.61268108703
 30
0.0
 11
1238.463594424807
 21
1972.817853663637
 31
0.0
 11
1238.491264083499
 21
1972.220713804239
 31
0.0
 11
1238.575795964745
 21
1971.680506593981
 31
0.0
 11
1238.763136188768
 21
1971.005436621937
 31
0.0
 11
1239.036032308878
 21
1970.367377124061
 31
0.0
 11
1239.353772770515
 21
1969.82944331667
 31
0.0
 11
1239.831845517441
 21
1969.228939337201
 31
0.0
 11
1240.432582924353
 21
1968.680861840377
 31
0.0
 11
1241.07221596215
 21
1968.260548356706
 31
0.0
 11
1241.920882942817
 21
1967.887346561376
 31
0.0
 11
1242.706518821156
 21
1967.688493958125
 31
0.0
 11
1243.385960097555
 21
1967.61268108703
 31
0.0
  0
LINE
  5
3D9F
102
{ACAD_REACTORS
330
3C2E
102
}
330
A
100
AcDbEntity
  8
HIDDEN
100
AcDbLine
 10
1238.463594424807
 20
2427.575268444201
 30
0.0
 11
1238.463594424807
 21
1972.817853663637
 31
0.0
  0
CIRCLE
  5
3DA0
330
A
100
AcDbEntity
  8
HIDDEN
 48
0.5
100
AcDbCircle
 10
1638.466152285873
 20
2362.612412431863
 30
0.0
 40
17.5
  0
CIRCLE
  5
3DA1
330
A
100
AcDbEntity
  8
HIDDEN
100
AcDbCircle
 10
1538.466152285873
 20
2362.612412431863
 30
0.0
 40
17.5
  0
CIRCLE
  5
3DA2
330
A
100
AcDbEntity
  8
HIDDEN
 48
0.5
100
AcDbCircle
 10
1438.466152285873
 20
2362.612412431863
 30
0.0
 40
17.5
  0
LINE
  5
3DB0
330
A
100
AcDbEntity
  8
DIM
100
AcDbLine
 10
1275.966152285873
 20
2427.612412431863
 30
0.0
 11
1388.466152285873
 21
2427.612412431863
 31
0.0
  0
LINE
  5
3DB4
102
{ACAD_REACTORS
330
3DB9
102
}
330
A
100
AcDbEntity
  8
DIM
100
AcDbLine
 10
1688.466152285873
 20
2427.612412431863
 30
0.0
 11
1800.966152285873
 21
2427.612412431863
 31
0.0
  0
LINE
  5
3DB5
102
{ACAD_REACTORS
330
3DB9
330
3DDC
330
3F02
102
}
330
A
100
AcDbEntity
  8
DIM
100
AcDbLine
 10
1800.966152285873
 20
2427.612412431863
 30
0.0
 11
1800.966152285873
 21
2017.612412431863
 31
0.0
  0
LINE
  5
3DB6
102
{ACAD_REACTORS
330
3DB9
330
3DBE
330
3DDC
330
3F02
102
}
330
A
100
AcDbEntity
  8
DIM
100
AcDbLine
 10
1800.966152285873
 20
2017.612412431863
 30
0.0
 11
1275.966152285873
 21
2017.612412431863
 31
0.0
  0
LINE
  5
3DB7
102
{ACAD_REACTORS
330
3DB9
330
3DBE
330
3F02
102
}
330
A
100
AcDbEntity
  8
DIM
100
AcDbLine
 10
1275.966152285873
 20
2017.612412431863
 30
0.0
 11
1275.966152285873
 21
2427.612412431863
 31
0.0
  0
LINE
  5
3DB8
102
{ACAD_REACTORS
330
3DB9
102
}
330
A
100
AcDbEntity
  8
DIM
100
AcDbLine
 10
1275.966152285873
 20
2427.612412431863
 30
0.0
 11
1388.466152285873
 21
2427.612412431863
 31
0.0
  0
DIMENSION
  5
3DBC
102
{ACAD_REACTORS
330
3DBE
102
}
102
{ACAD_XDICTIONARY
360
3DBD
102
}
330
A
100
AcDbEntity
  8
DIM
100
AcDbDimension
  2
*D26
 10
1800.966152285873
 20
1840.00386926208
 30
0.0
 11
1538.466152285873
 21
1840.00386926208
 31
0.0
 70
   160
 71
     5
 42
524.9999999999998
 73
     0
 74
     0
 75
     0
  3
tfrom線あり
100
AcDbAlignedDimension
 13
1275.966152285873
 23
2027.612412431863
 33
0.0
 14
1800.966152285873
 24
2017.612412431863
 34
0.0
100
AcDbRotatedDimension
  0
DIMENSION
  5
3DDA
102
{ACAD_REACTORS
330
3DDC
102
}
102
{ACAD_XDICTIONARY
360
3DDB
102
}
330
A
100
AcDbEntity
  8
DIM
100
AcDbDimension
  2
*D28
 10
1975.902187298694
 20
2017.612412431863
 30
0.0
 11
1975.902187298694
 21
2222.612412431863
 31
0.0
 70
   160
 71
     5
 42
410.0
 73
     0
 74
     0
 75
     0
  3
tfrom線あり
100
AcDbAlignedDimension
 13
1800.966152285873
 23
2427.612412431863
 33
0.0
 14
1800.966152285873
 24
2017.612412431863
 34
0.0
 50
90.0
100
AcDbRotatedDimension
  0
MTEXT
  5
3E30
330
A
100
AcDbEntity
  8
DIM
390
1D
100
AcDbMText
 10
1397.306313253013
 20
2573.978053012049
 30
0.0
 40
24.4326171875
 41
0.0
 46
27.16112215023749
 71
     1
 72
     1
  1
{カウンター切込寸法}
  7
ＭＳ ゴシック
 73
     1
 44
0.7828267384257843
1001
ACAD
1000
ACAD_MTEXT_DEFINED_HEIGHT_BEGIN
1070
    46
1040
27.16112215023749
1000
ACAD_MTEXT_DEFINED_HEIGHT_END
  0
MTEXT
  5
3E55
330
A
100
AcDbEntity
  8
DIM
390
1D
100
AcDbMText
 10
674.1154740202401
 20
1193.91975304482
 30
34.99521132346014
 40
24.0
 41
1169.771715461011
 46
26.80905339502313
 71
     1
 72
     1
  1
{壁取付ボルト穴(2ヶ所)}
  7
ＭＳ ゴシック
 73
     1
 44
1.174240107638677
1001
ACAD
1000
ACAD_MTEXT_DEFINED_HEIGHT_BEGIN
1070
    46
1040
26.80905339502313
1000
ACAD_MTEXT_DEFINED_HEIGHT_END
  0
MTEXT
  5
3E56
330
A
100
AcDbEntity
  8
DIM
390
1D
100
AcDbMText
 10
181.8451732048186
 20
1746.467421410909
 30
34.99521132346015
 40
24.4326171875
 41
833.929798641839
 46
0.0
 71
     1
 72
     1
  1
＝φ30もしくはφ35の水栓取付用穴あけ加工を承ります。\P  必要な場合、ご注文の際にご指示ください。
  7
ＭＳ ゴシック
 73
     1
 44
0.9822934569727008
  0
CIRCLE
  5
3E7D
330
A
100
AcDbEntity
  8
HIDDEN
 48
0.5
100
AcDbCircle
 10
152.3458855325301
 20
1731.72128428723
 30
0.0
 40
17.5
  0
LINE
  5
3E7E
330
A
100
AcDbEntity
  8
DIM
100
AcDbLine
 10
766.4979229439987
 20
1142.236763482989
 30
0.0
 11
706.029628961368
 21
959.0582446238219
 31
0.0
  0
LINE
  5
3E84
330
A
100
AcDbEntity
  8
DIM
100
AcDbLine
 10
1930.933703206555
 20
2427.612412431863
 30
0.0
 11
1094.908353778121
 21
2427.612412431863
 31
0.0
  0
LINE
  5
3E85
330
A
100
AcDbEntity
  8
DIM
100
AcDbLine
 10
1094.908353778121
 20
2427.612412431863
 30
0.0
 11
1133.180114433543
 21
2427.612412431863
 31
0.0
  0
LINE
  5
3E86
330
A
100
AcDbEntity
  8
DIM
100
AcDbLine
 10
1133.180114433543
 20
2427.612412431863
 30
0.0
 11
1156.143170826796
 21
2462.827735434795
 31
0.0
  0
LINE
  5
3E87
330
A
100
AcDbEntity
  8
DIM
100
AcDbLine
 10
1145.887019357998
 20
2427.612412431863
 30
0.0
 11
1168.850075751252
 21
2462.827735434795
 31
0.0
  0
LINE
  5
3E88
330
A
100
AcDbEntity
  8
DIM
100
AcDbLine
 10
1160.169700241174
 20
2427.612412431863
 30
0.0
 11
1183.132756634427
 21
2462.827735434795
 31
0.0
  0
CIRCLE
  5
3E8A
102
{ACAD_REACTORS
330
3EBB
330
3ECA
102
}
330
A
100
AcDbEntity
  8
HIDDEN
 48
0.5
100
AcDbCircle
 10
565.0613150856509
 20
2362.485234746602
 30
0.0
 40
17.5
  0
DIMENSION
  5
3EB9
102
{ACAD_REACTORS
330
3EBB
102
}
102
{ACAD_XDICTIONARY
360
3EBA
102
}
330
A
100
AcDbEntity
  8
DIM
100
AcDbDimension
  2
*D31
 10
565.0613150856509
 20
2481.354630282795
 30
0.0
 11
515.0613150856509
 21
2513.359131970928
 31
0.0
 70
    32
 71
     5
 42
100.0
 73
     0
 74
     0
 75
     0
  3
tfrom線あり
100
AcDbAlignedDimension
 13
465.0613150856509
 23
2362.612412431863
 33
0.0
 14
565.0613150856509
 24
2362.485234746602
 34
0.0
100
AcDbRotatedDimension
  0
DIMENSION
  5
3EC8
102
{ACAD_REACTORS
330
3ECA
102
}
102
{ACAD_XDICTIONARY
360
3EC9
102
}
330
A
100
AcDbEntity
  8
DIM
100
AcDbDimension
  2
*D32
 10
665.0613150856509
 20
2481.354630282795
 30
0.0
 11
615.0613150856509
 21
2513.359131970928
 31
0.0
 70
    32
 71
     5
 42
100.0
 73
     0
 74
     0
 75
     0
  3
tfrom線あり
100
AcDbAlignedDimension
 13
565.0613150856509
 23
2362.485234746602
 33
0.0
 14
665.0613150856509
 24
2362.612412431863
 34
0.0
100
AcDbRotatedDimension
  0
MTEXT
  5
3EFD
330
A
100
AcDbEntity
  8
DIM
390
1D
100
AcDbMText
 10
1309.746164310362
 20
1745.50406746988
 30
34.99521132346014
 40
24.0
 41
1169.771715461011
 46
113.3803926472427
 71
     1
 72
     1
  1
{※陶器製品には寸法公差があります。\P　必ず現物を合わせてカウンターに\P  切込を行ってください。}
  7
ＭＳ ゴシック
 73
     1
 44
1.0
1001
ACAD
1000
ACAD_MTEXT_DEFINED_HEIGHT_BEGIN
1070
    46
1040
113.3803926472427
1000
ACAD_MTEXT_DEFINED_HEIGHT_END
  0
LINE
  5
3EFE
102
{ACAD_REACTORS
330
3F02
102
}
330
A
100
AcDbEntity
  8
DIM
100
AcDbLine
 10
1275.966152285873
 20
2427.612412431863
 30
0.0
 11
1800.966152285873
 21
2427.612412431863
 31
0.0
  0
HATCH
  5
3F02
330
A
100
AcDbEntity
  8
DIM
100
AcDbHatch
 10
0.0
 20
0.0
 30
0.0
210
0.0
220
0.0
230
1.0
  2
ANSI31
 70
     0
 71
     1
 91
        1
 92
        1
 93
        4
 72
     1
 10
1275.966152285873
 20
2427.612412431863
 11
1800.966152285873
 21
2427.612412431863
 72
     1
 10
1275.966152285873
 20
2027.612412431863
 11
1275.966152285873
 21
2427.612412431863
 72
     1
 10
1800.966152285873
 20
2427.612412431863
 11
1800.966152285873
 21
2027.612412431863
 72
     1
 10
1800.966152285873
 20
2017.612412431863
 11
1275.966152285873
 21
2017.612412431863
 97
        4
330
3EFE
330
3DB7
330
3DB5
330
3DB6
 75
     0
 76
     1
 52
0.0
 41
6.0
 77
     0
 78
     1
 53
45.0
 43
0.0
 44
0.0
 45
-13.47038418160373
 46
13.47038418160373
 79
     0
 98
        1
 10
0.0
 20
0.0
1001
ACAD
1010
0.0
1020
0.0
1030
0.0
  0
MTEXT
  5
3F27
330
A
100
AcDbEntity
  8
TEMPLATE
 62
     1
390
1D
100
AcDbMText
 10
136.4069049368676
 20
235.85446427577
 30
0.0
 40
24.4326171875
 41
0.0
 46
111.8649296953154
 71
     1
 72
     1
  1
{\C256;壁掛け,半埋め込み/オーバーフロー付き/\Pカウンター固定金具,壁取付ボルト,型紙付属/\P陶器/ホワイト}
  7
ＭＳ ゴシック
 73
     1
 44
0.9822934569727008
1001
ACAD
1000
ACAD_MTEXT_DEFINED_HEIGHT_BEGIN
1070
    46
1040
111.8649296953154
1000
ACAD_MTEXT_DEFINED_HEIGHT_END
  0
VIEWPORT
  5
349
330
B
100
AcDbEntity
 67
     1
  8
0
100
AcDbViewport
 10
202.5
 20
128.5
 30
0.0
 40
486.0
 41
308.4
 68
     1
 69
     1
 12
202.5
 22
128.5
 13
0.0
 23
0.0
 14
0.5
 24
0.5
 15
0.0
 25
0.0
 16
0.0
 26
0.0
 36
1.0
 17
0.0
 27
0.0
 37
0.0
 42
50.0
 43
0.0
 44
0.0
 45
308.4
 50
0.0
 51
0.0
 72
   100
 90
   557152
  1

281
     0
 71
     1
 74
     0
110
0.0
120
0.0
130
0.0
111
1.0
121
0.0
131
0.0
112
0.0
122
1.0
132
0.0
 79
     0
146
0.0
170
     0
 61
     5
348
26C
292
     1
282
     1
141
0.0
142
0.0
 63
   256
  0
VIEWPORT
  5
34A
330
B
100
AcDbEntity
 67
     1
  8
0
100
AcDbViewport
 10
202.5
 20
128.5
 30
0.0
 40
324.0
 41
205.6
 68
     2
 69
     2
 12
986.6781359294573
 22
1427.077061889956
 13
0.0
 23
0.0
 14
0.5
 24
0.5
 15
0.0
 25
0.0
 16
0.0
 26
0.0
 36
1.0
 17
0.0
 27
0.0
 37
0.0
 42
50.0
 43
0.0
 44
0.0
 45
2890.021615685494
 50
0.0
 51
0.0
 72
   100
 90
   557152
  1

281
     0
 71
     1
 74
     0
110
0.0
120
0.0
130
0.0
111
1.0
121
0.0
131
0.0
112
0.0
122
1.0
132
0.0
 79
     0
146
0.0
170
     0
 61
     5
348
26C
292
     1
282
     1
141
0.0
142
0.0
 63
   256
  0
ENDSEC
  0
SECTION
  2
OBJECTS
  0
DICTIONARY
  5
19
330
0
100
AcDbDictionary
281
     1
  3
ACAD_COLOR
350
674
  3
ACAD_DETAILVIEWSTYLE
350
BBF
  3
ACAD_FIELDLIST
350
146A
  3
ACAD_GROUP
350
1A
  3
ACAD_IMAGE_VARS
350
27B
  3
ACAD_LAYOUT
350
1E
  3
ACAD_MATERIAL
350
263
  3
ACAD_MLEADERSTYLE
350
336
  3
ACAD_MLINESTYLE
350
1B
  3
ACAD_PLOTSETTINGS
350
22
  3
ACAD_PLOTSTYLENAME
350
1F
  3
ACAD_SCALELIST
350
241
  3
ACAD_SECTIONVIEWSTYLE
350
BC0
  3
ACAD_TABLESTYLE
350
278
  3
ACAD_VISUALSTYLE
350
267
  3
ACDB_RECOMPOSE_DATA
350
3F2D
  3
AcDbVariableDictionary
350
330
  3
APPDATA
350
27A
  3
DimOffsetDictionary
350
E3E
  0
SUN
  5
904
330
15
100
AcDbSun
 90
        1
290
     0
 63
     7
421
 16777215
 40
1.0
291
     1
 91
  2455826
 92
 54000000
292
     0
 70
     2
 71
   256
280
     1
  0
DICTIONARY
  5
2E1
330
2
100
AcDbDictionary
280
     1
281
     1
  3
ACAD_LAYERSTATES
360
2E2
  3
ACLYDICTIONARY
360
DF9
  0
DICTIONARY
  5
374D
330
A
100
AcDbDictionary
280
     1
281
     1
  3
ACAD_SORTENTS
360
374E
  0
DICTIONARY
  5
1468
330
1466
100
AcDbDictionary
280
     1
281
     1
  3
ACAD_FIELD
360
3E80
  0
DICTIONARY
  5
3C2D
330
3C2C
100
AcDbDictionary
280
     1
281
     1
  3
ACAD_DIMASSOC
360
3C2E
  0
DICTIONARY
  5
3C3C
330
3C3B
100
AcDbDictionary
280
     1
281
     1
  3
ACAD_DIMASSOC
360
3C3D
  0
DICTIONARY
  5
3C87
330
3C86
100
AcDbDictionary
280
     1
281
     1
  3
ACAD_DIMASSOC
360
3C88
  0
DICTIONARY
  5
3C96
330
3C95
100
AcDbDictionary
280
     1
281
     1
  3
ACAD_DIMASSOC
360
3C97
  0
DICTIONARY
  5
3CCE
330
3CCD
100
AcDbDictionary
280
     1
281
     1
  3
ACAD_DIMASSOC
360
3CCF
  0
DICTIONARY
  5
3CEE
330
3CED
100
AcDbDictionary
280
     1
281
     1
  3
ACAD_DIMASSOC
360
3CEF
  0
DICTIONARY
  5
3CFD
330
3CFC
100
AcDbDictionary
280
     1
281
     1
  3
ACAD_DIMASSOC
360
3CFE
  0
DICTIONARY
  5
3D79
330
3D78
100
AcDbDictionary
280
     1
281
     1
  3
ACAD_DIMASSOC
360
3D7A
  0
DICTIONARY
  5
3DBD
330
3DBC
100
AcDbDictionary
280
     1
281
     1
  3
ACAD_DIMASSOC
360
3DBE
  0
DICTIONARY
  5
3DDB
330
3DDA
100
AcDbDictionary
280
     1
281
     1
  3
ACAD_DIMASSOC
360
3DDC
  0
DICTIONARY
  5
3EBA
330
3EB9
100
AcDbDictionary
280
     1
281
     1
  3
ACAD_DIMASSOC
360
3EBB
  0
DICTIONARY
  5
3EC9
330
3EC8
100
AcDbDictionary
280
     1
281
     1
  3
ACAD_DIMASSOC
360
3ECA
  0
DICTIONARY
  5
674
102
{ACAD_REACTORS
330
19
102
}
330
19
100
AcDbDictionary
281
     1
  0
DICTIONARY
  5
BBF
102
{ACAD_REACTORS
330
19
102
}
330
19
100
AcDbDictionary
281
     1
  0
FIELDLIST
  5
146A
102
{ACAD_REACTORS
330
19
102
}
330
19
100
AcDbIdSet
 90
        2
330
146B
330
1467
100
AcDbFieldList
  0
DICTIONARY
  5
1A
102
{ACAD_REACTORS
330
19
102
}
330
19
100
AcDbDictionary
281
     1
  3
*A1
350
36AC
  3
*A2
350
3DB9
  0
RASTERVARIABLES
  5
27B
102
{ACAD_REACTORS
330
19
102
}
330
19
100
AcDbRasterVariables
 90
        0
 70
     1
 71
     1
 72
     1
  0
DICTIONARY
  5
1E
102
{ACAD_REACTORS
330
19
102
}
330
19
100
AcDbDictionary
281
     1
  3
Layout1
350
21
  3
Model
350
20
  0
DICTIONARY
  5
263
102
{ACAD_REACTORS
330
19
102
}
330
19
100
AcDbDictionary
281
     1
  3
ByBlock
350
265
  3
ByLayer
350
264
  3
Global
350
266
  0
DICTIONARY
  5
336
102
{ACAD_REACTORS
330
19
102
}
330
19
100
AcDbDictionary
281
     1
  3
Standard
350
DAB
  0
DICTIONARY
  5
1B
102
{ACAD_REACTORS
330
19
102
}
330
19
100
AcDbDictionary
281
     1
  3
Standard
350
1C
  0
DICTIONARY
  5
22
102
{ACAD_REACTORS
330
19
102
}
330
19
100
AcDbDictionary
281
     1
  0
ACDBDICTIONARYWDFLT
  5
1F
102
{ACAD_REACTORS
330
19
102
}
330
19
100
AcDbDictionary
281
     1
  3
Normal
350
1D
100
AcDbDictionaryWithDefault
340
1D
  0
DICTIONARY
  5
241
102
{ACAD_REACTORS
330
19
102
}
330
19
100
AcDbDictionary
281
     1
  3
A0
350
242
  3
A1
350
243
  3
A2
350
244
  3
A3
350
245
  3
A4
350
246
  3
A5
350
247
  3
A6
350
248
  3
A7
350
249
  3
A8
350
24A
  3
A9
350
24B
  3
B0
350
24C
  3
B1
350
24D
  3
B2
350
24E
  3
B3
350
24F
  3
B4
350
250
  3
B5
350
251
  3
B6
350
252
  3
B7
350
253
  3
B8
350
254
  3
B9
350
255
  3
C0
350
256
  3
C1
350
257
  3
C2
350
258
  3
C3
350
259
  3
C4
350
25A
  3
C5
350
25B
  3
C6
350
25C
  3
C7
350
25D
  3
C8
350
25E
  3
C9
350
25F
  3
D0
350
260
  3
D1
350
261
  3
D2
350
262
  0
DICTIONARY
  5
BC0
102
{ACAD_REACTORS
330
19
102
}
330
19
100
AcDbDictionary
281
     1
  0
DICTIONARY
  5
278
102
{ACAD_REACTORS
330
19
102
}
330
19
100
AcDbDictionary
281
     1
  3
Standard
350
279
  0
DICTIONARY
  5
267
102
{ACAD_REACTORS
330
19
102
}
330
19
100
AcDbDictionary
281
     1
  3
2dWireframe
350
26C
  3
3D Hidden
350
26E
  3
3dWireframe
350
26D
  3
Basic
350
26F
  3
Brighten
350
273
  3
ColorChange
350
277
  3
Conceptual
350
271
  3
Dim
350
272
  3
EdgeColorOff
350
8FE
  3
Facepattern
350
276
  3
Flat
350
268
  3
FlatWithEdges
350
269
  3
Gouraud
350
26A
  3
GouraudWithEdges
350
26B
  3
Hidden
350
8FB
  3
JitterOff
350
8FC
  3
Linepattern
350
275
  3
OverhangOff
350
8FD
  3
Realistic
350
270
  3
Shaded
350
903
  3
Shaded with edges
350
902
  3
Shades of Gray
350
8FF
  3
Sketchy
350
900
  3
Thicken
350
274
  3
Wireframe
350
8FA
  3
X-Ray
350
901
  0
XRECORD
  5
3F2D
102
{ACAD_REACTORS
330
19
102
}
330
19
100
AcDbXrecord
280
     1
 90
        1
330
279
  0
DICTIONARY
  5
330
102
{ACAD_REACTORS
330
19
102
}
330
19
100
AcDbDictionary
281
     1
  3
CANNOSCALE
350
331
  3
CMLEADERSTYLE
350
DB1
  3
CTABLESTYLE
350
335
  3
HPTRANSPARENCY
350
D52
  3
XCLIPFRAME
350
896
  0
DICTIONARY
  5
27A
102
{ACAD_REACTORS
330
19
102
}
330
19
100
AcDbDictionary
281
     1
  0
DICTIONARY
  5
E3E
102
{ACAD_REACTORS
330
19
102
}
330
19
100
AcDbDictionary
281
     1
  3
DIMRAILANGLE
350
ECE
  3
DIMRAILFIRSTOFFSET
350
ECC
  3
DIMRAILOFFSET
350
ECD
  3
DIMRAILSENABLED
350
ECF
  0
DICTIONARY
  5
2E2
102
{ACAD_REACTORS
330
2E1
102
}
330
2E1
100
AcDbDictionary
281
     1
  0
DICTIONARY
  5
DF9
102
{ACAD_REACTORS
330
2E1
102
}
330
2E1
100
AcDbDictionary
281
     1
1001
ACAD
1000
<All
  0
SORTENTSTABLE
  5
374E
102
{ACAD_REACTORS
330
374D
102
}
330
374D
100
AcDbSortentsTable
330
A
331
17A
  5
180
331
17B
  5
181
331
17C
  5
182
331
17E
  5
183
331
180
  5
184
331
181
  5
185
331
182
  5
186
331
183
  5
187
331
184
  5
188
331
185
  5
189
331
186
  5
68C
331
187
  5
7D9
331
188
  5
DAC
331
189
  5
121B
331
68C
  5
1466
331
DAC
  5
262A
331
121B
  5
262B
331
1466
  5
262C
331
146D
  5
2812
331
262A
  5
2813
331
262B
  5
2814
331
262C
  5
28CA
331
2812
  5
2A52
331
2813
  5
2B9B
331
2814
  5
35AE
331
28CA
  5
369A
331
2A52
  5
369B
331
2B9B
  5
369C
331
369B
  5
36A7
331
369C
  5
36A8
331
36A7
  5
36A9
331
36A8
  5
38BF
331
36A9
  5
38C0
331
36AA
  5
38C1
331
36AB
  5
38C2
331
3AB6
  5
3AC3
331
3AB7
  5
3AC7
331
3ABF
  5
3ACD
331
3AC3
  5
3AD2
331
3AC7
  5
3AD6
331
3AC8
  5
3ADA
331
3ACD
  5
3ADE
331
3AD2
  5
3AE2
331
3AD6
  5
3AE3
331
3ADA
  5
3AE4
331
3ADE
  5
3AE5
331
3AE2
  5
3AE6
331
3AE3
  5
3AE7
331
3AE4
  5
3AE8
331
3AE5
  5
3AE9
331
3AE6
  5
3AEA
331
3AE7
  5
3AEB
331
3AE8
  5
3AEC
331
3AE9
  5
3AED
331
3AEA
  5
3AEE
331
3AEB
  5
3B34
331
3AEC
  5
3B35
331
3AED
  5
3B39
331
3AEE
  5
3B3A
331
3BA2
  5
3BA6
331
3BA3
  5
3BA7
331
3BA4
  5
3BAB
331
3BA6
  5
3BB3
331
3BC7
  5
3BCC
331
3BC8
  5
3BCD
331
3BC9
  5
3BCE
331
3BCA
  5
3BDE
331
3BCB
  5
3BE2
331
3BCC
  5
3BE3
331
3BCD
  5
3BE4
331
3BDE
  5
3BE6
331
3BE2
  5
3BEB
331
3BE3
  5
3BEF
331
3BE4
  5
3BF3
331
3BE5
  5
3BF7
331
3BE6
  5
3BFB
331
3BEB
  5
3C00
331
3BEF
  5
3C01
331
3BF3
  5
3C02
331
3BF7
  5
3C06
331
3BFB
  5
3C0A
331
3C00
  5
3C0E
331
3C01
  5
3C0F
331
3C02
  5
3C10
331
3C06
  5
3C11
331
3C0A
  5
3C12
331
3C0E
  5
3C13
331
3C26
  5
3C2B
331
3C2B
  5
3C68
331
3C2C
  5
3C69
331
3C3B
  5
3C84
331
3C4A
  5
3C85
331
3C59
  5
3C86
331
3C86
  5
3CB8
331
3C95
  5
3CB9
331
3CBA
  5
3CDE
331
3CBB
  5
3CED
331
3CBD
  5
3D0C
331
3CCD
  5
3D1B
331
3CED
  5
3D1D
331
3CFC
  5
3D54
331
3D56
  5
3D62
331
3D5A
  5
3D63
331
3D60
  5
3D65
331
3D61
  5
3D66
331
3D62
  5
3D67
331
3D63
  5
3D68
331
3D64
  5
3D6C
331
3D65
  5
3D70
331
3D66
  5
3D71
331
3D67
  5
3D72
331
3D68
  5
3D73
331
3D6C
  5
3D74
331
3D70
  5
3D75
331
3D71
  5
3D76
331
3D72
  5
3D77
331
3D73
  5
3D78
331
3D74
  5
3D87
331
3D75
  5
3D95
331
3D76
  5
3D96
331
3D77
  5
3D97
331
3D78
  5
3D98
331
3D87
  5
3D99
331
3D95
  5
3D9A
331
3D96
  5
3D9B
331
3D97
  5
3D9C
331
3D98
  5
3D9D
331
3D99
  5
3D9E
331
3D9A
  5
3D9F
331
3D9B
  5
3DA0
331
3D9C
  5
3DA1
331
3D9D
  5
3DA2
331
3D9E
  5
3DA3
331
3D9F
  5
3DA4
331
3DA0
  5
3DA5
331
3DA1
  5
3DA6
331
3DA2
  5
3DA7
331
3DB4
  5
3DB6
331
3DB5
  5
3DBB
331
3DB6
  5
3DBC
331
3DB7
  5
3DDA
331
3DB8
  5
3DE9
331
3DBC
  5
3DF8
331
3DDA
  5
3E14
331
3E30
  5
3E7D
331
3E55
  5
3E7E
331
3E56
  5
3E84
331
3E7D
  5
3E86
331
3E7E
  5
3E87
331
3E84
  5
3E88
331
3E85
  5
3E8A
331
3E86
  5
3EAF
331
3E87
  5
3EB9
331
3E88
  5
3EC8
331
3E8A
  5
3EFC
331
3EB9
  5
3EFE
331
3EC8
  5
3EFF
331
3EFD
  5
3F01
331
3EFE
  5
3F02
331
3F02
  5
3DBA
  0
DICTIONARY
  5
3E80
102
{ACAD_REACTORS
330
1468
102
}
330
1468
100
AcDbDictionary
280
     1
281
     1
  3
TEXT
360
1467
  0
DIMASSOC
  5
3C2E
102
{ACAD_REACTORS
330
3C2D
102
}
330
3C2D
100
AcDbDimAssoc
330
3C2C
 90
        3
 70
     0
 71
     1
  1
AcDbOsnapPointRef
 72
    13
331
3BCD
 73
     0
 91
        0
 40
0.0
 10
0.0
 20
0.0
 30
0.0
 75
     0
  1
AcDbOsnapPointRef
 72
    13
331
3BC9
 73
     0
 91
        0
 40
0.0
 10
0.0
 20
0.0
 30
0.0
 75
     0
  0
DIMASSOC
  5
3C3D
102
{ACAD_REACTORS
330
3C3C
102
}
330
3C3C
100
AcDbDimAssoc
330
3C3B
 90
        2
 70
     0
 71
     1
  1
AcDbOsnapPointRef
 72
    13
331
3BC9
 73
     0
 91
        0
 40
0.0
 10
0.0
 20
0.0
 30
0.0
 75
     0
  0
DIMASSOC
  5
3C88
102
{ACAD_REACTORS
330
3C87
102
}
330
3C87
100
AcDbDimAssoc
330
3C86
 90
        1
 70
     0
 71
     1
  1
AcDbOsnapPointRef
 72
    10
331
3AE3
 73
     0
 91
        0
 40
2.861101328573896
 10
0.0
 20
0.0
 30
0.0
 75
     0
  0
DIMASSOC
  5
3C97
102
{ACAD_REACTORS
330
3C96
102
}
330
3C96
100
AcDbDimAssoc
330
3C95
 90
        3
 70
     0
 71
     1
  1
AcDbOsnapPointRef
 72
    10
331
3C0E
 73
     0
 91
        0
 40
2.506324747424061
 10
0.0
 20
0.0
 30
0.0
 75
     0
  1
AcDbOsnapPointRef
 72
    10
331
3BE3
 73
     0
 91
        0
 40
0.9318355105541373
 10
0.0
 20
0.0
 30
0.0
 75
     0
  0
DIMASSOC
  5
3CCF
102
{ACAD_REACTORS
330
3CCE
102
}
330
3CCE
100
AcDbDimAssoc
330
3CCD
 90
        3
 70
     0
 71
     1
  1
AcDbOsnapPointRef
 72
     6
331
3C06
 73
     2
 91
        1
 40
0.4710232620680095
 10
0.0
 20
0.0
 30
0.0
332
3BDE
 74
     2
 92
        1
 75
     0
  1
AcDbOsnapPointRef
 72
    10
331
3BE2
 73
     0
 91
        0
 40
2.519260007304959
 10
0.0
 20
0.0
 30
0.0
 75
     0
  0
DIMASSOC
  5
3CEF
102
{ACAD_REACTORS
330
3CEE
102
}
330
3CEE
100
AcDbDimAssoc
330
3CED
 90
        3
 70
     0
 71
     1
  1
AcDbOsnapPointRef
 72
    10
331
3BE2
 73
     0
 91
        0
 40
2.073297156459593
 10
0.0
 20
0.0
 30
0.0
 75
     0
  1
AcDbOsnapPointRef
 72
    10
331
3BE2
 73
     0
 91
        0
 40
4.944084870840252
 10
0.0
 20
0.0
 30
0.0
 75
     0
  0
DIMASSOC
  5
3CFE
102
{ACAD_REACTORS
330
3CFD
102
}
330
3CFD
100
AcDbDimAssoc
330
3CFC
 90
        2
 70
     0
 71
     1
  1
AcDbOsnapPointRef
 72
    10
331
3BE3
 73
     0
 91
        0
 40
1.962039930828902
 10
0.0
 20
0.0
 30
0.0
 75
     0
  0
DIMASSOC
  5
3D7A
102
{ACAD_REACTORS
330
3D79
102
}
330
3D79
100
AcDbDimAssoc
330
3D78
 90
        3
 70
     0
 71
     1
  1
AcDbOsnapPointRef
 72
    13
331
3D56
 73
     2
 91
        1
 40
0.0
 10
0.0
 20
0.0
 30
0.0
 75
     0
  1
AcDbOsnapPointRef
 72
    13
331
3D68
 73
     2
 91
        1
 40
0.0
 10
0.0
 20
0.0
 30
0.0
 75
     0
  0
DIMASSOC
  5
3DBE
102
{ACAD_REACTORS
330
3DBD
102
}
330
3DBD
100
AcDbDimAssoc
330
3DBC
 90
        3
 70
     0
 71
     1
  1
AcDbOsnapPointRef
 72
    13
331
3DB7
 73
     0
 91
        0
 40
0.0
 10
0.0
 20
0.0
 30
0.0
 75
     0
  1
AcDbOsnapPointRef
 72
    13
331
3DB6
 73
     0
 91
        0
 40
0.0
 10
0.0
 20
0.0
 30
0.0
 75
     0
  0
DIMASSOC
  5
3DDC
102
{ACAD_REACTORS
330
3DDB
102
}
330
3DDB
100
AcDbDimAssoc
330
3DDA
 90
        3
 70
     0
 71
     1
  1
AcDbOsnapPointRef
 72
    13
331
3DB5
 73
     0
 91
        0
 40
0.0
 10
0.0
 20
0.0
 30
0.0
 75
     0
  1
AcDbOsnapPointRef
 72
    13
331
3DB6
 73
     0
 91
        0
 40
0.0
 10
0.0
 20
0.0
 30
0.0
 75
     0
  0
DIMASSOC
  5
3EBB
102
{ACAD_REACTORS
330
3EBA
102
}
330
3EBA
100
AcDbDimAssoc
330
3EB9
 90
        3
 70
     0
 71
     1
  1
AcDbOsnapPointRef
 72
     3
331
3C2B
 73
     0
 91
        0
 40
0.0
 10
0.0
 20
0.0
 30
0.0
 75
     0
  1
AcDbOsnapPointRef
 72
     3
331
3E8A
 73
     0
 91
        0
 40
0.0
 10
0.0
 20
0.0
 30
0.0
 75
     0
  0
DIMASSOC
  5
3ECA
102
{ACAD_REACTORS
330
3EC9
102
}
330
3EC9
100
AcDbDimAssoc
330
3EC8
 90
        3
 70
     0
 71
     1
  1
AcDbOsnapPointRef
 72
     3
331
3E8A
 73
     0
 91
        0
 40
0.0
 10
0.0
 20
0.0
 30
0.0
 75
     0
  1
AcDbOsnapPointRef
 72
     3
331
3C26
 73
     0
 91
        0
 40
0.0
 10
0.0
 20
0.0
 30
0.0
 75
     0
  0
GROUP
  5
36AC
102
{ACAD_REACTORS
330
1A
102
}
330
1A
100
AcDbGroup
300

 70
     1
 71
     1
340
369B
340
369C
340
36A7
340
36A8
340
36A9
340
36AA
340
36AB
  0
GROUP
  5
3DB9
102
{ACAD_REACTORS
330
1A
102
}
330
1A
100
AcDbGroup
300

 70
     1
 71
     1
340
3DB8
340
3DB7
340
3DB4
340
3DB5
340
3DB6
  0
LAYOUT
  5
21
102
{ACAD_REACTORS
330
1E
102
}
330
1E
100
AcDbPlotSettings
  1

  2
none_device
  4
ISO_A3_(420.00_x_297.00_MM)
  6

 40
7.5
 41
20.0
 42
7.5
 43
20.0
 44
420.0
 45
297.0
 46
0.0
 47
0.0
 48
0.0
 49
0.0
140
0.0
141
0.0
142
1.0
143
1.0
 70
     0
 72
     1
 73
     0
 74
     0
  7

 75
     0
 76
     0
 77
     2
 78
   300
147
1.0
148
0.0
149
0.0
100
AcDbLayout
  1
Layout1
 70
     0
 71
     0
 10
-7.5
 20
-20.0
 11
412.5
 21
277.0
 12
0.0
 22
0.0
 32
0.0
 14
0.0
 24
0.0
 34
0.0
 15
0.0
 25
0.0
 35
0.0
146
0.0
 13
0.0
 23
0.0
 33
0.0
 16
0.0
 26
0.0
 36
0.0
 17
0.0
 27
0.0
 37
0.0
 76
     0
330
B
331
349
  0
LAYOUT
  5
20
102
{ACAD_REACTORS
330
1E
102
}
330
1E
100
AcDbPlotSettings
  1

  2
Adobe PDF
  4
A4
  6

 40
0.0
 41
0.0400000000000205
 42
0.0600000000000023
 43
0.0
 44
210.0
 45
297.0
 46
0.0
 47
0.0224285714285486
 48
0.0
 49
0.0
140
0.0
141
0.0
142
1.0
143
10.00285795941698
 70
  1712
 72
     1
 73
     0
 74
     1
  7
monochrome.ctb
 75
     0
 76
    61
 77
     2
 78
   300
147
0.0999714285714286
148
-91.02013567089875
149
73.59871453016603
100
AcDbLayout
  1
Model
 70
     0
 71
     1
 10
0.0
 20
0.0
 11
2100.0
 21
2970.0
 12
0.0
 22
0.0
 32
0.0
 14
0.0
 24
0.0
 34
-0.0000000000000142
 15
2100.0
 25
2970.0
 35
34.99521132346014
146
0.0
 13
0.0
 23
0.0
 33
0.0
 16
0.0
 26
0.0
 36
0.0
 17
0.0
 27
0.0
 37
0.0
 76
     0
330
A
331
15
1001
PLOTTRANSPARENCY
1071
        0
  0
MATERIAL
  5
265
102
{ACAD_REACTORS
330
263
102
}
330
263
100
AcDbMaterial
  1
ByBlock
 72
     1
 94
      127
  0
MATERIAL
  5
264
102
{ACAD_REACTORS
330
263
102
}
330
263
100
AcDbMaterial
  1
ByLayer
 72
     1
 94
      127
  0
MATERIAL
  5
266
102
{ACAD_REACTORS
330
263
102
}
330
263
100
AcDbMaterial
  1
Global
 72
     1
 94
      127
  0
MLEADERSTYLE
  5
DAB
102
{ACAD_REACTORS
330
336
102
}
330
336
100
AcDbMLeaderStyle
170
     2
171
     1
172
     0
 90
        2
 40
0.0
 41
0.0
173
     1
 91
-1056964608
340
11
 92
       -2
290
     1
 42
2.0
291
     1
 43
8.0
  3
Standard
341
0
 44
4.0
300

342
17
174
     1
178
     6
175
     1
176
     0
 93
-1056964608
 45
4.0
292
     0
297
     0
 46
4.0
343
0
 94
-1056964608
 47
1.0
 49
1.0
140
1.0
293
     1
141
0.0
294
     1
177
     0
142
1.0
295
     0
296
     0
143
3.75
1001
ACAD_MLEADERVER
1070
     2
  0
MLINESTYLE
  5
1C
102
{ACAD_REACTORS
330
1B
102
}
330
1B
100
AcDbMlineStyle
  2
Standard
 70
     0
  3

 62
     0
 51
90.0
 52
90.0
 71
     2
 49
0.5
 62
   256
  6
BYLAYER
 49
-0.5
 62
   256
  6
BYLAYER
  0
ACDBPLACEHOLDER
  5
1D
102
{ACAD_REACTORS
330
1F
102
}
330
1F
  0
SCALE
  5
242
102
{ACAD_REACTORS
330
241
102
}
330
241
100
AcDbScale
 70
     0
300
1:1
140
1.0
141
1.0
290
     1
  0
SCALE
  5
243
102
{ACAD_REACTORS
330
241
102
}
330
241
100
AcDbScale
 70
     0
300
1:2
140
1.0
141
2.0
290
     0
  0
SCALE
  5
244
102
{ACAD_REACTORS
330
241
102
}
330
241
100
AcDbScale
 70
     0
300
1:4
140
1.0
141
4.0
290
     0
  0
SCALE
  5
245
102
{ACAD_REACTORS
330
241
102
}
330
241
100
AcDbScale
 70
     0
300
1:5
140
1.0
141
5.0
290
     0
  0
SCALE
  5
246
102
{ACAD_REACTORS
330
241
102
}
330
241
100
AcDbScale
 70
     0
300
1:8
140
1.0
141
8.0
290
     0
  0
SCALE
  5
247
102
{ACAD_REACTORS
330
241
102
}
330
241
100
AcDbScale
 70
     0
300
1:10
140
1.0
141
10.0
290
     0
  0
SCALE
  5
248
102
{ACAD_REACTORS
330
241
102
}
330
241
100
AcDbScale
 70
     0
300
1:16
140
1.0
141
16.0
290
     0
  0
SCALE
  5
249
102
{ACAD_REACTORS
330
241
102
}
330
241
100
AcDbScale
 70
     0
300
1:20
140
1.0
141
20.0
290
     0
  0
SCALE
  5
24A
102
{ACAD_REACTORS
330
241
102
}
330
241
100
AcDbScale
 70
     0
300
1:30
140
1.0
141
30.0
290
     0
  0
SCALE
  5
24B
102
{ACAD_REACTORS
330
241
102
}
330
241
100
AcDbScale
 70
     0
300
1:40
140
1.0
141
40.0
290
     0
  0
SCALE
  5
24C
102
{ACAD_REACTORS
330
241
102
}
330
241
100
AcDbScale
 70
     0
300
1:50
140
1.0
141
50.0
290
     0
  0
SCALE
  5
24D
102
{ACAD_REACTORS
330
241
102
}
330
241
100
AcDbScale
 70
     0
300
1:100
140
1.0
141
100.0
290
     0
  0
SCALE
  5
24E
102
{ACAD_REACTORS
330
241
102
}
330
241
100
AcDbScale
 70
     0
300
2:1
140
2.0
141
1.0
290
     0
  0
SCALE
  5
24F
102
{ACAD_REACTORS
330
241
102
}
330
241
100
AcDbScale
 70
     0
300
4:1
140
4.0
141
1.0
290
     0
  0
SCALE
  5
250
102
{ACAD_REACTORS
330
241
102
}
330
241
100
AcDbScale
 70
     0
300
8:1
140
8.0
141
1.0
290
     0
  0
SCALE
  5
251
102
{ACAD_REACTORS
330
241
102
}
330
241
100
AcDbScale
 70
     0
300
10:1
140
10.0
141
1.0
290
     0
  0
SCALE
  5
252
102
{ACAD_REACTORS
330
241
102
}
330
241
100
AcDbScale
 70
     0
300
100:1
140
100.0
141
1.0
290
     0
  0
SCALE
  5
253
102
{ACAD_REACTORS
330
241
102
}
330
241
100
AcDbScale
 70
     0
300
1/128" = 1'-0"
140
0.0078125
141
12.0
290
     0
  0
SCALE
  5
254
102
{ACAD_REACTORS
330
241
102
}
330
241
100
AcDbScale
 70
     0
300
1/64" = 1'-0"
140
0.015625
141
12.0
290
     0
  0
SCALE
  5
255
102
{ACAD_REACTORS
330
241
102
}
330
241
100
AcDbScale
 70
     0
300
1/32" = 1'-0"
140
0.03125
141
12.0
290
     0
  0
SCALE
  5
256
102
{ACAD_REACTORS
330
241
102
}
330
241
100
AcDbScale
 70
     0
300
1/16" = 1'-0"
140
0.0625
141
12.0
290
     0
  0
SCALE
  5
257
102
{ACAD_REACTORS
330
241
102
}
330
241
100
AcDbScale
 70
     0
300
3/32" = 1'-0"
140
0.09375
141
12.0
290
     0
  0
SCALE
  5
258
102
{ACAD_REACTORS
330
241
102
}
330
241
100
AcDbScale
 70
     0
300
1/8" = 1'-0"
140
0.125
141
12.0
290
     0
  0
SCALE
  5
259
102
{ACAD_REACTORS
330
241
102
}
330
241
100
AcDbScale
 70
     0
300
3/16" = 1'-0"
140
0.1875
141
12.0
290
     0
  0
SCALE
  5
25A
102
{ACAD_REACTORS
330
241
102
}
330
241
100
AcDbScale
 70
     0
300
1/4" = 1'-0"
140
0.25
141
12.0
290
     0
  0
SCALE
  5
25B
102
{ACAD_REACTORS
330
241
102
}
330
241
100
AcDbScale
 70
     0
300
3/8" = 1'-0"
140
0.375
141
12.0
290
     0
  0
SCALE
  5
25C
102
{ACAD_REACTORS
330
241
102
}
330
241
100
AcDbScale
 70
     0
300
1/2" = 1'-0"
140
0.5
141
12.0
290
     0
  0
SCALE
  5
25D
102
{ACAD_REACTORS
330
241
102
}
330
241
100
AcDbScale
 70
     0
300
3/4" = 1'-0"
140
0.75
141
12.0
290
     0
  0
SCALE
  5
25E
102
{ACAD_REACTORS
330
241
102
}
330
241
100
AcDbScale
 70
     0
300
1" = 1'-0"
140
1.0
141
12.0
290
     0
  0
SCALE
  5
25F
102
{ACAD_REACTORS
330
241
102
}
330
241
100
AcDbScale
 70
     0
300
1-1/2" = 1'-0"
140
1.5
141
12.0
290
     0
  0
SCALE
  5
260
102
{ACAD_REACTORS
330
241
102
}
330
241
100
AcDbScale
 70
     0
300
3" = 1'-0"
140
3.0
141
12.0
290
     0
  0
SCALE
  5
261
102
{ACAD_REACTORS
330
241
102
}
330
241
100
AcDbScale
 70
     0
300
6" = 1'-0"
140
6.0
141
12.0
290
     0
  0
SCALE
  5
262
102
{ACAD_REACTORS
330
241
102
}
330
241
100
AcDbScale
 70
     0
300
1'-0" = 1'-0"
140
12.0
141
12.0
290
     0
  0
TABLESTYLE
  5
279
102
{ACAD_REACTORS
330
278
102
}
102
{ACAD_XDICTIONARY
360
3F2B
102
}
330
278
100
AcDbTableStyle
  3
Standard
 70
     0
 71
     0
 40
0.06
 41
0.06
280
     0
281
     0
  7
Standard
140
4.5
170
     2
 62
     0
 63
   257
283
     0
 90
        4
 91
        0
  1

274
    -2
284
     1
 64
     0
275
    -2
285
     1
 65
     0
276
    -2
286
     1
 66
     0
277
    -2
287
     1
 67
     0
278
    -2
288
     1
 68
     0
279
    -2
289
     1
 69
     0
  7
Standard
140
6.0
170
     5
 62
     0
 63
   257
283
     0
 90
        4
 91
        0
  1

274
    -2
284
     1
 64
     0
275
    -2
285
     1
 65
     0
276
    -2
286
     1
 66
     0
277
    -2
287
     1
 67
     0
278
    -2
288
     1
 68
     0
279
    -2
289
     1
 69
     0
  7
Standard
140
4.5
170
     5
 62
     0
 63
   257
283
     0
 90
        4
 91
        0
  1

274
    -2
284
     1
 64
     0
275
    -2
285
     1
 65
     0
276
    -2
286
     1
 66
     0
277
    -2
287
     1
 67
     0
278
    -2
288
     1
 68
     0
279
    -2
289
     1
 69
     0
  0
VISUALSTYLE
  5
26C
102
{ACAD_REACTORS
330
267
102
}
330
267
100
AcDbVisualStyle
  2
2dWireframe
 70
     4
 71
     0
 72
     2
 73
     0
 90
        0
 40
-0.6
 41
-30.0
 62
     5
 63
     7
421
 16777215
 74
     1
 91
        4
 64
     7
 65
   257
 75
     1
175
     1
 42
1.0
 92
        0
 66
   257
 43
1.0
 76
     1
 77
     6
 78
     2
 67
     7
 79
     5
170
     0
171
     0
290
     0
174
     0
 93
        1
 44
0.0
173
     0
291
     0
 45
0.0
  0
VISUALSTYLE
  5
26E
102
{ACAD_REACTORS
330
267
102
}
330
267
100
AcDbVisualStyle
  2
3D Hidden
 70
     6
 71
     1
 72
     2
 73
     2
 90
        0
 40
-0.6
 41
-30.0
 62
     5
 63
     7
421
 16777215
 74
     2
 91
        2
 64
     7
 65
   257
 75
     2
175
     1
 42
40.0
 92
        0
 66
   257
 43
1.0
 76
     1
 77
     6
 78
     2
 67
     7
 79
     3
170
     0
171
     0
290
     0
174
     0
 93
        1
 44
0.0
173
     0
291
     0
 45
0.0
  0
VISUALSTYLE
  5
26D
102
{ACAD_REACTORS
330
267
102
}
330
267
100
AcDbVisualStyle
  2
3dWireframe
 70
     5
 71
     0
 72
     2
 73
     0
 90
        0
 40
-0.6
 41
-30.0
 62
     5
 63
     7
421
 16777215
 74
     1
 91
        4
 64
     7
 65
   257
 75
     1
175
     1
 42
1.0
 92
        0
 66
   257
 43
1.0
 76
     1
 77
     6
 78
     2
 67
     7
 79
     5
170
     0
171
     0
290
     0
174
     0
 93
        1
 44
0.0
173
     0
291
     0
 45
0.0
  0
VISUALSTYLE
  5
26F
102
{ACAD_REACTORS
330
267
102
}
330
267
100
AcDbVisualStyle
  2
Basic
 70
     7
 71
     1
 72
     0
 73
     1
 90
        0
 40
-0.6
 41
-30.0
 62
     5
 63
     7
421
 16777215
 74
     0
 91
        4
 64
     7
 65
   257
 75
     1
175
     1
 42
1.0
 92
        8
 66
     7
 43
1.0
 76
     1
 77
     6
 78
     2
 67
     7
 79
     5
170
     0
171
     0
290
     0
174
     0
 93
        1
 44
0.0
173
     0
291
     1
 45
0.0
  0
VISUALSTYLE
  5
273
102
{ACAD_REACTORS
330
267
102
}
330
267
100
AcDbVisualStyle
  2
Brighten
 70
    12
 71
     2
 72
     2
 73
     0
 90
        0
 40
-0.6
 41
-30.0
 62
     5
 63
     7
421
 16777215
 74
     1
 91
        4
 64
     7
 65
   257
 75
     1
175
     1
 42
1.0
 92
        8
 66
     7
 43
1.0
 76
     1
 77
     6
 78
     2
 67
     7
 79
     5
170
     0
171
     0
290
     0
174
     0
 93
        1
 44
50.0
173
     0
291
     1
 45
0.0
  0
VISUALSTYLE
  5
277
102
{ACAD_REACTORS
330
267
102
}
330
267
100
AcDbVisualStyle
  2
ColorChange
 70
    16
 71
     2
 72
     2
 73
     3
 90
        0
 40
-0.6
 41
-30.0
 62
     5
 63
     8
421
  8421504
 74
     1
 91
        4
 64
     7
 65
   257
 75
     1
175
     1
 42
1.0
 92
        8
 66
     8
424
  8421504
 43
1.0
 76
     1
 77
     6
 78
     2
 67
     7
 79
     5
170
     0
171
     0
290
     0
174
     0
 93
        1
 44
0.0
173
     0
291
     1
 45
0.0
  0
VISUALSTYLE
  5
271
102
{ACAD_REACTORS
330
267
102
}
330
267
100
AcDbVisualStyle
  2
Conceptual
 70
     9
 71
     3
 72
     2
 73
     0
 90
        0
 40
-0.6
 41
-30.0
 62
     5
 63
     7
421
 16777215
 74
     2
 91
        2
 64
     7
 65
   257
 75
     1
175
     1
 42
40.0
 92
        8
 66
     7
 43
1.0
 76
     1
 77
     6
 78
     2
 67
     7
 79
     3
170
     0
171
     0
290
     0
174
     0
 93
        1
 44
0.0
173
     0
291
     0
 45
0.0
  0
VISUALSTYLE
  5
272
102
{ACAD_REACTORS
330
267
102
}
330
267
100
AcDbVisualStyle
  2
Dim
 70
    11
 71
     2
 72
     2
 73
     0
 90
        0
 40
-0.6
 41
-30.0
 62
     5
 63
     7
421
 16777215
 74
     1
 91
        4
 64
     7
 65
   257
 75
     1
175
     1
 42
1.0
 92
        8
 66
     7
 43
1.0
 76
     1
 77
     6
 78
     2
 67
     7
 79
     5
170
     0
171
     0
290
     0
174
     0
 93
        1
 44
-50.0
173
     0
291
     1
 45
0.0
  0
VISUALSTYLE
  5
8FE
102
{ACAD_REACTORS
330
267
102
}
330
267
100
AcDbVisualStyle
  2
EdgeColorOff
 70
    22
 71
     2
 72
     2
 73
     0
 90
        0
 40
0.6
 41
30.0
 62
     5
 63
     7
421
 16777215
 74
     1
 91
        4
 64
     7
 65
   257
 75
     1
175
     1
 42
1.0
 92
        8
 66
     7
 43
1.0
 76
     1
 77
     6
 78
     2
 67
     7
 79
     5
170
     0
171
     0
290
     0
174
     0
 93
        1
 44
0.0
173
     0
291
     1
 45
0.0
  0
VISUALSTYLE
  5
276
102
{ACAD_REACTORS
330
267
102
}
330
267
100
AcDbVisualStyle
  2
Facepattern
 70
    15
 71
     2
 72
     2
 73
     0
 90
        0
 40
-0.6
 41
-30.0
 62
     5
 63
     7
421
 16777215
 74
     1
 91
        4
 64
     7
 65
   257
 75
     1
175
     1
 42
1.0
 92
        8
 66
     7
 43
1.0
 76
     1
 77
     6
 78
     2
 67
     7
 79
     5
170
     0
171
     0
290
     0
174
     0
 93
        1
 44
0.0
173
     0
291
     1
 45
0.0
  0
VISUALSTYLE
  5
268
102
{ACAD_REACTORS
330
267
102
}
330
267
100
AcDbVisualStyle
  2
Flat
 70
     0
 71
     2
 72
     1
 73
     1
 90
        2
 40
-0.6
 41
30.0
 62
     5
 63
     7
421
 16777215
 74
     0
 91
        4
 64
     7
 65
   257
 75
     1
175
     1
 42
1.0
 92
        8
 66
     7
 43
1.0
 76
     1
 77
     6
 78
     2
 67
     7
 79
     5
170
     0
171
     0
290
     0
174
     0
 93
       13
 44
0.0
173
     0
291
     1
 45
0.0
  0
VISUALSTYLE
  5
269
102
{ACAD_REACTORS
330
267
102
}
330
267
100
AcDbVisualStyle
  2
FlatWithEdges
 70
     1
 71
     2
 72
     1
 73
     1
 90
        2
 40
-0.6
 41
30.0
 62
     5
 63
     7
421
 16777215
 74
     1
 91
        4
 64
     7
 65
   257
 75
     1
175
     1
 42
1.0
 92
        0
 66
   257
 43
1.0
 76
     1
 77
     6
 78
     2
 67
     7
 79
     5
170
     0
171
     0
290
     0
174
     0
 93
       13
 44
0.0
173
     0
291
     1
 45
0.0
  0
VISUALSTYLE
  5
26A
102
{ACAD_REACTORS
330
267
102
}
330
267
100
AcDbVisualStyle
  2
Gouraud
 70
     2
 71
     2
 72
     2
 73
     1
 90
        2
 40
-0.6
 41
30.0
 62
     5
 63
     7
421
 16777215
 74
     0
 91
        4
 64
     7
 65
   257
 75
     1
175
     1
 42
1.0
 92
        0
 66
     7
 43
1.0
 76
     1
 77
     6
 78
     2
 67
     7
 79
     5
170
     0
171
     0
290
     0
174
     0
 93
       13
 44
0.0
173
     0
291
     1
 45
0.0
  0
VISUALSTYLE
  5
26B
102
{ACAD_REACTORS
330
267
102
}
330
267
100
AcDbVisualStyle
  2
GouraudWithEdges
 70
     3
 71
     2
 72
     2
 73
     1
 90
        2
 40
-0.6
 41
30.0
 62
     5
 63
     7
421
 16777215
 74
     1
 91
        4
 64
     7
 65
   257
 75
     1
175
     1
 42
1.0
 92
        0
 66
   257
 43
1.0
 76
     1
 77
     6
 78
     2
 67
     7
 79
     5
170
     0
171
     0
290
     0
174
     0
 93
       13
 44
0.0
173
     0
291
     1
 45
0.0
  0
VISUALSTYLE
  5
8FB
102
{ACAD_REACTORS
330
267
102
}
330
267
100
AcDbVisualStyle
  2
Hidden
 70
     6
 71
     1
 72
     2
 73
     2
 90
        0
 40
0.6
 41
30.0
 62
     5
 63
     7
421
 16777215
 74
     2
 91
        2
 64
     7
 65
   257
 75
     2
175
     1
 42
40.0
 92
        0
 66
   257
 43
1.0
 76
     1
 77
     6
 78
     2
 67
     7
 79
     3
170
     0
171
     0
290
     0
174
     0
 93
        1
 44
0.0
173
     0
291
     0
 45
0.0
  0
VISUALSTYLE
  5
8FC
102
{ACAD_REACTORS
330
267
102
}
330
267
100
AcDbVisualStyle
  2
JitterOff
 70
    20
 71
     2
 72
     2
 73
     0
 90
        0
 40
0.6
 41
30.0
 62
     5
 63
     7
421
 16777215
 74
     1
 91
        4
 64
     7
 65
   257
 75
     1
175
     1
 42
1.0
 92
       10
 66
     7
 43
1.0
 76
     1
 77
     6
 78
     2
 67
     7
 79
     5
170
     0
171
     0
290
     0
174
     0
 93
        1
 44
0.0
173
     0
291
     1
 45
0.0
  0
VISUALSTYLE
  5
275
102
{ACAD_REACTORS
330
267
102
}
330
267
100
AcDbVisualStyle
  2
Linepattern
 70
    14
 71
     2
 72
     2
 73
     0
 90
        0
 40
-0.6
 41
-30.0
 62
     5
 63
     7
421
 16777215
 74
     1
 91
        4
 64
     7
 65
   257
 75
     7
175
     7
 42
1.0
 92
        8
 66
     7
 43
1.0
 76
     1
 77
     6
 78
     2
 67
     7
 79
     5
170
     0
171
     0
290
     0
174
     0
 93
        1
 44
0.0
173
     0
291
     1
 45
0.0
  0
VISUALSTYLE
  5
8FD
102
{ACAD_REACTORS
330
267
102
}
330
267
100
AcDbVisualStyle
  2
OverhangOff
 70
    21
 71
     2
 72
     2
 73
     0
 90
        0
 40
0.6
 41
30.0
 62
     5
 63
     7
421
 16777215
 74
     1
 91
        4
 64
     7
 65
   257
 75
     1
175
     1
 42
1.0
 92
        9
 66
     7
 43
1.0
 76
     1
 77
     6
 78
     2
 67
     7
 79
     5
170
     0
171
     0
290
     0
174
     0
 93
        1
 44
0.0
173
     0
291
     1
 45
0.0
  0
VISUALSTYLE
  5
270
102
{ACAD_REACTORS
330
267
102
}
330
267
100
AcDbVisualStyle
  2
Realistic
 70
     8
 71
     2
 72
     2
 73
     0
 90
        0
 40
-0.6
 41
-30.0
 62
     5
 63
     7
421
 16777215
 74
     1
 91
        0
 64
     7
 65
   257
 75
     1
175
     1
 42
1.0
 92
        8
 66
     8
424
  7895160
 43
1.0
 76
     1
 77
     6
 78
     2
 67
     7
 79
     5
170
     0
171
     0
290
     0
174
     0
 93
       13
 44
0.0
173
     0
291
     0
 45
0.0
  0
VISUALSTYLE
  5
903
102
{ACAD_REACTORS
330
267
102
}
330
267
100
AcDbVisualStyle
  2
Shaded
 70
    27
 71
     2
 72
     2
 73
     1
 90
        2
 40
0.6
 41
30.0
 62
     5
 63
     7
421
 16777215
 74
     0
 91
        4
 64
     7
 65
   257
 75
     1
175
     1
 42
1.0
 92
        8
 66
   257
 43
1.0
 76
     1
 77
     6
 78
     2
 67
     8
425
  7895160
 79
     3
170
     0
171
     0
290
     0
174
     0
 93
        5
 44
0.0
173
     0
291
     0
 45
0.0
  0
VISUALSTYLE
  5
902
102
{ACAD_REACTORS
330
267
102
}
330
267
100
AcDbVisualStyle
  2
Shaded with edges
 70
    26
 71
     2
 72
     2
 73
     1
 90
        2
 40
0.6
 41
30.0
 62
     5
 63
     7
421
 16777215
 74
     1
 91
       10
 64
     7
 65
   257
 75
     2
175
     1
 42
1.0
 92
        8
 66
   257
 43
1.0
 76
     1
 77
     6
 78
     2
 67
     7
 79
     3
170
     0
171
     0
290
     0
174
     0
 93
        5
 44
0.0
173
     0
291
     0
 45
0.0
  0
VISUALSTYLE
  5
8FF
102
{ACAD_REACTORS
330
267
102
}
330
267
100
AcDbVisualStyle
  2
Shades of Gray
 70
    23
 71
     2
 72
     2
 73
     3
 90
        0
 40
0.6
 41
30.0
 62
     5
 63
     7
421
 16777215
 74
     2
 91
        2
 64
     7
 65
     7
 75
     1
175
     1
 42
40.0
 92
        8
 66
     7
 43
1.0
 76
     1
 77
     6
 78
     2
 67
     7
 79
     3
170
     0
171
     0
290
     0
174
     0
 93
        1
 44
0.0
173
     0
291
     0
 45
0.0
  0
VISUALSTYLE
  5
900
102
{ACAD_REACTORS
330
267
102
}
330
267
100
AcDbVisualStyle
  2
Sketchy
 70
    24
 71
     1
 72
     2
 73
     2
 90
        0
 40
0.6
 41
30.0
 62
     5
 63
     7
421
 16777215
 74
     2
 91
        2
 64
     7
 65
     7
 75
     1
175
     1
 42
40.0
 92
       11
 66
     7
 43
1.0
 76
     1
 77
     6
 78
     2
 67
     7
 79
     6
170
     0
171
     0
290
     0
174
     0
 93
        1
 44
0.0
173
     0
291
     0
 45
0.0
  0
VISUALSTYLE
  5
274
102
{ACAD_REACTORS
330
267
102
}
330
267
100
AcDbVisualStyle
  2
Thicken
 70
    13
 71
     2
 72
     2
 73
     0
 90
        0
 40
-0.6
 41
-30.0
 62
     5
 63
     7
421
 16777215
 74
     1
 91
        4
 64
     7
 65
   257
 75
     1
175
     1
 42
1.0
 92
       12
 66
     7
 43
1.0
 76
     1
 77
     6
 78
     2
 67
     7
 79
     5
170
     0
171
     0
290
     0
174
     0
 93
        1
 44
0.0
173
     0
291
     1
 45
0.0
  0
VISUALSTYLE
  5
8FA
102
{ACAD_REACTORS
330
267
102
}
330
267
100
AcDbVisualStyle
  2
Wireframe
 70
     5
 71
     0
 72
     2
 73
     0
 90
        0
 40
0.6
 41
30.0
 62
     5
 63
     7
421
 16777215
 74
     1
 91
        4
 64
     7
 65
   257
 75
     1
175
     1
 42
1.0
 92
        0
 66
   257
 43
1.0
 76
     1
 77
     6
 78
     2
 67
     7
 79
     3
170
     0
171
     0
290
     0
174
     0
 93
        1
 44
0.0
173
     0
291
     0
 45
0.0
  0
VISUALSTYLE
  5
901
102
{ACAD_REACTORS
330
267
102
}
330
267
100
AcDbVisualStyle
  2
X-Ray
 70
    25
 71
     2
 72
     2
 73
     1
 90
        1
 40
0.5
 41
30.0
 62
     5
 63
     7
421
 16777215
 74
     1
 91
        0
 64
     7
 65
   257
 75
     1
175
     1
 42
1.0
 92
        8
 66
     7
 43
1.0
 76
     1
 77
     6
 78
     2
 67
     7
 79
     3
170
     0
171
     0
290
     0
174
     0
 93
       13
 44
0.0
173
     0
291
     0
 45
0.0
  0
DICTIONARYVAR
  5
331
102
{ACAD_REACTORS
330
330
102
}
330
330
100
DictionaryVariables
280
     0
  1
1:1
  0
DICTIONARYVAR
  5
DB1
102
{ACAD_REACTORS
330
330
102
}
330
330
100
DictionaryVariables
280
     0
  1
Standard
  0
DICTIONARYVAR
  5
335
102
{ACAD_REACTORS
330
330
102
}
330
330
100
DictionaryVariables
280
     0
  1
Standard
  0
DICTIONARYVAR
  5
D52
102
{ACAD_REACTORS
330
330
102
}
330
330
100
DictionaryVariables
280
     0
  1
ByLayer
  0
DICTIONARYVAR
  5
896
102
{ACAD_REACTORS
330
330
102
}
330
330
100
DictionaryVariables
280
     0
  1
0
  0
DICTIONARYVAR
  5
ECE
102
{ACAD_REACTORS
330
E3E
102
}
330
E3E
100
DictionaryVariables
280
     0
  1
0.261799
  0
DICTIONARYVAR
  5
ECC
102
{ACAD_REACTORS
330
E3E
102
}
330
E3E
100
DictionaryVariables
280
     0
  1
0.400000
  0
DICTIONARYVAR
  5
ECD
102
{ACAD_REACTORS
330
E3E
102
}
330
E3E
100
DictionaryVariables
280
     0
  1
0.250000
  0
DICTIONARYVAR
  5
ECF
102
{ACAD_REACTORS
330
E3E
102
}
330
E3E
100
DictionaryVariables
280
     0
  1
1
  0
FIELD
  5
1467
102
{ACAD_REACTORS
330
3E80
102
}
330
3E80
100
AcDbField
  1
_text
  2
{%<\_FldIdx 0>%M}
 90
        1
360
146B
 97
        0
 91
       63
 92
        0
 94
       11
 95
        2
 96
        0
300

 93
        1
  6
ACFD_FIELDTEXT_CHECKSUM
 93
        2
 90
        2
140
4485.0
 94
        0
300

302

304
ACVALUE_END
  7
ACFD_FIELD_VALUE
 93
        6
 90
        4
  1
{20240405M}
 94
        0
300

302

304
ACVALUE_END
301
{20240405M}
 98
       11
  0
DICTIONARY
  5
3F2B
330
279
100
AcDbDictionary
280
     1
281
     1
  3
ACAD_ROUNDTRIP_2008_TABLESTYLE_CELLSTYLEMAP
360
3F2C
  0
FIELD
  5
146B
330
1467
100
AcDbField
  1
AcVar
  2
\AcVar Date \f "yyyyMMdd"
 90
        0
 97
        0
 91
       63
 92
        0
 94
        8
 95
       64
 96
        0
300
Variable not supported
 93
        1
  6
Variable
 93
        2
 90
        4
  1
Date
 94
        0
300

302

304
ACVALUE_END
  7
ACFD_FIELD_VALUE
 93
        6
 90
        8
 92
       16
310
E807040000000500060005002C000000
 94
        0
300
yyyyMMdd
302

304
ACVALUE_END
301
20240405
 98
        8
  0
CELLSTYLEMAP
  5
3F2C
102
{ACAD_REACTORS
330
3F2B
102
}
330
3F2B
100
AcDbCellStyleMap
 90
        3
300
CELLSTYLE
  1
TABLEFORMAT_BEGIN
 90
        5
170
     1
 91
        0
 92
    32768
 62
   257
 93
        1
300
CONTENTFORMAT
  1
CONTENTFORMAT_BEGIN
 90
        0
 91
        0
 92
        4
 93
        0
300

 40
0.0
140
1.0
 94
        5
 62
     0
340
17
144
6.0
309
CONTENTFORMAT_END
171
     1
301
MARGIN
  1
CELLMARGIN_BEGIN
 40
0.06
 40
0.06
 40
0.06
 40
0.06
 40
0.18
 40
0.18
309
CELLMARGIN_END
 94
        6
 95
        1
302
GRIDFORMAT
  1
GRIDFORMAT_BEGIN
 90
        0
 91
        1
 62
     0
 92
       -2
340
0
 93
        0
 40
0.045
309
GRIDFORMAT_END
 95
        2
302
GRIDFORMAT
  1
GRIDFORMAT_BEGIN
 90
        0
 91
        1
 62
     0
 92
       -2
340
0
 93
        0
 40
0.045
309
GRIDFORMAT_END
 95
        4
302
GRIDFORMAT
  1
GRIDFORMAT_BEGIN
 90
        0
 91
        1
 62
     0
 92
       -2
340
0
 93
        0
 40
0.045
309
GRIDFORMAT_END
 95
        8
302
GRIDFORMAT
  1
GRIDFORMAT_BEGIN
 90
        0
 91
        1
 62
     0
 92
       -2
340
0
 93
        0
 40
0.045
309
GRIDFORMAT_END
 95
       16
302
GRIDFORMAT
  1
GRIDFORMAT_BEGIN
 90
        0
 91
        1
 62
     0
 92
       -2
340
0
 93
        0
 40
0.045
309
GRIDFORMAT_END
 95
       32
302
GRIDFORMAT
  1
GRIDFORMAT_BEGIN
 90
        0
 91
        1
 62
     0
 92
       -2
340
0
 93
        0
 40
0.045
309
GRIDFORMAT_END
309
TABLEFORMAT_END
  1
CELLSTYLE_BEGIN
 90
        1
 91
        1
300
_TITLE
309
CELLSTYLE_END
300
CELLSTYLE
  1
TABLEFORMAT_BEGIN
 90
        5
170
     1
 91
        0
 92
        0
 62
   257
 93
        1
300
CONTENTFORMAT
  1
CONTENTFORMAT_BEGIN
 90
        0
 91
        0
 92
        4
 93
        0
300

 40
0.0
140
1.0
 94
        5
 62
     0
340
17
144
4.5
309
CONTENTFORMAT_END
171
     1
301
MARGIN
  1
CELLMARGIN_BEGIN
 40
0.06
 40
0.06
 40
0.06
 40
0.06
 40
0.18
 40
0.18
309
CELLMARGIN_END
 94
        6
 95
        1
302
GRIDFORMAT
  1
GRIDFORMAT_BEGIN
 90
        0
 91
        1
 62
     0
 92
       -2
340
0
 93
        0
 40
0.045
309
GRIDFORMAT_END
 95
        2
302
GRIDFORMAT
  1
GRIDFORMAT_BEGIN
 90
        0
 91
        1
 62
     0
 92
       -2
340
0
 93
        0
 40
0.045
309
GRIDFORMAT_END
 95
        4
302
GRIDFORMAT
  1
GRIDFORMAT_BEGIN
 90
        0
 91
        1
 62
     0
 92
       -2
340
0
 93
        0
 40
0.045
309
GRIDFORMAT_END
 95
        8
302
GRIDFORMAT
  1
GRIDFORMAT_BEGIN
 90
        0
 91
        1
 62
     0
 92
       -2
340
0
 93
        0
 40
0.045
309
GRIDFORMAT_END
 95
       16
302
GRIDFORMAT
  1
GRIDFORMAT_BEGIN
 90
        0
 91
        1
 62
     0
 92
       -2
340
0
 93
        0
 40
0.045
309
GRIDFORMAT_END
 95
       32
302
GRIDFORMAT
  1
GRIDFORMAT_BEGIN
 90
        0
 91
        1
 62
     0
 92
       -2
340
0
 93
        0
 40
0.045
309
GRIDFORMAT_END
309
TABLEFORMAT_END
  1
CELLSTYLE_BEGIN
 90
        2
 91
        1
300
_HEADER
309
CELLSTYLE_END
300
CELLSTYLE
  1
TABLEFORMAT_BEGIN
 90
        5
170
     1
 91
        0
 92
        0
 62
   257
 93
        1
300
CONTENTFORMAT
  1
CONTENTFORMAT_BEGIN
 90
        0
 91
        0
 92
        4
 93
        0
300

 40
0.0
140
1.0
 94
        2
 62
     0
340
17
144
4.5
309
CONTENTFORMAT_END
171
     1
301
MARGIN
  1
CELLMARGIN_BEGIN
 40
0.06
 40
0.06
 40
0.06
 40
0.06
 40
0.18
 40
0.18
309
CELLMARGIN_END
 94
        6
 95
        1
302
GRIDFORMAT
  1
GRIDFORMAT_BEGIN
 90
        0
 91
        1
 62
     0
 92
       -2
340
0
 93
        0
 40
0.045
309
GRIDFORMAT_END
 95
        2
302
GRIDFORMAT
  1
GRIDFORMAT_BEGIN
 90
        0
 91
        1
 62
     0
 92
       -2
340
0
 93
        0
 40
0.045
309
GRIDFORMAT_END
 95
        4
302
GRIDFORMAT
  1
GRIDFORMAT_BEGIN
 90
        0
 91
        1
 62
     0
 92
       -2
340
0
 93
        0
 40
0.045
309
GRIDFORMAT_END
 95
        8
302
GRIDFORMAT
  1
GRIDFORMAT_BEGIN
 90
        0
 91
        1
 62
     0
 92
       -2
340
0
 93
        0
 40
0.045
309
GRIDFORMAT_END
 95
       16
302
GRIDFORMAT
  1
GRIDFORMAT_BEGIN
 90
        0
 91
        1
 62
     0
 92
       -2
340
0
 93
        0
 40
0.045
309
GRIDFORMAT_END
 95
       32
302
GRIDFORMAT
  1
GRIDFORMAT_BEGIN
 90
        0
 91
        1
 62
     0
 92
       -2
340
0
 93
        0
 40
0.045
309
GRIDFORMAT_END
309
TABLEFORMAT_END
  1
CELLSTYLE_BEGIN
 90
        3
 91
        2
300
_DATA
309
CELLSTYLE_END
  0
ENDSEC
  0
EOF
