  0
SECTION
  2
HEADER
  9
$ACADVER
  1
AC1021
  9
$ACADMAINTVER
 70
    25
  9
$DWGCODEPAGE
  3
ANSI_932
  9
$LASTSAVEDBY
  1
tform
  9
$INSBASE
 10
0.0
 20
0.0
 30
0.0
  9
$EXTMIN
 10
0.0
 20
0.0
 30
-0.0000000000000142
  9
$EXTMAX
 10
2100.0
 20
2970.0
 30
34.99521132346014
  9
$LIMMIN
 10
0.0
 20
0.0
  9
$LIMMAX
 10
2100.0
 20
2970.0
  9
$ORTHOMODE
 70
     1
  9
$REGENMODE
 70
     1
  9
$FILLMODE
 70
     1
  9
$QTEXTMODE
 70
     0
  9
$MIRRTEXT
 70
     1
  9
$LTSCALE
 40
5.0
  9
$ATTMODE
 70
     1
  9
$TEXTSIZE
 40
2.5
  9
$TRACEWID
 40
1.0
  9
$TEXTSTYLE
  7
ＭＳ ゴシック
  9
$CLAYER
  8
DIM
  9
$CELTYPE
  6
ByLayer
  9
$CECOLOR
 62
   256
  9
$CELTSCALE
 40
1.0
  9
$DISPSILH
 70
     0
  9
$DIMSCALE
 40
1.0
  9
$DIMASZ
 40
10.0
  9
$DIMEXO
 40
30.0
  9
$DIMDLI
 40
0.9999999999999999
  9
$DIMRND
 40
0.0
  9
$DIMDLE
 40
0.0
  9
$DIMEXE
 40
0.0
  9
$DIMTP
 40
0.0
  9
$DIMTM
 40
0.0
  9
$DIMTXT
 40
24.0
  9
$DIMCEN
 40
0.0
  9
$DIMTSZ
 40
0.0
  9
$DIMTOL
 70
     0
  9
$DIMLIM
 70
     0
  9
$DIMTIH
 70
     0
  9
$DIMTOH
 70
     0
  9
$DIMSE1
 70
     0
  9
$DIMSE2
 70
     0
  9
$DIMTAD
 70
     1
  9
$DIMZIN
 70
    11
  9
$DIMBLK
  1
DOT
  9
$DIMASO
 70
     1
  9
$DIMSHO
 70
     1
  9
$DIMPOST
  1
<>
  9
$DIMAPOST
  1
[]
  9
$DIMALT
 70
     0
  9
$DIMALTD
 70
     1
  9
$DIMALTF
 40
1.0
  9
$DIMLFAC
 40
1.0
  9
$DIMTOFL
 70
     0
  9
$DIMTVP
 40
0.0
  9
$DIMTIX
 70
     1
  9
$DIMSOXD
 70
     0
  9
$DIMSAH
 70
     0
  9
$DIMBLK1
  1

  9
$DIMBLK2
  1

  9
$DIMSTYLE
  2
tfrom線あり
  9
$DIMCLRD
 70
     0
  9
$DIMCLRE
 70
     0
  9
$DIMCLRT
 70
     0
  9
$DIMTFAC
 40
1.0
  9
$DIMGAP
 40
20.0
  9
$DIMJUST
 70
     0
  9
$DIMSD1
 70
     0
  9
$DIMSD2
 70
     0
  9
$DIMTOLJ
 70
     1
  9
$DIMTZIN
 70
    11
  9
$DIMALTZ
 70
    11
  9
$DIMALTTZ
 70
    11
  9
$DIMUPT
 70
     0
  9
$DIMDEC
 70
     0
  9
$DIMTDEC
 70
     1
  9
$DIMALTU
 70
     2
  9
$DIMALTTD
 70
     2
  9
$DIMTXSTY
  7
ＭＳ ゴシック
  9
$DIMAUNIT
 70
     0
  9
$DIMADEC
 70
     2
  9
$DIMALTRND
 40
0.0
  9
$DIMAZIN
 70
     0
  9
$DIMDSEP
 70
    46
  9
$DIMATFIT
 70
     0
  9
$DIMFRAC
 70
     2
  9
$DIMLDRBLK
  1
DOT
  9
$DIMLUNIT
 70
     2
  9
$DIMLWD
 70
    -2
  9
$DIMLWE
 70
    -2
  9
$DIMTMOVE
 70
     0
  9
$DIMFXL
 40
1.0
  9
$DIMFXLON
 70
     0
  9
$DIMJOGANG
 40
0.7853981633974483
  9
$DIMTFILL
 70
     0
  9
$DIMTFILLCLR
 70
     0
  9
$DIMARCSYM
 70
     0
  9
$DIMLTYPE
  6

  9
$DIMLTEX1
  6

  9
$DIMLTEX2
  6

  9
$LUNITS
 70
     2
  9
$LUPREC
 70
     0
  9
$SKETCHINC
 40
0.1
  9
$FILLETRAD
 40
0.0
  9
$AUNITS
 70
     0
  9
$AUPREC
 70
     0
  9
$MENU
  1
acad
  9
$ELEVATION
 40
0.0
  9
$PELEVATION
 40
0.0
  9
$THICKNESS
 40
0.0
  9
$LIMCHECK
 70
     0
  9
$CHAMFERA
 40
0.0
  9
$CHAMFERB
 40
0.0
  9
$CHAMFERC
 40
0.0
  9
$CHAMFERD
 40
0.0
  9
$SKPOLY
 70
     0
  9
$TDCREATE
 40
2447893.375
  9
$TDUCREATE
 40
0.0
  9
$TDUPDATE
 40
2460417.683684213
  9
$TDUUPDATE
 40
2460417.308684213
  9
$TDINDWG
 40
0.1750496065
  9
$TDUSRTIMER
 40
0.0002191319
  9
$USRTIMER
 70
     1
  9
$ANGBASE
 50
0.0
  9
$ANGDIR
 70
     0
  9
$PDMODE
 70
     1
  9
$PDSIZE
 40
-2.0
  9
$PLINEWID
 40
0.0
  9
$SPLFRAME
 70
     0
  9
$SPLINETYPE
 70
     6
  9
$SPLINESEGS
 70
     8
  9
$HANDSEED
  5
44BC
  9
$SURFTAB1
 70
     6
  9
$SURFTAB2
 70
     6
  9
$SURFTYPE
 70
     6
  9
$SURFU
 70
     6
  9
$SURFV
 70
     6
  9
$UCSBASE
  2

  9
$UCSNAME
  2

  9
$UCSORG
 10
0.0
 20
0.0
 30
0.0
  9
$UCSXDIR
 10
1.0
 20
0.0
 30
0.0
  9
$UCSYDIR
 10
0.0
 20
1.0
 30
0.0
  9
$UCSORTHOREF
  2

  9
$UCSORTHOVIEW
 70
     0
  9
$UCSORGTOP
 10
0.0
 20
0.0
 30
0.0
  9
$UCSORGBOTTOM
 10
0.0
 20
0.0
 30
0.0
  9
$UCSORGLEFT
 10
0.0
 20
0.0
 30
0.0
  9
$UCSORGRIGHT
 10
0.0
 20
0.0
 30
0.0
  9
$UCSORGFRONT
 10
0.0
 20
0.0
 30
0.0
  9
$UCSORGBACK
 10
0.0
 20
0.0
 30
0.0
  9
$PUCSBASE
  2

  9
$PUCSNAME
  2

  9
$PUCSORG
 10
0.0
 20
0.0
 30
0.0
  9
$PUCSXDIR
 10
1.0
 20
0.0
 30
0.0
  9
$PUCSYDIR
 10
0.0
 20
1.0
 30
0.0
  9
$PUCSORTHOREF
  2

  9
$PUCSORTHOVIEW
 70
     0
  9
$PUCSORGTOP
 10
0.0
 20
0.0
 30
0.0
  9
$PUCSORGBOTTOM
 10
0.0
 20
0.0
 30
0.0
  9
$PUCSORGLEFT
 10
0.0
 20
0.0
 30
0.0
  9
$PUCSORGRIGHT
 10
0.0
 20
0.0
 30
0.0
  9
$PUCSORGFRONT
 10
0.0
 20
0.0
 30
0.0
  9
$PUCSORGBACK
 10
0.0
 20
0.0
 30
0.0
  9
$USERI1
 70
     0
  9
$USERI2
 70
     0
  9
$USERI3
 70
     0
  9
$USERI4
 70
     0
  9
$USERI5
 70
     0
  9
$USERR1
 40
0.0
  9
$USERR2
 40
0.0
  9
$USERR3
 40
0.0
  9
$USERR4
 40
0.0
  9
$USERR5
 40
0.0
  9
$WORLDVIEW
 70
     1
  9
$SHADEDGE
 70
     3
  9
$SHADEDIF
 70
    70
  9
$TILEMODE
 70
     1
  9
$MAXACTVP
 70
    64
  9
$PINSBASE
 10
0.0
 20
0.0
 30
0.0
  9
$PLIMCHECK
 70
     0
  9
$PEXTMIN
 10
0.0
 20
0.0
 30
0.0
  9
$PEXTMAX
 10
0.0
 20
0.0
 30
0.0
  9
$PLIMMIN
 10
-7.5
 20
-20.0
  9
$PLIMMAX
 10
412.5
 20
277.0
  9
$UNITMODE
 70
     0
  9
$VISRETAIN
 70
     0
  9
$PLINEGEN
 70
     1
  9
$PSLTSCALE
 70
     0
  9
$TREEDEPTH
 70
  3020
  9
$CMLSTYLE
  2
Standard
  9
$CMLJUST
 70
     0
  9
$CMLSCALE
 40
1.0
  9
$PROXYGRAPHICS
 70
     0
  9
$MEASUREMENT
 70
     1
  9
$CELWEIGHT
370
    -1
  9
$ENDCAPS
280
     0
  9
$JOINSTYLE
280
     0
  9
$LWDISPLAY
290
     1
  9
$INSUNITS
 70
     4
  9
$HYPERLINKBASE
  1

  9
$STYLESHEET
  1

  9
$XEDIT
290
     1
  9
$CEPSNTYPE
380
     0
  9
$PSTYLEMODE
290
     1
  9
$FINGERPRINTGUID
  2

  9
$VERSIONGUID
  2

  9
$EXTNAMES
290
     1
  9
$PSVPSCALE
 40
0.0
  9
$OLESTARTUP
290
     0
  9
$SORTENTS
280
   127
  9
$INDEXCTL
280
     0
  9
$HIDETEXT
280
     1
  9
$XCLIPFRAME
290
     0
  9
$HALOGAP
280
     0
  9
$OBSCOLOR
 70
   257
  9
$OBSLTYPE
280
     0
  9
$INTERSECTIONDISPLAY
280
     0
  9
$INTERSECTIONCOLOR
 70
   257
  9
$DIMASSOC
280
     2
  9
$PROJECTNAME
  1

  9
$CAMERADISPLAY
290
     0
  9
$LENSLENGTH
 40
50.0
  9
$CAMERAHEIGHT
 40
0.0
  9
$STEPSPERSEC
 40
2.0
  9
$STEPSIZE
 40
6.0
  9
$3DDWFPREC
 40
2.0
  9
$PSOLWIDTH
 40
0.25
  9
$PSOLHEIGHT
 40
4.0
  9
$LOFTANG1
 40
1.570796326794897
  9
$LOFTANG2
 40
1.570796326794897
  9
$LOFTMAG1
 40
0.0
  9
$LOFTMAG2
 40
0.0
  9
$LOFTPARAM
 70
     7
  9
$LOFTNORMALS
280
     1
  9
$LATITUDE
 40
37.795
  9
$LONGITUDE
 40
-122.394
  9
$NORTHDIRECTION
 40
0.0
  9
$TIMEZONE
 70
 -8000
  9
$LIGHTGLYPHDISPLAY
280
     1
  9
$TILEMODELIGHTSYNCH
280
     1
  9
$SOLIDHIST
280
     1
  9
$SHOWHIST
280
     1
  9
$DWFFRAME
280
     2
  9
$DGNFRAME
280
     2
  9
$REALWORLDSCALE
290
     1
  9
$INTERFERECOLOR
 62
   256
  9
$CSHADOW
280
     0
  9
$SHADOWPLANELOCATION
 40
0.0
  0
ENDSEC
  0
SECTION
  2
CLASSES
  0
CLASS
  1
LWPOLYLINE
  2
AcDbPolyline
  3
ObjectDBX Classes
 90
        0
 91
        1
280
     0
281
     1
  0
CLASS
  1
IMAGE
  2
AcDbRasterImage
  3
ISM
 90
      127
 91
        4
280
     0
281
     1
  0
CLASS
  1
OLE2FRAME
  2
AcDbOle2Frame
  3
ObjectDBX Classes
 90
        0
 91
        1
280
     0
281
     1
  0
CLASS
  1
HATCH
  2
AcDbHatch
  3
ObjectDBX Classes
 90
        0
 91
        1
280
     0
281
     1
  0
CLASS
  1
DICTIONARYVAR
  2
AcDbDictionaryVar
  3
ObjectDBX Classes
 90
        0
 91
        3
280
     0
281
     0
  0
CLASS
  1
RASTERVARIABLES
  2
AcDbRasterVariables
  3
ISM
 90
        0
 91
        3
280
     0
281
     0
  0
CLASS
  1
IMAGEDEF
  2
AcDbRasterImageDef
  3
ISM
 90
        0
 91
        3
280
     0
281
     0
  0
CLASS
  1
IMAGEDEF_REACTOR
  2
AcDbRasterImageDefReactor
  3
ISM
 90
        1
 91
        3
280
     0
281
     0
  0
CLASS
  1
IDBUFFER
  2
AcDbIdBuffer
  3
ObjectDBX Classes
 90
        0
 91
        3
280
     0
281
     0
  0
CLASS
  1
SPATIAL_FILTER
  2
AcDbSpatialFilter
  3
ObjectDBX Classes
 90
        0
 91
        3
280
     0
281
     0
  0
CLASS
  1
XRECORD
  2
AcDbXrecord
  3
ObjectDBX Classes
 90
        0
 91
        1
280
     0
281
     0
  0
CLASS
  1
SORTENTSTABLE
  2
AcDbSortentsTable
  3
ObjectDBX Classes
 90
        0
 91
        3
280
     0
281
     0
  0
CLASS
  1
LAYER_INDEX
  2
AcDbLayerIndex
  3
ObjectDBX Classes
 90
        0
 91
        3
280
     0
281
     0
  0
CLASS
  1
SPATIAL_INDEX
  2
AcDbSpatialIndex
  3
AutoCAD 2000
 90
        0
 91
        3
280
     0
281
     0
  0
CLASS
  1
OBJECT_PTR
  2
CAseDLPNTableRecord
  3
ASE-LPNTableRecord
 90
        1
 91
        3
280
     0
281
     0
  0
CLASS
  1
LAYOUT
  2
AcDbLayout
  3
ObjectDBX Classes
 90
        0
 91
        1
280
     0
281
     0
  0
CLASS
  1
PLOTSETTINGS
  2
AcDbPlotSettings
  3
ObjectDBX Classes
 90
        0
 91
        3
280
     0
281
     0
  0
CLASS
  1
ACDBDICTIONARYWDFLT
  2
AcDbDictionaryWithDefault
  3
ObjectDBX Classes
 90
        0
 91
        3
280
     0
281
     0
  0
CLASS
  1
ACDBPLACEHOLDER
  2
AcDbPlaceHolder
  3
ObjectDBX Classes
 90
        0
 91
        1
280
     0
281
     0
  0
CLASS
  1
SCALE
  2
AcDbScale
  3
ObjectDBX Classes
 90
     1153
 91
        3
280
     0
281
     0
  0
CLASS
  1
MATERIAL
  2
AcDbMaterial
  3
ObjectDBX Classes
 90
     1153
 91
        3
280
     0
281
     0
  0
CLASS
  1
VISUALSTYLE
  2
AcDbVisualStyle
  3
ObjectDBX Classes
 90
     4095
 91
        3
280
     0
281
     0
  0
CLASS
  1
TABLESTYLE
  2
AcDbTableStyle
  3
ObjectDBX Classes
 90
     4095
 91
        3
280
     0
281
     0
  0
CLASS
  1
DIMASSOC
  2
AcDbDimAssoc
  3
"AcDbDimAssoc|Product Desc:     AcDim ARX App For Dimension|Company:          Autodesk, Inc.|WEB Address:      www.autodesk.com"
 90
        0
 91
        3
280
     0
281
     0
  0
CLASS
  1
CELLSTYLEMAP
  2
AcDbCellStyleMap
  3
ObjectDBX Classes
 90
     1152
 91
        3
280
     0
281
     0
  0
CLASS
  1
SUN
  2
AcDbSun
  3
SCENEOE
 90
     1153
 91
        3
280
     0
281
     0
  0
CLASS
  1
MLEADERSTYLE
  2
AcDbMLeaderStyle
  3
ACDB_MLEADERSTYLE_CLASS
 90
     4095
 91
        3
280
     0
281
     0
  0
CLASS
  1
FIELD
  2
AcDbField
  3
ObjectDBX Classes
 90
     1152
 91
        3
280
     0
281
     0
  0
CLASS
  1
FIELDLIST
  2
AcDbFieldList
  3
ObjectDBX Classes
 90
     1152
 91
        3
280
     0
281
     0
  0
CLASS
  1
MULTILEADER
  2
AcDbMLeader
  3
ACDB_MLEADER_CLASS
 90
     1025
 91
        3
280
     0
281
     1
  0
ENDSEC
  0
SECTION
  2
TABLES
  0
TABLE
  2
VPORT
  5
7
330
0
100
AcDbSymbolTable
 70
     1
  0
VPORT
  5
15
330
7
100
AcDbSymbolTableRecord
100
AcDbViewportTableRecord
  2
*ACTIVE
 70
     0
 10
0.0
 20
0.0
 11
1.0
 21
1.0
 12
1141.020135670897
 22
1411.401285469834
 13
0.0
 23
0.0
 14
1.0
 24
1.0
 15
0.0
 25
0.0
 16
0.0
 26
0.0
 36
1.0
 17
-91.02013567089693
 27
73.59871453016603
 37
-46.86809886248109
 40
3029.4
 41
2.136546184738956
 42
50.0
 43
0.0
 44
0.0
 50
0.0
 51
0.0
 71
    16
 72
  2000
 73
     1
 74
     1
 75
     0
 76
     0
 77
     0
 78
     0
281
     0
 65
     1
110
0.0
120
0.0
130
0.0
111
1.0
121
0.0
131
0.0
112
0.0
122
1.0
132
0.0
 79
     0
146
0.0
348
26C
 60
     3
 61
     5
292
     1
282
     1
141
0.0
142
0.0
 63
   256
361
904
  0
ENDTAB
  0
TABLE
  2
LTYPE
  5
4
330
0
100
AcDbSymbolTable
 70
    15
  0
LTYPE
  5
11
330
4
100
AcDbSymbolTableRecord
100
AcDbLinetypeTableRecord
  2
ByBlock
 70
     0
  3

 72
    65
 73
     0
 40
0.0
  0
LTYPE
  5
12
330
4
100
AcDbSymbolTableRecord
100
AcDbLinetypeTableRecord
  2
ByLayer
 70
     0
  3

 72
    65
 73
     0
 40
0.0
  0
LTYPE
  5
13
330
4
100
AcDbSymbolTableRecord
100
AcDbLinetypeTableRecord
  2
Continuous
 70
     0
  3
Solid line
 72
    65
 73
     0
 40
0.0
  0
LTYPE
  5
DAF
330
4
100
AcDbSymbolTableRecord
100
AcDbLinetypeTableRecord
  2
BORDER
 70
     0
  3
Border __  __  . __  __  . __  __  . __  __  . 
 72
    65
 73
     6
 40
44.45
 49
12.7
 74
     0
 49
-6.35
 74
     0
 49
12.7
 74
     0
 49
-6.35
 74
     0
 49
0.0
 74
     0
 49
-6.35
 74
     0
  0
LTYPE
  5
33DD
330
4
100
AcDbSymbolTableRecord
100
AcDbLinetypeTableRecord
  2
HIDDEN
 70
     0
  3
Hidden _ _ _ _ _ _ _ _ _ _ _ _ _ _ _ _ _ _ _ _ 
 72
    65
 73
     2
 40
9.524999999999999
 49
6.35
 74
     0
 49
-3.175
 74
     0
  0
LTYPE
  5
3779
330
4
100
AcDbSymbolTableRecord
100
AcDbLinetypeTableRecord
  2
AI-Linetype-1
 70
     0
  3
Adobe Illustrator Linetype No. 1
 72
    65
 73
     2
 40
1.058122392397357
 49
0.7054149282649048
 74
     0
 49
-0.3527074641324524
 74
     0
  0
LTYPE
  5
377A
330
4
100
AcDbSymbolTableRecord
100
AcDbLinetypeTableRecord
  2
AI-Linetype-2
 70
     0
  3
Adobe Illustrator Linetype No. 2
 72
    65
 73
     2
 40
1.058122392397357
 49
0.7054149282649048
 74
     0
 49
-0.3527074641324524
 74
     0
  0
LTYPE
  5
377B
330
4
100
AcDbSymbolTableRecord
100
AcDbLinetypeTableRecord
  2
AI-Linetype-3
 70
     0
  3
Adobe Illustrator Linetype No. 3
 72
    65
 73
     2
 40
1.058122392397357
 49
0.7054149282649048
 74
     0
 49
-0.3527074641324524
 74
     0
  0
LTYPE
  5
377C
330
4
100
AcDbSymbolTableRecord
100
AcDbLinetypeTableRecord
  2
AI-Linetype-4
 70
     0
  3
Adobe Illustrator Linetype No. 4
 72
    65
 73
     2
 40
0.5290611961986786
 49
0.3527074641324524
 74
     0
 49
-0.1763537320662262
 74
     0
  0
LTYPE
  5
377D
330
4
100
AcDbSymbolTableRecord
100
AcDbLinetypeTableRecord
  2
AI-Linetype-5
 70
     0
  3
Adobe Illustrator Linetype No. 5
 72
    65
 73
     2
 40
0.5290611961986786
 49
0.3527074641324524
 74
     0
 49
-0.1763537320662262
 74
     0
  0
LTYPE
  5
3A6E
330
4
100
AcDbSymbolTableRecord
100
AcDbLinetypeTableRecord
  2
AI-Linetype-8
 70
     0
  3
Adobe Illustrator Linetype No. 8
 72
    65
 73
     2
 40
1.237580549911208
 49
0.8250419527406053
 74
     0
 49
-0.4125385971706028
 74
     0
  0
LTYPE
  5
3A6F
330
4
100
AcDbSymbolTableRecord
100
AcDbLinetypeTableRecord
  2
AI-Linetype-9
 70
     0
  3
Adobe Illustrator Linetype No. 9
 72
    65
 73
     2
 40
0.8534934893893988
 49
0.5689956595929325
 74
     0
 49
-0.2844978297964663
 74
     0
  0
LTYPE
  5
3A70
330
4
100
AcDbSymbolTableRecord
100
AcDbLinetypeTableRecord
  2
AI-Linetype-10
 70
     0
  3
Adobe Illustrator Linetype No. 10
 72
    65
 73
     2
 40
1.048960732737734
 49
0.6993118652530802
 74
     0
 49
-0.3496488674846537
 74
     0
  0
LTYPE
  5
3A71
330
4
100
AcDbSymbolTableRecord
100
AcDbLinetypeTableRecord
  2
AI-Linetype-11
 70
     0
  3
Adobe Illustrator Linetype No. 11
 72
    65
 73
     2
 40
1.048921916511774
 49
0.6992765815980639
 74
     0
 49
-0.3496453349137104
 74
     0
  0
LTYPE
  5
3A72
330
4
100
AcDbSymbolTableRecord
100
AcDbLinetypeTableRecord
  2
AI-Linetype-12
 70
     0
  3
Adobe Illustrator Linetype No. 12
 72
    65
 73
     2
 40
0.8534934893893988
 49
0.5689956595929325
 74
     0
 49
-0.2844978297964663
 74
     0
  0
LTYPE
  5
3AF8
330
4
100
AcDbSymbolTableRecord
100
AcDbLinetypeTableRecord
  2
AI-Linetype-6
 70
     0
  3
Adobe Illustrator Linetype No. 6
 72
    65
 73
     2
 40
1.081723183460906
 49
0.7211487889739376
 74
     0
 49
-0.3605743944869688
 74
     0
  0
LTYPE
  5
3AF9
330
4
100
AcDbSymbolTableRecord
100
AcDbLinetypeTableRecord
  2
AI-Linetype-7
 70
     0
  3
Adobe Illustrator Linetype No. 7
 72
    65
 73
     2
 40
0.9043428925867423
 49
0.6028976167717903
 74
     0
 49
-0.3014452758149519
 74
     0
  0
ENDTAB
  0
TABLE
  2
LAYER
  5
2
102
{ACAD_XDICTIONARY
360
2E1
102
}
330
0
100
AcDbSymbolTable
 70
    11
  0
LAYER
  5
14
330
2
100
AcDbSymbolTableRecord
100
AcDbLayerTableRecord
  2
0
 70
     0
 62
     7
  6
Continuous
370
    -3
390
1D
347
266
  0
LAYER
  5
4B
330
2
100
AcDbSymbolTableRecord
100
AcDbLayerTableRecord
  2
TEMPLATE
 70
     0
 62
     7
  6
Continuous
370
    20
390
1D
347
266
  0
LAYER
  5
4C
330
2
100
AcDbSymbolTableRecord
100
AcDbLayerTableRecord
  2
DIM
 70
     0
 62
     3
  6
Continuous
370
    13
390
1D
347
266
  0
LAYER
  5
4D
330
2
100
AcDbSymbolTableRecord
100
AcDbLayerTableRecord
  2
MODEL
 70
     0
 62
     7
  6
Continuous
370
    20
390
1D
347
266
  0
LAYER
  5
D5D
330
2
100
AcDbSymbolTableRecord
100
AcDbLayerTableRecord
  2
Defpoints
 70
     0
 62
     7
  6
Continuous
290
     0
370
    -3
390
1D
347
266
  0
LAYER
  5
DAE
330
2
100
AcDbSymbolTableRecord
100
AcDbLayerTableRecord
  2
BORDER
 70
     0
 62
     4
  6
BORDER
290
     0
370
    20
390
1D
347
266
1001
AcAecLayerStandard
1000

1000

  0
LAYER
  5
157B
330
2
100
AcDbSymbolTableRecord
100
AcDbLayerTableRecord
  2
Layer3
 70
     0
 62
     7
  6
Continuous
370
    -3
390
1D
347
266
  0
LAYER
  5
157F
330
2
100
AcDbSymbolTableRecord
100
AcDbLayerTableRecord
  2
Layer9
 70
     0
 62
     7
  6
Continuous
370
    -3
390
1D
347
266
  0
LAYER
  5
1582
330
2
100
AcDbSymbolTableRecord
100
AcDbLayerTableRecord
  2
Standard
 70
     0
 62
     7
  6
Continuous
370
    -3
390
1D
347
266
  0
LAYER
  5
33DC
330
2
100
AcDbSymbolTableRecord
100
AcDbLayerTableRecord
  2
HIDDEN
 70
     0
 62
     8
  6
HIDDEN
370
    20
390
1D
347
266
1001
AcAecLayerStandard
1000

1000

  0
LAYER
  5
3777
330
2
100
AcDbSymbolTableRecord
100
AcDbLayerTableRecord
  2
レイヤー 1
 70
     0
 62
     7
  6
Continuous
370
    -3
390
1D
347
266
  0
ENDTAB
  0
TABLE
  2
STYLE
  5
3
330
0
100
AcDbSymbolTable
 70
     3
  0
STYLE
  5
17
330
3
100
AcDbSymbolTableRecord
100
AcDbTextStyleTableRecord
  2
Standard
 70
     0
 40
0.0
 41
1.0
 50
0.0
 71
     0
 42
2.5
  3
txt
  4
BIGFONT.SHX
  0
STYLE
  5
39
330
3
100
AcDbSymbolTableRecord
100
AcDbTextStyleTableRecord
  2
ＭＳ ゴシック
 70
     0
 40
0.0
 41
1.0
 50
0.0
 71
     0
 42
2.5
  3
msgothic.ttc
  4
ＭＳ ゴシック
1001
ACAD
1000
ＭＳ ゴシック
1071
        0
  0
STYLE
  5
3EBC
330
3
100
AcDbSymbolTableRecord
100
AcDbTextStyleTableRecord
  2
MtXpl_century_shx
 70
     0
 40
0.0
 41
1.0
 50
0.0
 71
     0
 42
2.5
  3
century.shx
  4

  0
ENDTAB
  0
TABLE
  2
VIEW
  5
5
330
0
100
AcDbSymbolTable
 70
     0
  0
ENDTAB
  0
TABLE
  2
UCS
  5
6
330
0
100
AcDbSymbolTable
 70
     0
  0
ENDTAB
  0
TABLE
  2
APPID
  5
8
330
0
100
AcDbSymbolTable
 70
     8
  0
APPID
  5
16
330
8
100
AcDbSymbolTableRecord
100
AcDbRegAppTableRecord
  2
ACAD
 70
     0
  0
APPID
  5
7AC
330
8
100
AcDbSymbolTableRecord
100
AcDbRegAppTableRecord
  2
AcAecLayerStandard
 70
     0
  0
APPID
  5
F3A
330
8
100
AcDbSymbolTableRecord
100
AcDbRegAppTableRecord
  2
ACAD_MLEADERVER
 70
     0
  0
APPID
  5
3E42
330
8
100
AcDbSymbolTableRecord
100
AcDbRegAppTableRecord
  2
ACAD_DSTYLE_DIMJAG
 70
     0
  0
APPID
  5
3E43
330
8
100
AcDbSymbolTableRecord
100
AcDbRegAppTableRecord
  2
ACAD_DSTYLE_DIMTALN
 70
     0
  0
APPID
  5
3EA3
330
8
100
AcDbSymbolTableRecord
100
AcDbRegAppTableRecord
  2
PLOTTRANSPARENCY
 70
     0
  0
APPID
  5
3EBA
330
8
100
AcDbSymbolTableRecord
100
AcDbRegAppTableRecord
  2
AcadAnnotative
 70
     0
  0
APPID
  5
3EBB
330
8
100
AcDbSymbolTableRecord
100
AcDbRegAppTableRecord
  2
ACAD_NAV_VCDISPLAY
 70
     0
  0
ENDTAB
  0
TABLE
  2
DIMSTYLE
  5
9
330
0
100
AcDbSymbolTable
 70
     6
100
AcDbDimStyleTable
  0
DIMSTYLE
105
18
330
9
100
AcDbSymbolTableRecord
100
AcDbDimStyleTableRecord
  2
Standard
 70
     0
178
     0
340
17
  0
DIMSTYLE
105
57
102
{ACAD_REACTORS
330
3C95
330
3CBD
330
3CCD
330
3CED
330
3CFC
330
3D78
330
3D87
330
3DBC
330
3DDA
330
437C
330
438C
330
439B
330
4401
330
4418
330
4449
330
4458
102
}
330
9
100
AcDbSymbolTableRecord
100
AcDbDimStyleTableRecord
  2
tfrom線あり
 70
     0
  3
<>
  4
[]
 41
10.0
 42
30.0
 43
0.9999999999999999
 44
0.0
 73
     0
 74
     0
 77
     1
 78
    11
140
24.0
141
0.0
143
1.0
147
20.0
171
     1
174
     1
178
     0
179
     2
271
     0
272
     1
276
     2
284
    11
285
    11
286
    11
289
     0
340
39
341
4E
342
4E
  0
DIMSTYLE
105
3E37
330
9
100
AcDbSymbolTableRecord
100
AcDbDimStyleTableRecord
  2
tform線あり
 70
     0
  3
<>
  4
[]
 41
9.999389648437498
 42
25.0
 43
0.9999999999999999
 44
0.0
 73
     0
 74
     0
 77
     1
 78
    11
140
24.4326171875
141
0.0
143
1.0
146
0.8
147
10.0
171
     1
172
     1
174
     1
178
     0
179
     2
271
     1
272
     1
276
     2
284
    11
285
    11
286
    11
289
     0
340
39
341
4E
342
4E
  0
DIMSTYLE
105
3E41
330
9
100
AcDbSymbolTableRecord
100
AcDbDimStyleTableRecord
  2
scala  A3
 70
     0
 41
5.0
 42
0.625
 43
0.0
 44
1.25
 49
10.0
 90
        2
290
     1
 73
     0
 74
     0
 77
     1
 78
     8
140
6.0
141
2.5
143
0.03937007874016
147
2.0
171
     3
176
   256
177
   256
178
     0
271
     0
272
     0
274
     3
278
    44
283
     0
284
     8
340
17
371
    -1
372
     0
345
12
346
12
347
12
1001
ACAD_DSTYLE_DIMJAG
1070
   388
1040
1.5
1001
ACAD_DSTYLE_DIMTALN
1070
   392
1070
     0
  0
DIMSTYLE
105
3E44
330
9
100
AcDbSymbolTableRecord
100
AcDbDimStyleTableRecord
  2
Standard1
 70
     0
 41
0.0
 42
5.0
 44
0.0
 73
     0
 74
     0
 77
     2
140
20.0
141
0.0
147
2.0
178
     0
271
     0
272
     0
340
17
341
3E45
342
3E45
1001
ACAD_DSTYLE_DIMJAG
1070
   388
1040
1.5
1001
ACAD_DSTYLE_DIMTALN
1070
   392
1070
     0
  0
DIMSTYLE
105
3EB9
330
9
100
AcDbSymbolTableRecord
100
AcDbDimStyleTableRecord
  2
Annotative
 70
     0
178
     0
340
17
1001
AcadAnnotative
1000
AnnotativeData
1002
{
1070
     1
1070
     1
1002
}
  0
ENDTAB
  0
TABLE
  2
BLOCK_RECORD
  5
1
330
0
100
AcDbSymbolTable
 70
    39
  0
BLOCK_RECORD
  5
A
102
{ACAD_XDICTIONARY
360
374D
102
}
330
1
100
AcDbSymbolTableRecord
100
AcDbBlockTableRecord
  2
*MODEL_SPACE
340
20
 70
     0
280
     1
281
     0
  0
BLOCK_RECORD
  5
B
330
1
100
AcDbSymbolTableRecord
100
AcDbBlockTableRecord
  2
*PAPER_SPACE
340
21
 70
     0
280
     1
281
     0
  0
BLOCK_RECORD
  5
4E
330
1
100
AcDbSymbolTableRecord
100
AcDbBlockTableRecord
  2
_DOT
340
0
102
{BLKREFS
331
373A
331
373B
331
3746
331
3747
331
39FF
331
3A00
331
3A0F
331
3A10
331
3A1E
331
3A1F
331
3BD7
331
3BD8
331
3C1E
331
3C1F
331
3C35
331
3C36
331
3C44
331
3C45
331
3C53
331
3C54
331
3C62
331
3C63
331
3C8F
331
3C90
331
3C9E
331
3C9F
331
3CAD
331
3CAE
331
3CC6
331
3CC7
331
3CD6
331
3CD7
331
3CE7
331
3CE8
331
3CF6
331
3CF7
331
3D05
331
3D06
331
3D15
331
3D16
331
3D81
331
3D82
331
3D8E
331
3D8F
331
3DC5
331
3DC6
331
3DD4
331
3DD5
331
3DE3
331
3DE4
331
3DF2
331
3DF3
331
4385
331
4386
331
4395
331
4396
331
43A4
331
43A5
331
440A
331
440B
331
4421
331
4422
331
4430
331
4431
331
4452
331
4453
331
4461
331
4462
102
}
 70
     0
280
     1
281
     0
  0
BLOCK_RECORD
  5
68D
330
1
100
AcDbSymbolTableRecord
100
AcDbBlockTableRecord
  2
block 2
340
0
102
{BLKREFS
331
68C
102
}
 70
     0
280
     1
281
     0
  0
BLOCK_RECORD
  5
199A
330
1
100
AcDbSymbolTableRecord
100
AcDbBlockTableRecord
  2
SEANNOT_GROUP
340
0
102
{BLKREFS
331
28CA
102
}
 70
     0
280
     1
281
     0
  0
BLOCK_RECORD
  5
1F2F
330
1
100
AcDbSymbolTableRecord
100
AcDbBlockTableRecord
  2
SEANNOT_GROUP1
340
0
102
{BLKREFS
331
2B9B
102
}
 70
     0
280
     1
281
     0
  0
BLOCK_RECORD
  5
3734
330
1
100
AcDbSymbolTableRecord
100
AcDbBlockTableRecord
  2
*D4
340
0
 70
     0
280
     1
281
     0
  0
BLOCK_RECORD
  5
3740
330
1
100
AcDbSymbolTableRecord
100
AcDbBlockTableRecord
  2
*D5
340
0
 70
     0
280
     1
281
     0
  0
BLOCK_RECORD
  5
39F9
330
1
100
AcDbSymbolTableRecord
100
AcDbBlockTableRecord
  2
*D6
340
0
 70
     0
280
     1
281
     0
  0
BLOCK_RECORD
  5
3A09
330
1
100
AcDbSymbolTableRecord
100
AcDbBlockTableRecord
  2
*D7
340
0
 70
     0
280
     1
281
     0
  0
BLOCK_RECORD
  5
3A18
330
1
100
AcDbSymbolTableRecord
100
AcDbBlockTableRecord
  2
*D8
340
0
 70
     0
280
     1
281
     0
  0
BLOCK_RECORD
  5
3BD1
330
1
100
AcDbSymbolTableRecord
100
AcDbBlockTableRecord
  2
*D9
340
0
 70
     0
280
     1
281
     0
  0
BLOCK_RECORD
  5
3C17
330
1
100
AcDbSymbolTableRecord
100
AcDbBlockTableRecord
  2
*D10
340
0
 70
     0
280
     1
281
     0
  0
BLOCK_RECORD
  5
3C2F
330
1
100
AcDbSymbolTableRecord
100
AcDbBlockTableRecord
  2
*D11
340
0
 70
     0
280
     1
281
     0
  0
BLOCK_RECORD
  5
3C3E
330
1
100
AcDbSymbolTableRecord
100
AcDbBlockTableRecord
  2
*D12
340
0
 70
     0
280
     1
281
     0
  0
BLOCK_RECORD
  5
3C4D
330
1
100
AcDbSymbolTableRecord
100
AcDbBlockTableRecord
  2
*D13
340
0
 70
     0
280
     1
281
     0
  0
BLOCK_RECORD
  5
3C5C
330
1
100
AcDbSymbolTableRecord
100
AcDbBlockTableRecord
  2
*D14
340
0
 70
     0
280
     1
281
     0
  0
BLOCK_RECORD
  5
3C89
330
1
100
AcDbSymbolTableRecord
100
AcDbBlockTableRecord
  2
*D15
340
0
 70
     0
280
     1
281
     0
  0
BLOCK_RECORD
  5
3C98
330
1
100
AcDbSymbolTableRecord
100
AcDbBlockTableRecord
  2
*D16
340
0
 70
     0
280
     1
281
     0
  0
BLOCK_RECORD
  5
3CA7
330
1
100
AcDbSymbolTableRecord
100
AcDbBlockTableRecord
  2
*D17
340
0
 70
     0
280
     1
281
     0
  0
BLOCK_RECORD
  5
3CC0
330
1
100
AcDbSymbolTableRecord
100
AcDbBlockTableRecord
  2
*D18
340
0
 70
     0
280
     1
281
     0
  0
BLOCK_RECORD
  5
3CD0
330
1
100
AcDbSymbolTableRecord
100
AcDbBlockTableRecord
  2
*D19
340
0
 70
     0
280
     1
281
     0
  0
BLOCK_RECORD
  5
3CE1
330
1
100
AcDbSymbolTableRecord
100
AcDbBlockTableRecord
  2
*D20
340
0
 70
     0
280
     1
281
     0
  0
BLOCK_RECORD
  5
3CF0
330
1
100
AcDbSymbolTableRecord
100
AcDbBlockTableRecord
  2
*D21
340
0
 70
     0
280
     1
281
     0
  0
BLOCK_RECORD
  5
3CFF
330
1
100
AcDbSymbolTableRecord
100
AcDbBlockTableRecord
  2
*D22
340
0
 70
     0
280
     1
281
     0
  0
BLOCK_RECORD
  5
3D0F
330
1
100
AcDbSymbolTableRecord
100
AcDbBlockTableRecord
  2
*D23
340
0
 70
     0
280
     1
281
     0
  0
BLOCK_RECORD
  5
3D7B
330
1
100
AcDbSymbolTableRecord
100
AcDbBlockTableRecord
  2
*D24
340
0
 70
     0
280
     1
281
     0
  0
BLOCK_RECORD
  5
3D88
330
1
100
AcDbSymbolTableRecord
100
AcDbBlockTableRecord
  2
*D25
340
0
 70
     0
280
     1
281
     0
  0
BLOCK_RECORD
  5
3DBF
330
1
100
AcDbSymbolTableRecord
100
AcDbBlockTableRecord
  2
*D26
340
0
 70
     0
280
     1
281
     0
  0
BLOCK_RECORD
  5
3DCE
330
1
100
AcDbSymbolTableRecord
100
AcDbBlockTableRecord
  2
*D27
340
0
 70
     0
280
     1
281
     0
  0
BLOCK_RECORD
  5
3DDD
330
1
100
AcDbSymbolTableRecord
100
AcDbBlockTableRecord
  2
*D28
340
0
 70
     0
280
     1
281
     0
  0
BLOCK_RECORD
  5
3DEC
330
1
100
AcDbSymbolTableRecord
100
AcDbBlockTableRecord
  2
*D29
340
0
 70
     0
280
     1
281
     0
  0
BLOCK_RECORD
  5
3E45
330
1
100
AcDbSymbolTableRecord
100
AcDbBlockTableRecord
  2
_None
340
0
 70
     0
280
     1
281
     0
  0
BLOCK_RECORD
  5
437F
330
1
100
AcDbSymbolTableRecord
100
AcDbBlockTableRecord
  2
*D31
340
0
 70
     0
280
     1
281
     0
  0
BLOCK_RECORD
  5
438F
330
1
100
AcDbSymbolTableRecord
100
AcDbBlockTableRecord
  2
*D32
340
0
 70
     0
280
     1
281
     0
  0
BLOCK_RECORD
  5
439E
330
1
100
AcDbSymbolTableRecord
100
AcDbBlockTableRecord
  2
*D33
340
0
 70
     0
280
     1
281
     0
  0
BLOCK_RECORD
  5
4404
330
1
100
AcDbSymbolTableRecord
100
AcDbBlockTableRecord
  2
*D34
340
0
 70
     0
280
     1
281
     0
  0
BLOCK_RECORD
  5
441B
330
1
100
AcDbSymbolTableRecord
100
AcDbBlockTableRecord
  2
*D35
340
0
 70
     0
280
     1
281
     0
  0
BLOCK_RECORD
  5
442A
330
1
100
AcDbSymbolTableRecord
100
AcDbBlockTableRecord
  2
*D36
340
0
 70
     0
280
     1
281
     0
  0
BLOCK_RECORD
  5
444C
330
1
100
AcDbSymbolTableRecord
100
AcDbBlockTableRecord
  2
*D37
340
0
 70
     0
280
     1
281
     0
  0
BLOCK_RECORD
  5
445B
330
1
100
AcDbSymbolTableRecord
100
AcDbBlockTableRecord
  2
*D38
340
0
 70
     0
280
     1
281
     0
  0
ENDTAB
  0
ENDSEC
  0
SECTION
  2
BLOCKS
  0
BLOCK
  5
D
330
A
100
AcDbEntity
  8
0
390
1D
100
AcDbBlockBegin
  2
*MODEL_SPACE
 70
     0
 10
0.0
 20
0.0
 30
0.0
  3
*MODEL_SPACE
  1
*MODEL_SPACE
  0
ENDBLK
  5
E
330
A
100
AcDbEntity
  8
0
390
1D
100
AcDbBlockEnd
  0
BLOCK
  5
F
330
B
100
AcDbEntity
 67
     1
  8
0
390
1D
100
AcDbBlockBegin
  2
*PAPER_SPACE
 70
     0
 10
0.0
 20
0.0
 30
0.0
  3
*PAPER_SPACE
  1
*PAPER_SPACE
  0
ENDBLK
  5
10
330
B
100
AcDbEntity
 67
     1
  8
0
390
1D
100
AcDbBlockEnd
  0
BLOCK
  5
EC4
330
4E
100
AcDbEntity
  8
0
390
1D
100
AcDbBlockBegin
  2
_DOT
 70
     0
 10
0.0
 20
0.0
 30
0.0
  3
_DOT
  1
_DOT
  0
POLYLINE
  5
EC6
330
4E
100
AcDbEntity
  8
0
  6
ByBlock
 62
     0
370
    -2
390
1D
100
AcDb2dPolyline
 66
     1
 10
0.0
 20
0.0
 30
0.0
 70
     1
 40
0.5
 41
0.5
  0
VERTEX
  5
EC7
330
EC6
100
AcDbEntity
  8
0
  6
ByBlock
 62
     0
370
    -2
390
1D
100
AcDbVertex
100
AcDb2dVertex
 10
-0.25
 20
0.0
 30
0.0
 42
1.0
  0
VERTEX
  5
EC8
330
EC6
100
AcDbEntity
  8
0
  6
ByBlock
 62
     0
370
    -2
390
1D
100
AcDbVertex
100
AcDb2dVertex
 10
0.25
 20
0.0
 30
0.0
 42
1.0
  0
SEQEND
  5
EC9
330
EC6
100
AcDbEntity
  8
0
390
1D
  0
LINE
  5
ECA
330
4E
100
AcDbEntity
  8
0
  6
ByBlock
 62
     0
370
    -2
390
1D
100
AcDbLine
 10
-0.5
 20
0.0
 30
0.0
 11
-1.0
 21
0.0
 31
0.0
  0
ENDBLK
  5
ECB
330
4E
100
AcDbEntity
  8
0
390
1D
100
AcDbBlockEnd
  0
BLOCK
  5
68E
330
68D
100
AcDbEntity
  8
0
100
AcDbBlockBegin
  2
block 2
 70
     0
 10
0.0
 20
0.0
 30
0.0
  3
block 2
  1
block 2
  0
ENDBLK
  5
6B0
330
68D
100
AcDbEntity
  8
0
100
AcDbBlockEnd
  0
BLOCK
  5
199B
330
199A
100
AcDbEntity
  8
0
100
AcDbBlockBegin
  2
SEANNOT_GROUP
 70
     0
 10
0.0
 20
0.0
 30
0.0
  3
SEANNOT_GROUP
  1
SEANNOT_GROUP
  0
ENDBLK
  5
199C
330
199A
100
AcDbEntity
  8
0
100
AcDbBlockEnd
  0
BLOCK
  5
1F30
330
1F2F
100
AcDbEntity
  8
0
100
AcDbBlockBegin
  2
SEANNOT_GROUP1
 70
     0
 10
0.0
 20
0.0
 30
0.0
  3
SEANNOT_GROUP1
  1
SEANNOT_GROUP1
  0
ENDBLK
  5
1F31
330
1F2F
100
AcDbEntity
  8
0
100
AcDbBlockEnd
  0
BLOCK
  5
3735
330
3734
100
AcDbEntity
  8
0
100
AcDbBlockBegin
  2
*D4
 70
     1
 10
0.0
 20
0.0
 30
0.0
  3
*D4
  1

  0
LINE
  5
3737
330
3734
100
AcDbEntity
  8
DIM
 62
     0
370
    -2
100
AcDbLine
 10
792.5747720364734
 20
1624.375151854103
 30
0.0
 11
792.5747720364734
 21
1945.106376948328
 31
0.0
  0
LINE
  5
3738
330
3734
100
AcDbEntity
  8
DIM
 62
     0
370
    -2
100
AcDbLine
 10
1363.464741641327
 20
1624.375151854103
 30
0.0
 11
1363.464741641327
 21
1945.106376948328
 31
0.0
  0
LINE
  5
3739
330
3734
100
AcDbEntity
  8
DIM
 62
     0
370
    -2
100
AcDbLine
 10
802.5747720364734
 20
1945.106376948328
 30
0.0
 11
1353.464741641327
 21
1945.106376948328
 31
0.0
  0
INSERT
  5
373A
330
3734
100
AcDbEntity
  8
DIM
 62
     0
370
    -2
100
AcDbBlockReference
  2
_DOT
 10
792.5747720364734
 20
1945.106376948328
 30
0.0
 41
10.0
 42
10.0
 43
10.0
 50
180.0
  0
INSERT
  5
373B
330
3734
100
AcDbEntity
  8
DIM
 62
     0
370
    -2
100
AcDbBlockReference
  2
_DOT
 10
1363.464741641327
 20
1945.106376948328
 30
0.0
 41
10.0
 42
10.0
 43
10.0
  0
MTEXT
  5
373C
330
3734
100
AcDbEntity
  8
DIM
 62
     0
100
AcDbMText
 10
1078.019756838897
 20
1977.106376948328
 30
0.0
 40
24.0
 41
0.0
 46
0.0
 71
     5
 72
     1
  1
\A1;571
  7
ＭＳ ゴシック
 73
     1
 44
1.0
  0
POINT
  5
373D
330
3734
100
AcDbEntity
  8
Defpoints
 62
     0
100
AcDbPoint
 10
792.5747720364734
 20
1594.375151854103
 30
0.0
  0
POINT
  5
373E
330
3734
100
AcDbEntity
  8
Defpoints
 62
     0
100
AcDbPoint
 10
1363.464741641327
 20
1594.375151854103
 30
0.0
  0
POINT
  5
373F
330
3734
100
AcDbEntity
  8
Defpoints
 62
     0
100
AcDbPoint
 10
1363.464741641327
 20
1945.106376948328
 30
0.0
  0
ENDBLK
  5
3736
330
3734
100
AcDbEntity
  8
0
100
AcDbBlockEnd
  0
BLOCK
  5
3741
330
3740
100
AcDbEntity
  8
0
100
AcDbBlockBegin
  2
*D5
 70
     1
 10
0.0
 20
0.0
 30
0.0
  3
*D5
  1

  0
LINE
  5
3743
330
3740
100
AcDbEntity
  8
DIM
 62
     0
370
    -2
100
AcDbLine
 10
888.5851999139768
 20
1564.375151854103
 30
0.0
 11
888.5851999139768
 21
1160.881823708206
 31
0.0
  0
LINE
  5
3744
330
3740
100
AcDbEntity
  8
DIM
 62
     0
370
    -2
100
AcDbLine
 10
1267.454313763824
 20
1564.375151854103
 30
0.0
 11
1267.454313763824
 21
1160.881823708206
 31
0.0
  0
LINE
  5
3745
330
3740
100
AcDbEntity
  8
DIM
 62
     0
370
    -2
100
AcDbLine
 10
898.5851999139768
 20
1160.881823708206
 30
0.0
 11
1257.454313763824
 21
1160.881823708206
 31
0.0
  0
INSERT
  5
3746
330
3740
100
AcDbEntity
  8
DIM
 62
     0
370
    -2
100
AcDbBlockReference
  2
_DOT
 10
888.5851999139768
 20
1160.881823708206
 30
0.0
 41
10.0
 42
10.0
 43
10.0
 50
180.0
  0
INSERT
  5
3747
330
3740
100
AcDbEntity
  8
DIM
 62
     0
370
    -2
100
AcDbBlockReference
  2
_DOT
 10
1267.454313763824
 20
1160.881823708206
 30
0.0
 41
10.0
 42
10.0
 43
10.0
  0
MTEXT
  5
3748
330
3740
100
AcDbEntity
  8
DIM
 62
     0
100
AcDbMText
 10
1078.0197568389
 20
1192.881823708206
 30
0.0
 40
24.0
 41
0.0
 46
0.0
 71
     5
 72
     1
  1
\A1;379
  7
ＭＳ ゴシック
 73
     1
 44
1.0
  0
POINT
  5
3749
330
3740
100
AcDbEntity
  8
Defpoints
 62
     0
100
AcDbPoint
 10
888.5851999139768
 20
1594.375151854103
 30
0.0
  0
POINT
  5
374A
330
3740
100
AcDbEntity
  8
Defpoints
 62
     0
100
AcDbPoint
 10
1267.454313763824
 20
1594.375151854103
 30
0.0
  0
POINT
  5
374B
330
3740
100
AcDbEntity
  8
Defpoints
 62
     0
100
AcDbPoint
 10
1267.454313763824
 20
1160.881823708206
 30
0.0
  0
ENDBLK
  5
3742
330
3740
100
AcDbEntity
  8
0
100
AcDbBlockEnd
  0
BLOCK
  5
39FA
330
39F9
100
AcDbEntity
  8
0
100
AcDbBlockBegin
  2
*D6
 70
     1
 10
0.0
 20
0.0
 30
0.0
  3
*D6
  1

  0
LINE
  5
39FC
330
39F9
100
AcDbEntity
  8
DIM
 62
     0
370
    -2
100
AcDbLine
 10
3137.270341015266
 20
1043.656761067386
 30
0.0
 11
3336.904816242005
 21
1043.656761067386
 31
0.0
  0
LINE
  5
39FD
330
39F9
100
AcDbEntity
  8
DIM
 62
     0
370
    -2
100
AcDbLine
 10
3137.270341015266
 20
143.6567611531113
 30
0.0
 11
3336.904816242005
 21
143.6567611531113
 31
0.0
  0
LINE
  5
39FE
330
39F9
100
AcDbEntity
  8
DIM
 62
     0
370
    -2
100
AcDbLine
 10
3336.904816242005
 20
1033.656761067386
 30
0.0
 11
3336.904816242005
 21
153.6567611531113
 31
0.0
  0
INSERT
  5
39FF
330
39F9
100
AcDbEntity
  8
DIM
 62
     0
370
    -2
100
AcDbBlockReference
  2
_DOT
 10
3336.904816242005
 20
1043.656761067386
 30
0.0
 41
10.0
 42
10.0
 43
10.0
 50
90.0
  0
INSERT
  5
3A00
330
39F9
100
AcDbEntity
  8
DIM
 62
     0
370
    -2
100
AcDbBlockReference
  2
_DOT
 10
3336.904816242005
 20
143.6567611531113
 30
0.0
 41
10.0
 42
10.0
 43
10.0
 50
270.0
  0
MTEXT
  5
3A01
330
39F9
100
AcDbEntity
  8
DIM
 62
     0
100
AcDbMText
 10
3304.900314553872
 20
593.6567611102487
 30
0.0
 40
24.0
 41
0.0
 46
0.0
 71
     5
 72
     1
  1
\A1;899.99999991
  7
ＭＳ ゴシック
 11
0.0
 21
1.0
 31
0.0
 73
     1
 44
1.0
  0
POINT
  5
3A02
330
39F9
100
AcDbEntity
  8
Defpoints
 62
     0
100
AcDbPoint
 10
3107.270341015266
 20
1043.656761067386
 30
0.0
  0
POINT
  5
3A03
330
39F9
100
AcDbEntity
  8
Defpoints
 62
     0
100
AcDbPoint
 10
3107.270341015266
 20
143.6567611531113
 30
0.0
  0
POINT
  5
3A04
330
39F9
100
AcDbEntity
  8
Defpoints
 62
     0
100
AcDbPoint
 10
3336.904816242005
 20
143.6567611531113
 30
0.0
  0
ENDBLK
  5
39FB
330
39F9
100
AcDbEntity
  8
0
100
AcDbBlockEnd
  0
BLOCK
  5
3A0A
330
3A09
100
AcDbEntity
  8
0
100
AcDbBlockBegin
  2
*D7
 70
     1
 10
0.0
 20
0.0
 30
0.0
  3
*D7
  1

  0
LINE
  5
3A0C
330
3A09
100
AcDbEntity
  8
DIM
 62
     0
370
    -2
100
AcDbLine
 10
4351.658790769584
 20
1982.209994149385
 30
0.0
 11
4351.658790769584
 21
1888.257715266244
 31
0.0
  0
LINE
  5
3A0D
330
3A09
100
AcDbEntity
  8
DIM
 62
     0
370
    -2
100
AcDbLine
 10
4708.113216813483
 20
1981.397163952127
 30
0.0
 11
4708.113216813483
 21
1888.257715266244
 31
0.0
  0
LINE
  5
3A0E
330
3A09
100
AcDbEntity
  8
DIM
 62
     0
370
    -2
100
AcDbLine
 10
4361.658790769584
 20
1888.257715266244
 30
0.0
 11
4698.113216813483
 21
1888.257715266244
 31
0.0
  0
INSERT
  5
3A0F
330
3A09
100
AcDbEntity
  8
DIM
 62
     0
370
    -2
100
AcDbBlockReference
  2
_DOT
 10
4351.658790769584
 20
1888.257715266244
 30
0.0
 41
10.0
 42
10.0
 43
10.0
 50
180.0
  0
INSERT
  5
3A10
330
3A09
100
AcDbEntity
  8
DIM
 62
     0
370
    -2
100
AcDbBlockReference
  2
_DOT
 10
4708.113216813483
 20
1888.257715266244
 30
0.0
 41
10.0
 42
10.0
 43
10.0
  0
MTEXT
  5
3A11
330
3A09
100
AcDbEntity
  8
DIM
 62
     0
100
AcDbMText
 10
4529.886003791533
 20
1920.262216954377
 30
0.0
 40
24.0
 41
0.0
 46
0.0
 71
     5
 72
     1
  1
\A1;356
  7
ＭＳ ゴシック
 73
     1
 44
1.0
  0
POINT
  5
3A12
330
3A09
100
AcDbEntity
  8
Defpoints
 62
     0
100
AcDbPoint
 10
4351.658790769584
 20
2012.209994149385
 30
0.0
  0
POINT
  5
3A13
330
3A09
100
AcDbEntity
  8
Defpoints
 62
     0
100
AcDbPoint
 10
4708.113216813483
 20
2011.397163952127
 30
0.0
  0
POINT
  5
3A14
330
3A09
100
AcDbEntity
  8
Defpoints
 62
     0
100
AcDbPoint
 10
4708.113216813483
 20
1888.257715266244
 30
0.0
  0
ENDBLK
  5
3A0B
330
3A09
100
AcDbEntity
  8
0
100
AcDbBlockEnd
  0
BLOCK
  5
3A19
330
3A18
100
AcDbEntity
  8
0
100
AcDbBlockBegin
  2
*D8
 70
     1
 10
0.0
 20
0.0
 30
0.0
  3
*D8
  1

  0
LINE
  5
3A1B
330
3A18
100
AcDbEntity
  8
DIM
 62
     0
370
    -2
100
AcDbLine
 10
5972.766092132339
 20
2550.657101359189
 30
0.0
 11
6049.179698566782
 21
2550.657101359189
 31
0.0
  0
LINE
  5
3A1C
330
3A18
100
AcDbEntity
  8
DIM
 62
     0
370
    -2
100
AcDbLine
 10
5972.766092132339
 20
2385.657101359189
 30
0.0
 11
6049.179698566782
 21
2385.657101359189
 31
0.0
  0
LINE
  5
3A1D
330
3A18
100
AcDbEntity
  8
DIM
 62
     0
370
    -2
100
AcDbLine
 10
6049.179698566782
 20
2540.657101359189
 30
0.0
 11
6049.179698566782
 21
2395.657101359189
 31
0.0
  0
INSERT
  5
3A1E
330
3A18
100
AcDbEntity
  8
DIM
 62
     0
370
    -2
100
AcDbBlockReference
  2
_DOT
 10
6049.179698566782
 20
2550.657101359189
 30
0.0
 41
10.0
 42
10.0
 43
10.0
 50
90.0
  0
INSERT
  5
3A1F
330
3A18
100
AcDbEntity
  8
DIM
 62
     0
370
    -2
100
AcDbBlockReference
  2
_DOT
 10
6049.179698566782
 20
2385.657101359189
 30
0.0
 41
10.0
 42
10.0
 43
10.0
 50
270.0
  0
MTEXT
  5
3A20
330
3A18
100
AcDbEntity
  8
DIM
 62
     0
100
AcDbMText
 10
6017.175196878648
 20
2468.157101359189
 30
0.0
 40
24.0
 41
0.0
 46
0.0
 71
     5
 72
     1
  1
\A1;165
  7
ＭＳ ゴシック
 11
0.0
 21
1.0
 31
0.0
 73
     1
 44
1.0
  0
POINT
  5
3A21
330
3A18
100
AcDbEntity
  8
Defpoints
 62
     0
100
AcDbPoint
 10
5942.766092132339
 20
2550.657101359189
 30
0.0
  0
POINT
  5
3A22
330
3A18
100
AcDbEntity
  8
Defpoints
 62
     0
100
AcDbPoint
 10
5942.766092132339
 20
2385.657101359189
 30
0.0
  0
POINT
  5
3A23
330
3A18
100
AcDbEntity
  8
Defpoints
 62
     0
100
AcDbPoint
 10
6049.179698566782
 20
2385.657101359189
 30
0.0
  0
ENDBLK
  5
3A1A
330
3A18
100
AcDbEntity
  8
0
100
AcDbBlockEnd
  0
BLOCK
  5
3BD2
330
3BD1
100
AcDbEntity
  8
0
100
AcDbBlockBegin
  2
*D9
 70
     1
 10
0.0
 20
0.0
 30
0.0
  3
*D9
  1

  0
LINE
  5
3BD4
330
3BD1
100
AcDbEntity
  8
DIM
 62
     0
370
    -2
100
AcDbLine
 10
3352.058368186681
 20
2774.246965857637
 30
0.0
 11
3352.058368186681
 21
1606.137955991413
 31
0.0
  0
LINE
  5
3BD5
330
3BD1
100
AcDbEntity
  8
DIM
 62
     0
370
    -2
100
AcDbLine
 10
3952.063483908805
 20
2774.527126783389
 30
0.0
 11
3952.063483908805
 21
1606.137955991413
 31
0.0
  0
LINE
  5
3BD6
330
3BD1
100
AcDbEntity
  8
DIM
 62
     0
370
    -2
100
AcDbLine
 10
3362.058368186681
 20
1606.137955991413
 30
0.0
 11
3942.063483908805
 21
1606.137955991413
 31
0.0
  0
INSERT
  5
3BD7
330
3BD1
100
AcDbEntity
  8
DIM
 62
     0
370
    -2
100
AcDbBlockReference
  2
_DOT
 10
3352.058368186681
 20
1606.137955991413
 30
0.0
 41
10.0
 42
10.0
 43
10.0
 50
180.0
  0
INSERT
  5
3BD8
330
3BD1
100
AcDbEntity
  8
DIM
 62
     0
370
    -2
100
AcDbBlockReference
  2
_DOT
 10
3952.063483908805
 20
1606.137955991413
 30
0.0
 41
10.0
 42
10.0
 43
10.0
  0
MTEXT
  5
3BD9
330
3BD1
100
AcDbEntity
  8
DIM
 62
     0
100
AcDbMText
 10
3652.060926047743
 20
1638.137955991413
 30
0.0
 40
24.0
 41
0.0
 46
0.0
 71
     5
 72
     1
  1
\A1;600
  7
ＭＳ ゴシック
 73
     1
 44
1.0
  0
POINT
  5
3BDA
330
3BD1
100
AcDbEntity
  8
Defpoints
 62
     0
100
AcDbPoint
 10
3352.058368186681
 20
2804.246965857637
 30
0.0
  0
POINT
  5
3BDB
330
3BD1
100
AcDbEntity
  8
Defpoints
 62
     0
100
AcDbPoint
 10
3952.063483908805
 20
2804.527126783389
 30
0.0
  0
POINT
  5
3BDC
330
3BD1
100
AcDbEntity
  8
Defpoints
 62
     0
100
AcDbPoint
 10
3952.063483908805
 20
1606.137955991413
 30
0.0
  0
ENDBLK
  5
3BD3
330
3BD1
100
AcDbEntity
  8
0
100
AcDbBlockEnd
  0
BLOCK
  5
3C18
330
3C17
100
AcDbEntity
  8
0
100
AcDbBlockBegin
  2
*D10
 70
     1
 10
0.0
 20
0.0
 30
0.0
  3
*D10
  1

  0
LINE
  5
3C1A
330
3C17
100
AcDbEntity
  8
DIM
 62
     0
370
    -2
100
AcDbLine
 10
709.7971738341186
 20
2362.706770671863
 30
0.0
 11
785.3030798351735
 21
2362.706770671863
 31
0.0
  0
LINE
  5
3C1B
330
3C17
100
AcDbEntity
  8
DIM
 62
     0
370
    -2
100
AcDbLine
 10
675.6697124264349
 20
2360.19184930855
 30
0.0
 11
785.3030798351735
 21
2360.19184930855
 31
0.0
  0
LINE
  5
3C1C
330
3C17
100
AcDbEntity
  8
DIM
 62
     0
370
    -2
100
AcDbLine
 10
785.3030798351735
 20
2372.706770671863
 30
0.0
 11
785.3030798351735
 21
2382.706770671863
 31
0.0
  0
LINE
  5
3C1D
330
3C17
100
AcDbEntity
  8
DIM
 62
     0
370
    -2
100
AcDbLine
 10
785.3030798351735
 20
2350.19184930855
 30
0.0
 11
785.3030798351735
 21
2340.19184930855
 31
0.0
  0
INSERT
  5
3C1E
330
3C17
100
AcDbEntity
  8
DIM
 62
     0
370
    -2
100
AcDbBlockReference
  2
_DOT
 10
785.3030798351735
 20
2362.706770671863
 30
0.0
 41
10.0
 42
10.0
 43
10.0
 50
270.0
  0
INSERT
  5
3C1F
330
3C17
100
AcDbEntity
  8
DIM
 62
     0
370
    -2
100
AcDbBlockReference
  2
_DOT
 10
785.3030798351735
 20
2360.19184930855
 30
0.0
 41
10.0
 42
10.0
 43
10.0
 50
90.0
  0
MTEXT
  5
3C20
330
3C17
100
AcDbEntity
  8
DIM
 62
     0
100
AcDbMText
 10
753.2985781470404
 20
2361.449309990207
 30
0.0
 40
24.0
 41
0.0
 46
0.0
 71
     5
 72
     1
  1
\A1;3
  7
ＭＳ ゴシック
 11
0.0
 21
1.0
 31
0.0
 73
     1
 44
1.0
  0
POINT
  5
3C21
330
3C17
100
AcDbEntity
  8
Defpoints
 62
     0
100
AcDbPoint
 10
679.7971738341186
 20
2362.706770671863
 30
0.0
  0
POINT
  5
3C22
330
3C17
100
AcDbEntity
  8
Defpoints
 62
     0
100
AcDbPoint
 10
645.6697124264349
 20
2360.19184930855
 30
0.0
  0
POINT
  5
3C23
330
3C17
100
AcDbEntity
  8
Defpoints
 62
     0
100
AcDbPoint
 10
785.3030798351735
 20
2360.19184930855
 30
0.0
  0
ENDBLK
  5
3C19
330
3C17
100
AcDbEntity
  8
0
100
AcDbBlockEnd
  0
BLOCK
  5
3C30
330
3C2F
100
AcDbEntity
  8
0
100
AcDbBlockBegin
  2
*D11
 70
     1
 10
0.0
 20
0.0
 30
0.0
  3
*D11
  1

  0
LINE
  5
3C32
330
3C2F
100
AcDbEntity
  8
DIM
 62
     0
370
    -2
100
AcDbLine
 10
-1851.789352560976
 20
2457.575268444201
 30
0.0
 11
-1851.789352560976
 21
2560.670453605898
 31
0.0
  0
LINE
  5
3C33
330
3C2F
100
AcDbEntity
  8
DIM
 62
     0
370
    -2
100
AcDbLine
 10
-1251.784236838852
 20
2457.575268444201
 30
0.0
 11
-1251.784236838852
 21
2560.670453605898
 31
0.0
  0
LINE
  5
3C34
330
3C2F
100
AcDbEntity
  8
DIM
 62
     0
370
    -2
100
AcDbLine
 10
-1841.789352560976
 20
2560.670453605898
 30
0.0
 11
-1261.784236838852
 21
2560.670453605898
 31
0.0
  0
INSERT
  5
3C35
330
3C2F
100
AcDbEntity
  8
DIM
 62
     0
370
    -2
100
AcDbBlockReference
  2
_DOT
 10
-1851.789352560976
 20
2560.670453605898
 30
0.0
 41
10.0
 42
10.0
 43
10.0
 50
180.0
  0
INSERT
  5
3C36
330
3C2F
100
AcDbEntity
  8
DIM
 62
     0
370
    -2
100
AcDbBlockReference
  2
_DOT
 10
-1251.784236838852
 20
2560.670453605898
 30
0.0
 41
10.0
 42
10.0
 43
10.0
  0
MTEXT
  5
3C37
330
3C2F
100
AcDbEntity
  8
DIM
 62
     0
100
AcDbMText
 10
-1551.786794699914
 20
2592.670453605898
 30
0.0
 40
24.0
 41
0.0
 46
0.0
 71
     5
 72
     1
  1
\A1;600
  7
ＭＳ ゴシック
 73
     1
 44
1.0
  0
POINT
  5
3C38
330
3C2F
100
AcDbEntity
  8
Defpoints
 62
     0
100
AcDbPoint
 10
-1851.789352560976
 20
2427.575268444201
 30
0.0
  0
POINT
  5
3C39
330
3C2F
100
AcDbEntity
  8
Defpoints
 62
     0
100
AcDbPoint
 10
-1251.784236838852
 20
2427.575268444201
 30
0.0
  0
POINT
  5
3C3A
330
3C2F
100
AcDbEntity
  8
Defpoints
 62
     0
100
AcDbPoint
 10
-1251.784236838852
 20
2560.670453605898
 30
0.0
  0
ENDBLK
  5
3C31
330
3C2F
100
AcDbEntity
  8
0
100
AcDbBlockEnd
  0
BLOCK
  5
3C3F
330
3C3E
100
AcDbEntity
  8
0
100
AcDbBlockBegin
  2
*D12
 70
     1
 10
0.0
 20
0.0
 30
0.0
  3
*D12
  1

  0
LINE
  5
3C41
330
3C3E
100
AcDbEntity
  8
DIM
 62
     0
370
    -2
100
AcDbLine
 10
-1226.7066025116
 20
1967.612681087031
 30
0.0
 11
-1127.106186193796
 21
1967.612681087031
 31
0.0
  0
LINE
  5
3C42
330
3C3E
100
AcDbEntity
  8
DIM
 62
     0
370
    -2
100
AcDbLine
 10
-1221.784236838852
 20
2427.575268444201
 30
0.0
 11
-1127.106186193796
 21
2427.575268444201
 31
0.0
  0
LINE
  5
3C43
330
3C3E
100
AcDbEntity
  8
DIM
 62
     0
370
    -2
100
AcDbLine
 10
-1127.106186193796
 20
1977.612681087031
 30
0.0
 11
-1127.106186193796
 21
2417.575268444201
 31
0.0
  0
INSERT
  5
3C44
330
3C3E
100
AcDbEntity
  8
DIM
 62
     0
370
    -2
100
AcDbBlockReference
  2
_DOT
 10
-1127.106186193796
 20
1967.612681087031
 30
0.0
 41
10.0
 42
10.0
 43
10.0
 50
270.0
  0
INSERT
  5
3C45
330
3C3E
100
AcDbEntity
  8
DIM
 62
     0
370
    -2
100
AcDbBlockReference
  2
_DOT
 10
-1127.106186193796
 20
2427.575268444201
 30
0.0
 41
10.0
 42
10.0
 43
10.0
 50
90.0
  0
MTEXT
  5
3C46
330
3C3E
100
AcDbEntity
  8
DIM
 62
     0
100
AcDbMText
 10
-1159.106186193796
 20
2197.593974765617
 30
0.0
 40
24.0
 41
0.0
 46
0.0
 71
     5
 72
     1
  1
\A1;460
  7
ＭＳ ゴシック
 11
0.0
 21
1.0
 31
0.0
 73
     1
 44
1.0
  0
POINT
  5
3C47
330
3C3E
100
AcDbEntity
  8
Defpoints
 62
     0
100
AcDbPoint
 10
-1256.7066025116
 20
1967.612681087031
 30
0.0
  0
POINT
  5
3C48
330
3C3E
100
AcDbEntity
  8
Defpoints
 62
     0
100
AcDbPoint
 10
-1251.784236838852
 20
2427.575268444201
 30
0.0
  0
POINT
  5
3C49
330
3C3E
100
AcDbEntity
  8
Defpoints
 62
     0
100
AcDbPoint
 10
-1127.106186193796
 20
2427.575268444201
 30
0.0
  0
ENDBLK
  5
3C40
330
3C3E
100
AcDbEntity
  8
0
100
AcDbBlockEnd
  0
BLOCK
  5
3C4E
330
3C4D
100
AcDbEntity
  8
0
100
AcDbBlockBegin
  2
*D13
 70
     1
 10
0.0
 20
0.0
 30
0.0
  3
*D13
  1

  0
LINE
  5
3C50
330
3C4D
100
AcDbEntity
  8
DIM
 62
     0
370
    -2
100
AcDbLine
 10
-1867.055540761067
 20
2302.389999125469
 30
0.0
 11
-1948.811518510327
 21
2302.389999125469
 31
0.0
  0
LINE
  5
3C51
330
3C4D
100
AcDbEntity
  8
DIM
 62
     0
370
    -2
100
AcDbLine
 10
-1876.772094423965
 20
1976.54576298194
 30
0.0
 11
-1948.811518510327
 21
1976.54576298194
 31
0.0
  0
LINE
  5
3C52
330
3C4D
100
AcDbEntity
  8
DIM
 62
     0
370
    -2
100
AcDbLine
 10
-1948.811518510327
 20
2292.389999125469
 30
0.0
 11
-1948.811518510327
 21
1986.54576298194
 31
0.0
  0
INSERT
  5
3C53
330
3C4D
100
AcDbEntity
  8
DIM
 62
     0
370
    -2
100
AcDbBlockReference
  2
_DOT
 10
-1948.811518510327
 20
2302.389999125469
 30
0.0
 41
10.0
 42
10.0
 43
10.0
 50
90.0
  0
INSERT
  5
3C54
330
3C4D
100
AcDbEntity
  8
DIM
 62
     0
370
    -2
100
AcDbBlockReference
  2
_DOT
 10
-1948.811518510327
 20
1976.54576298194
 30
0.0
 41
10.0
 42
10.0
 43
10.0
 50
270.0
  0
MTEXT
  5
3C55
330
3C4D
100
AcDbEntity
  8
DIM
 62
     0
100
AcDbMText
 10
-1980.81602019846
 20
2139.467881053704
 30
0.0
 40
24.0
 41
0.0
 46
0.0
 71
     5
 72
     1
  1
\A1;325
  7
ＭＳ ゴシック
 11
0.0
 21
1.0
 31
0.0
 73
     1
 44
1.0
  0
POINT
  5
3C56
330
3C4D
100
AcDbEntity
  8
Defpoints
 62
     0
100
AcDbPoint
 10
-1837.055540761067
 20
2302.389999125469
 30
0.0
  0
POINT
  5
3C57
330
3C4D
100
AcDbEntity
  8
Defpoints
 62
     0
100
AcDbPoint
 10
-1846.772094423965
 20
1976.54576298194
 30
0.0
  0
POINT
  5
3C58
330
3C4D
100
AcDbEntity
  8
Defpoints
 62
     0
100
AcDbPoint
 10
-1948.811518510327
 20
1976.54576298194
 30
0.0
  0
ENDBLK
  5
3C4F
330
3C4D
100
AcDbEntity
  8
0
100
AcDbBlockEnd
  0
BLOCK
  5
3C5D
330
3C5C
100
AcDbEntity
  8
0
100
AcDbBlockBegin
  2
*D14
 70
     1
 10
0.0
 20
0.0
 30
0.0
  3
*D14
  1

  0
LINE
  5
3C5F
330
3C5C
100
AcDbEntity
  8
DIM
 62
     0
370
    -2
100
AcDbLine
 10
-1842.364445162231
 20
1951.761658507186
 30
0.0
 11
-1842.364445162231
 21
1839.658360311719
 31
0.0
  0
LINE
  5
3C60
330
3C5C
100
AcDbEntity
  8
DIM
 62
     0
370
    -2
100
AcDbLine
 10
-1261.029983914658
 20
1951.904114505181
 30
0.0
 11
-1261.029983914658
 21
1839.658360311719
 31
0.0
  0
LINE
  5
3C61
330
3C5C
100
AcDbEntity
  8
DIM
 62
     0
370
    -2
100
AcDbLine
 10
-1832.364445162231
 20
1839.658360311719
 30
0.0
 11
-1271.029983914658
 21
1839.658360311719
 31
0.0
  0
INSERT
  5
3C62
330
3C5C
100
AcDbEntity
  8
DIM
 62
     0
370
    -2
100
AcDbBlockReference
  2
_DOT
 10
-1842.364445162231
 20
1839.658360311719
 30
0.0
 41
10.0
 42
10.0
 43
10.0
 50
180.0
  0
INSERT
  5
3C63
330
3C5C
100
AcDbEntity
  8
DIM
 62
     0
370
    -2
100
AcDbBlockReference
  2
_DOT
 10
-1261.029983914658
 20
1839.658360311719
 30
0.0
 41
10.0
 42
10.0
 43
10.0
  0
MTEXT
  5
3C64
330
3C5C
100
AcDbEntity
  8
DIM
 62
     0
100
AcDbMText
 10
-1551.697214538445
 20
1871.662861999853
 30
0.0
 40
24.0
 41
0.0
 46
0.0
 71
     5
 72
     1
  1
\A1;580
  7
ＭＳ ゴシック
 73
     1
 44
1.0
  0
POINT
  5
3C65
330
3C5C
100
AcDbEntity
  8
Defpoints
 62
     0
100
AcDbPoint
 10
-1842.364445162231
 20
1981.761658507186
 30
0.0
  0
POINT
  5
3C66
330
3C5C
100
AcDbEntity
  8
Defpoints
 62
     0
100
AcDbPoint
 10
-1261.029983914658
 20
1981.904114505181
 30
0.0
  0
POINT
  5
3C67
330
3C5C
100
AcDbEntity
  8
Defpoints
 62
     0
100
AcDbPoint
 10
-1261.029983914658
 20
1839.658360311719
 30
0.0
  0
ENDBLK
  5
3C5E
330
3C5C
100
AcDbEntity
  8
0
100
AcDbBlockEnd
  0
BLOCK
  5
3C8A
330
3C89
100
AcDbEntity
  8
0
100
AcDbBlockBegin
  2
*D15
 70
     1
 10
0.0
 20
0.0
 30
0.0
  3
*D15
  1

  0
LINE
  5
3C8C
330
3C89
100
AcDbEntity
  8
DIM
 62
     0
370
    -2
100
AcDbLine
 10
-723.5304231097122
 20
852.055967653428
 30
0.0
 11
-359.2934152623709
 21
852.055967653428
 31
0.0
  0
LINE
  5
3C8D
330
3C89
100
AcDbEntity
  8
DIM
 62
     0
370
    -2
100
AcDbLine
 10
-497.6419868856954
 20
1014.058244623822
 30
0.0
 11
-359.2934152623709
 21
1014.058244623822
 31
0.0
  0
LINE
  5
3C8E
330
3C89
100
AcDbEntity
  8
DIM
 62
     0
370
    -2
100
AcDbLine
 10
-359.2934152623709
 20
862.055967653428
 30
0.0
 11
-359.2934152623709
 21
1004.058244623822
 31
0.0
  0
INSERT
  5
3C8F
330
3C89
100
AcDbEntity
  8
DIM
 62
     0
370
    -2
100
AcDbBlockReference
  2
_DOT
 10
-359.2934152623709
 20
852.055967653428
 30
0.0
 41
10.0
 42
10.0
 43
10.0
 50
270.0
  0
INSERT
  5
3C90
330
3C89
100
AcDbEntity
  8
DIM
 62
     0
370
    -2
100
AcDbBlockReference
  2
_DOT
 10
-359.2934152623709
 20
1014.058244623822
 30
0.0
 41
10.0
 42
10.0
 43
10.0
 50
90.0
  0
MTEXT
  5
3C91
330
3C89
100
AcDbEntity
  8
DIM
 62
     0
100
AcDbMText
 10
-391.2979169505039
 20
933.0571061386246
 30
0.0
 40
24.0
 41
0.0
 46
0.0
 71
     5
 72
     1
  1
\A1;165
  7
ＭＳ ゴシック
 11
0.0
 21
1.0
 31
0.0
 73
     1
 44
1.0
  0
POINT
  5
3C92
330
3C89
100
AcDbEntity
  8
Defpoints
 62
     0
100
AcDbPoint
 10
-753.5304231097122
 20
852.055967653428
 30
0.0
  0
POINT
  5
3C93
330
3C89
100
AcDbEntity
  8
Defpoints
 62
     0
100
AcDbPoint
 10
-527.6419868856954
 20
1014.058244623822
 30
0.0
  0
POINT
  5
3C94
330
3C89
100
AcDbEntity
  8
Defpoints
 62
     0
100
AcDbPoint
 10
-359.2934152623709
 20
1014.058244623822
 30
0.0
  0
ENDBLK
  5
3C8B
330
3C89
100
AcDbEntity
  8
0
100
AcDbBlockEnd
  0
BLOCK
  5
3C99
330
3C98
100
AcDbEntity
  8
0
100
AcDbBlockBegin
  2
*D16
 70
     1
 10
0.0
 20
0.0
 30
0.0
  3
*D16
  1

  0
LINE
  5
3C9B
330
3C98
100
AcDbEntity
  8
DIM
 62
     0
370
    -2
100
AcDbLine
 10
1570.939963523694
 20
816.0728292784469
 30
0.0
 11
1570.939963523694
 21
727.2978384920182
 31
0.0
  0
LINE
  5
3C9C
330
3C98
100
AcDbEntity
  8
DIM
 62
     0
370
    -2
100
AcDbLine
 10
1785.296502433197
 20
839.0300409498458
 30
0.0
 11
1785.296502433197
 21
727.2978384920182
 31
0.0
  0
LINE
  5
3C9D
330
3C98
100
AcDbEntity
  8
DIM
 62
     0
370
    -2
100
AcDbLine
 10
1580.939963523694
 20
727.2978384920182
 30
0.0
 11
1775.296502433197
 21
727.2978384920182
 31
0.0
  0
INSERT
  5
3C9E
330
3C98
100
AcDbEntity
  8
DIM
 62
     0
370
    -2
100
AcDbBlockReference
  2
_DOT
 10
1570.939963523694
 20
727.2978384920182
 30
0.0
 41
10.0
 42
10.0
 43
10.0
 50
180.0
  0
INSERT
  5
3C9F
330
3C98
100
AcDbEntity
  8
DIM
 62
     0
370
    -2
100
AcDbBlockReference
  2
_DOT
 10
1785.296502433197
 20
727.2978384920182
 30
0.0
 41
10.0
 42
10.0
 43
10.0
  0
MTEXT
  5
3CA0
330
3C98
100
AcDbEntity
  8
DIM
 62
     0
100
AcDbMText
 10
1678.118232978446
 20
759.3023401801512
 30
0.0
 40
24.0
 41
0.0
 46
0.0
 71
     5
 72
     1
  1
\A1;215
  7
ＭＳ ゴシック
 73
     1
 44
1.0
  0
POINT
  5
3CA1
330
3C98
100
AcDbEntity
  8
Defpoints
 62
     0
100
AcDbPoint
 10
1570.939963523694
 20
846.0728292784469
 30
0.0
  0
POINT
  5
3CA2
330
3C98
100
AcDbEntity
  8
Defpoints
 62
     0
100
AcDbPoint
 10
1785.296502433197
 20
869.0300409498458
 30
0.0
  0
POINT
  5
3CA3
330
3C98
100
AcDbEntity
  8
Defpoints
 62
     0
100
AcDbPoint
 10
1785.296502433197
 20
727.2978384920182
 30
0.0
  0
ENDBLK
  5
3C9A
330
3C98
100
AcDbEntity
  8
0
100
AcDbBlockEnd
  0
BLOCK
  5
3CA8
330
3CA7
100
AcDbEntity
  8
0
100
AcDbBlockBegin
  2
*D17
 70
     1
 10
0.0
 20
0.0
 30
0.0
  3
*D17
  1

  0
LINE
  5
3CAA
330
3CA7
100
AcDbEntity
  8
DIM
 62
     0
370
    -2
100
AcDbLine
 10
1298.691878288434
 20
1014.058244623821
 30
0.0
 11
1159.990976235728
 21
1014.058244623821
 31
0.0
  0
LINE
  5
3CAB
330
3CA7
100
AcDbEntity
  8
DIM
 62
     0
370
    -2
100
AcDbLine
 10
1420.912395192318
 20
874.0563619357736
 30
0.0
 11
1159.990976235728
 21
874.0563619357736
 31
0.0
  0
LINE
  5
3CAC
330
3CA7
100
AcDbEntity
  8
DIM
 62
     0
370
    -2
100
AcDbLine
 10
1159.990976235728
 20
1004.058244623821
 30
0.0
 11
1159.990976235728
 21
884.0563619357736
 31
0.0
  0
INSERT
  5
3CAD
330
3CA7
100
AcDbEntity
  8
DIM
 62
     0
370
    -2
100
AcDbBlockReference
  2
_DOT
 10
1159.990976235728
 20
1014.058244623821
 30
0.0
 41
10.0
 42
10.0
 43
10.0
 50
90.0
  0
INSERT
  5
3CAE
330
3CA7
100
AcDbEntity
  8
DIM
 62
     0
370
    -2
100
AcDbBlockReference
  2
_DOT
 10
1159.990976235728
 20
874.0563619357736
 30
0.0
 41
10.0
 42
10.0
 43
10.0
 50
270.0
  0
MTEXT
  5
3CAF
330
3CA7
100
AcDbEntity
  8
DIM
 62
     0
100
AcDbMText
 10
1127.986474547595
 20
944.0573032797976
 30
0.0
 40
24.0
 41
0.0
 46
0.0
 71
     5
 72
     1
  1
\A1;140
  7
ＭＳ ゴシック
 11
0.0
 21
1.0
 31
0.0
 73
     1
 44
1.0
  0
POINT
  5
3CB0
330
3CA7
100
AcDbEntity
  8
Defpoints
 62
     0
100
AcDbPoint
 10
1328.691878288434
 20
1014.058244623821
 30
0.0
  0
POINT
  5
3CB1
330
3CA7
100
AcDbEntity
  8
Defpoints
 62
     0
100
AcDbPoint
 10
1450.912395192318
 20
874.0563619357736
 30
0.0
  0
POINT
  5
3CB2
330
3CA7
100
AcDbEntity
  8
Defpoints
 62
     0
100
AcDbPoint
 10
1159.990976235728
 20
874.0563619357736
 30
0.0
  0
ENDBLK
  5
3CA9
330
3CA7
100
AcDbEntity
  8
0
100
AcDbBlockEnd
  0
BLOCK
  5
3CC1
330
3CC0
100
AcDbEntity
  8
0
100
AcDbBlockBegin
  2
*D18
 70
     1
 10
0.0
 20
0.0
 30
0.0
  3
*D18
  1

  0
LINE
  5
3CC3
330
3CC0
100
AcDbEntity
  8
DIM
 62
     0
370
    -2
100
AcDbLine
 10
1785.415368769766
 20
1038.233580745704
 30
0.0
 11
1785.415368769766
 21
1074.787968516856
 31
0.0
  0
LINE
  5
3CC4
330
3CC0
100
AcDbEntity
  8
DIM
 62
     0
370
    -2
100
AcDbLine
 10
1720.296502433198
 20
1029.517066295825
 30
0.0
 11
1720.296502433198
 21
1074.787968516856
 31
0.0
  0
LINE
  5
3CC5
330
3CC0
100
AcDbEntity
  8
DIM
 62
     0
370
    -2
100
AcDbLine
 10
1775.415368769766
 20
1074.787968516856
 30
0.0
 11
1730.296502433198
 21
1074.787968516856
 31
0.0
  0
INSERT
  5
3CC6
330
3CC0
100
AcDbEntity
  8
DIM
 62
     0
370
    -2
100
AcDbBlockReference
  2
_DOT
 10
1785.415368769766
 20
1074.787968516856
 30
0.0
 41
10.0
 42
10.0
 43
10.0
  0
INSERT
  5
3CC7
330
3CC0
100
AcDbEntity
  8
DIM
 62
     0
370
    -2
100
AcDbBlockReference
  2
_DOT
 10
1720.296502433198
 20
1074.787968516856
 30
0.0
 41
10.0
 42
10.0
 43
10.0
 50
180.0
  0
MTEXT
  5
3CC8
330
3CC0
100
AcDbEntity
  8
DIM
 62
     0
100
AcDbMText
 10
1752.855935601482
 20
1106.79247020499
 30
0.0
 40
24.0
 41
0.0
 46
0.0
 71
     5
 72
     1
  1
\A1;65
  7
ＭＳ ゴシック
 73
     1
 44
1.0
  0
POINT
  5
3CC9
330
3CC0
100
AcDbEntity
  8
Defpoints
 62
     0
100
AcDbPoint
 10
1785.415368769766
 20
1008.233580745704
 30
0.0
  0
POINT
  5
3CCA
330
3CC0
100
AcDbEntity
  8
Defpoints
 62
     0
100
AcDbPoint
 10
1720.296502433198
 20
999.5170662958253
 30
0.0
  0
POINT
  5
3CCB
330
3CC0
100
AcDbEntity
  8
Defpoints
 62
     0
100
AcDbPoint
 10
1720.296502433198
 20
1074.787968516856
 30
0.0
  0
ENDBLK
  5
3CC2
330
3CC0
100
AcDbEntity
  8
0
100
AcDbBlockEnd
  0
BLOCK
  5
3CD1
330
3CD0
100
AcDbEntity
  8
0
100
AcDbBlockBegin
  2
*D19
 70
     1
 10
0.0
 20
0.0
 30
0.0
  3
*D19
  1

  0
LINE
  5
3CD3
330
3CD0
100
AcDbEntity
  8
DIM
 62
     0
370
    -2
100
AcDbLine
 10
1570.468373575051
 20
1008.233580745704
 30
0.0
 11
1570.468373575051
 21
1198.314361038314
 31
0.0
  0
LINE
  5
3CD4
330
3CD0
100
AcDbEntity
  8
DIM
 62
     0
370
    -2
100
AcDbLine
 10
1570.468373575051
 20
903.215546998398
 30
0.0
 11
1570.468373575051
 21
998.2335807457043
 31
0.0
  0
LINE
  5
3CD5
330
3CD0
100
AcDbEntity
  8
DIM
 62
     0
370
    -2
100
AcDbLine
 10
1570.468373575051
 20
998.2335807457043
 30
0.0
 11
1570.468373575051
 21
988.2335807457043
 31
0.0
  0
INSERT
  5
3CD6
330
3CD0
100
AcDbEntity
  8
DIM
 62
     0
370
    -2
100
AcDbBlockReference
  2
_DOT
 10
1570.468373575051
 20
893.215546998398
 30
0.0
 41
10.0
 42
10.0
 43
10.0
 50
270.0
  0
INSERT
  5
3CD7
330
3CD0
100
AcDbEntity
  8
DIM
 62
     0
370
    -2
100
AcDbBlockReference
  2
_DOT
 10
1570.468373575051
 20
1008.233580745704
 30
0.0
 41
10.0
 42
10.0
 43
10.0
 50
90.0
  0
MTEXT
  5
3CD8
330
3CD0
100
AcDbEntity
  8
DIM
 62
     0
100
AcDbMText
 10
1536.459120105
 20
1113.273970892009
 30
0.0
 40
24.0
 41
0.0
 46
0.0
 71
     5
 72
     1
  1
\A1;115(深さ)
  7
ＭＳ ゴシック
 11
0.0
 21
1.0
 31
0.0
 73
     1
 44
1.0
  0
POINT
  5
3CD9
330
3CD0
100
AcDbEntity
  8
Defpoints
 62
     0
100
AcDbPoint
 10
1570.30173174984
 20
893.215546998398
 30
0.0
  0
POINT
  5
3CDA
330
3CD0
100
AcDbEntity
  8
Defpoints
 62
     0
100
AcDbPoint
 10
1570.609894041122
 20
1008.233580745704
 30
0.0
  0
POINT
  5
3CDB
330
3CD0
100
AcDbEntity
  8
Defpoints
 62
     0
100
AcDbPoint
 10
1570.468373575051
 20
1008.233580745704
 30
0.0
  0
ENDBLK
  5
3CD2
330
3CD0
100
AcDbEntity
  8
0
100
AcDbBlockEnd
  0
BLOCK
  5
3CE2
330
3CE1
100
AcDbEntity
  8
0
100
AcDbBlockBegin
  2
*D20
 70
     1
 10
0.0
 20
0.0
 30
0.0
  3
*D20
  1

  0
LINE
  5
3CE4
330
3CE1
100
AcDbEntity
  8
DIM
 62
     0
370
    -2
100
AcDbLine
 10
-977.1492554015707
 20
844.3032920267547
 30
0.0
 11
-977.1492554015707
 21
737.7165329534139
 31
0.0
  0
LINE
  5
3CE5
330
3CE1
100
AcDbEntity
  8
DIM
 62
     0
370
    -2
100
AcDbLine
 10
-590.7922700906939
 20
844.0816680074385
 30
0.0
 11
-590.7922700906939
 21
737.7165329534139
 31
0.0
  0
LINE
  5
3CE6
330
3CE1
100
AcDbEntity
  8
DIM
 62
     0
370
    -2
100
AcDbLine
 10
-967.1492554015707
 20
737.7165329534139
 30
0.0
 11
-600.7922700906939
 21
737.7165329534139
 31
0.0
  0
INSERT
  5
3CE7
330
3CE1
100
AcDbEntity
  8
DIM
 62
     0
370
    -2
100
AcDbBlockReference
  2
_DOT
 10
-977.1492554015707
 20
737.7165329534139
 30
0.0
 41
10.0
 42
10.0
 43
10.0
 50
180.0
  0
INSERT
  5
3CE8
330
3CE1
100
AcDbEntity
  8
DIM
 62
     0
370
    -2
100
AcDbBlockReference
  2
_DOT
 10
-590.7922700906939
 20
737.7165329534139
 30
0.0
 41
10.0
 42
10.0
 43
10.0
  0
MTEXT
  5
3CE9
330
3CE1
100
AcDbEntity
  8
DIM
 62
     0
100
AcDbMText
 10
-783.9707627461323
 20
769.7210346415469
 30
0.0
 40
24.0
 41
0.0
 46
0.0
 71
     5
 72
     1
  1
\A1;386
  7
ＭＳ ゴシック
 73
     1
 44
1.0
  0
POINT
  5
3CEA
330
3CE1
100
AcDbEntity
  8
Defpoints
 62
     0
100
AcDbPoint
 10
-977.1492554015707
 20
874.3032920267547
 30
0.0
  0
POINT
  5
3CEB
330
3CE1
100
AcDbEntity
  8
Defpoints
 62
     0
100
AcDbPoint
 10
-590.7922700906939
 20
874.0816680074385
 30
0.0
  0
POINT
  5
3CEC
330
3CE1
100
AcDbEntity
  8
Defpoints
 62
     0
100
AcDbPoint
 10
-590.7922700906939
 20
737.7165329534139
 30
0.0
  0
ENDBLK
  5
3CE3
330
3CE1
100
AcDbEntity
  8
0
100
AcDbBlockEnd
  0
BLOCK
  5
3CF1
330
3CF0
100
AcDbEntity
  8
0
100
AcDbBlockBegin
  2
*D21
 70
     1
 10
0.0
 20
0.0
 30
0.0
  3
*D21
  1

  0
LINE
  5
3CF3
330
3CF0
100
AcDbEntity
  8
DIM
 62
     0
370
    -2
100
AcDbLine
 10
1306.592188604117
 20
1008.233580745704
 30
0.0
 11
1275.629526297887
 21
1008.233580745704
 31
0.0
  0
LINE
  5
3CF4
330
3CF0
100
AcDbEntity
  8
DIM
 62
     0
370
    -2
100
AcDbLine
 10
1307.463083779926
 20
928.231520610322
 30
0.0
 11
1275.629526297887
 21
928.231520610322
 31
0.0
  0
LINE
  5
3CF5
330
3CF0
100
AcDbEntity
  8
DIM
 62
     0
370
    -2
100
AcDbLine
 10
1275.629526297887
 20
998.2335807457043
 30
0.0
 11
1275.629526297887
 21
938.231520610322
 31
0.0
  0
INSERT
  5
3CF6
330
3CF0
100
AcDbEntity
  8
DIM
 62
     0
370
    -2
100
AcDbBlockReference
  2
_DOT
 10
1275.629526297887
 20
1008.233580745704
 30
0.0
 41
10.0
 42
10.0
 43
10.0
 50
90.0
  0
INSERT
  5
3CF7
330
3CF0
100
AcDbEntity
  8
DIM
 62
     0
370
    -2
100
AcDbBlockReference
  2
_DOT
 10
1275.629526297887
 20
928.231520610322
 30
0.0
 41
10.0
 42
10.0
 43
10.0
 50
270.0
  0
MTEXT
  5
3CF8
330
3CF0
100
AcDbEntity
  8
DIM
 62
     0
100
AcDbMText
 10
1243.629526297887
 20
968.2325506780132
 30
0.0
 40
24.0
 41
0.0
 46
0.0
 71
     5
 72
     1
  1
\A1;80
  7
ＭＳ ゴシック
 11
0.0
 21
1.0
 31
0.0
 73
     1
 44
1.0
  0
POINT
  5
3CF9
330
3CF0
100
AcDbEntity
  8
Defpoints
 62
     0
100
AcDbPoint
 10
1336.592188604117
 20
1008.233580745704
 30
0.0
  0
POINT
  5
3CFA
330
3CF0
100
AcDbEntity
  8
Defpoints
 62
     0
100
AcDbPoint
 10
1337.463083779926
 20
928.231520610322
 30
0.0
  0
POINT
  5
3CFB
330
3CF0
100
AcDbEntity
  8
Defpoints
 62
     0
100
AcDbPoint
 10
1275.629526297887
 20
928.231520610322
 30
0.0
  0
ENDBLK
  5
3CF2
330
3CF0
100
AcDbEntity
  8
0
100
AcDbBlockEnd
  0
BLOCK
  5
3D00
330
3CFF
100
AcDbEntity
  8
0
100
AcDbBlockBegin
  2
*D22
 70
     1
 10
0.0
 20
0.0
 30
0.0
  3
*D22
  1

  0
LINE
  5
3D02
330
3CFF
100
AcDbEntity
  8
DIM
 62
     0
370
    -2
100
AcDbLine
 10
1307.448387423835
 20
928.231520610322
 30
0.0
 11
1275.629526297887
 21
928.231520610322
 31
0.0
  0
LINE
  5
3D03
330
3CFF
100
AcDbEntity
  8
DIM
 62
     0
370
    -2
100
AcDbLine
 10
1410.639668185317
 20
868.2316980576569
 30
0.0
 11
1275.629526297887
 21
868.2316980576569
 31
0.0
  0
LINE
  5
3D04
330
3CFF
100
AcDbEntity
  8
DIM
 62
     0
370
    -2
100
AcDbLine
 10
1275.629526297887
 20
918.231520610322
 30
0.0
 11
1275.629526297887
 21
878.2316980576569
 31
0.0
  0
INSERT
  5
3D05
330
3CFF
100
AcDbEntity
  8
DIM
 62
     0
370
    -2
100
AcDbBlockReference
  2
_DOT
 10
1275.629526297887
 20
928.231520610322
 30
0.0
 41
10.0
 42
10.0
 43
10.0
 50
90.0
  0
INSERT
  5
3D06
330
3CFF
100
AcDbEntity
  8
DIM
 62
     0
370
    -2
100
AcDbBlockReference
  2
_DOT
 10
1275.629526297887
 20
868.2316980576569
 30
0.0
 41
10.0
 42
10.0
 43
10.0
 50
270.0
  0
MTEXT
  5
3D07
330
3CFF
100
AcDbEntity
  8
DIM
 62
     0
100
AcDbMText
 10
1243.629526297887
 20
898.2316093339895
 30
0.0
 40
24.0
 41
0.0
 46
0.0
 71
     5
 72
     1
  1
\A1;60
  7
ＭＳ ゴシック
 11
0.0
 21
1.0
 31
0.0
 73
     1
 44
1.0
  0
POINT
  5
3D08
330
3CFF
100
AcDbEntity
  8
Defpoints
 62
     0
100
AcDbPoint
 10
1337.448387423835
 20
928.231520610322
 30
0.0
  0
POINT
  5
3D09
330
3CFF
100
AcDbEntity
  8
Defpoints
 62
     0
100
AcDbPoint
 10
1440.639668185317
 20
868.2316980576569
 30
0.0
  0
POINT
  5
3D0A
330
3CFF
100
AcDbEntity
  8
Defpoints
 62
     0
100
AcDbPoint
 10
1275.629526297887
 20
868.2316980576569
 30
0.0
  0
ENDBLK
  5
3D01
330
3CFF
100
AcDbEntity
  8
0
100
AcDbBlockEnd
  0
BLOCK
  5
3D10
330
3D0F
100
AcDbEntity
  8
0
100
AcDbBlockBegin
  2
*D23
 70
     1
 10
0.0
 20
0.0
 30
0.0
  3
*D23
  1

  0
LINE
  5
3D12
330
3D0F
100
AcDbEntity
  8
DIM
 62
     0
370
    -2
100
AcDbLine
 10
1785.296502433197
 20
838.2316980576569
 30
0.0
 11
1785.296502433197
 21
652.5663581737075
 31
0.0
  0
LINE
  5
3D13
330
3D0F
100
AcDbEntity
  8
DIM
 62
     0
370
    -2
100
AcDbLine
 10
1437.193975317099
 20
838.3634191906756
 30
0.0
 11
1437.193975317099
 21
652.5663581737075
 31
0.0
  0
LINE
  5
3D14
330
3D0F
100
AcDbEntity
  8
DIM
 62
     0
370
    -2
100
AcDbLine
 10
1775.296502433197
 20
652.5663581737075
 30
0.0
 11
1447.193975317099
 21
652.5663581737075
 31
0.0
  0
INSERT
  5
3D15
330
3D0F
100
AcDbEntity
  8
DIM
 62
     0
370
    -2
100
AcDbBlockReference
  2
_DOT
 10
1785.296502433197
 20
652.5663581737075
 30
0.0
 41
10.0
 42
10.0
 43
10.0
  0
INSERT
  5
3D16
330
3D0F
100
AcDbEntity
  8
DIM
 62
     0
370
    -2
100
AcDbBlockReference
  2
_DOT
 10
1437.193975317099
 20
652.5663581737075
 30
0.0
 41
10.0
 42
10.0
 43
10.0
 50
180.0
  0
MTEXT
  5
3D17
330
3D0F
100
AcDbEntity
  8
DIM
 62
     0
100
AcDbMText
 10
1611.245238875148
 20
684.5708598618405
 30
0.0
 40
24.0
 41
0.0
 46
0.0
 71
     5
 72
     1
  1
\A1;348
  7
ＭＳ ゴシック
 73
     1
 44
1.0
  0
POINT
  5
3D18
330
3D0F
100
AcDbEntity
  8
Defpoints
 62
     0
100
AcDbPoint
 10
1785.296502433197
 20
868.2316980576569
 30
0.0
  0
POINT
  5
3D19
330
3D0F
100
AcDbEntity
  8
Defpoints
 62
     0
100
AcDbPoint
 10
1437.193975317099
 20
868.3634191906756
 30
0.0
  0
POINT
  5
3D1A
330
3D0F
100
AcDbEntity
  8
Defpoints
 62
     0
100
AcDbPoint
 10
1437.193975317099
 20
652.5663581737075
 30
0.0
  0
ENDBLK
  5
3D11
330
3D0F
100
AcDbEntity
  8
0
100
AcDbBlockEnd
  0
BLOCK
  5
3D7C
330
3D7B
100
AcDbEntity
  8
0
100
AcDbBlockBegin
  2
*D24
 70
     1
 10
0.0
 20
0.0
 30
0.0
  3
*D24
  1

  0
LINE
  5
3D7E
330
3D7B
100
AcDbEntity
  8
DIM
 62
     0
370
    -2
100
AcDbLine
 10
439.0582810474755
 20
1000.347727034517
 30
0.0
 11
439.0582810474755
 21
1076.918481407662
 31
0.0
  0
LINE
  5
3D7F
330
3D7B
100
AcDbEntity
  8
DIM
 62
     0
370
    -2
100
AcDbLine
 10
719.0203849721404
 20
1000.347727034517
 30
0.0
 11
719.0203849721404
 21
1076.918481407662
 31
0.0
  0
LINE
  5
3D80
330
3D7B
100
AcDbEntity
  8
DIM
 62
     0
370
    -2
100
AcDbLine
 10
449.0582810474755
 20
1076.918481407662
 30
0.0
 11
709.0203849721404
 21
1076.918481407662
 31
0.0
  0
INSERT
  5
3D81
330
3D7B
100
AcDbEntity
  8
DIM
 62
     0
370
    -2
100
AcDbBlockReference
  2
_DOT
 10
439.0582810474755
 20
1076.918481407662
 30
0.0
 41
10.0
 42
10.0
 43
10.0
 50
180.0
  0
INSERT
  5
3D82
330
3D7B
100
AcDbEntity
  8
DIM
 62
     0
370
    -2
100
AcDbBlockReference
  2
_DOT
 10
719.0203849721404
 20
1076.918481407662
 30
0.0
 41
10.0
 42
10.0
 43
10.0
  0
MTEXT
  5
3D83
330
3D7B
100
AcDbEntity
  8
DIM
 62
     0
100
AcDbMText
 10
579.0393330098079
 20
1108.922983095795
 30
0.0
 40
24.0
 41
0.0
 46
0.0
 71
     5
 72
     1
  1
\A1;280
  7
ＭＳ ゴシック
 73
     1
 44
1.0
  0
POINT
  5
3D84
330
3D7B
100
AcDbEntity
  8
Defpoints
 62
     0
100
AcDbPoint
 10
439.0582810474755
 20
970.3477270345171
 30
0.0
  0
POINT
  5
3D85
330
3D7B
100
AcDbEntity
  8
Defpoints
 62
     0
100
AcDbPoint
 10
719.0203849721404
 20
970.3477270345171
 30
0.0
  0
POINT
  5
3D86
330
3D7B
100
AcDbEntity
  8
Defpoints
 62
     0
100
AcDbPoint
 10
719.0203849721404
 20
1076.918481407662
 30
0.0
  0
ENDBLK
  5
3D7D
330
3D7B
100
AcDbEntity
  8
0
100
AcDbBlockEnd
  0
BLOCK
  5
3D89
330
3D88
100
AcDbEntity
  8
0
100
AcDbBlockBegin
  2
*D25
 70
     1
 10
0.0
 20
0.0
 30
0.0
  3
*D25
  1

  0
LINE
  5
3D8B
330
3D88
100
AcDbEntity
  8
DIM
 62
     0
370
    -2
100
AcDbLine
 10
375.5552266372235
 20
953.4226321206261
 30
0.0
 11
182.8753983264494
 21
953.4226321206261
 31
0.0
  0
LINE
  5
3D8C
330
3D88
100
AcDbEntity
  8
DIM
 62
     0
370
    -2
100
AcDbLine
 10
239.6247224787381
 20
1008.233580745704
 30
0.0
 11
182.8753983264494
 21
1008.233580745704
 31
0.0
  0
LINE
  5
3D8D
330
3D88
100
AcDbEntity
  8
DIM
 62
     0
370
    -2
100
AcDbLine
 10
182.8753983264494
 20
963.4226321206261
 30
0.0
 11
182.8753983264494
 21
998.2335807457042
 31
0.0
  0
INSERT
  5
3D8E
330
3D88
100
AcDbEntity
  8
DIM
 62
     0
370
    -2
100
AcDbBlockReference
  2
_DOT
 10
182.8753983264494
 20
953.4226321206261
 30
0.0
 41
10.0
 42
10.0
 43
10.0
 50
270.0
  0
INSERT
  5
3D8F
330
3D88
100
AcDbEntity
  8
DIM
 62
     0
370
    -2
100
AcDbBlockReference
  2
_DOT
 10
182.8753983264494
 20
1008.233580745704
 30
0.0
 41
10.0
 42
10.0
 43
10.0
 50
90.0
  0
MTEXT
  5
3D90
330
3D88
100
AcDbEntity
  8
DIM
 62
     0
100
AcDbMText
 10
150.8708966383164
 20
980.8281064331651
 30
0.0
 40
24.0
 41
0.0
 46
0.0
 71
     5
 72
     1
  1
\A1;55
  7
ＭＳ ゴシック
 11
0.0
 21
1.0
 31
0.0
 73
     1
 44
1.0
  0
POINT
  5
3D91
330
3D88
100
AcDbEntity
  8
Defpoints
 62
     0
100
AcDbPoint
 10
405.5552266372235
 20
953.4226321206261
 30
0.0
  0
POINT
  5
3D92
330
3D88
100
AcDbEntity
  8
Defpoints
 62
     0
100
AcDbPoint
 10
269.6247224787381
 20
1008.233580745704
 30
0.0
  0
POINT
  5
3D93
330
3D88
100
AcDbEntity
  8
Defpoints
 62
     0
100
AcDbPoint
 10
182.8753983264494
 20
1008.233580745704
 30
0.0
  0
ENDBLK
  5
3D8A
330
3D88
100
AcDbEntity
  8
0
100
AcDbBlockEnd
  0
BLOCK
  5
3DC0
330
3DBF
100
AcDbEntity
  8
0
100
AcDbBlockBegin
  2
*D26
 70
     1
 10
0.0
 20
0.0
 30
0.0
  3
*D26
  1

  0
LINE
  5
3DC2
330
3DBF
100
AcDbEntity
  8
DIM
 62
     0
370
    -2
100
AcDbLine
 10
1268.466152285873
 20
1987.612412431864
 30
0.0
 11
1268.466152285873
 21
1840.00386926208
 31
0.0
  0
LINE
  5
3DC3
330
3DBF
100
AcDbEntity
  8
DIM
 62
     0
370
    -2
100
AcDbLine
 10
1808.466152285873
 20
1987.612412431863
 30
0.0
 11
1808.466152285873
 21
1840.00386926208
 31
0.0
  0
LINE
  5
3DC4
330
3DBF
100
AcDbEntity
  8
DIM
 62
     0
370
    -2
100
AcDbLine
 10
1278.466152285873
 20
1840.00386926208
 30
0.0
 11
1798.466152285873
 21
1840.00386926208
 31
0.0
  0
INSERT
  5
3DC5
330
3DBF
100
AcDbEntity
  8
DIM
 62
     0
370
    -2
100
AcDbBlockReference
  2
_DOT
 10
1268.466152285873
 20
1840.00386926208
 30
0.0
 41
10.0
 42
10.0
 43
10.0
 50
180.0
  0
INSERT
  5
3DC6
330
3DBF
100
AcDbEntity
  8
DIM
 62
     0
370
    -2
100
AcDbBlockReference
  2
_DOT
 10
1808.466152285873
 20
1840.00386926208
 30
0.0
 41
10.0
 42
10.0
 43
10.0
  0
MTEXT
  5
3DC7
330
3DBF
100
AcDbEntity
  8
DIM
 62
     0
100
AcDbMText
 10
1538.466152285873
 20
1872.008370950213
 30
0.0
 40
24.0
 41
0.0
 46
0.0
 71
     5
 72
     1
  1
\A1;540
  7
ＭＳ ゴシック
 73
     1
 44
1.0
  0
POINT
  5
3DC8
330
3DBF
100
AcDbEntity
  8
Defpoints
 62
     0
100
AcDbPoint
 10
1268.466152285873
 20
2017.612412431864
 30
0.0
  0
POINT
  5
3DC9
330
3DBF
100
AcDbEntity
  8
Defpoints
 62
     0
100
AcDbPoint
 10
1808.466152285873
 20
2017.612412431863
 30
0.0
  0
POINT
  5
3DCA
330
3DBF
100
AcDbEntity
  8
Defpoints
 62
     0
100
AcDbPoint
 10
1808.466152285873
 20
1840.00386926208
 30
0.0
  0
ENDBLK
  5
3DC1
330
3DBF
100
AcDbEntity
  8
0
100
AcDbBlockEnd
  0
BLOCK
  5
3DCF
330
3DCE
100
AcDbEntity
  8
0
100
AcDbBlockBegin
  2
*D27
 70
     1
 10
0.0
 20
0.0
 30
0.0
  3
*D27
  1

  0
LINE
  5
3DD1
330
3DCE
100
AcDbEntity
  8
DIM
 62
     0
370
    -2
100
AcDbLine
 10
1388.466152285873
 20
2132.612412431863
 30
0.0
 11
1388.466152285873
 21
1913.118878680875
 31
0.0
  0
LINE
  5
3DD2
330
3DCE
100
AcDbEntity
  8
DIM
 62
     0
370
    -2
100
AcDbLine
 10
1688.466152285873
 20
2132.612412431863
 30
0.0
 11
1688.466152285873
 21
1913.118878680875
 31
0.0
  0
LINE
  5
3DD3
330
3DCE
100
AcDbEntity
  8
DIM
 62
     0
370
    -2
100
AcDbLine
 10
1398.466152285873
 20
1913.118878680875
 30
0.0
 11
1678.466152285873
 21
1913.118878680875
 31
0.0
  0
INSERT
  5
3DD4
330
3DCE
100
AcDbEntity
  8
DIM
 62
     0
370
    -2
100
AcDbBlockReference
  2
_DOT
 10
1388.466152285873
 20
1913.118878680875
 30
0.0
 41
10.0
 42
10.0
 43
10.0
 50
180.0
  0
INSERT
  5
3DD5
330
3DCE
100
AcDbEntity
  8
DIM
 62
     0
370
    -2
100
AcDbBlockReference
  2
_DOT
 10
1688.466152285873
 20
1913.118878680875
 30
0.0
 41
10.0
 42
10.0
 43
10.0
  0
MTEXT
  5
3DD6
330
3DCE
100
AcDbEntity
  8
DIM
 62
     0
100
AcDbMText
 10
1538.466152285873
 20
1945.123380369008
 30
0.0
 40
24.0
 41
0.0
 46
0.0
 71
     5
 72
     1
  1
\A1;300
  7
ＭＳ ゴシック
 73
     1
 44
1.0
  0
POINT
  5
3DD7
330
3DCE
100
AcDbEntity
  8
Defpoints
 62
     0
100
AcDbPoint
 10
1388.466152285873
 20
2162.612412431863
 30
0.0
  0
POINT
  5
3DD8
330
3DCE
100
AcDbEntity
  8
Defpoints
 62
     0
100
AcDbPoint
 10
1688.466152285873
 20
2162.612412431863
 30
0.0
  0
POINT
  5
3DD9
330
3DCE
100
AcDbEntity
  8
Defpoints
 62
     0
100
AcDbPoint
 10
1688.466152285873
 20
1913.118878680875
 30
0.0
  0
ENDBLK
  5
3DD0
330
3DCE
100
AcDbEntity
  8
0
100
AcDbBlockEnd
  0
BLOCK
  5
3DDE
330
3DDD
100
AcDbEntity
  8
0
100
AcDbBlockBegin
  2
*D28
 70
     1
 10
0.0
 20
0.0
 30
0.0
  3
*D28
  1

  0
LINE
  5
3DE0
330
3DDD
100
AcDbEntity
  8
DIM
 62
     0
370
    -2
100
AcDbLine
 10
1838.466152285873
 20
2427.612412431863
 30
0.0
 11
1983.402187298694
 21
2427.612412431863
 31
0.0
  0
LINE
  5
3DE1
330
3DDD
100
AcDbEntity
  8
DIM
 62
     0
370
    -2
100
AcDbLine
 10
1838.466152285873
 20
2017.612412431863
 30
0.0
 11
1983.402187298694
 21
2017.612412431863
 31
0.0
  0
LINE
  5
3DE2
330
3DDD
100
AcDbEntity
  8
DIM
 62
     0
370
    -2
100
AcDbLine
 10
1983.402187298694
 20
2417.612412431863
 30
0.0
 11
1983.402187298694
 21
2027.612412431863
 31
0.0
  0
INSERT
  5
3DE3
330
3DDD
100
AcDbEntity
  8
DIM
 62
     0
370
    -2
100
AcDbBlockReference
  2
_DOT
 10
1983.402187298694
 20
2427.612412431863
 30
0.0
 41
10.0
 42
10.0
 43
10.0
 50
90.0
  0
INSERT
  5
3DE4
330
3DDD
100
AcDbEntity
  8
DIM
 62
     0
370
    -2
100
AcDbBlockReference
  2
_DOT
 10
1983.402187298694
 20
2017.612412431863
 30
0.0
 41
10.0
 42
10.0
 43
10.0
 50
270.0
  0
MTEXT
  5
3DE5
330
3DDD
100
AcDbEntity
  8
DIM
 62
     0
100
AcDbMText
 10
1951.397685610561
 20
2222.612412431863
 30
0.0
 40
24.0
 41
0.0
 46
0.0
 71
     5
 72
     1
  1
\A1;410
  7
ＭＳ ゴシック
 11
0.0
 21
1.0
 31
0.0
 73
     1
 44
1.0
  0
POINT
  5
3DE6
330
3DDD
100
AcDbEntity
  8
Defpoints
 62
     0
100
AcDbPoint
 10
1808.466152285873
 20
2427.612412431863
 30
0.0
  0
POINT
  5
3DE7
330
3DDD
100
AcDbEntity
  8
Defpoints
 62
     0
100
AcDbPoint
 10
1808.466152285873
 20
2017.612412431863
 30
0.0
  0
POINT
  5
3DE8
330
3DDD
100
AcDbEntity
  8
Defpoints
 62
     0
100
AcDbPoint
 10
1983.402187298694
 20
2017.612412431863
 30
0.0
  0
ENDBLK
  5
3DDF
330
3DDD
100
AcDbEntity
  8
0
100
AcDbBlockEnd
  0
BLOCK
  5
3DED
330
3DEC
100
AcDbEntity
  8
0
100
AcDbBlockBegin
  2
*D29
 70
     1
 10
0.0
 20
0.0
 30
0.0
  3
*D29
  1

  0
LINE
  5
3DEF
330
3DEC
100
AcDbEntity
  8
DIM
 62
     0
370
    -2
100
AcDbLine
 10
1718.466152285873
 20
2427.612412431863
 30
0.0
 11
1895.571356339658
 21
2427.612412431863
 31
0.0
  0
LINE
  5
3DF0
330
3DEC
100
AcDbEntity
  8
DIM
 62
     0
370
    -2
100
AcDbLine
 10
1718.466152285873
 20
2162.612412431863
 30
0.0
 11
1895.571356339658
 21
2162.612412431863
 31
0.0
  0
LINE
  5
3DF1
330
3DEC
100
AcDbEntity
  8
DIM
 62
     0
370
    -2
100
AcDbLine
 10
1895.571356339658
 20
2417.612412431863
 30
0.0
 11
1895.571356339658
 21
2172.612412431863
 31
0.0
  0
INSERT
  5
3DF2
330
3DEC
100
AcDbEntity
  8
DIM
 62
     0
370
    -2
100
AcDbBlockReference
  2
_DOT
 10
1895.571356339658
 20
2427.612412431863
 30
0.0
 41
10.0
 42
10.0
 43
10.0
 50
90.0
  0
INSERT
  5
3DF3
330
3DEC
100
AcDbEntity
  8
DIM
 62
     0
370
    -2
100
AcDbBlockReference
  2
_DOT
 10
1895.571356339658
 20
2162.612412431863
 30
0.0
 41
10.0
 42
10.0
 43
10.0
 50
270.0
  0
MTEXT
  5
3DF4
330
3DEC
100
AcDbEntity
  8
DIM
 62
     0
100
AcDbMText
 10
1863.566854651524
 20
2295.112412431863
 30
0.0
 40
24.0
 41
0.0
 46
0.0
 71
     5
 72
     1
  1
\A1;265
  7
ＭＳ ゴシック
 11
0.0
 21
1.0
 31
0.0
 73
     1
 44
1.0
  0
POINT
  5
3DF5
330
3DEC
100
AcDbEntity
  8
Defpoints
 62
     0
100
AcDbPoint
 10
1688.466152285873
 20
2427.612412431863
 30
0.0
  0
POINT
  5
3DF6
330
3DEC
100
AcDbEntity
  8
Defpoints
 62
     0
100
AcDbPoint
 10
1688.466152285873
 20
2162.612412431863
 30
0.0
  0
POINT
  5
3DF7
330
3DEC
100
AcDbEntity
  8
Defpoints
 62
     0
100
AcDbPoint
 10
1895.571356339658
 20
2162.612412431863
 30
0.0
  0
ENDBLK
  5
3DEE
330
3DEC
100
AcDbEntity
  8
0
100
AcDbBlockEnd
  0
BLOCK
  5
3E46
330
3E45
100
AcDbEntity
  8
0
100
AcDbBlockBegin
  2
_None
 70
     0
 10
0.0
 20
0.0
 30
0.0
  3
_None
  1

  0
ENDBLK
  5
3E47
330
3E45
100
AcDbEntity
  8
0
100
AcDbBlockEnd
  0
BLOCK
  5
4380
330
437F
100
AcDbEntity
  8
0
100
AcDbBlockBegin
  2
*D31
 70
     1
 10
0.0
 20
0.0
 30
0.0
  3
*D31
  1

  0
LINE
  5
4382
330
437F
100
AcDbEntity
  8
DIM
 62
     0
370
    -2
100
AcDbLine
 10
262.7282388366038
 20
1954.044391308841
 30
0.0
 11
262.7282388366039
 21
1840.27511334887
 31
0.0
  0
LINE
  5
4383
330
437F
100
AcDbEntity
  8
DIM
 62
     0
370
    -2
100
AcDbLine
 10
895.357532691889
 20
1952.3434241686
 30
0.0
 11
895.357532691889
 21
1840.27511334887
 31
0.0
  0
LINE
  5
4384
330
437F
100
AcDbEntity
  8
DIM
 62
     0
370
    -2
100
AcDbLine
 10
272.7282388366039
 20
1840.27511334887
 30
0.0
 11
885.357532691889
 21
1840.27511334887
 31
0.0
  0
INSERT
  5
4385
330
437F
100
AcDbEntity
  8
DIM
 62
     0
370
    -2
100
AcDbBlockReference
  2
_DOT
 10
262.7282388366039
 20
1840.27511334887
 30
0.0
 41
10.0
 42
10.0
 43
10.0
 50
180.0
  0
INSERT
  5
4386
330
437F
100
AcDbEntity
  8
DIM
 62
     0
370
    -2
100
AcDbBlockReference
  2
_DOT
 10
895.357532691889
 20
1840.27511334887
 30
0.0
 41
10.0
 42
10.0
 43
10.0
  0
MTEXT
  5
4387
330
437F
100
AcDbEntity
  8
DIM
 62
     0
100
AcDbMText
 10
579.0428857642464
 20
1872.279615037004
 30
0.0
 40
24.0
 41
0.0
 46
0.0
 71
     5
 72
     1
  1
\A1;635
  7
ＭＳ ゴシック
 73
     1
 44
1.0
  0
POINT
  5
4388
330
437F
100
AcDbEntity
  8
Defpoints
 62
     0
100
AcDbPoint
 10
262.7282388366038
 20
1984.044391308841
 30
0.0
  0
POINT
  5
4389
330
437F
100
AcDbEntity
  8
Defpoints
 62
     0
100
AcDbPoint
 10
895.357532691889
 20
1982.3434241686
 30
0.0
  0
POINT
  5
438A
330
437F
100
AcDbEntity
  8
Defpoints
 62
     0
100
AcDbPoint
 10
895.357532691889
 20
1840.27511334887
 30
0.0
  0
ENDBLK
  5
4381
330
437F
100
AcDbEntity
  8
0
100
AcDbBlockEnd
  0
BLOCK
  5
4390
330
438F
100
AcDbEntity
  8
0
100
AcDbBlockBegin
  2
*D32
 70
     1
 10
0.0
 20
0.0
 30
0.0
  3
*D32
  1

  0
LINE
  5
4392
330
438F
100
AcDbEntity
  8
DIM
 62
     0
370
    -2
100
AcDbLine
 10
241.3252147296096
 20
2302.037722917779
 30
0.0
 11
150.7049970219048
 21
2302.037722917779
 31
0.0
  0
LINE
  5
4393
330
438F
100
AcDbEntity
  8
DIM
 62
     0
370
    -2
100
AcDbLine
 10
239.2109125742902
 20
1976.085206808165
 30
0.0
 11
150.7049970219048
 21
1976.085206808165
 31
0.0
  0
LINE
  5
4394
330
438F
100
AcDbEntity
  8
DIM
 62
     0
370
    -2
100
AcDbLine
 10
150.7049970219048
 20
2292.037722917779
 30
0.0
 11
150.7049970219048
 21
1986.085206808165
 31
0.0
  0
INSERT
  5
4395
330
438F
100
AcDbEntity
  8
DIM
 62
     0
370
    -2
100
AcDbBlockReference
  2
_DOT
 10
150.7049970219048
 20
2302.037722917779
 30
0.0
 41
10.0
 42
10.0
 43
10.0
 50
90.0
  0
INSERT
  5
4396
330
438F
100
AcDbEntity
  8
DIM
 62
     0
370
    -2
100
AcDbBlockReference
  2
_DOT
 10
150.7049970219048
 20
1976.085206808165
 30
0.0
 41
10.0
 42
10.0
 43
10.0
 50
270.0
  0
MTEXT
  5
4397
330
438F
100
AcDbEntity
  8
DIM
 62
     0
100
AcDbMText
 10
118.7004953337716
 20
2139.061464862973
 30
0.0
 40
24.0
 41
0.0
 46
0.0
 71
     5
 72
     1
  1
\A1;325
  7
ＭＳ ゴシック
 11
8.719585837111969E-17
 21
1.0
 31
0.0
 73
     1
 44
1.0
  0
POINT
  5
4398
330
438F
100
AcDbEntity
  8
Defpoints
 62
     0
100
AcDbPoint
 10
271.3252147296096
 20
2302.037722917779
 30
0.0
  0
POINT
  5
4399
330
438F
100
AcDbEntity
  8
Defpoints
 62
     0
100
AcDbPoint
 10
269.2109125742902
 20
1976.085206808165
 30
0.0
  0
POINT
  5
439A
330
438F
100
AcDbEntity
  8
Defpoints
 62
     0
100
AcDbPoint
 10
150.7049970219048
 20
1976.085206808165
 30
0.0
  0
ENDBLK
  5
4391
330
438F
100
AcDbEntity
  8
0
100
AcDbBlockEnd
  0
BLOCK
  5
439F
330
439E
100
AcDbEntity
  8
0
100
AcDbBlockBegin
  2
*D33
 70
     1
 10
0.0
 20
0.0
 30
0.0
  3
*D33
  1

  0
LINE
  5
43A1
330
439E
100
AcDbEntity
  8
DIM
 62
     0
370
    -2
100
AcDbLine
 10
254.0428308223063
 20
2441.581279134669
 30
0.0
 11
254.0428308223063
 21
2539.247367845443
 31
0.0
  0
LINE
  5
43A2
330
439E
100
AcDbEntity
  8
DIM
 62
     0
370
    -2
100
AcDbLine
 10
904.0428330469622
 20
2439.973865187125
 30
0.0
 11
904.0428330469622
 21
2539.247367845443
 31
0.0
  0
LINE
  5
43A3
330
439E
100
AcDbEntity
  8
DIM
 62
     0
370
    -2
100
AcDbLine
 10
264.0428308223063
 20
2539.247367845443
 30
0.0
 11
894.0428330469622
 21
2539.247367845443
 31
0.0
  0
INSERT
  5
43A4
330
439E
100
AcDbEntity
  8
DIM
 62
     0
370
    -2
100
AcDbBlockReference
  2
_DOT
 10
254.0428308223063
 20
2539.247367845443
 30
0.0
 41
10.0
 42
10.0
 43
10.0
 50
180.0
  0
INSERT
  5
43A5
330
439E
100
AcDbEntity
  8
DIM
 62
     0
370
    -2
100
AcDbBlockReference
  2
_DOT
 10
904.0428330469622
 20
2539.247367845443
 30
0.0
 41
10.0
 42
10.0
 43
10.0
  0
MTEXT
  5
43A6
330
439E
100
AcDbEntity
  8
DIM
 62
     0
100
AcDbMText
 10
579.0428319346343
 20
2571.251869533576
 30
0.0
 40
24.0
 41
0.0
 46
0.0
 71
     5
 72
     1
  1
\A1;650
  7
ＭＳ ゴシック
 73
     1
 44
1.0
  0
POINT
  5
43A7
330
439E
100
AcDbEntity
  8
Defpoints
 62
     0
100
AcDbPoint
 10
254.0428308223063
 20
2411.581279134669
 30
0.0
  0
POINT
  5
43A8
330
439E
100
AcDbEntity
  8
Defpoints
 62
     0
100
AcDbPoint
 10
904.0428330469622
 20
2409.973865187125
 30
0.0
  0
POINT
  5
43A9
330
439E
100
AcDbEntity
  8
Defpoints
 62
     0
100
AcDbPoint
 10
904.0428330469622
 20
2539.247367845443
 30
0.0
  0
ENDBLK
  5
43A0
330
439E
100
AcDbEntity
  8
0
100
AcDbBlockEnd
  0
BLOCK
  5
4405
330
4404
100
AcDbEntity
  8
0
100
AcDbBlockBegin
  2
*D34
 70
     1
 10
0.0
 20
0.0
 30
0.0
  3
*D34
  1

  0
LINE
  5
4407
330
4404
100
AcDbEntity
  8
DIM
 62
     0
370
    -2
100
AcDbLine
 10
913.8147121541703
 20
2427.612412431863
 30
0.0
 11
1006.955962495781
 21
2427.612412431863
 31
0.0
  0
LINE
  5
4408
330
4404
100
AcDbEntity
  8
DIM
 62
     0
370
    -2
100
AcDbLine
 10
913.7715235353658
 20
1967.61145683113
 30
0.0
 11
1006.955962495781
 21
1967.61145683113
 31
0.0
  0
LINE
  5
4409
330
4404
100
AcDbEntity
  8
DIM
 62
     0
370
    -2
100
AcDbLine
 10
1006.955962495781
 20
2417.612412431863
 30
0.0
 11
1006.955962495781
 21
1977.61145683113
 31
0.0
  0
INSERT
  5
440A
330
4404
100
AcDbEntity
  8
DIM
 62
     0
370
    -2
100
AcDbBlockReference
  2
_DOT
 10
1006.955962495781
 20
2427.612412431863
 30
0.0
 41
10.0
 42
10.0
 43
10.0
 50
90.0
  0
INSERT
  5
440B
330
4404
100
AcDbEntity
  8
DIM
 62
     0
370
    -2
100
AcDbBlockReference
  2
_DOT
 10
1006.955962495781
 20
1967.61145683113
 30
0.0
 41
10.0
 42
10.0
 43
10.0
 50
270.0
  0
MTEXT
  5
440C
330
4404
100
AcDbEntity
  8
DIM
 62
     0
100
AcDbMText
 10
974.9559624957815
 20
2197.611934631496
 30
0.0
 40
24.0
 41
0.0
 46
0.0
 71
     5
 72
     1
  1
\A1;460
  7
ＭＳ ゴシック
 11
0.0
 21
1.0
 31
0.0
 73
     1
 44
1.0
  0
POINT
  5
440D
330
4404
100
AcDbEntity
  8
Defpoints
 62
     0
100
AcDbPoint
 10
883.8147121541703
 20
2427.612412431863
 30
0.0
  0
POINT
  5
440E
330
4404
100
AcDbEntity
  8
Defpoints
 62
     0
100
AcDbPoint
 10
883.7715235353658
 20
1967.61145683113
 30
0.0
  0
POINT
  5
440F
330
4404
100
AcDbEntity
  8
Defpoints
 62
     0
100
AcDbPoint
 10
1006.955962495781
 20
1967.61145683113
 30
0.0
  0
ENDBLK
  5
4406
330
4404
100
AcDbEntity
  8
0
100
AcDbBlockEnd
  0
BLOCK
  5
441C
330
441B
100
AcDbEntity
  8
0
100
AcDbBlockBegin
  2
*D35
 70
     1
 10
0.0
 20
0.0
 30
0.0
  3
*D35
  1

  0
LINE
  5
441E
330
441B
100
AcDbEntity
  8
DIM
 62
     0
370
    -2
100
AcDbLine
 10
921.323561154792
 20
1008.233580745704
 30
0.0
 11
1018.81689539039
 21
1008.233580745704
 31
0.0
  0
LINE
  5
441F
330
441B
100
AcDbEntity
  8
DIM
 62
     0
370
    -2
100
AcDbLine
 10
632.0933718914146
 20
848.1501260791088
 30
0.0
 11
1018.81689539039
 21
848.1501260791088
 31
0.0
  0
LINE
  5
4420
330
441B
100
AcDbEntity
  8
DIM
 62
     0
370
    -2
100
AcDbLine
 10
1018.81689539039
 20
998.2335807457044
 30
0.0
 11
1018.81689539039
 21
858.1501260791088
 31
0.0
  0
INSERT
  5
4421
330
441B
100
AcDbEntity
  8
DIM
 62
     0
370
    -2
100
AcDbBlockReference
  2
_DOT
 10
1018.81689539039
 20
1008.233580745704
 30
0.0
 41
10.0
 42
10.0
 43
10.0
 50
90.0
  0
INSERT
  5
4422
330
441B
100
AcDbEntity
  8
DIM
 62
     0
370
    -2
100
AcDbBlockReference
  2
_DOT
 10
1018.81689539039
 20
848.1501260791088
 30
0.0
 41
10.0
 42
10.0
 43
10.0
 50
270.0
  0
MTEXT
  5
4423
330
441B
100
AcDbEntity
  8
DIM
 62
     0
100
AcDbMText
 10
986.8123937022566
 20
928.1918534124065
 30
0.0
 40
24.0
 41
0.0
 46
0.0
 71
     5
 72
     1
  1
\A1;160
  7
ＭＳ ゴシック
 11
0.0
 21
1.0
 31
0.0
 73
     1
 44
1.0
  0
POINT
  5
4424
330
441B
100
AcDbEntity
  8
Defpoints
 62
     0
100
AcDbPoint
 10
891.323561154792
 20
1008.233580745704
 30
0.0
  0
POINT
  5
4425
330
441B
100
AcDbEntity
  8
Defpoints
 62
     0
100
AcDbPoint
 10
602.0933718914146
 20
848.1501260791088
 30
0.0
  0
POINT
  5
4426
330
441B
100
AcDbEntity
  8
Defpoints
 62
     0
100
AcDbPoint
 10
1018.81689539039
 20
848.1501260791088
 30
0.0
  0
ENDBLK
  5
441D
330
441B
100
AcDbEntity
  8
0
100
AcDbBlockEnd
  0
BLOCK
  5
442B
330
442A
100
AcDbEntity
  8
0
100
AcDbBlockBegin
  2
*D36
 70
     1
 10
0.0
 20
0.0
 30
0.0
  3
*D36
  1

  0
LINE
  5
442D
330
442A
100
AcDbEntity
  8
DIM
 62
     0
370
    -2
100
AcDbLine
 10
362.2822318521928
 20
838.2865999506453
 30
0.0
 11
362.2822318521928
 21
753.5340287121081
 31
0.0
  0
LINE
  5
442E
330
442A
100
AcDbEntity
  8
DIM
 62
     0
370
    -2
100
AcDbLine
 10
792.8123357560078
 20
838.1596697238224
 30
0.0
 11
792.8123357560078
 21
753.5340287121081
 31
0.0
  0
LINE
  5
442F
330
442A
100
AcDbEntity
  8
DIM
 62
     0
370
    -2
100
AcDbLine
 10
372.2822318521928
 20
753.5340287121081
 30
0.0
 11
782.8123357560078
 21
753.5340287121081
 31
0.0
  0
INSERT
  5
4430
330
442A
100
AcDbEntity
  8
DIM
 62
     0
370
    -2
100
AcDbBlockReference
  2
_DOT
 10
362.2822318521928
 20
753.5340287121081
 30
0.0
 41
10.0
 42
10.0
 43
10.0
 50
180.0
  0
INSERT
  5
4431
330
442A
100
AcDbEntity
  8
DIM
 62
     0
370
    -2
100
AcDbBlockReference
  2
_DOT
 10
792.8123357560078
 20
753.5340287121081
 30
0.0
 41
10.0
 42
10.0
 43
10.0
  0
MTEXT
  5
4432
330
442A
100
AcDbEntity
  8
DIM
 62
     0
100
AcDbMText
 10
577.5472838041003
 20
785.5385304002411
 30
0.0
 40
24.0
 41
0.0
 46
0.0
 71
     5
 72
     1
  1
\A1;431
  7
ＭＳ ゴシック
 73
     1
 44
1.0
  0
POINT
  5
4433
330
442A
100
AcDbEntity
  8
Defpoints
 62
     0
100
AcDbPoint
 10
362.2822318521928
 20
868.2865999506453
 30
0.0
  0
POINT
  5
4434
330
442A
100
AcDbEntity
  8
Defpoints
 62
     0
100
AcDbPoint
 10
792.8123357560078
 20
868.1596697238224
 30
0.0
  0
POINT
  5
4435
330
442A
100
AcDbEntity
  8
Defpoints
 62
     0
100
AcDbPoint
 10
792.8123357560078
 20
753.5340287121081
 30
0.0
  0
ENDBLK
  5
442C
330
442A
100
AcDbEntity
  8
0
100
AcDbBlockEnd
  0
BLOCK
  5
444D
330
444C
100
AcDbEntity
  8
0
100
AcDbBlockBegin
  2
*D37
 70
     1
 10
0.0
 20
0.0
 30
0.0
  3
*D37
  1

  0
LINE
  5
444F
330
444C
100
AcDbEntity
  8
DIM
 62
     0
370
    -2
100
AcDbLine
 10
479.0499912731275
 20
2392.612412431863
 30
0.0
 11
479.0499912731275
 21
2476.856089214458
 31
0.0
  0
LINE
  5
4450
330
444C
100
AcDbEntity
  8
DIM
 62
     0
370
    -2
100
AcDbLine
 10
579.0499912731275
 20
2392.612412431863
 30
0.0
 11
579.0499912731275
 21
2476.856089214458
 31
0.0
  0
LINE
  5
4451
330
444C
100
AcDbEntity
  8
DIM
 62
     0
370
    -2
100
AcDbLine
 10
489.0499912731275
 20
2476.856089214458
 30
0.0
 11
569.0499912731275
 21
2476.856089214458
 31
0.0
  0
INSERT
  5
4452
330
444C
100
AcDbEntity
  8
DIM
 62
     0
370
    -2
100
AcDbBlockReference
  2
_DOT
 10
479.0499912731275
 20
2476.856089214458
 30
0.0
 41
10.0
 42
10.0
 43
10.0
 50
180.0
  0
INSERT
  5
4453
330
444C
100
AcDbEntity
  8
DIM
 62
     0
370
    -2
100
AcDbBlockReference
  2
_DOT
 10
579.0499912731275
 20
2476.856089214458
 30
0.0
 41
10.0
 42
10.0
 43
10.0
  0
MTEXT
  5
4454
330
444C
100
AcDbEntity
  8
DIM
 62
     0
100
AcDbMText
 10
529.0499912731275
 20
2508.860590902591
 30
0.0
 40
24.0
 41
0.0
 46
0.0
 71
     5
 72
     1
  1
\A1;100
  7
ＭＳ ゴシック
 73
     1
 44
1.0
  0
POINT
  5
4455
330
444C
100
AcDbEntity
  8
Defpoints
 62
     0
100
AcDbPoint
 10
479.0499912731275
 20
2362.612412431863
 30
0.0
  0
POINT
  5
4456
330
444C
100
AcDbEntity
  8
Defpoints
 62
     0
100
AcDbPoint
 10
579.0499912731275
 20
2362.612412431863
 30
0.0
  0
POINT
  5
4457
330
444C
100
AcDbEntity
  8
Defpoints
 62
     0
100
AcDbPoint
 10
579.0499912731275
 20
2476.856089214458
 30
0.0
  0
ENDBLK
  5
444E
330
444C
100
AcDbEntity
  8
0
100
AcDbBlockEnd
  0
BLOCK
  5
445C
330
445B
100
AcDbEntity
  8
0
100
AcDbBlockBegin
  2
*D38
 70
     1
 10
0.0
 20
0.0
 30
0.0
  3
*D38
  1

  0
LINE
  5
445E
330
445B
100
AcDbEntity
  8
DIM
 62
     0
370
    -2
100
AcDbLine
 10
579.0499912731275
 20
2392.612412431863
 30
0.0
 11
579.0499912731275
 21
2476.856089214458
 31
0.0
  0
LINE
  5
445F
330
445B
100
AcDbEntity
  8
DIM
 62
     0
370
    -2
100
AcDbLine
 10
679.0499912731275
 20
2392.612412431863
 30
0.0
 11
679.0499912731275
 21
2476.856089214458
 31
0.0
  0
LINE
  5
4460
330
445B
100
AcDbEntity
  8
DIM
 62
     0
370
    -2
100
AcDbLine
 10
589.0499912731275
 20
2476.856089214458
 30
0.0
 11
669.0499912731275
 21
2476.856089214458
 31
0.0
  0
INSERT
  5
4461
330
445B
100
AcDbEntity
  8
DIM
 62
     0
370
    -2
100
AcDbBlockReference
  2
_DOT
 10
579.0499912731275
 20
2476.856089214458
 30
0.0
 41
10.0
 42
10.0
 43
10.0
 50
180.0
  0
INSERT
  5
4462
330
445B
100
AcDbEntity
  8
DIM
 62
     0
370
    -2
100
AcDbBlockReference
  2
_DOT
 10
679.0499912731275
 20
2476.856089214458
 30
0.0
 41
10.0
 42
10.0
 43
10.0
  0
MTEXT
  5
4463
330
445B
100
AcDbEntity
  8
DIM
 62
     0
100
AcDbMText
 10
629.0499912731275
 20
2508.860590902591
 30
0.0
 40
24.0
 41
0.0
 46
0.0
 71
     5
 72
     1
  1
\A1;100
  7
ＭＳ ゴシック
 73
     1
 44
1.0
  0
POINT
  5
4464
330
445B
100
AcDbEntity
  8
Defpoints
 62
     0
100
AcDbPoint
 10
579.0499912731275
 20
2362.612412431863
 30
0.0
  0
POINT
  5
4465
330
445B
100
AcDbEntity
  8
Defpoints
 62
     0
100
AcDbPoint
 10
679.0499912731275
 20
2362.612412431863
 30
0.0
  0
POINT
  5
4466
330
445B
100
AcDbEntity
  8
Defpoints
 62
     0
100
AcDbPoint
 10
679.0499912731275
 20
2476.856089214458
 30
0.0
  0
ENDBLK
  5
445D
330
445B
100
AcDbEntity
  8
0
100
AcDbBlockEnd
  0
ENDSEC
  0
SECTION
  2
ENTITIES
  0
MTEXT
  5
177
330
A
100
AcDbEntity
  8
TEMPLATE
390
1D
100
AcDbMText
 10
79.20214454773075
 20
343.7317516314282
 30
0.0
 40
16.28841145833333
 41
0.0
 46
0.0
 71
     1
 72
     1
  1
品名
  7
ＭＳ ゴシック
 73
     1
 44
0.7828267384257843
  0
MTEXT
  5
178
330
A
100
AcDbEntity
  8
TEMPLATE
390
1D
100
AcDbMText
 10
79.20214454773075
 20
258.731751631428
 30
0.0
 40
16.28841145833333
 41
0.0
 46
0.0
 71
     1
 72
     1
  1
仕様
  7
ＭＳ ゴシック
 73
     1
 44
0.7828267384257843
  0
LINE
  5
179
330
A
100
AcDbEntity
  8
TEMPLATE
390
1D
100
AcDbLine
 10
2022.202144547248
 20
267.1466735064284
 30
0.0
 11
72.20214454724874
 21
267.1466735064284
 31
0.0
  0
LWPOLYLINE
  5
17A
330
A
100
AcDbEntity
  8
TEMPLATE
390
1D
100
AcDbPolyline
 90
        5
 70
   128
 43
0.0
 10
2022.202144547248
 20
2897.146673506426
 10
72.20214454724874
 20
2897.146673506426
 10
72.20214454724874
 20
97.14667350642826
 10
2022.202144547248
 20
97.14667350642826
 10
2022.202144547248
 20
2897.146673506426
  0
LINE
  5
17B
330
A
100
AcDbEntity
  8
TEMPLATE
390
1D
100
AcDbLine
 10
2022.202144547248
 20
352.1466735064282
 30
0.0
 11
72.20214454724874
 21
352.1466735064282
 31
0.0
  0
LINE
  5
17C
330
A
100
AcDbEntity
  8
TEMPLATE
390
1D
100
AcDbLine
 10
2022.202144547732
 20
182.1466735064282
 30
0.0
 11
1269.20214454773
 21
182.1466735064282
 31
0.0
  0
MTEXT
  5
17E
330
A
100
AcDbEntity
  8
TEMPLATE
390
1D
100
AcDbMText
 10
1299.073550799991
 20
152.2362790331201
 30
0.0
 40
24.4326171875
 41
0.0
 46
0.0
 71
     1
 72
     1
  1
大洋金物株式会社 ティーフォルム事業部
  7
ＭＳ ゴシック
 73
     1
 44
0.7828267384257843
  0
MTEXT
  5
180
330
A
100
AcDbEntity
  8
TEMPLATE
390
1D
100
AcDbMText
 10
1831.20214454799
 20
230.1492906939282
 30
0.0
 40
24.4326171875
 41
0.0
 46
24.4326171875
 71
     1
 72
     1
  1
{1:10}
  7
ＭＳ ゴシック
 73
     1
 44
0.7828267384257843
1001
ACAD
1000
ACAD_MTEXT_DEFINED_HEIGHT_BEGIN
1070
    46
1040
24.4326171875
1000
ACAD_MTEXT_DEFINED_HEIGHT_END
  0
MTEXT
  5
181
330
A
100
AcDbEntity
  8
TEMPLATE
390
1D
100
AcDbMText
 10
1778.20214454799
 20
258.731751631428
 30
0.0
 40
16.28841145833333
 41
0.0
 46
0.0
 71
     1
 72
     1
  1
縮尺
  7
ＭＳ ゴシック
 73
     1
 44
0.7828267384257843
  0
LINE
  5
182
330
A
100
AcDbEntity
  8
TEMPLATE
390
1D
100
AcDbLine
 10
1771.20214454799
 20
182.1466735064282
 30
0.0
 11
1771.20214454799
 21
267.1466735064284
 31
0.0
  0
MTEXT
  5
183
330
A
100
AcDbEntity
  8
TEMPLATE
390
1D
100
AcDbMText
 10
1527.20214454799
 20
258.731751631428
 30
0.0
 40
16.28841145833333
 41
0.0
 46
0.0
 71
     1
 72
     1
  1
容量
  7
ＭＳ ゴシック
 73
     1
 44
0.7828267384257843
  0
LINE
  5
184
330
A
100
AcDbEntity
  8
TEMPLATE
390
1D
100
AcDbLine
 10
1520.20214454799
 20
182.1466735064282
 30
0.0
 11
1520.20214454799
 21
267.1466735064284
 31
0.0
  0
MTEXT
  5
185
330
A
100
AcDbEntity
  8
TEMPLATE
390
1D
100
AcDbMText
 10
1276.20214454799
 20
343.7317516314282
 30
0.0
 40
16.28841145833333
 41
0.0
 46
0.0
 71
     1
 72
     1
  1
品番
  7
ＭＳ ゴシック
 73
     1
 44
0.7828267384257843
  0
MTEXT
  5
186
330
A
100
AcDbEntity
  8
TEMPLATE
390
1D
100
AcDbMText
 10
1276.20214454799
 20
258.731751631428
 30
0.0
 40
16.28841145833333
 41
0.0
 46
0.0
 71
     1
 72
     1
  1
重量
  7
ＭＳ ゴシック
 73
     1
 44
0.7828267384257843
  0
MTEXT
  5
187
330
A
100
AcDbEntity
  8
TEMPLATE
390
1D
100
AcDbMText
 10
1329.20214454799
 20
315.1492906939282
 30
0.0
 40
24.4326171875
 41
0.0
 46
24.4326171875
 71
     1
 72
     1
  1
{GAR70-1003-001}
  7
ＭＳ ゴシック
 73
     1
 44
0.7828267384257843
1001
ACAD
1000
ACAD_MTEXT_DEFINED_HEIGHT_BEGIN
1070
    46
1040
24.4326171875
1000
ACAD_MTEXT_DEFINED_HEIGHT_END
  0
LINE
  5
188
330
A
100
AcDbEntity
  8
TEMPLATE
390
1D
100
AcDbLine
 10
1269.20214454799
 20
97.14667350642826
 30
0.0
 11
1269.20214454799
 21
352.1466735064282
 31
0.0
  0
MTEXT
  5
189
330
A
100
AcDbEntity
  8
TEMPLATE
390
1D
100
AcDbMText
 10
132.2021445477307
 20
322.236751532599
 30
0.0
 40
24.4326171875
 41
0.0
 46
27.53672361022102
 71
     1
 72
     1
  1
{洗面器　-LAUFEN, MEDA-}
  7
ＭＳ ゴシック
 73
     1
 44
0.7828267384257843
1001
ACAD
1000
ACAD_MTEXT_DEFINED_HEIGHT_BEGIN
1070
    46
1040
27.53672361022102
1000
ACAD_MTEXT_DEFINED_HEIGHT_END
  0
INSERT
  5
68C
330
A
100
AcDbEntity
  8
TEMPLATE
100
AcDbBlockReference
  2
block 2
 10
919.2743017702577
 20
8.373076514336368
 30
0.0
 41
0.3809999999999999
 42
0.3809999999999999
 43
0.3809999999999999
  0
LWPOLYLINE
  5
DAC
330
A
100
AcDbEntity
  8
BORDER
100
AcDbPolyline
 90
        4
 70
     1
 43
0.0
 10
0.0
 20
0.0
 10
0.0
 20
2970.0
 10
2100.0
 20
2970.0
 10
2100.0
 20
0.0
  0
MTEXT
  5
121B
330
A
100
AcDbEntity
  8
TEMPLATE
390
1D
100
AcDbMText
 10
1329.20214454799
 20
227.1688729773101
 30
0.0
 40
24.4326171875
 41
0.0
 46
28.40135167875453
 71
     1
 72
     1
  1
{16kg}
  7
ＭＳ ゴシック
 73
     1
 44
0.7828267384257843
1001
ACAD
1000
ACAD_MTEXT_DEFINED_HEIGHT_BEGIN
1070
    46
1040
28.40135167875453
1000
ACAD_MTEXT_DEFINED_HEIGHT_END
  0
MTEXT
  5
1466
102
{ACAD_XDICTIONARY
360
1468
102
}
330
A
100
AcDbEntity
  8
TEMPLATE
 48
0.05
100
AcDbMText
 10
74.728656548571
 20
83.86172105142839
 30
0.0
 40
22.0
 41
0.0
 46
22.0
 71
     1
 72
     1
  1
{20240416M}
  7
ＭＳ ゴシック
 73
     1
 44
1.0
1001
ACAD
1000
ACAD_MTEXT_DEFINED_HEIGHT_BEGIN
1070
    46
1040
22.0
1000
ACAD_MTEXT_DEFINED_HEIGHT_END
  0
MTEXT
  5
146D
330
A
100
AcDbEntity
  8
TEMPLATE
390
1D
100
AcDbMText
 10
1583.904999862276
 20
227.1688729773101
 30
0.0
 40
24.4326171875
 41
0.0
 46
24.4326171875
 71
     1
 72
     1
  1
{5.5L}
  7
ＭＳ ゴシック
 73
     1
 44
0.7828267384257843
1001
ACAD
1000
ACAD_MTEXT_DEFINED_HEIGHT_BEGIN
1070
    46
1040
24.4326171875
1000
ACAD_MTEXT_DEFINED_HEIGHT_END
  0
POINT
  5
262A
330
A
100
AcDbEntity
  8
Layer9
  6
Continuous
 62
     7
100
AcDbPoint
 10
1037.460145007193
 20
1010.220672371878
 30
0.0
  0
POINT
  5
262B
330
A
100
AcDbEntity
  8
Layer9
  6
Continuous
 62
     7
100
AcDbPoint
 10
1037.460146257193
 20
1010.220672788578
 30
0.0
  0
POINT
  5
262C
330
A
100
AcDbEntity
  8
Layer9
  6
Continuous
 62
     7
100
AcDbPoint
 10
1037.853693340493
 20
1015.267975288578
 30
0.0
  0
POINT
  5
2812
330
A
100
AcDbEntity
  8
Layer9
  6
Continuous
 62
     7
100
AcDbPoint
 10
925.7934783404928
 20
1010.220672371878
 30
0.0
  0
POINT
  5
2813
330
A
100
AcDbEntity
  8
Layer9
  6
Continuous
 62
     7
100
AcDbPoint
 10
925.7934795904928
 20
1010.220672788578
 30
0.0
  0
POINT
  5
2814
330
A
100
AcDbEntity
  8
Layer9
  6
Continuous
 62
     7
100
AcDbPoint
 10
926.1870266737928
 20
1015.267975288578
 30
0.0
  0
INSERT
  5
28CA
330
A
100
AcDbEntity
  8
Layer3
100
AcDbBlockReference
  2
SEANNOT_GROUP
 10
859.7083018867928
 20
826.1905269541776
 30
0.0
  0
POINT
  5
2A52
330
A
100
AcDbEntity
  8
Standard
  6
Continuous
 62
     7
100
AcDbPoint
 10
1036.111241014893
 20
1018.794321538578
 30
0.0
  0
INSERT
  5
2B9B
330
A
100
AcDbEntity
  8
Layer3
100
AcDbBlockReference
  2
SEANNOT_GROUP1
 10
859.7083018867928
 20
826.1905269541776
 30
0.0
  0
HATCH
  5
369B
102
{ACAD_REACTORS
330
36AC
102
}
330
A
100
AcDbEntity
  8
TEMPLATE
100
AcDbHatch
 10
0.0
 20
0.0
 30
0.0
210
0.0
220
0.0
230
1.0
  2
SOLID
 70
     1
 71
     1
 91
        6
 92
        1
 93
        8
 72
     1
 10
1934.476782902687
 20
153.1053194253001
 11
1934.476782902687
 21
147.1959117946397
 72
     1
 10
1934.476782902687
 20
147.1959117946397
 11
1925.116191352377
 21
147.1959117946397
 72
     1
 10
1925.116191352377
 20
147.1959117946397
 11
1925.116191352377
 21
123.105319426746
 72
     1
 10
1925.116191352377
 20
123.105319426746
 11
1916.883578199102
 21
123.105319426746
 72
     1
 10
1916.883578199102
 20
123.105319426746
 11
1916.883578199102
 21
147.1959117946397
 72
     1
 10
1916.883578199102
 20
147.1959117946397
 11
1907.688876764557
 21
147.1959117946397
 72
     1
 10
1907.688876764557
 20
147.1959117946397
 11
1907.688876764557
 21
153.1053194253001
 72
     1
 10
1907.688876764557
 20
153.1053194253001
 11
1934.476782902687
 21
153.1053194253001
 97
        1
330
369C
 92
        1
 93
        1
 72
     4
 94
        3
 73
     0
 74
     1
 95
       56
 96
       52
 40
0.0
 40
0.0
 40
0.0
 40
0.0
 40
1.0
 40
1.0
 40
1.0
 40
2.0
 40
2.0
 40
2.0
 40
3.0
 40
3.0
 40
3.0
 40
4.0
 40
4.0
 40
4.0
 40
5.0
 40
5.0
 40
5.0
 40
6.0
 40
6.0
 40
6.0
 40
7.0
 40
7.0
 40
7.0
 40
8.0
 40
8.0
 40
8.0
 40
9.0
 40
9.0
 40
9.0
 40
10.0
 40
10.0
 40
10.0
 40
11.0
 40
11.0
 40
11.0
 40
12.0
 40
12.0
 40
12.0
 40
13.0
 40
13.0
 40
13.0
 40
14.0
 40
14.0
 40
14.0
 40
15.0
 40
15.0
 40
15.0
 40
16.0
 40
16.0
 40
16.0
 40
17.0
 40
17.0
 40
17.0
 40
17.0
 10
1947.01896833698
 20
152.3909504648878
 10
1948.1728345189
 20
152.715738018898
 10
1949.662423612235
 20
152.4440650580081
 10
1949.662423612235
 20
152.4440650580081
 10
1949.662423612235
 20
152.4440650580081
 10
1948.946790018651
 20
150.2964947655846
 10
1948.946790018651
 20
150.2964947655846
 10
1948.946790018651
 20
150.2964947655846
 10
1947.484427733556
 20
150.6348957237139
 10
1946.356523726704
 20
149.7454866546012
 10
1945.480058550036
 20
149.0499384113589
 10
1944.912238256914
 20
147.2017886193686
 10
1944.69442379101
 20
146.4990989182278
 10
1944.69442379101
 20
146.4990989182278
 10
1943.723334297183
 20
143.518432927829
 10
1943.723334297183
 20
143.518432927829
 10
1943.723334297183
 20
143.518432927829
 10
1946.907457447503
 20
143.518432927829
 10
1946.907457447503
 20
143.518432927829
 10
1946.907457447503
 20
143.518432927829
 10
1946.412241976351
 20
141.642461206109
 10
1946.412241976351
 20
141.642461206109
 10
1946.412241976351
 20
141.642461206109
 10
1943.202156650962
 20
141.642461206109
 10
1943.202156650962
 20
141.642461206109
 10
1943.202156650962
 20
141.642461206109
 10
1937.458713526257
 20
123.105319426746
 10
1937.458713526257
 20
123.105319426746
 10
1937.458713526257
 20
123.105319426746
 10
1935.660479549369
 20
123.105319426746
 10
1935.660479549369
 20
123.105319426746
 10
1935.660479549369
 20
123.105319426746
 10
1941.409129987127
 20
141.642461206109
 10
1941.409129987127
 20
141.642461206109
 10
1941.409129987127
 20
141.642461206109
 10
1939.040397670409
 20
141.642461206109
 10
1939.040397670409
 20
141.642461206109
 10
1939.040397670409
 20
141.642461206109
 10
1939.536952164915
 20
143.518432927829
 10
1939.536952164915
 20
143.518432927829
 10
1939.536952164915
 20
143.518432927829
 10
1941.930307633347
 20
143.518432927829
 10
1941.930307633347
 20
143.518432927829
 10
1941.930307633347
 20
143.518432927829
 10
1942.77686795507
 20
146.1179236028939
 10
1942.77686795507
 20
146.1179236028939
 10
1943.461406450716
 20
148.2973328951149
 10
1944.042245026465
 20
149.4674161376772
 10
1944.540138544327
 20
150.3496093587049
 10
1945.032750358952
 20
151.232546481597
 10
1946.007708142475
 20
152.0998616653363
 10
1947.01896833698
 20
152.3909504648878
 97
        1
330
36A7
 92
        1
 93
        1
 72
     4
 94
        3
 73
     0
 74
     1
 95
       32
 96
       28
 40
0.0
 40
0.0
 40
0.0
 40
0.0
 40
1.0
 40
1.0
 40
1.0
 40
2.0
 40
2.0
 40
2.0
 40
3.0
 40
3.0
 40
3.0
 40
4.0
 40
4.0
 40
4.0
 40
5.0
 40
5.0
 40
5.0
 40
6.0
 40
6.0
 40
6.0
 40
7.0
 40
7.0
 40
7.0
 40
8.0
 40
8.0
 40
8.0
 40
9.0
 40
9.0
 40
9.0
 40
9.0
 10
1951.394524713372
 20
142.3847264864374
 10
1950.311998720255
 20
140.9844800070205
 10
1949.478382290974
 20
139.7243102486757
 10
1948.128795528524
 20
135.7635535518901
 10
1946.888041608841
 20
132.1406026917421
 10
1946.098464169936
 20
129.5048096056932
 10
1945.979216701069
 20
126.2947242803041
 10
1945.888460673606
 20
123.9059066132458
 10
1947.343086379314
 20
123.105319426746
 10
1949.475853024634
 20
123.105319426746
 10
1950.395018168326
 20
123.105319426746
 10
1952.714504181618
 20
123.1637901132903
 10
1954.3662638814
 20
125.2056519507783
 10
1955.522584939468
 20
126.6401923061455
 10
1956.588298750451
 20
128.1272521331414
 10
1958.017036671275
 20
133.0053142189559
 10
1959.205940631009
 20
137.0833842397621
 10
1960.029142434186
 20
139.7191029356247
 10
1959.968291261677
 20
141.2197761667398
 10
1959.968291261677
 20
141.2197761667398
 10
1959.968291261677
 20
141.2197761667398
 10
1959.968291261677
 20
141.2197761667398
 10
1959.580569609936
 20
143.7233035012931
 10
1957.762919794387
 20
144.2522921170894
 10
1956.724432791643
 20
144.2522921170894
 10
1955.70156772805
 20
144.2522921170894
 10
1952.960735698745
 20
144.4292663706373
 10
1951.394524713372
 20
142.3847264864374
 97
        1
330
36AA
 92
        1
 93
        1
 72
     4
 94
        3
 73
     0
 74
     1
 95
       38
 96
       34
 40
0.0
 40
0.0
 40
0.0
 40
0.0
 40
1.0
 40
1.0
 40
1.0
 40
2.0
 40
2.0
 40
2.0
 40
3.0
 40
3.0
 40
3.0
 40
4.0
 40
4.0
 40
4.0
 40
5.0
 40
5.0
 40
5.0
 40
6.0
 40
6.0
 40
6.0
 40
7.0
 40
7.0
 40
7.0
 40
8.0
 40
8.0
 40
8.0
 40
9.0
 40
9.0
 40
9.0
 40
10.0
 40
10.0
 40
10.0
 40
11.0
 40
11.0
 40
11.0
 40
11.0
 10
1966.542747159137
 20
143.4464976175386
 10
1966.542747159137
 20
143.4464976175386
 10
1968.39149207262
 20
143.4464976175386
 10
1968.39149207262
 20
143.4464976175386
 10
1968.39149207262
 20
143.4464976175386
 10
1967.56561222273
 20
140.8022984404216
 10
1967.56561222273
 20
140.8022984404216
 10
1968.193167835563
 20
141.54456372075
 10
1969.183598777865
 20
142.5331349083912
 10
1970.034176169654
 20
143.0316235477459
 10
1971.304760554101
 20
143.7738888280742
 10
1972.030808773784
 20
143.8717863134333
 10
1972.829313035064
 20
143.8522960845852
 10
1972.829313035064
 20
143.8522960845852
 10
1972.048959979278
 20
141.3520419182353
 10
1972.048959979278
 20
141.3520419182353
 10
1971.540726225497
 20
141.5672527276151
 10
1969.974515240128
 20
141.1575859708734
 10
1969.076030568268
 20
140.5112840310564
 10
1968.265772657532
 20
139.9285113104618
 10
1967.705614553615
 20
139.4326263276327
 10
1967.04190531017
 20
138.1859955832205
 10
1966.383254599404
 20
136.9375050841474
 10
1965.86341597654
 20
134.9467493047458
 10
1964.968799594376
 20
132.058773486655
 10
1964.968799594376
 20
132.058773486655
 10
1962.174852971949
 20
123.105319426746
 10
1962.174852971949
 20
123.105319426746
 10
1962.174852971949
 20
123.105319426746
 10
1960.380561674943
 20
123.105319426746
 10
1960.380561674943
 20
123.105319426746
 10
1960.380561674943
 20
123.105319426746
 10
1966.542747159137
 20
143.4464976175386
 10
1966.542747159137
 20
143.4464976175386
 97
        1
330
36A8
 92
        1
 93
        1
 72
     4
 94
        3
 73
     0
 74
     1
 95
      104
 96
      100
 40
0.0
 40
0.0
 40
0.0
 40
0.0
 40
1.0
 40
1.0
 40
1.0
 40
2.0
 40
2.0
 40
2.0
 40
3.0
 40
3.0
 40
3.0
 40
4.0
 40
4.0
 40
4.0
 40
5.0
 40
5.0
 40
5.0
 40
6.0
 40
6.0
 40
6.0
 40
7.0
 40
7.0
 40
7.0
 40
8.0
 40
8.0
 40
8.0
 40
9.0
 40
9.0
 40
9.0
 40
10.0
 40
10.0
 40
10.0
 40
11.0
 40
11.0
 40
11.0
 40
12.0
 40
12.0
 40
12.0
 40
13.0
 40
13.0
 40
13.0
 40
14.0
 40
14.0
 40
14.0
 40
15.0
 40
15.0
 40
15.0
 40
16.0
 40
16.0
 40
16.0
 40
17.0
 40
17.0
 40
17.0
 40
18.0
 40
18.0
 40
18.0
 40
19.0
 40
19.0
 40
19.0
 40
20.0
 40
20.0
 40
20.0
 40
21.0
 40
21.0
 40
21.0
 40
22.0
 40
22.0
 40
22.0
 40
23.0
 40
23.0
 40
23.0
 40
24.0
 40
24.0
 40
24.0
 40
25.0
 40
25.0
 40
25.0
 40
26.0
 40
26.0
 40
26.0
 40
27.0
 40
27.0
 40
27.0
 40
28.0
 40
28.0
 40
28.0
 40
29.0
 40
29.0
 40
29.0
 40
30.0
 40
30.0
 40
30.0
 40
31.0
 40
31.0
 40
31.0
 40
32.0
 40
32.0
 40
32.0
 40
33.0
 40
33.0
 40
33.0
 40
33.0
 10
1976.718878323425
 20
143.4575073651321
 10
1976.718878323425
 20
143.4575073651321
 10
1978.332996588864
 20
143.4575073651321
 10
1978.332996588864
 20
143.4575073651321
 10
1978.332996588864
 20
143.4575073651321
 10
1977.517531365076
 20
140.810778921676
 10
1977.517531365076
 20
140.810778921676
 10
1978.225279598895
 20
141.920531723033
 10
1978.860571791119
 20
142.4151520726926
 10
1979.704602846502
 20
143.054312554611
 10
1980.551163168223
 20
143.6843974337833
 10
1981.556025806694
 20
143.812794895584
 10
1982.253508194784
 20
143.812794895584
 10
1983.117029479015
 20
143.812794895584
 10
1983.950645908296
 20
143.6422925882567
 10
1984.388804106443
 20
142.6958262461422
 10
1984.72460140805
 20
141.9536353560001
 10
1984.740223347202
 20
141.8660781065566
 10
1984.644260006691
 20
140.4010377747479
 10
1985.521915426345
 20
141.9030500292188
 10
1986.170151511008
 20
142.5500214807137
 10
1987.272167732975
 20
143.1716258786317
 10
1988.42863757142
 20
143.812794895584
 10
1989.102761440966
 20
143.8607765658398
 10
1989.885941323838
 20
143.7453229964802
 10
1991.039733115569
 20
143.5748950793392
 10
1991.776195961356
 20
143.1632197875635
 10
1992.161239566385
 20
141.9121256319649
 10
1992.54762219477
 20
140.6648997660613
 10
1992.338883331611
 20
139.9959088193793
 10
1991.861744675765
 20
138.0103603530286
 10
1991.64393020986
 20
137.1060732466272
 10
1991.328813380087
 20
136.0111240923725
 10
1990.916542966819
 20
134.7082543670094
 10
1990.916542966819
 20
134.7082543670094
 10
1987.272167732975
 20
123.105319426746
 10
1987.272167732975
 20
123.105319426746
 10
1987.272167732975
 20
123.105319426746
 10
1985.376705782409
 20
123.105319426746
 10
1985.376705782409
 20
123.105319426746
 10
1985.376705782409
 20
123.105319426746
 10
1988.567449659321
 20
133.2490164697431
 10
1988.567449659321
 20
133.2490164697431
 10
1989.233836949479
 20
135.3713684889626
 10
1989.684939040069
 20
136.9212880235028
 10
1989.918375445127
 20
137.893047029008
 10
1990.211323999339
 20
139.1052351170969
 10
1990.327967811683
 20
139.505231149601
 10
1990.189304504152
 20
140.3874987608153
 10
1990.062246065708
 20
141.2087664191461
 10
1989.647297605728
 20
141.7435574694851
 10
1988.936871325198
 20
141.7435574694851
 10
1988.17972800758
 20
141.7435574694851
 10
1987.566455310545
 20
141.659273388245
 10
1986.708290119737
 20
140.7971655175569
 10
1985.84997614856
 20
139.9285113104618
 10
1985.140740111011
 20
138.9088450248874
 10
1984.584599077163
 20
137.7361581257997
 10
1984.029648286297
 20
136.5563297688134
 10
1983.466960916042
 20
135.0608638507494
 10
1982.896536966398
 20
133.2490164697431
 10
1982.896536966398
 20
133.2490164697431
 10
1979.704602846502
 20
123.105319426746
 10
1979.704602846502
 20
123.105319426746
 10
1979.704602846502
 20
123.105319426746
 10
1977.921916418581
 20
123.105319426746
 10
1977.921916418581
 20
123.105319426746
 10
1977.921916418581
 20
123.105319426746
 10
1981.571498965475
 20
134.7030470539584
 10
1981.571498965475
 20
134.7030470539584
 10
1981.956542570504
 20
135.9373290274211
 10
1982.245771615394
 20
136.9433819088763
 10
1982.436359273062
 20
137.729686179579
 10
1982.760402925207
 20
139.0832156219098
 10
1982.851158952669
 20
139.9985124759046
 10
1982.606117678524
 20
140.810778921676
 10
1982.364944694076
 20
141.6204417109219
 10
1981.941069411725
 20
141.8272464292334
 10
1981.233172397533
 20
141.8272464292334
 10
1980.639389929345
 20
141.8272464292334
 10
1980.059890376953
 20
141.5724600406662
 10
1979.398710399847
 20
141.0654909200569
 10
1978.566284213549
 20
140.4276694614944
 10
1978.233164958657
 20
139.9038881587491
 10
1977.824762835085
 20
139.2815398589669
 10
1977.273680333915
 20
138.458263665602
 10
1977.015695167332
 20
137.9040567766015
 10
1976.550310160944
 20
136.687926008631
 10
1976.084776374184
 20
135.4646537827621
 10
1975.644088909695
 20
134.0411231749885
 10
1975.336708659311
 20
133.0564946672286
 10
1975.336708659311
 20
133.0564946672286
 10
1972.205774492298
 20
123.105319426746
 10
1972.205774492298
 20
123.105319426746
 10
1972.205774492298
 20
123.105319426746
 10
1970.338878373326
 20
123.105319426746
 10
1970.338878373326
 20
123.105319426746
 10
1970.338878373326
 20
123.105319426746
 10
1976.718878323425
 20
143.4575073651321
 10
1976.718878323425
 20
143.4575073651321
 97
        1
330
36A9
 92
       16
 93
        1
 72
     4
 94
        3
 73
     0
 74
     1
 95
       29
 96
       25
 40
0.0
 40
0.0
 40
0.0
 40
0.0
 40
1.0
 40
1.0
 40
1.0
 40
2.0
 40
2.0
 40
2.0
 40
3.0
 40
3.0
 40
3.0
 40
4.0
 40
4.0
 40
4.0
 40
5.0
 40
5.0
 40
5.0
 40
6.0
 40
6.0
 40
6.0
 40
7.0
 40
7.0
 40
7.0
 40
8.0
 40
8.0
 40
8.0
 40
8.0
 10
1947.916188375669
 20
126.8949043045264
 10
1947.908303015907
 20
128.3120373562658
 10
1948.355685597176
 20
130.8298476066162
 10
1949.501740809517
 20
134.1986815898748
 10
1951.062744481836
 20
138.7603622127471
 10
1951.998870588036
 20
140.4276694614944
 10
1952.818055321147
 20
141.2392663955878
 10
1954.014844640642
 20
142.4210288974216
 10
1955.623755593032
 20
142.4799459250845
 10
1956.098364982539
 20
142.4210288974216
 10
1956.77382787544
 20
142.3399435941987
 10
1957.727956406759
 20
141.8978427161679
 10
1957.784939289575
 20
140.4095182560024
 10
1957.830466083678
 20
139.1357350935386
 10
1957.463424903768
 20
136.7501905946838
 10
1956.178706383896
 20
133.0053142189559
 10
1954.698044112936
 20
128.6536370924121
 10
1953.808635043822
 20
126.9429603649685
 10
1953.095679496951
 20
126.1974219164366
 10
1951.752490290537
 20
124.7997790935452
 10
1950.311998720255
 20
124.9339789898883
 10
1950.0993915674
 20
124.9339789898883
 10
1949.823255195324
 20
124.9339789898883
 10
1947.920056665365
 20
125.2336226608809
 10
1947.916188375669
 20
126.8949043045264
 97
        1
330
36AB
 75
     0
 76
     1
 98
        1
 10
1859.334883625664
 20
72.26751235270598
1001
ACAD
1010
0.0
1020
0.0
1030
0.0
  0
POLYLINE
  5
369C
102
{ACAD_REACTORS
330
369B
330
36AC
102
}
330
A
100
AcDbEntity
  8
TEMPLATE
100
AcDb2dPolyline
 66
     1
 10
0.0
 20
0.0
 30
0.0
  0
VERTEX
  5
369D
330
369C
100
AcDbEntity
  8
TEMPLATE
100
AcDbVertex
100
AcDb2dVertex
 10
1934.476782902687
 20
153.1053194253001
 30
0.0
  0
VERTEX
  5
369E
330
369C
100
AcDbEntity
  8
TEMPLATE
100
AcDbVertex
100
AcDb2dVertex
 10
1934.476782902687
 20
147.1959117946397
 30
0.0
  0
VERTEX
  5
369F
330
369C
100
AcDbEntity
  8
TEMPLATE
100
AcDbVertex
100
AcDb2dVertex
 10
1925.116191352377
 20
147.1959117946397
 30
0.0
  0
VERTEX
  5
36A0
330
369C
100
AcDbEntity
  8
TEMPLATE
100
AcDbVertex
100
AcDb2dVertex
 10
1925.116191352377
 20
123.105319426746
 30
0.0
  0
VERTEX
  5
36A1
330
369C
100
AcDbEntity
  8
TEMPLATE
100
AcDbVertex
100
AcDb2dVertex
 10
1916.883578199102
 20
123.105319426746
 30
0.0
  0
VERTEX
  5
36A2
330
369C
100
AcDbEntity
  8
TEMPLATE
100
AcDbVertex
100
AcDb2dVertex
 10
1916.883578199102
 20
147.1959117946397
 30
0.0
  0
VERTEX
  5
36A3
330
369C
100
AcDbEntity
  8
TEMPLATE
100
AcDbVertex
100
AcDb2dVertex
 10
1907.688876764557
 20
147.1959117946397
 30
0.0
  0
VERTEX
  5
36A4
330
369C
100
AcDbEntity
  8
TEMPLATE
100
AcDbVertex
100
AcDb2dVertex
 10
1907.688876764557
 20
153.1053194253001
 30
0.0
  0
VERTEX
  5
36A5
330
369C
100
AcDbEntity
  8
TEMPLATE
100
AcDbVertex
100
AcDb2dVertex
 10
1934.476782902687
 20
153.1053194253001
 30
0.0
  0
SEQEND
  5
36A6
330
369C
100
AcDbEntity
  8
TEMPLATE
  0
SPLINE
  5
36A7
102
{ACAD_REACTORS
330
369B
330
36AC
102
}
330
A
100
AcDbEntity
  8
TEMPLATE
100
AcDbSpline
210
0.0
220
0.0
230
1.0
 70
    11
 71
     3
 72
    56
 73
    52
 74
     0
 42
0.000000001
 43
0.0000000001
 40
0.0
 40
0.0
 40
0.0
 40
0.0
 40
1.0
 40
1.0
 40
1.0
 40
2.0
 40
2.0
 40
2.0
 40
3.0
 40
3.0
 40
3.0
 40
4.0
 40
4.0
 40
4.0
 40
5.0
 40
5.0
 40
5.0
 40
6.0
 40
6.0
 40
6.0
 40
7.0
 40
7.0
 40
7.0
 40
8.0
 40
8.0
 40
8.0
 40
9.0
 40
9.0
 40
9.0
 40
10.0
 40
10.0
 40
10.0
 40
11.0
 40
11.0
 40
11.0
 40
12.0
 40
12.0
 40
12.0
 40
13.0
 40
13.0
 40
13.0
 40
14.0
 40
14.0
 40
14.0
 40
15.0
 40
15.0
 40
15.0
 40
16.0
 40
16.0
 40
16.0
 40
17.0
 40
17.0
 40
17.0
 40
17.0
 10
1947.01896833698
 20
152.3909504648878
 30
0.0
 10
1948.1728345189
 20
152.715738018898
 30
0.0
 10
1949.662423612235
 20
152.4440650580081
 30
0.0
 10
1949.662423612235
 20
152.4440650580081
 30
0.0
 10
1949.662423612235
 20
152.4440650580081
 30
0.0
 10
1948.946790018651
 20
150.2964947655846
 30
0.0
 10
1948.946790018651
 20
150.2964947655846
 30
0.0
 10
1948.946790018651
 20
150.2964947655846
 30
0.0
 10
1947.484427733556
 20
150.6348957237139
 30
0.0
 10
1946.356523726704
 20
149.7454866546012
 30
0.0
 10
1945.480058550036
 20
149.0499384113589
 30
0.0
 10
1944.912238256914
 20
147.2017886193686
 30
0.0
 10
1944.69442379101
 20
146.4990989182278
 30
0.0
 10
1944.69442379101
 20
146.4990989182278
 30
0.0
 10
1943.723334297183
 20
143.518432927829
 30
0.0
 10
1943.723334297183
 20
143.518432927829
 30
0.0
 10
1943.723334297183
 20
143.518432927829
 30
0.0
 10
1946.907457447503
 20
143.518432927829
 30
0.0
 10
1946.907457447503
 20
143.518432927829
 30
0.0
 10
1946.907457447503
 20
143.518432927829
 30
0.0
 10
1946.412241976351
 20
141.642461206109
 30
0.0
 10
1946.412241976351
 20
141.642461206109
 30
0.0
 10
1946.412241976351
 20
141.642461206109
 30
0.0
 10
1943.202156650962
 20
141.642461206109
 30
0.0
 10
1943.202156650962
 20
141.642461206109
 30
0.0
 10
1943.202156650962
 20
141.642461206109
 30
0.0
 10
1937.458713526257
 20
123.105319426746
 30
0.0
 10
1937.458713526257
 20
123.105319426746
 30
0.0
 10
1937.458713526257
 20
123.105319426746
 30
0.0
 10
1935.660479549369
 20
123.105319426746
 30
0.0
 10
1935.660479549369
 20
123.105319426746
 30
0.0
 10
1935.660479549369
 20
123.105319426746
 30
0.0
 10
1941.409129987127
 20
141.642461206109
 30
0.0
 10
1941.409129987127
 20
141.642461206109
 30
0.0
 10
1941.409129987127
 20
141.642461206109
 30
0.0
 10
1939.040397670409
 20
141.642461206109
 30
0.0
 10
1939.040397670409
 20
141.642461206109
 30
0.0
 10
1939.040397670409
 20
141.642461206109
 30
0.0
 10
1939.536952164915
 20
143.518432927829
 30
0.0
 10
1939.536952164915
 20
143.518432927829
 30
0.0
 10
1939.536952164915
 20
143.518432927829
 30
0.0
 10
1941.930307633347
 20
143.518432927829
 30
0.0
 10
1941.930307633347
 20
143.518432927829
 30
0.0
 10
1941.930307633347
 20
143.518432927829
 30
0.0
 10
1942.77686795507
 20
146.1179236028939
 30
0.0
 10
1942.77686795507
 20
146.1179236028939
 30
0.0
 10
1943.461406450716
 20
148.2973328951149
 30
0.0
 10
1944.042245026465
 20
149.4674161376772
 30
0.0
 10
1944.540138544327
 20
150.3496093587049
 30
0.0
 10
1945.032750358952
 20
151.232546481597
 30
0.0
 10
1946.007708142475
 20
152.0998616653363
 30
0.0
 10
1947.01896833698
 20
152.3909504648878
 30
0.0
  0
SPLINE
  5
36A8
102
{ACAD_REACTORS
330
369B
330
36AC
102
}
330
A
100
AcDbEntity
  8
TEMPLATE
100
AcDbSpline
210
0.0
220
0.0
230
1.0
 70
    11
 71
     3
 72
    38
 73
    34
 74
     0
 42
0.000000001
 43
0.0000000001
 40
0.0
 40
0.0
 40
0.0
 40
0.0
 40
1.0
 40
1.0
 40
1.0
 40
2.0
 40
2.0
 40
2.0
 40
3.0
 40
3.0
 40
3.0
 40
4.0
 40
4.0
 40
4.0
 40
5.0
 40
5.0
 40
5.0
 40
6.0
 40
6.0
 40
6.0
 40
7.0
 40
7.0
 40
7.0
 40
8.0
 40
8.0
 40
8.0
 40
9.0
 40
9.0
 40
9.0
 40
10.0
 40
10.0
 40
10.0
 40
11.0
 40
11.0
 40
11.0
 40
11.0
 10
1966.542747159137
 20
143.4464976175386
 30
0.0
 10
1966.542747159137
 20
143.4464976175386
 30
0.0
 10
1968.39149207262
 20
143.4464976175386
 30
0.0
 10
1968.39149207262
 20
143.4464976175386
 30
0.0
 10
1968.39149207262
 20
143.4464976175386
 30
0.0
 10
1967.56561222273
 20
140.8022984404216
 30
0.0
 10
1967.56561222273
 20
140.8022984404216
 30
0.0
 10
1968.193167835563
 20
141.54456372075
 30
0.0
 10
1969.183598777865
 20
142.5331349083912
 30
0.0
 10
1970.034176169654
 20
143.0316235477459
 30
0.0
 10
1971.304760554101
 20
143.7738888280742
 30
0.0
 10
1972.030808773784
 20
143.8717863134333
 30
0.0
 10
1972.829313035064
 20
143.8522960845852
 30
0.0
 10
1972.829313035064
 20
143.8522960845852
 30
0.0
 10
1972.048959979278
 20
141.3520419182353
 30
0.0
 10
1972.048959979278
 20
141.3520419182353
 30
0.0
 10
1971.540726225497
 20
141.5672527276151
 30
0.0
 10
1969.974515240128
 20
141.1575859708734
 30
0.0
 10
1969.076030568268
 20
140.5112840310564
 30
0.0
 10
1968.265772657532
 20
139.9285113104618
 30
0.0
 10
1967.705614553615
 20
139.4326263276327
 30
0.0
 10
1967.04190531017
 20
138.1859955832205
 30
0.0
 10
1966.383254599404
 20
136.9375050841474
 30
0.0
 10
1965.86341597654
 20
134.9467493047458
 30
0.0
 10
1964.968799594376
 20
132.058773486655
 30
0.0
 10
1964.968799594376
 20
132.058773486655
 30
0.0
 10
1962.174852971949
 20
123.105319426746
 30
0.0
 10
1962.174852971949
 20
123.105319426746
 30
0.0
 10
1962.174852971949
 20
123.105319426746
 30
0.0
 10
1960.380561674943
 20
123.105319426746
 30
0.0
 10
1960.380561674943
 20
123.105319426746
 30
0.0
 10
1960.380561674943
 20
123.105319426746
 30
0.0
 10
1966.542747159137
 20
143.4464976175386
 30
0.0
 10
1966.542747159137
 20
143.4464976175386
 30
0.0
  0
SPLINE
  5
36A9
102
{ACAD_REACTORS
330
369B
330
36AC
102
}
330
A
100
AcDbEntity
  8
TEMPLATE
100
AcDbSpline
210
0.0
220
0.0
230
1.0
 70
    11
 71
     3
 72
   104
 73
   100
 74
     0
 42
0.000000001
 43
0.0000000001
 40
0.0
 40
0.0
 40
0.0
 40
0.0
 40
1.0
 40
1.0
 40
1.0
 40
2.0
 40
2.0
 40
2.0
 40
3.0
 40
3.0
 40
3.0
 40
4.0
 40
4.0
 40
4.0
 40
5.0
 40
5.0
 40
5.0
 40
6.0
 40
6.0
 40
6.0
 40
7.0
 40
7.0
 40
7.0
 40
8.0
 40
8.0
 40
8.0
 40
9.0
 40
9.0
 40
9.0
 40
10.0
 40
10.0
 40
10.0
 40
11.0
 40
11.0
 40
11.0
 40
12.0
 40
12.0
 40
12.0
 40
13.0
 40
13.0
 40
13.0
 40
14.0
 40
14.0
 40
14.0
 40
15.0
 40
15.0
 40
15.0
 40
16.0
 40
16.0
 40
16.0
 40
17.0
 40
17.0
 40
17.0
 40
18.0
 40
18.0
 40
18.0
 40
19.0
 40
19.0
 40
19.0
 40
20.0
 40
20.0
 40
20.0
 40
21.0
 40
21.0
 40
21.0
 40
22.0
 40
22.0
 40
22.0
 40
23.0
 40
23.0
 40
23.0
 40
24.0
 40
24.0
 40
24.0
 40
25.0
 40
25.0
 40
25.0
 40
26.0
 40
26.0
 40
26.0
 40
27.0
 40
27.0
 40
27.0
 40
28.0
 40
28.0
 40
28.0
 40
29.0
 40
29.0
 40
29.0
 40
30.0
 40
30.0
 40
30.0
 40
31.0
 40
31.0
 40
31.0
 40
32.0
 40
32.0
 40
32.0
 40
33.0
 40
33.0
 40
33.0
 40
33.0
 10
1976.718878323425
 20
143.4575073651321
 30
0.0
 10
1976.718878323425
 20
143.4575073651321
 30
0.0
 10
1978.332996588864
 20
143.4575073651321
 30
0.0
 10
1978.332996588864
 20
143.4575073651321
 30
0.0
 10
1978.332996588864
 20
143.4575073651321
 30
0.0
 10
1977.517531365076
 20
140.810778921676
 30
0.0
 10
1977.517531365076
 20
140.810778921676
 30
0.0
 10
1978.225279598895
 20
141.920531723033
 30
0.0
 10
1978.860571791119
 20
142.4151520726926
 30
0.0
 10
1979.704602846502
 20
143.054312554611
 30
0.0
 10
1980.551163168223
 20
143.6843974337833
 30
0.0
 10
1981.556025806694
 20
143.812794895584
 30
0.0
 10
1982.253508194784
 20
143.812794895584
 30
0.0
 10
1983.117029479015
 20
143.812794895584
 30
0.0
 10
1983.950645908296
 20
143.6422925882567
 30
0.0
 10
1984.388804106443
 20
142.6958262461422
 30
0.0
 10
1984.72460140805
 20
141.9536353560001
 30
0.0
 10
1984.740223347202
 20
141.8660781065566
 30
0.0
 10
1984.644260006691
 20
140.4010377747479
 30
0.0
 10
1985.521915426345
 20
141.9030500292188
 30
0.0
 10
1986.170151511008
 20
142.5500214807137
 30
0.0
 10
1987.272167732975
 20
143.1716258786317
 30
0.0
 10
1988.42863757142
 20
143.812794895584
 30
0.0
 10
1989.102761440966
 20
143.8607765658398
 30
0.0
 10
1989.885941323838
 20
143.7453229964802
 30
0.0
 10
1991.039733115569
 20
143.5748950793392
 30
0.0
 10
1991.776195961356
 20
143.1632197875635
 30
0.0
 10
1992.161239566385
 20
141.9121256319649
 30
0.0
 10
1992.54762219477
 20
140.6648997660613
 30
0.0
 10
1992.338883331611
 20
139.9959088193793
 30
0.0
 10
1991.861744675765
 20
138.0103603530286
 30
0.0
 10
1991.64393020986
 20
137.1060732466272
 30
0.0
 10
1991.328813380087
 20
136.0111240923725
 30
0.0
 10
1990.916542966819
 20
134.7082543670094
 30
0.0
 10
1990.916542966819
 20
134.7082543670094
 30
0.0
 10
1987.272167732975
 20
123.105319426746
 30
0.0
 10
1987.272167732975
 20
123.105319426746
 30
0.0
 10
1987.272167732975
 20
123.105319426746
 30
0.0
 10
1985.376705782409
 20
123.105319426746
 30
0.0
 10
1985.376705782409
 20
123.105319426746
 30
0.0
 10
1985.376705782409
 20
123.105319426746
 30
0.0
 10
1988.567449659321
 20
133.2490164697431
 30
0.0
 10
1988.567449659321
 20
133.2490164697431
 30
0.0
 10
1989.233836949479
 20
135.3713684889626
 30
0.0
 10
1989.684939040069
 20
136.9212880235028
 30
0.0
 10
1989.918375445127
 20
137.893047029008
 30
0.0
 10
1990.211323999339
 20
139.1052351170969
 30
0.0
 10
1990.327967811683
 20
139.505231149601
 30
0.0
 10
1990.189304504152
 20
140.3874987608153
 30
0.0
 10
1990.062246065708
 20
141.2087664191461
 30
0.0
 10
1989.647297605728
 20
141.7435574694851
 30
0.0
 10
1988.936871325198
 20
141.7435574694851
 30
0.0
 10
1988.17972800758
 20
141.7435574694851
 30
0.0
 10
1987.566455310545
 20
141.659273388245
 30
0.0
 10
1986.708290119737
 20
140.7971655175569
 30
0.0
 10
1985.84997614856
 20
139.9285113104618
 30
0.0
 10
1985.140740111011
 20
138.9088450248874
 30
0.0
 10
1984.584599077163
 20
137.7361581257997
 30
0.0
 10
1984.029648286297
 20
136.5563297688134
 30
0.0
 10
1983.466960916042
 20
135.0608638507494
 30
0.0
 10
1982.896536966398
 20
133.2490164697431
 30
0.0
 10
1982.896536966398
 20
133.2490164697431
 30
0.0
 10
1979.704602846502
 20
123.105319426746
 30
0.0
 10
1979.704602846502
 20
123.105319426746
 30
0.0
 10
1979.704602846502
 20
123.105319426746
 30
0.0
 10
1977.921916418581
 20
123.105319426746
 30
0.0
 10
1977.921916418581
 20
123.105319426746
 30
0.0
 10
1977.921916418581
 20
123.105319426746
 30
0.0
 10
1981.571498965475
 20
134.7030470539584
 30
0.0
 10
1981.571498965475
 20
134.7030470539584
 30
0.0
 10
1981.956542570504
 20
135.9373290274211
 30
0.0
 10
1982.245771615394
 20
136.9433819088763
 30
0.0
 10
1982.436359273062
 20
137.729686179579
 30
0.0
 10
1982.760402925207
 20
139.0832156219098
 30
0.0
 10
1982.851158952669
 20
139.9985124759046
 30
0.0
 10
1982.606117678524
 20
140.810778921676
 30
0.0
 10
1982.364944694076
 20
141.6204417109219
 30
0.0
 10
1981.941069411725
 20
141.8272464292334
 30
0.0
 10
1981.233172397533
 20
141.8272464292334
 30
0.0
 10
1980.639389929345
 20
141.8272464292334
 30
0.0
 10
1980.059890376953
 20
141.5724600406662
 30
0.0
 10
1979.398710399847
 20
141.0654909200569
 30
0.0
 10
1978.566284213549
 20
140.4276694614944
 30
0.0
 10
1978.233164958657
 20
139.9038881587491
 30
0.0
 10
1977.824762835085
 20
139.2815398589669
 30
0.0
 10
1977.273680333915
 20
138.458263665602
 30
0.0
 10
1977.015695167332
 20
137.9040567766015
 30
0.0
 10
1976.550310160944
 20
136.687926008631
 30
0.0
 10
1976.084776374184
 20
135.4646537827621
 30
0.0
 10
1975.644088909695
 20
134.0411231749885
 30
0.0
 10
1975.336708659311
 20
133.0564946672286
 30
0.0
 10
1975.336708659311
 20
133.0564946672286
 30
0.0
 10
1972.205774492298
 20
123.105319426746
 30
0.0
 10
1972.205774492298
 20
123.105319426746
 30
0.0
 10
1972.205774492298
 20
123.105319426746
 30
0.0
 10
1970.338878373326
 20
123.105319426746
 30
0.0
 10
1970.338878373326
 20
123.105319426746
 30
0.0
 10
1970.338878373326
 20
123.105319426746
 30
0.0
 10
1976.718878323425
 20
143.4575073651321
 30
0.0
 10
1976.718878323425
 20
143.4575073651321
 30
0.0
  0
SPLINE
  5
36AA
102
{ACAD_REACTORS
330
369B
330
36AC
102
}
330
A
100
AcDbEntity
  8
TEMPLATE
100
AcDbSpline
210
0.0
220
0.0
230
1.0
 70
    11
 71
     3
 72
    32
 73
    28
 74
     0
 42
0.000000001
 43
0.0000000001
 40
0.0
 40
0.0
 40
0.0
 40
0.0
 40
1.0
 40
1.0
 40
1.0
 40
2.0
 40
2.0
 40
2.0
 40
3.0
 40
3.0
 40
3.0
 40
4.0
 40
4.0
 40
4.0
 40
5.0
 40
5.0
 40
5.0
 40
6.0
 40
6.0
 40
6.0
 40
7.0
 40
7.0
 40
7.0
 40
8.0
 40
8.0
 40
8.0
 40
9.0
 40
9.0
 40
9.0
 40
9.0
 10
1951.394524713372
 20
142.3847264864374
 30
0.0
 10
1950.311998720255
 20
140.9844800070205
 30
0.0
 10
1949.478382290974
 20
139.7243102486757
 30
0.0
 10
1948.128795528524
 20
135.7635535518901
 30
0.0
 10
1946.888041608841
 20
132.1406026917421
 30
0.0
 10
1946.098464169936
 20
129.5048096056932
 30
0.0
 10
1945.979216701069
 20
126.2947242803041
 30
0.0
 10
1945.888460673606
 20
123.9059066132458
 30
0.0
 10
1947.343086379314
 20
123.105319426746
 30
0.0
 10
1949.475853024634
 20
123.105319426746
 30
0.0
 10
1950.395018168326
 20
123.105319426746
 30
0.0
 10
1952.714504181618
 20
123.1637901132903
 30
0.0
 10
1954.3662638814
 20
125.2056519507783
 30
0.0
 10
1955.522584939468
 20
126.6401923061455
 30
0.0
 10
1956.588298750451
 20
128.1272521331414
 30
0.0
 10
1958.017036671275
 20
133.0053142189559
 30
0.0
 10
1959.205940631009
 20
137.0833842397621
 30
0.0
 10
1960.029142434186
 20
139.7191029356247
 30
0.0
 10
1959.968291261677
 20
141.2197761667398
 30
0.0
 10
1959.968291261677
 20
141.2197761667398
 30
0.0
 10
1959.968291261677
 20
141.2197761667398
 30
0.0
 10
1959.968291261677
 20
141.2197761667398
 30
0.0
 10
1959.580569609936
 20
143.7233035012931
 30
0.0
 10
1957.762919794387
 20
144.2522921170894
 30
0.0
 10
1956.724432791643
 20
144.2522921170894
 30
0.0
 10
1955.70156772805
 20
144.2522921170894
 30
0.0
 10
1952.960735698745
 20
144.4292663706373
 30
0.0
 10
1951.394524713372
 20
142.3847264864374
 30
0.0
  0
SPLINE
  5
36AB
102
{ACAD_REACTORS
330
369B
330
36AC
102
}
330
A
100
AcDbEntity
  8
TEMPLATE
100
AcDbSpline
210
0.0
220
0.0
230
1.0
 70
    11
 71
     3
 72
    29
 73
    25
 74
     0
 42
0.000000001
 43
0.0000000001
 40
0.0
 40
0.0
 40
0.0
 40
0.0
 40
1.0
 40
1.0
 40
1.0
 40
2.0
 40
2.0
 40
2.0
 40
3.0
 40
3.0
 40
3.0
 40
4.0
 40
4.0
 40
4.0
 40
5.0
 40
5.0
 40
5.0
 40
6.0
 40
6.0
 40
6.0
 40
7.0
 40
7.0
 40
7.0
 40
8.0
 40
8.0
 40
8.0
 40
8.0
 10
1947.916188375669
 20
126.8949043045264
 30
0.0
 10
1947.908303015907
 20
128.3120373562658
 30
0.0
 10
1948.355685597176
 20
130.8298476066162
 30
0.0
 10
1949.501740809517
 20
134.1986815898748
 30
0.0
 10
1951.062744481836
 20
138.7603622127471
 30
0.0
 10
1951.998870588036
 20
140.4276694614944
 30
0.0
 10
1952.818055321147
 20
141.2392663955878
 30
0.0
 10
1954.014844640642
 20
142.4210288974216
 30
0.0
 10
1955.623755593032
 20
142.4799459250845
 30
0.0
 10
1956.098364982539
 20
142.4210288974216
 30
0.0
 10
1956.77382787544
 20
142.3399435941987
 30
0.0
 10
1957.727956406759
 20
141.8978427161679
 30
0.0
 10
1957.784939289575
 20
140.4095182560024
 30
0.0
 10
1957.830466083678
 20
139.1357350935386
 30
0.0
 10
1957.463424903768
 20
136.7501905946838
 30
0.0
 10
1956.178706383896
 20
133.0053142189559
 30
0.0
 10
1954.698044112936
 20
128.6536370924121
 30
0.0
 10
1953.808635043822
 20
126.9429603649685
 30
0.0
 10
1953.095679496951
 20
126.1974219164366
 30
0.0
 10
1951.752490290537
 20
124.7997790935452
 30
0.0
 10
1950.311998720255
 20
124.9339789898883
 30
0.0
 10
1950.0993915674
 20
124.9339789898883
 30
0.0
 10
1949.823255195324
 20
124.9339789898883
 30
0.0
 10
1947.920056665365
 20
125.2336226608809
 30
0.0
 10
1947.916188375669
 20
126.8949043045264
 30
0.0
  0
POLYLINE
  5
3BDE
102
{ACAD_REACTORS
330
3CCF
102
}
330
A
100
AcDbEntity
  8
MODEL
100
AcDb2dPolyline
 66
     1
 10
0.0
 20
0.0
 30
0.0
  0
VERTEX
  5
3BDF
330
3BDE
100
AcDbEntity
  8
MODEL
100
AcDbVertex
100
AcDb2dVertex
 10
1570.30173174984
 20
826.0774818912386
 30
0.0
  0
VERTEX
  5
3BE0
330
3BDE
100
AcDbEntity
  8
MODEL
100
AcDbVertex
100
AcDb2dVertex
 10
1570.30173174984
 20
901.7731698291744
 30
0.0
  0
SEQEND
  5
3BE1
330
3BDE
100
AcDbEntity
  8
MODEL
  0
SPLINE
  5
3BE2
102
{ACAD_REACTORS
330
3CCF
330
3CEF
102
}
330
A
100
AcDbEntity
  8
MODEL
100
AcDbSpline
210
0.0
220
0.0
230
1.0
 70
    11
 71
     3
 72
    26
 73
    22
 74
     0
 42
0.000000001
 43
0.0000000001
 40
0.0
 40
0.0
 40
0.0
 40
0.0
 40
1.0
 40
1.0
 40
1.0
 40
2.0
 40
2.0
 40
2.0
 40
3.0
 40
3.0
 40
3.0
 40
4.0
 40
4.0
 40
4.0
 40
5.0
 40
5.0
 40
5.0
 40
6.0
 40
6.0
 40
6.0
 40
7.0
 40
7.0
 40
7.0
 40
7.0
 10
1325.300159594637
 20
1003.748063464837
 30
0.0
 10
1325.196806661898
 20
1006.118290722318
 30
0.0
 10
1327.036488864649
 20
1008.130227812965
 30
0.0
 10
1329.406716122127
 20
1008.226690550188
 30
0.0
 10
1329.482508272801
 20
1008.233580745704
 30
0.0
 10
1329.544520032445
 20
1008.233580745704
 30
0.0
 10
1329.60653179209
 20
1008.233580745704
 30
0.0
 10
1329.60653179209
 20
1008.233580745704
 30
0.0
 10
1785.296502433197
 20
1008.233580745704
 30
0.0
 10
1785.296502433197
 20
1008.233580745704
 30
0.0
 10
1785.296502433197
 20
1008.233580745704
 30
0.0
 10
1785.296502433197
 20
928.231520610322
 30
0.0
 10
1785.296502433197
 20
928.231520610322
 30
0.0
 10
1785.296502433197
 20
928.231520610322
 30
0.0
 10
1333.382358934816
 20
928.231520610322
 30
0.0
 10
1333.382358934816
 20
928.231520610322
 30
0.0
 10
1330.715853270151
 20
928.231520610322
 30
0.0
 10
1328.504100509543
 20
930.339920438192
 30
0.0
 10
1328.393857381287
 20
933.0133162983683
 30
0.0
 10
1328.393857381287
 20
933.0133162983683
 30
0.0
 10
1325.300159594637
 20
1003.748063464837
 30
0.0
 10
1325.300159594637
 20
1003.748063464837
 30
0.0
  0
SPLINE
  5
3BE3
102
{ACAD_REACTORS
330
3C97
330
3CFE
330
3D0E
102
}
330
A
100
AcDbEntity
  8
MODEL
100
AcDbSpline
210
0.0
220
0.0
230
1.0
 70
     8
 71
     3
 72
    20
 73
    16
 74
     0
 42
0.000000001
 43
0.0000000001
 40
0.0
 40
0.0
 40
0.0
 40
0.0
 40
1.0
 40
1.0
 40
1.0
 40
2.0
 40
2.0
 40
2.0
 40
3.0
 40
3.0
 40
3.0
 40
4.0
 40
4.0
 40
4.0
 40
5.0
 40
5.0
 40
5.0
 40
5.0
 10
1785.296502433197
 20
928.231520610322
 30
0.0
 10
1785.296502433197
 20
928.231520610322
 30
0.0
 10
1785.296502433197
 20
868.2316980576569
 30
0.0
 10
1785.296502433197
 20
868.2316980576569
 30
0.0
 10
1785.296502433197
 20
868.2316980576569
 30
0.0
 10
1439.181311081817
 20
868.2316980576569
 30
0.0
 10
1439.181311081817
 20
868.2316980576569
 30
0.0
 10
1434.895609470914
 20
868.2316980576569
 30
0.0
 10
1430.823503921003
 20
870.0575998693811
 30
0.0
 10
1427.977853172926
 20
873.2546505887648
 30
0.0
 10
1427.977853172926
 20
873.2546505887648
 30
0.0
 10
1409.167619414455
 20
894.3799900405855
 30
0.0
 10
1409.167619414455
 20
894.3799900405855
 30
0.0
 10
1400.541094628519
 20
904.0607147404579
 30
0.0
 10
1394.415710814863
 20
915.684474575827
 30
0.0
 10
1391.287562050637
 20
928.231520610322
 30
0.0
  0
SPLINE
  5
3BE4
330
A
100
AcDbEntity
  8
HIDDEN
 48
0.7
100
AcDbSpline
210
0.0
220
0.0
230
1.0
 70
     8
 71
     3
 72
    11
 73
     7
 74
     0
 42
0.000000001
 43
0.0000000001
 40
0.0
 40
0.0
 40
0.0
 40
0.0
 40
1.0
 40
1.0
 40
1.0
 40
2.0
 40
2.0
 40
2.0
 40
2.0
 10
1778.399416721755
 20
1008.233580745704
 30
0.0
 10
1776.483942368332
 20
1008.157788595031
 30
0.0
 10
1774.954318963796
 20
1007.096698485575
 30
0.0
 10
1774.196397457047
 20
1005.346588824532
 30
0.0
 10
1774.196397457047
 20
1005.346588824532
 30
0.0
 10
1771.144040843489
 20
997.3746326126123
 30
0.0
 10
1771.144040843489
 20
997.3746326126123
 30
0.0
  0
SPLINE
  5
3BE5
330
A
100
AcDbEntity
  8
HIDDEN
 48
0.7
100
AcDbSpline
210
0.0
220
0.0
230
1.0
 70
     8
 71
     3
 72
   104
 73
   100
 74
     0
 42
0.000000001
 43
0.0000000001
 40
0.0
 40
0.0
 40
0.0
 40
0.0
 40
1.0
 40
1.0
 40
1.0
 40
2.0
 40
2.0
 40
2.0
 40
3.0
 40
3.0
 40
3.0
 40
4.0
 40
4.0
 40
4.0
 40
5.0
 40
5.0
 40
5.0
 40
6.0
 40
6.0
 40
6.0
 40
7.0
 40
7.0
 40
7.0
 40
8.0
 40
8.0
 40
8.0
 40
9.0
 40
9.0
 40
9.0
 40
10.0
 40
10.0
 40
10.0
 40
11.0
 40
11.0
 40
11.0
 40
12.0
 40
12.0
 40
12.0
 40
13.0
 40
13.0
 40
13.0
 40
14.0
 40
14.0
 40
14.0
 40
15.0
 40
15.0
 40
15.0
 40
16.0
 40
16.0
 40
16.0
 40
17.0
 40
17.0
 40
17.0
 40
18.0
 40
18.0
 40
18.0
 40
19.0
 40
19.0
 40
19.0
 40
20.0
 40
20.0
 40
20.0
 40
21.0
 40
21.0
 40
21.0
 40
22.0
 40
22.0
 40
22.0
 40
23.0
 40
23.0
 40
23.0
 40
24.0
 40
24.0
 40
24.0
 40
25.0
 40
25.0
 40
25.0
 40
26.0
 40
26.0
 40
26.0
 40
27.0
 40
27.0
 40
27.0
 40
28.0
 40
28.0
 40
28.0
 40
29.0
 40
29.0
 40
29.0
 40
30.0
 40
30.0
 40
30.0
 40
31.0
 40
31.0
 40
31.0
 40
32.0
 40
32.0
 40
32.0
 40
33.0
 40
33.0
 40
33.0
 40
33.0
 10
1771.144040843489
 20
997.3746326126123
 30
0.0
 10
1770.999346737656
 20
997.0852444009423
 30
0.0
 10
1770.868433022854
 20
996.7751856027234
 30
0.0
 10
1770.65483696186
 20
996.5409189551854
 30
0.0
 10
1770.31721738158
 20
996.1619582018023
 30
0.0
 10
1770.041609560942
 20
995.8381190125573
 30
0.0
 10
1769.635088025503
 20
995.5487308008874
 30
0.0
 10
1769.201005707999
 20
995.2524523937093
 30
0.0
 10
1768.828935150139
 20
995.0870877013214
 30
0.0
 10
1768.332841072992
 20
994.8941622268743
 30
0.0
 10
1767.953880319618
 20
994.7425779255274
 30
0.0
 10
1767.519798002115
 20
994.7356877300103
 30
0.0
 10
1767.113276466675
 20
994.6874563613953
 30
0.0
 10
1767.113276466675
 20
994.6874563613953
 30
0.0
 10
1664.401131910805
 20
992.8891153317444
 30
0.0
 10
1664.401131910805
 20
992.8891153317444
 30
0.0
 10
1662.09291641297
 20
992.8546643541621
 30
0.0
 10
1660.191222450576
 20
991.070103715544
 30
0.0
 10
1659.99829697613
 20
988.7756686087367
 30
0.0
 10
1659.722689155495
 20
985.7922139503415
 30
0.0
 10
1659.453971530371
 20
982.8087592919463
 30
0.0
 10
1659.075010776998
 20
979.8321948290676
 30
0.0
 10
1658.682269632589
 20
976.8487401706797
 30
0.0
 10
1658.268857901632
 20
973.8652855122772
 30
0.0
 10
1657.820995193099
 20
970.8887210493984
 30
0.0
 10
1657.455814830755
 20
968.6149565291479
 30
0.0
 10
1657.076854077379
 20
966.3343018133736
 30
0.0
 10
1656.670332541939
 20
964.060537293123
 30
0.0
 10
1656.594540391263
 20
963.6746863442303
 30
0.0
 10
1656.518748240589
 20
963.281945199821
 30
0.0
 10
1656.456736480945
 20
962.8960942509283
 30
0.0
 10
1655.89174044864
 20
959.9470905701154
 30
0.0
 10
1655.333634611851
 20
956.9980868892952
 30
0.0
 10
1654.7066268199
 20
954.0559734039988
 30
0.0
 10
1654.045168050372
 20
950.9347148352816
 30
0.0
 10
1653.356148498779
 20
947.8203464620882
 30
0.0
 10
1652.639568165123
 20
944.7128682844112
 30
0.0
 10
1651.929878026984
 20
941.6949626484337
 30
0.0
 10
1651.220187888843
 20
938.6839472079727
 30
0.0
 10
1650.462266382094
 20
935.6798219630281
 30
0.0
 10
1649.793917417048
 20
933.0133162983683
 30
0.0
 10
1649.132458647521
 20
930.3468106337085
 30
0.0
 10
1648.450329291444
 20
927.6871951645652
 30
0.0
 10
1647.692407784691
 20
924.7657522658109
 30
0.0
 10
1647.010278428616
 20
921.8029681939578
 30
0.0
 10
1645.983639296743
 20
918.9573174458845
 30
0.0
 10
1645.721811867137
 20
918.2338469167142
 30
0.0
 10
1645.501325610627
 20
917.4897058009946
 30
0.0
 10
1645.198157007928
 20
916.7800156628499
 30
0.0
 10
1644.81919625455
 20
915.9325216143978
 30
0.0
 10
1644.454015892208
 20
915.091917761455
 30
0.0
 10
1644.095725725378
 20
914.2513139085121
 30
0.0
 10
1643.764996340615
 20
913.5140629883089
 30
0.0
 10
1643.31713363208
 20
912.8181532411971
 30
0.0
 10
1642.94506307422
 20
912.1084631030598
 30
0.0
 10
1642.593663102907
 20
911.4470043335303
 30
0.0
 10
1642.180251371954
 20
910.8199965415832
 30
0.0
 10
1641.780620032029
 20
910.1860985541124
 30
0.0
 10
1640.946906374602
 20
908.8907417971194
 30
0.0
 10
1639.968498611341
 20
907.7194085594155
 30
0.0
 10
1638.983200652563
 20
906.5342949306786
 30
0.0
 10
1638.51466735748
 20
905.9692988983724
 30
0.0
 10
1637.956561520691
 20
905.4594244301906
 30
0.0
 10
1637.439796856998
 20
904.9288793754666
 30
0.0
 10
1636.92992238882
 20
904.3983343207427
 30
0.0
 10
1636.344255769966
 20
903.8608990704951
 30
0.0
 10
1635.765479346628
 20
903.4130363619614
 30
0.0
 10
1635.166032336745
 20
902.9307226758455
 30
0.0
 10
1634.580365717888
 20
902.4001776211215
 30
0.0
 10
1633.946467730422
 20
901.9660953036208
 30
0.0
 10
1633.285008960895
 20
901.5113423995634
 30
0.0
 10
1632.630440386884
 20
901.0634796910298
 30
0.0
 10
1631.968981617354
 20
900.6018365914705
 30
0.0
 10
1630.632283687266
 20
899.692330783363
 30
0.0
 10
1629.144001455825
 20
898.9895308407421
 30
0.0
 10
1627.703950592997
 20
898.2591701160553
 30
0.0
 10
1626.408593836004
 20
897.5977113465259
 30
0.0
 10
1625.030554732819
 20
897.0809466828349
 30
0.0
 10
1623.659405825149
 20
896.584852605686
 30
0.0
 10
1622.260696135418
 20
896.0749781375042
 30
0.0
 10
1620.827535468105
 20
895.5719938648389
 30
0.0
 10
1619.373704214244
 20
895.213703698012
 30
0.0
 10
1617.857861200743
 20
894.8416331401521
 30
0.0
 10
1616.328237796208
 20
894.4351116047172
 30
0.0
 10
1614.791724196157
 20
894.18017437063
 30
0.0
 10
1613.158747858883
 20
893.904566549986
 30
0.0
 10
1611.525771521609
 20
893.6702999024482
 30
0.0
 10
1609.872124597787
 20
893.4567038414524
 30
0.0
 10
1609.844563815723
 20
893.4498136459359
 30
0.0
 10
1609.817003033661
 20
893.4429234504195
 30
0.0
 10
1609.789442251597
 20
893.4429234504195
 30
0.0
 10
1609.134873677582
 20
893.3740214952621
 30
0.0
 10
1608.46652471254
 20
893.3051195401048
 30
0.0
 10
1607.791285551979
 20
893.2362175849474
 30
0.0
 10
1607.791285551979
 20
893.2362175849474
 30
0.0
 10
1607.515677731341
 20
893.215546998398
 30
0.0
 10
1607.515677731341
 20
893.215546998398
 30
0.0
 10
1607.515677731341
 20
893.215546998398
 30
0.0
 10
1601.218039029789
 20
887.7240611722071
 30
0.0
 10
1601.218039029789
 20
887.7240611722071
 30
0.0
  0
POLYLINE
  5
3BE6
330
A
100
AcDbEntity
  8
HIDDEN
100
AcDb2dPolyline
 66
     1
 10
0.0
 20
0.0
 30
0.0
  0
VERTEX
  5
3BE7
330
3BE6
100
AcDbEntity
  8
HIDDEN
100
AcDbVertex
100
AcDb2dVertex
 10
1598.620435320285
 20
885.4847476295316
 30
0.0
  0
VERTEX
  5
3BE8
330
3BE6
100
AcDbEntity
  8
HIDDEN
100
AcDbVertex
100
AcDb2dVertex
 10
1593.301204381991
 20
880.8545362428257
 30
0.0
  0
VERTEX
  5
3BE9
330
3BE6
100
AcDbEntity
  8
HIDDEN
100
AcDbVertex
100
AcDb2dVertex
 10
1593.301204381991
 20
873.7989760345216
 30
0.0
  0
SEQEND
  5
3BEA
330
3BE6
100
AcDbEntity
  8
HIDDEN
  0
POLYLINE
  5
3BEB
330
A
100
AcDbEntity
  8
HIDDEN
100
AcDb2dPolyline
 66
     1
 10
0.0
 20
0.0
 30
0.0
  0
VERTEX
  5
3BEC
330
3BEB
100
AcDbEntity
  8
HIDDEN
100
AcDbVertex
100
AcDb2dVertex
 10
1593.301204381991
 20
868.6244392020661
 30
0.0
  0
VERTEX
  5
3BED
330
3BEB
100
AcDbEntity
  8
HIDDEN
100
AcDbVertex
100
AcDb2dVertex
 10
1593.301204381991
 20
855.7122128052278
 30
0.0
  0
SEQEND
  5
3BEE
330
3BEB
100
AcDbEntity
  8
HIDDEN
  0
POLYLINE
  5
3BEF
330
A
100
AcDbEntity
  8
HIDDEN
100
AcDb2dPolyline
 66
     1
 10
0.0
 20
0.0
 30
0.0
  0
VERTEX
  5
3BF0
330
3BEF
100
AcDbEntity
  8
HIDDEN
100
AcDbVertex
100
AcDb2dVertex
 10
1593.301204381991
 20
853.1283894867582
 30
0.0
  0
VERTEX
  5
3BF1
330
3BEF
100
AcDbEntity
  8
HIDDEN
100
AcDbVertex
100
AcDb2dVertex
 10
1593.301204381991
 20
846.0728292784469
 30
0.0
  0
SEQEND
  5
3BF2
330
3BEF
100
AcDbEntity
  8
HIDDEN
  0
POLYLINE
  5
3BF3
330
A
100
AcDbEntity
  8
HIDDEN
100
AcDb2dPolyline
 66
     1
 10
0.0
 20
0.0
 30
0.0
  0
VERTEX
  5
3BF4
330
3BF3
100
AcDbEntity
  8
HIDDEN
100
AcDbVertex
100
AcDb2dVertex
 10
1547.295368922171
 20
846.0728292784469
 30
0.0
  0
VERTEX
  5
3BF5
330
3BF3
100
AcDbEntity
  8
HIDDEN
100
AcDbVertex
100
AcDb2dVertex
 10
1547.295368922171
 20
853.1283894867582
 30
0.0
  0
SEQEND
  5
3BF6
330
3BF3
100
AcDbEntity
  8
HIDDEN
  0
POLYLINE
  5
3BF7
330
A
100
AcDbEntity
  8
HIDDEN
100
AcDb2dPolyline
 66
     1
 10
0.0
 20
0.0
 30
0.0
  0
VERTEX
  5
3BF8
330
3BF7
100
AcDbEntity
  8
HIDDEN
100
AcDbVertex
100
AcDb2dVertex
 10
1547.295368922171
 20
858.2960361236973
 30
0.0
  0
VERTEX
  5
3BF9
330
3BF7
100
AcDbEntity
  8
HIDDEN
100
AcDbVertex
100
AcDb2dVertex
 10
1547.295368922171
 20
871.2082625205356
 30
0.0
  0
SEQEND
  5
3BFA
330
3BF7
100
AcDbEntity
  8
HIDDEN
  0
POLYLINE
  5
3BFB
330
A
100
AcDbEntity
  8
HIDDEN
100
AcDb2dPolyline
 66
     1
 10
0.0
 20
0.0
 30
0.0
  0
VERTEX
  5
3BFC
330
3BFB
100
AcDbEntity
  8
HIDDEN
100
AcDbVertex
100
AcDb2dVertex
 10
1547.295368922171
 20
873.7920858390124
 30
0.0
  0
VERTEX
  5
3BFD
330
3BFB
100
AcDbEntity
  8
HIDDEN
100
AcDbVertex
100
AcDb2dVertex
 10
1547.295368922171
 20
880.8476460473165
 30
0.0
  0
VERTEX
  5
3BFE
330
3BFB
100
AcDbEntity
  8
HIDDEN
100
AcDbVertex
100
AcDb2dVertex
 10
1541.969247788364
 20
885.4778574340152
 30
0.0
  0
SEQEND
  5
3BFF
330
3BFB
100
AcDbEntity
  8
HIDDEN
  0
SPLINE
  5
3C00
330
A
100
AcDbEntity
  8
HIDDEN
 48
0.7
100
AcDbSpline
210
0.0
220
0.0
230
1.0
 70
     8
 71
     3
 72
    86
 73
    82
 74
     0
 42
0.000000001
 43
0.0000000001
 40
0.0
 40
0.0
 40
0.0
 40
0.0
 40
1.0
 40
1.0
 40
1.0
 40
2.0
 40
2.0
 40
2.0
 40
3.0
 40
3.0
 40
3.0
 40
4.0
 40
4.0
 40
4.0
 40
5.0
 40
5.0
 40
5.0
 40
6.0
 40
6.0
 40
6.0
 40
7.0
 40
7.0
 40
7.0
 40
8.0
 40
8.0
 40
8.0
 40
9.0
 40
9.0
 40
9.0
 40
10.0
 40
10.0
 40
10.0
 40
11.0
 40
11.0
 40
11.0
 40
12.0
 40
12.0
 40
12.0
 40
13.0
 40
13.0
 40
13.0
 40
14.0
 40
14.0
 40
14.0
 40
15.0
 40
15.0
 40
15.0
 40
16.0
 40
16.0
 40
16.0
 40
17.0
 40
17.0
 40
17.0
 40
18.0
 40
18.0
 40
18.0
 40
19.0
 40
19.0
 40
19.0
 40
20.0
 40
20.0
 40
20.0
 40
21.0
 40
21.0
 40
21.0
 40
22.0
 40
22.0
 40
22.0
 40
23.0
 40
23.0
 40
23.0
 40
24.0
 40
24.0
 40
24.0
 40
25.0
 40
25.0
 40
25.0
 40
26.0
 40
26.0
 40
26.0
 40
27.0
 40
27.0
 40
27.0
 40
27.0
 10
1536.532883526299
 20
890.2114217534535
 30
0.0
 10
1536.532883526299
 20
890.2114217534535
 30
0.0
 10
1533.115346550401
 20
893.1810960208157
 30
0.0
 10
1533.115346550401
 20
893.1810960208157
 30
0.0
 10
1533.115346550401
 20
893.1810960208157
 30
0.0
 10
1532.79839755667
 20
893.2362175849474
 30
0.0
 10
1532.79839755667
 20
893.2362175849474
 30
0.0
 10
1529.80116250724
 20
893.8081038127701
 30
0.0
 10
1526.797037262299
 20
894.3730998450691
 30
0.0
 10
1523.792912017356
 20
894.9863272459905
 30
0.0
 10
1520.492508365229
 20
895.6615664065456
 30
0.0
 10
1517.198994908619
 20
896.3781467401994
 30
0.0
 10
1513.919261843039
 20
897.1085074648935
 30
0.0
 10
1511.225195396313
 20
897.7010642792656
 30
0.0
 10
1508.538019145102
 20
898.3694132443114
 30
0.0
 10
1505.871513480439
 20
899.0584327958994
 30
0.0
 10
1502.467756895572
 20
899.9403778219338
 30
0.0
 10
1499.091561092772
 20
900.8567738255505
 30
0.0
 10
1495.701584898936
 20
901.800730611233
 30
0.0
 10
1492.973067474632
 20
902.5655423135021
 30
0.0
 10
1490.244550050324
 20
903.3854755798956
 30
0.0
 10
1487.529813017054
 20
904.2398598238714
 30
0.0
 10
1484.573919140721
 20
905.170036218521
 30
0.0
 10
1481.61802526439
 20
906.1139930042035
 30
0.0
 10
1478.696582365639
 20
907.1199615495269
 30
0.0
 10
1475.713127707242
 20
908.1534908769162
 30
0.0
 10
1472.722782853334
 20
909.180130008789
 30
0.0
 10
1469.766888977001
 20
910.2963416823685
 30
0.0
 10
1466.845446078251
 20
911.412553355948
 30
0.0
 10
1463.930893375017
 20
912.5149846384946
 30
0.0
 10
1461.023230867295
 20
913.6794276806894
 30
0.0
 10
1457.915752689611
 20
914.9196628735507
 30
0.0
 10
1454.842725489511
 20
916.2081294350345
 30
0.0
 10
1451.769698289409
 20
917.5034861920275
 30
0.0
 10
1449.240996535066
 20
918.5714664969918
 30
0.0
 10
1446.719184976237
 20
919.6945683660878
 30
0.0
 10
1444.224934199474
 20
920.8452310172496
 30
0.0
 10
1441.069224653182
 20
922.2990622711067
 30
0.0
 10
1437.934185693435
 20
923.7666739160039
 30
0.0
 10
1434.812927124722
 20
925.2756267339854
 30
0.0
 10
1432.049958722837
 20
926.6054344685607
 30
0.0
 10
1429.3076609075
 20
927.9765833762275
 30
0.0
 10
1426.586033678708
 20
929.3615126749345
 30
0.0
 10
1424.098673097462
 20
930.6155282588287
 30
0.0
 10
1421.638873298276
 20
931.9039948203052
 30
0.0
 10
1419.206634281156
 20
933.2338025548805
 30
0.0
 10
1416.347203142048
 20
934.7909867414772
 30
0.0
 10
1413.487772002938
 20
936.3412807325575
 30
0.0
 10
1410.669682036927
 20
937.9466962877694
 30
0.0
 10
1407.755129333691
 20
939.6072334071058
 30
0.0
 10
1404.854357021488
 20
941.2884411129916
 30
0.0
 10
1401.9604749048
 20
942.9972096009432
 30
0.0
 10
1399.163055525334
 20
944.6577467202795
 30
0.0
 10
1396.393196927933
 20
946.3802955992568
 30
0.0
 10
1393.630228526048
 20
948.0959542827248
 30
0.0
 10
1391.080856185156
 20
949.6669188603545
 30
0.0
 10
1388.579715212876
 20
951.3136755886652
 30
0.0
 10
1386.064793849566
 20
952.9535421214522
 30
0.0
 10
1383.5705430728
 20
954.6002988497629
 30
0.0
 10
1381.090072687068
 20
956.2815065556414
 30
0.0
 10
1378.650943474431
 20
957.9902750435857
 30
0.0
 10
1376.198033870762
 20
959.7059337270538
 30
0.0
 10
1373.758904658125
 20
961.4422629970712
 30
0.0
 10
1371.374897009615
 20
963.2406040267223
 30
0.0
 10
1368.832414864239
 20
965.1491881846367
 30
0.0
 10
1366.310603305412
 20
967.0715527335768
 30
0.0
 10
1363.830132919679
 20
969.069709433198
 30
0.0
 10
1361.315211556368
 20
971.1092073059107
 30
0.0
 10
1358.82785097512
 20
973.203826742755
 30
0.0
 10
1356.395611957998
 20
975.3466775482074
 30
0.0
 10
1354.004714113973
 20
977.4757479626195
 30
0.0
 10
1351.69649861614
 20
979.6875007232364
 30
0.0
 10
1349.429624291399
 20
981.9474848524541
 30
0.0
 10
1347.272993094914
 20
984.0903356579137
 30
0.0
 10
1345.247275613236
 20
986.3778805691971
 30
0.0
 10
1343.304240477743
 20
988.7067666535794
 30
0.0
 10
1341.340534755704
 20
991.0563233245038
 30
0.0
 10
1339.597315290177
 20
993.557464296783
 30
0.0
 10
1337.943668366354
 20
996.1343974197433
 30
0.0
 10
1337.061723340319
 20
997.5124365229264
 30
0.0
 10
1336.269350855986
 20
998.9593775812743
 30
0.0
 10
1335.552770522329
 20
1000.447659812713
 30
0.0
  0
SPLINE
  5
3C01
330
A
100
AcDbEntity
  8
HIDDEN
 48
0.7
100
AcDbSpline
210
0.0
220
0.0
230
1.0
 70
     8
 71
     3
 72
    14
 73
    10
 74
     0
 42
0.000000001
 43
0.0000000001
 40
0.0
 40
0.0
 40
0.0
 40
0.0
 40
1.0
 40
1.0
 40
1.0
 40
2.0
 40
2.0
 40
2.0
 40
3.0
 40
3.0
 40
3.0
 40
3.0
 10
1334.133390246049
 20
1003.76184385587
 30
0.0
 10
1334.036927508827
 20
1004.023671285473
 30
0.0
 10
1333.947354967122
 20
1004.278608519568
 30
0.0
 10
1333.850892229897
 20
1004.540435949172
 30
0.0
 10
1333.781990274738
 20
1004.733361423611
 30
0.0
 10
1333.719978515095
 20
1004.94006728909
 30
0.0
 10
1333.651076559936
 20
1005.146773154569
 30
0.0
 10
1332.94827661731
 20
1007.007125943869
 30
0.0
 10
1331.363531648649
 20
1008.157788595031
 30
0.0
 10
1329.372265144548
 20
1008.233580745704
 30
0.0
  0
POLYLINE
  5
3C02
330
A
100
AcDbEntity
  8
HIDDEN
 48
0.7
100
AcDb2dPolyline
 66
     1
 10
0.0
 20
0.0
 30
0.0
  0
VERTEX
  5
3C03
330
3C02
100
AcDbEntity
  8
HIDDEN
 48
0.7
100
AcDbVertex
100
AcDb2dVertex
 10
1607.515677731341
 20
893.215546998398
 30
0.0
  0
VERTEX
  5
3C04
330
3C02
100
AcDbEntity
  8
HIDDEN
 48
0.7
100
AcDbVertex
100
AcDb2dVertex
 10
1600.460117523035
 20
893.215546998398
 30
0.0
  0
SEQEND
  5
3C05
330
3C02
100
AcDbEntity
  8
HIDDEN
 48
0.7
  0
POLYLINE
  5
3C06
102
{ACAD_REACTORS
330
3CCF
102
}
330
A
100
AcDbEntity
  8
HIDDEN
 48
0.7
100
AcDb2dPolyline
 66
     1
 10
0.0
 20
0.0
 30
0.0
  0
VERTEX
  5
3C07
330
3C06
100
AcDbEntity
  8
HIDDEN
 48
0.7
100
AcDbVertex
100
AcDb2dVertex
 10
1594.438086642118
 20
893.215546998398
 30
0.0
  0
VERTEX
  5
3C08
330
3C06
100
AcDbEntity
  8
HIDDEN
 48
0.7
100
AcDbVertex
100
AcDb2dVertex
 10
1543.195702590196
 20
893.215546998398
 30
0.0
  0
SEQEND
  5
3C09
330
3C06
100
AcDbEntity
  8
HIDDEN
 48
0.7
  0
POLYLINE
  5
3C0A
330
A
100
AcDbEntity
  8
HIDDEN
 48
0.7
100
AcDb2dPolyline
 66
     1
 10
0.0
 20
0.0
 30
0.0
  0
VERTEX
  5
3C0B
330
3C0A
100
AcDbEntity
  8
HIDDEN
 48
0.7
100
AcDbVertex
100
AcDb2dVertex
 10
1540.170906758707
 20
893.215546998398
 30
0.0
  0
VERTEX
  5
3C0C
330
3C0A
100
AcDbEntity
  8
HIDDEN
 48
0.7
100
AcDbVertex
100
AcDb2dVertex
 10
1533.115346550401
 20
893.215546998398
 30
0.0
  0
SEQEND
  5
3C0D
330
3C0A
100
AcDbEntity
  8
HIDDEN
 48
0.7
  0
SPLINE
  5
3C0E
102
{ACAD_REACTORS
330
3C97
102
}
330
A
100
AcDbEntity
  8
MODEL
100
AcDbSpline
210
0.0
220
0.0
230
1.0
 70
     8
 71
     3
 72
    29
 73
    25
 74
     0
 42
0.000000001
 43
0.0000000001
 40
0.0
 40
0.0
 40
0.0
 40
0.0
 40
1.0
 40
1.0
 40
1.0
 40
2.0
 40
2.0
 40
2.0
 40
3.0
 40
3.0
 40
3.0
 40
4.0
 40
4.0
 40
4.0
 40
5.0
 40
5.0
 40
5.0
 40
6.0
 40
6.0
 40
6.0
 40
7.0
 40
7.0
 40
7.0
 40
8.0
 40
8.0
 40
8.0
 40
8.0
 10
1533.797475906478
 20
868.2385882531734
 30
0.0
 10
1533.797475906478
 20
868.2385882531734
 30
0.0
 10
1535.099722858988
 20
849.5179270364087
 30
0.0
 10
1535.099722858988
 20
849.5179270364087
 30
0.0
 10
1535.389111070656
 20
847.5404409233369
 30
0.0
 10
1537.070318776541
 20
846.0728292784469
 30
0.0
 10
1539.068475476159
 20
846.0728292784469
 30
0.0
 10
1539.068475476159
 20
846.0728292784469
 30
0.0
 10
1601.624560565226
 20
846.0728292784469
 30
0.0
 10
1601.624560565226
 20
846.0728292784469
 30
0.0
 10
1603.615827069329
 20
846.0728292784469
 30
0.0
 10
1605.310815166244
 20
847.5404409233369
 30
0.0
 10
1605.586422986882
 20
849.5179270364087
 30
0.0
 10
1605.586422986882
 20
849.5179270364087
 30
0.0
 10
1606.413246448794
 20
851.2266955243603
 30
0.0
 10
1606.413246448794
 20
851.2266955243603
 30
0.0
 10
1607.681042423725
 20
853.1628404643333
 30
0.0
 10
1609.7481010785
 20
854.5133187854507
 30
0.0
 10
1612.145889118043
 20
854.8095971926367
 30
0.0
 10
1612.145889118043
 20
854.8095971926367
 30
0.0
 10
1654.982234640538
 20
860.1288281309306
 30
0.0
 10
1654.982234640538
 20
860.1288281309306
 30
0.0
 10
1661.12828904074
 20
860.8798594421668
 30
0.0
 10
1669.182927598855
 20
863.8564239050455
 30
0.0
 10
1673.124119433964
 20
868.2248078621404
 30
0.0
  0
DIMENSION
  5
3C95
102
{ACAD_REACTORS
330
3C97
102
}
102
{ACAD_XDICTIONARY
360
3C96
102
}
330
A
100
AcDbEntity
  8
DIM
100
AcDbDimension
  2
*D16
 10
1785.296502433197
 20
727.2978384920182
 30
0.0
 11
1678.118232978446
 21
759.3023401801512
 31
0.0
 70
    32
  1
215
 71
     5
 42
214.3565389095031
 73
     0
 74
     0
 75
     0
  3
tfrom線あり
100
AcDbAlignedDimension
 13
1570.939963523694
 23
846.0728292784469
 33
0.0
 14
1785.296502433197
 24
869.0300409498458
 34
0.0
100
AcDbRotatedDimension
  0
LINE
  5
3CBA
330
A
100
AcDbEntity
  8
DIM
100
AcDbLine
 10
1737.796502433197
 20
986.9605693227066
 30
0.0
 11
1737.796502433197
 21
999.5170662958253
 31
0.0
  0
LINE
  5
3CBB
330
A
100
AcDbEntity
  8
DIM
100
AcDbLine
 10
1702.796502433198
 20
986.9605693227065
 30
0.0
 11
1702.796502433198
 21
999.5170662958253
 31
0.0
  0
DIMENSION
  5
3CBD
330
A
100
AcDbEntity
  8
DIM
100
AcDbDimension
  2
*D18
 10
1720.296502433198
 20
1074.787968516856
 30
0.0
 11
1752.855935601482
 21
1106.79247020499
 31
0.0
 70
    32
 71
     5
 42
65.11886633656809
 73
     0
 74
     1
 75
     1
  3
tfrom線あり
100
AcDbAlignedDimension
 13
1785.415368769766
 23
1008.233580745704
 33
0.0
 14
1720.296502433198
 24
999.5170662958253
 34
0.0
100
AcDbRotatedDimension
1001
ACAD
1000
DSTYLE
1002
{
1070
   172
1070
     1
1002
}
  0
DIMENSION
  5
3CCD
102
{ACAD_REACTORS
330
3CCF
102
}
102
{ACAD_XDICTIONARY
360
3CCE
102
}
330
A
100
AcDbEntity
  8
DIM
100
AcDbDimension
  2
*D19
 10
1570.468373575051
 20
1008.233580745704
 30
0.0
 11
1570.468373575051
 21
1113.273970892009
 31
0.0
 70
   160
 71
     5
 42
115.0180337473063
 73
     0
 74
     1
 75
     1
  3
tfrom線あり
100
AcDbAlignedDimension
 13
1570.30173174984
 23
893.215546998398
 33
0.0
 14
1570.609894041122
 24
1008.233580745704
 34
0.0
 50
90.0
100
AcDbRotatedDimension
1001
ACAD
1000
DSTYLE
1002
{
1070
     3
1000
<>(深さ)
1070
    75
1070
     1
1070
    76
1070
     1
1070
   172
1070
     1
1002
}
  0
DIMENSION
  5
3CED
102
{ACAD_REACTORS
330
3CEF
102
}
102
{ACAD_XDICTIONARY
360
3CEE
102
}
330
A
100
AcDbEntity
  8
DIM
100
AcDbDimension
  2
*D21
 10
1275.629526297887
 20
928.231520610322
 30
0.0
 11
1243.629526297887
 21
968.2325506780132
 31
0.0
 70
    32
 71
     5
 42
80.0020601353823
 73
     0
 74
     0
 75
     0
  3
tfrom線あり
100
AcDbAlignedDimension
 13
1336.592188604117
 23
1008.233580745704
 33
0.0
 14
1337.463083779926
 24
928.231520610322
 34
0.0
 50
90.0
100
AcDbRotatedDimension
  0
DIMENSION
  5
3CFC
102
{ACAD_REACTORS
330
3CFE
102
}
102
{ACAD_XDICTIONARY
360
3CFD
102
}
330
A
100
AcDbEntity
  8
DIM
100
AcDbDimension
  2
*D22
 10
1275.629526297887
 20
868.2316980576569
 30
0.0
 11
1243.629526297887
 21
898.2316093339895
 31
0.0
 70
    32
 71
     5
 42
59.99982255266513
 73
     0
 74
     1
 75
     1
  3
tfrom線あり
100
AcDbAlignedDimension
 13
1337.448387423835
 23
928.231520610322
 33
0.0
 14
1440.639668185317
 24
868.2316980576569
 34
0.0
 50
90.0
100
AcDbRotatedDimension
1001
ACAD
1000
DSTYLE
1002
{
1070
   172
1070
     1
1002
}
  0
POLYLINE
  5
3D56
102
{ACAD_REACTORS
330
3D7A
102
}
330
A
100
AcDbEntity
  8
HIDDEN
 48
0.5
100
AcDb2dPolyline
 66
     1
 10
0.0
 20
0.0
 30
0.0
  0
VERTEX
  5
3D57
330
3D56
100
AcDbEntity
  8
HIDDEN
 48
0.5
100
AcDbVertex
100
AcDb2dVertex
 10
439.0582810474755
 20
970.3477270345171
 30
0.0
  0
VERTEX
  5
3D58
330
3D56
100
AcDbEntity
  8
HIDDEN
 48
0.5
100
AcDbVertex
100
AcDb2dVertex
 10
439.0582810474755
 20
936.8200356540325
 30
0.0
  0
SEQEND
  5
3D59
330
3D56
100
AcDbEntity
  8
HIDDEN
 48
0.5
  0
POLYLINE
  5
3D5A
330
A
100
AcDbEntity
  8
HIDDEN
 48
0.5
100
AcDb2dPolyline
 66
     1
 10
0.0
 20
0.0
 30
0.0
  0
VERTEX
  5
3D5B
330
3D5A
100
AcDbEntity
  8
HIDDEN
 48
0.5
100
AcDbVertex
100
AcDb2dVertex
 10
411.0530813730077
 20
953.5907715397913
 30
0.0
  0
VERTEX
  5
3D5C
330
3D5A
100
AcDbEntity
  8
HIDDEN
 48
0.5
100
AcDbVertex
100
AcDb2dVertex
 10
467.0255846466082
 20
953.5907715397913
 30
0.0
  0
SEQEND
  5
3D5D
330
3D5A
100
AcDbEntity
  8
HIDDEN
 48
0.5
  0
SPLINE
  5
3D60
330
A
100
AcDbEntity
  8
HIDDEN
 48
0.5
100
AcDbSpline
210
0.0
220
0.0
230
1.0
 70
  1080
 71
     3
 72
     8
 73
     4
 74
     2
 42
0.000000001
 43
0.0000000001
 44
0.0
 40
0.0
 40
0.0
 40
0.0
 40
0.0
 40
5.043877044410078
 40
5.043877044410078
 40
5.043877044410078
 40
5.043877044410078
 10
439.0582810474755
 20
943.5862076506706
 30
0.0
 10
437.3769886995742
 20
943.5862357847482
 30
0.0
 10
435.6956963516728
 20
943.5862639188256
 30
0.0
 10
434.0144040037716
 20
943.5862920529031
 30
0.0
 11
439.0582810474755
 21
943.5862076506706
 31
0.0
 11
434.0144040037716
 21
943.5862920529031
 31
0.0
  0
SPLINE
  5
3D61
330
A
100
AcDbEntity
  8
HIDDEN
 48
0.5
100
AcDbSpline
210
0.0
220
0.0
230
1.0
 70
  1064
 71
     3
 72
    22
 73
    18
 74
    16
 42
0.000000001
 43
0.0000000001
 44
0.0
 40
0.0
 40
0.0
 40
0.0
 40
0.0
 40
1.29886283807065
 40
2.257202063180929
 40
3.602182531782313
 40
4.883495218012543
 40
6.099542425468274
 40
7.340568645545373
 40
8.250752728468374
 40
9.305417217386143
 40
10.46616364178197
 40
11.32218524872309
 40
12.23844686005651
 40
13.12432346282633
 40
14.13279722048548
 40
14.9379713498873
 40
15.67043281211798
 40
15.67043281211798
 40
15.67043281211798
 40
15.67043281211798
 10
434.0144040037716
 20
943.5862920529031
 30
0.0
 10
433.5811576574637
 20
943.6036647697606
 30
0.0
 10
432.8282494071942
 20
943.6338555883631
 30
0.0
 10
431.6454229903959
 20
943.8565021891529
 30
0.0
 10
430.4988477249701
 20
944.204164797876
 30
0.0
 10
429.3307566809906
 20
944.7386169655581
 30
0.0
 10
428.2683683233243
 20
945.3954907827103
 30
0.0
 10
427.390805564178
 20
946.100159454991
 30
0.0
 10
426.6328253475217
 20
946.8553232683329
 30
0.0
 10
425.9687695643885
 20
947.6606378330164
 30
0.0
 10
425.407204468083
 20
948.5196028751402
 30
0.0
 10
424.9569580564981
 20
949.3886882448608
 30
0.0
 10
424.6206022853268
 20
950.2098040947094
 30
0.0
 10
424.3448912465033
 20
951.1065211791788
 30
0.0
 10
424.1647849027285
 20
951.9895871571831
 30
0.0
 10
424.0667293052126
 20
952.8338948520526
 30
0.0
 10
424.0563715247746
 20
953.3465603927455
 30
0.0
 10
424.0514375371338
 20
953.5907715397913
 30
0.0
 11
434.0144040037716
 21
943.5862920529031
 31
0.0
 11
432.7185472693573
 21
943.6746096388878
 31
0.0
 11
431.7757733401361
 21
943.846631116517
 31
0.0
 11
430.4894027817861
 21
944.2393437946031
 31
0.0
 11
429.3239462171935
 21
944.7717658038613
 31
0.0
 11
428.2896507027855
 21
945.4112996963457
 31
0.0
 11
427.3218954078781
 21
946.1882139568003
 31
0.0
 11
426.6770950594907
 21
946.8306060298568
 31
0.0
 11
426.0061803635592
 21
947.6443570083308
 31
0.0
 11
425.3710817585136
 21
948.6159443814562
 31
0.0
 11
424.9773573178874
 21
949.3760457275961
 31
0.0
 11
424.630006669796
 21
950.2239153329446
 31
0.0
 11
424.3699169007734
 21
951.0707510120375
 31
0.0
 11
424.1670378917922
 21
952.0586069871684
 31
0.0
 11
424.0773264503188
 21
952.858767743471
 31
0.0
 11
424.0514375371338
 21
953.5907715397913
 31
0.0
  0
SPLINE
  5
3D62
330
A
100
AcDbEntity
  8
HIDDEN
 48
0.5
100
AcDbSpline
210
0.0
220
0.0
230
1.0
 70
  1080
 71
     3
 72
     8
 73
     4
 74
     2
 42
0.000000001
 43
0.0000000001
 44
0.0
 40
0.0
 40
0.0
 40
0.0
 40
0.0
 40
5.043877044410078
 40
5.043877044410078
 40
5.043877044410078
 40
5.043877044410078
 10
439.0582810474755
 20
943.5862076506706
 30
0.0
 10
440.7395733953768
 20
943.5862357847482
 30
0.0
 10
442.4208657432781
 20
943.5862639188256
 30
0.0
 10
444.1021580911794
 20
943.5862920529031
 30
0.0
 11
439.0582810474755
 21
943.5862076506706
 31
0.0
 11
444.1021580911794
 21
943.5862920529031
 31
0.0
  0
SPLINE
  5
3D63
330
A
100
AcDbEntity
  8
HIDDEN
 48
0.5
100
AcDbSpline
210
0.0
220
0.0
230
1.0
 70
  1064
 71
     3
 72
    22
 73
    18
 74
    16
 42
0.000000001
 43
0.0000000001
 44
0.0
 40
0.0
 40
0.0
 40
0.0
 40
0.0
 40
1.298862838070707
 40
2.257202063180986
 40
3.602182531782261
 40
4.883495218012595
 40
6.099542425468326
 40
7.340568645545424
 40
8.250752728468465
 40
9.305417217386161
 40
10.46616364178202
 40
11.32218524872314
 40
12.23844686005656
 40
13.12432346282635
 40
14.13279722048549
 40
14.93797134988733
 40
15.67043281211801
 40
15.67043281211801
 40
15.67043281211801
 40
15.67043281211801
 10
444.1021580911794
 20
943.5862920529031
 30
0.0
 10
444.5354044374873
 20
943.6036647697601
 30
0.0
 10
445.2883126877568
 20
943.6338555883626
 30
0.0
 10
446.4711391045549
 20
943.8565021891532
 30
0.0
 10
447.6177143699808
 20
944.2041647978762
 30
0.0
 10
448.7858054139604
 20
944.7386169655579
 30
0.0
 10
449.8481937716267
 20
945.3954907827103
 30
0.0
 10
450.725756530773
 20
946.100159454991
 30
0.0
 10
451.4837367474293
 20
946.855323268333
 30
0.0
 10
452.1477925305624
 20
947.6606378330164
 30
0.0
 10
452.7093576268679
 20
948.5196028751403
 30
0.0
 10
453.1596040384529
 20
949.3886882448609
 30
0.0
 10
453.4959598096243
 20
950.2098040947087
 30
0.0
 10
453.7716708484475
 20
951.1065211791791
 30
0.0
 10
453.9517771922226
 20
951.9895871571828
 30
0.0
 10
454.0498327897383
 20
952.8338948520525
 30
0.0
 10
454.0601905701765
 20
953.3465603927455
 30
0.0
 10
454.0651245578172
 20
953.5907715397913
 30
0.0
 11
444.1021580911794
 21
943.5862920529031
 31
0.0
 11
445.3980148255937
 21
943.6746096388878
 31
0.0
 11
446.3407887548149
 21
943.846631116517
 31
0.0
 11
447.6271593131648
 21
944.2393437946031
 31
0.0
 11
448.7926158777575
 21
944.7717658038613
 31
0.0
 11
449.8269113921655
 21
945.4112996963457
 31
0.0
 11
450.7946666870729
 21
946.1882139568003
 31
0.0
 11
451.4394670354604
 21
946.8306060298568
 31
0.0
 11
452.1103817313917
 21
947.6443570083308
 31
0.0
 11
452.7454803364374
 21
948.6159443814562
 31
0.0
 11
453.1392047770636
 21
949.3760457275961
 31
0.0
 11
453.486555425155
 21
950.2239153329446
 31
0.0
 11
453.7466451941775
 21
951.0707510120375
 31
0.0
 11
453.9495242031587
 21
952.0586069871684
 31
0.0
 11
454.0392356446322
 21
952.858767743471
 31
0.0
 11
454.0651245578172
 21
953.5907715397913
 31
0.0
  0
SPLINE
  5
3D64
330
A
100
AcDbEntity
  8
HIDDEN
 48
0.5
100
AcDbSpline
210
0.0
220
0.0
230
1.0
 70
  1080
 71
     3
 72
     8
 73
     4
 74
     2
 42
0.000000001
 43
0.0000000001
 44
0.0
 40
0.0
 40
0.0
 40
0.0
 40
0.0
 40
5.043877044410078
 40
5.043877044410078
 40
5.043877044410078
 40
5.043877044410078
 10
439.0582810474755
 20
963.5953354289119
 30
0.0
 10
437.3769886995742
 20
963.5953072948344
 30
0.0
 10
435.6956963516728
 20
963.5952791607568
 30
0.0
 10
434.0144040037716
 20
963.5952510266794
 30
0.0
 11
439.0582810474755
 21
963.5953354289119
 31
0.0
 11
434.0144040037716
 21
963.5952510266794
 31
0.0
  0
SPLINE
  5
3D65
330
A
100
AcDbEntity
  8
HIDDEN
 48
0.5
100
AcDbSpline
210
0.0
220
0.0
230
1.0
 70
  1080
 71
     3
 72
     8
 73
     4
 74
     2
 42
0.000000001
 43
0.0000000001
 44
0.0
 40
0.0
 40
0.0
 40
0.0
 40
0.0
 40
5.043877044410078
 40
5.043877044410078
 40
5.043877044410078
 40
5.043877044410078
 10
439.0582810474755
 20
963.5953354289119
 30
0.0
 10
440.7395733953768
 20
963.5953072948344
 30
0.0
 10
442.4208657432781
 20
963.5952791607568
 30
0.0
 10
444.1021580911794
 20
963.5952510266794
 30
0.0
 11
439.0582810474755
 21
963.5953354289119
 31
0.0
 11
444.1021580911794
 21
963.5952510266794
 31
0.0
  0
SPLINE
  5
3D66
330
A
100
AcDbEntity
  8
HIDDEN
 48
0.5
100
AcDbSpline
210
0.0
220
0.0
230
1.0
 70
  1064
 71
     3
 72
    22
 73
    18
 74
    16
 42
0.000000001
 43
0.0000000001
 44
0.0
 40
0.0
 40
0.0
 40
0.0
 40
0.0
 40
1.298862838070707
 40
2.257202063180986
 40
3.602182531782261
 40
4.883495218012595
 40
6.099542425468326
 40
7.340568645545424
 40
8.250752728468465
 40
9.305417217386161
 40
10.46616364178202
 40
11.32218524872314
 40
12.23844686005656
 40
13.12432346282635
 40
14.13279722048549
 40
14.93797134988733
 40
15.67043281211801
 40
15.67043281211801
 40
15.67043281211801
 40
15.67043281211801
 10
444.1021580911794
 20
963.5952510266794
 30
0.0
 10
444.5354044374873
 20
963.5778783098218
 30
0.0
 10
445.2883126877568
 20
963.5476874912197
 30
0.0
 10
446.4711391045549
 20
963.3250408904295
 30
0.0
 10
447.6177143699808
 20
962.9773782817063
 30
0.0
 10
448.7858054139604
 20
962.4429261140244
 30
0.0
 10
449.8481937716267
 20
961.7860522968723
 30
0.0
 10
450.725756530773
 20
961.0813836245912
 30
0.0
 10
451.4837367474293
 20
960.3262198112499
 30
0.0
 10
452.1477925305624
 20
959.5209052465659
 30
0.0
 10
452.7093576268679
 20
958.6619402044423
 30
0.0
 10
453.1596040384529
 20
957.7928548347218
 30
0.0
 10
453.4959598096243
 20
956.9717389848736
 30
0.0
 10
453.7716708484475
 20
956.0750219004036
 30
0.0
 10
453.9517771922226
 20
955.1919559223998
 30
0.0
 10
454.0498327897383
 20
954.3476482275298
 30
0.0
 10
454.0601905701765
 20
953.8349826868371
 30
0.0
 10
454.0651245578172
 20
953.5907715397913
 30
0.0
 11
444.1021580911794
 21
963.5952510266794
 31
0.0
 11
445.3980148255937
 21
963.5069334406948
 31
0.0
 11
446.3407887548149
 21
963.3349119630656
 31
0.0
 11
447.6271593131648
 21
962.9421992849794
 31
0.0
 11
448.7926158777575
 21
962.4097772757212
 31
0.0
 11
449.8269113921655
 21
961.7702433832368
 31
0.0
 11
450.7946666870729
 21
960.9933291227823
 31
0.0
 11
451.4394670354604
 21
960.3509370497258
 31
0.0
 11
452.1103817313917
 21
959.5371860712518
 31
0.0
 11
452.7454803364374
 21
958.5655986981263
 31
0.0
 11
453.1392047770636
 21
957.8054973519864
 31
0.0
 11
453.486555425155
 21
956.957627746638
 31
0.0
 11
453.7466451941775
 21
956.110792067545
 31
0.0
 11
453.9495242031587
 21
955.1229360924141
 31
0.0
 11
454.0392356446322
 21
954.3227753361115
 31
0.0
 11
454.0651245578172
 21
953.5907715397913
 31
0.0
  0
SPLINE
  5
3D67
330
A
100
AcDbEntity
  8
HIDDEN
 48
0.5
100
AcDbSpline
210
0.0
220
0.0
230
1.0
 70
  1064
 71
     3
 72
    22
 73
    18
 74
    16
 42
0.000000001
 43
0.0000000001
 44
0.0
 40
0.0
 40
0.0
 40
0.0
 40
0.0
 40
1.29886283807065
 40
2.257202063180929
 40
3.602182531782313
 40
4.883495218012543
 40
6.099542425468274
 40
7.340568645545373
 40
8.250752728468374
 40
9.305417217386143
 40
10.46616364178197
 40
11.32218524872309
 40
12.23844686005651
 40
13.12432346282633
 40
14.13279722048548
 40
14.9379713498873
 40
15.67043281211798
 40
15.67043281211798
 40
15.67043281211798
 40
15.67043281211798
 10
434.0144040037716
 20
963.5952510266794
 30
0.0
 10
433.5811576574637
 20
963.577878309822
 30
0.0
 10
432.8282494071942
 20
963.5476874912197
 30
0.0
 10
431.6454229903959
 20
963.3250408904296
 30
0.0
 10
430.4988477249701
 20
962.9773782817063
 30
0.0
 10
429.3307566809906
 20
962.4429261140244
 30
0.0
 10
428.2683683233243
 20
961.7860522968725
 30
0.0
 10
427.390805564178
 20
961.0813836245912
 30
0.0
 10
426.6328253475217
 20
960.3262198112498
 30
0.0
 10
425.9687695643885
 20
959.5209052465659
 30
0.0
 10
425.407204468083
 20
958.6619402044421
 30
0.0
 10
424.9569580564981
 20
957.7928548347219
 30
0.0
 10
424.6206022853268
 20
956.9717389848738
 30
0.0
 10
424.3448912465033
 20
956.0750219004032
 30
0.0
 10
424.1647849027285
 20
955.1919559224002
 30
0.0
 10
424.0667293052126
 20
954.3476482275298
 30
0.0
 10
424.0563715247746
 20
953.8349826868371
 30
0.0
 10
424.0514375371338
 20
953.5907715397913
 30
0.0
 11
434.0144040037716
 21
963.5952510266794
 31
0.0
 11
432.7185472693573
 21
963.5069334406948
 31
0.0
 11
431.7757733401361
 21
963.3349119630656
 31
0.0
 11
430.4894027817861
 21
962.9421992849794
 31
0.0
 11
429.3239462171935
 21
962.4097772757212
 31
0.0
 11
428.2896507027855
 21
961.7702433832368
 31
0.0
 11
427.3218954078781
 21
960.9933291227823
 31
0.0
 11
426.6770950594907
 21
960.3509370497258
 31
0.0
 11
426.0061803635592
 21
959.5371860712518
 31
0.0
 11
425.3710817585136
 21
958.5655986981263
 31
0.0
 11
424.9773573178874
 21
957.8054973519864
 31
0.0
 11
424.630006669796
 21
956.957627746638
 31
0.0
 11
424.3699169007734
 21
956.110792067545
 31
0.0
 11
424.1670378917922
 21
955.1229360924141
 31
0.0
 11
424.0773264503188
 21
954.3227753361115
 31
0.0
 11
424.0514375371338
 21
953.5907715397913
 31
0.0
  0
POLYLINE
  5
3D68
102
{ACAD_REACTORS
330
3D7A
102
}
330
A
100
AcDbEntity
  8
HIDDEN
 48
0.5
100
AcDb2dPolyline
 66
     1
 10
0.0
 20
0.0
 30
0.0
  0
VERTEX
  5
3D69
330
3D68
100
AcDbEntity
  8
HIDDEN
 48
0.5
100
AcDbVertex
100
AcDb2dVertex
 10
719.0203849721404
 20
970.3477270345171
 30
0.0
  0
VERTEX
  5
3D6A
330
3D68
100
AcDbEntity
  8
HIDDEN
 48
0.5
100
AcDbVertex
100
AcDb2dVertex
 10
719.0203849721404
 20
936.8200356540325
 30
0.0
  0
SEQEND
  5
3D6B
330
3D68
100
AcDbEntity
  8
HIDDEN
 48
0.5
  0
POLYLINE
  5
3D6C
330
A
100
AcDbEntity
  8
HIDDEN
 48
0.5
100
AcDb2dPolyline
 66
     1
 10
0.0
 20
0.0
 30
0.0
  0
VERTEX
  5
3D6D
330
3D6C
100
AcDbEntity
  8
HIDDEN
 48
0.5
100
AcDbVertex
100
AcDb2dVertex
 10
747.0255846466082
 20
953.5907715397913
 30
0.0
  0
VERTEX
  5
3D6E
330
3D6C
100
AcDbEntity
  8
HIDDEN
 48
0.5
100
AcDbVertex
100
AcDb2dVertex
 10
691.0530813730077
 20
953.5907715397913
 30
0.0
  0
SEQEND
  5
3D6F
330
3D6C
100
AcDbEntity
  8
HIDDEN
 48
0.5
  0
SPLINE
  5
3D70
330
A
100
AcDbEntity
  8
HIDDEN
 48
0.5
100
AcDbSpline
210
0.0
220
0.0
230
1.0
 70
  1080
 71
     3
 72
     8
 73
     4
 74
     2
 42
0.000000001
 43
0.0000000001
 44
0.0
 40
0.0
 40
0.0
 40
0.0
 40
0.0
 40
5.043877044410078
 40
5.043877044410078
 40
5.043877044410078
 40
5.043877044410078
 10
719.0203849721404
 20
943.5862076506706
 30
0.0
 10
720.7016773200417
 20
943.5862357847482
 30
0.0
 10
722.3829696679429
 20
943.5862639188256
 30
0.0
 10
724.0642620158443
 20
943.5862920529031
 30
0.0
 11
719.0203849721404
 21
943.5862076506706
 31
0.0
 11
724.0642620158443
 21
943.5862920529031
 31
0.0
  0
SPLINE
  5
3D71
330
A
100
AcDbEntity
  8
HIDDEN
 48
0.5
100
AcDbSpline
210
0.0
220
0.0
230
1.0
 70
  1064
 71
     3
 72
    22
 73
    18
 74
    16
 42
0.000000001
 43
0.0000000001
 44
0.0
 40
0.0
 40
0.0
 40
0.0
 40
0.0
 40
1.298862838070707
 40
2.25720206318093
 40
3.602182531782313
 40
4.883495218012595
 40
6.099542425468279
 40
7.340568645545421
 40
8.25075272846842
 40
9.305417217386152
 40
10.46616364178198
 40
11.32218524872312
 40
12.23844686005653
 40
13.12432346282633
 40
14.13279722048548
 40
14.93797134988731
 40
15.67043281211799
 40
15.67043281211799
 40
15.67043281211799
 40
15.67043281211799
 10
724.0642620158443
 20
943.5862920529031
 30
0.0
 10
724.4975083621521
 20
943.6036647697604
 30
0.0
 10
725.2504166124218
 20
943.6338555883631
 30
0.0
 10
726.43324302922
 20
943.856502189153
 30
0.0
 10
727.5798182946461
 20
944.2041647978764
 30
0.0
 10
728.7479093386252
 20
944.7386169655581
 30
0.0
 10
729.8102976962919
 20
945.3954907827106
 30
0.0
 10
730.6878604554377
 20
946.1001594549908
 30
0.0
 10
731.4458406720943
 20
946.855323268333
 30
0.0
 10
732.1098964552272
 20
947.6606378330166
 30
0.0
 10
732.671461551533
 20
948.5196028751403
 30
0.0
 10
733.1217079631176
 20
949.3886882448606
 30
0.0
 10
733.4580637342891
 20
950.2098040947092
 30
0.0
 10
733.7337747731126
 20
951.106521179179
 30
0.0
 10
733.9138811168873
 20
951.9895871571825
 30
0.0
 10
734.0119367144033
 20
952.8338948520525
 30
0.0
 10
734.0222944948415
 20
953.3465603927456
 30
0.0
 10
734.0272284824821
 20
953.5907715397913
 30
0.0
 11
724.0642620158443
 21
943.5862920529031
 31
0.0
 11
725.3601187502586
 21
943.6746096388878
 31
0.0
 11
726.3028926794798
 21
943.846631116517
 31
0.0
 11
727.5892632378298
 21
944.2393437946031
 31
0.0
 11
728.7547198024224
 21
944.7717658038613
 31
0.0
 11
729.7890153168304
 21
945.4112996963457
 31
0.0
 11
730.7567706117378
 21
946.1882139568003
 31
0.0
 11
731.4015709601252
 21
946.8306060298568
 31
0.0
 11
732.0724856560566
 21
947.6443570083308
 31
0.0
 11
732.7075842611023
 21
948.6159443814562
 31
0.0
 11
733.1013087017285
 21
949.3760457275961
 31
0.0
 11
733.4486593498199
 21
950.2239153329446
 31
0.0
 11
733.7087491188424
 21
951.0707510120375
 31
0.0
 11
733.9116281278236
 21
952.0586069871684
 31
0.0
 11
734.0013395692971
 21
952.858767743471
 31
0.0
 11
734.0272284824821
 21
953.5907715397913
 31
0.0
  0
SPLINE
  5
3D72
330
A
100
AcDbEntity
  8
HIDDEN
 48
0.5
100
AcDbSpline
210
0.0
220
0.0
230
1.0
 70
  1080
 71
     3
 72
     8
 73
     4
 74
     2
 42
0.000000001
 43
0.0000000001
 44
0.0
 40
0.0
 40
0.0
 40
0.0
 40
0.0
 40
5.043877044410078
 40
5.043877044410078
 40
5.043877044410078
 40
5.043877044410078
 10
719.0203849721404
 20
943.5862076506706
 30
0.0
 10
717.3390926242391
 20
943.5862357847482
 30
0.0
 10
715.6578002763378
 20
943.5862639188256
 30
0.0
 10
713.9765079284365
 20
943.5862920529031
 30
0.0
 11
719.0203849721404
 21
943.5862076506706
 31
0.0
 11
713.9765079284365
 21
943.5862920529031
 31
0.0
  0
SPLINE
  5
3D73
330
A
100
AcDbEntity
  8
HIDDEN
 48
0.5
100
AcDbSpline
210
0.0
220
0.0
230
1.0
 70
  1064
 71
     3
 72
    22
 73
    18
 74
    16
 42
0.000000001
 43
0.0000000001
 44
0.0
 40
0.0
 40
0.0
 40
0.0
 40
0.0
 40
1.298862838070707
 40
2.25720206318093
 40
3.602182531782313
 40
4.883495218012595
 40
6.099542425468279
 40
7.340568645545421
 40
8.25075272846842
 40
9.305417217386152
 40
10.46616364178198
 40
11.32218524872312
 40
12.23844686005653
 40
13.12432346282633
 40
14.13279722048548
 40
14.93797134988731
 40
15.67043281211799
 40
15.67043281211799
 40
15.67043281211799
 40
15.67043281211799
 10
713.9765079284365
 20
943.5862920529031
 30
0.0
 10
713.5432615821285
 20
943.6036647697604
 30
0.0
 10
712.790353331859
 20
943.6338555883631
 30
0.0
 10
711.6075269150609
 20
943.856502189153
 30
0.0
 10
710.460951649635
 20
944.2041647978764
 30
0.0
 10
709.2928606056555
 20
944.7386169655581
 30
0.0
 10
708.2304722479893
 20
945.3954907827106
 30
0.0
 10
707.3529094888429
 20
946.1001594549908
 30
0.0
 10
706.5949292721867
 20
946.855323268333
 30
0.0
 10
705.9308734890535
 20
947.6606378330166
 30
0.0
 10
705.3693083927482
 20
948.5196028751403
 30
0.0
 10
704.9190619811629
 20
949.3886882448606
 30
0.0
 10
704.5827062099914
 20
950.2098040947092
 30
0.0
 10
704.3069951711684
 20
951.106521179179
 30
0.0
 10
704.1268888273935
 20
951.9895871571825
 30
0.0
 10
704.0288332298773
 20
952.8338948520525
 30
0.0
 10
704.0184754494394
 20
953.3465603927456
 30
0.0
 10
704.0135414617987
 20
953.5907715397913
 30
0.0
 11
713.9765079284365
 21
943.5862920529031
 31
0.0
 11
712.6806511940222
 21
943.6746096388878
 31
0.0
 11
711.737877264801
 21
943.846631116517
 31
0.0
 11
710.451506706451
 21
944.2393437946031
 31
0.0
 11
709.2860501418584
 21
944.7717658038613
 31
0.0
 11
708.2517546274504
 21
945.4112996963457
 31
0.0
 11
707.283999332543
 21
946.1882139568003
 31
0.0
 11
706.6391989841555
 21
946.8306060298568
 31
0.0
 11
705.9682842882241
 21
947.6443570083308
 31
0.0
 11
705.3331856831785
 21
948.6159443814562
 31
0.0
 11
704.9394612425523
 21
949.3760457275961
 31
0.0
 11
704.5921105944609
 21
950.2239153329446
 31
0.0
 11
704.3320208254383
 21
951.0707510120375
 31
0.0
 11
704.1291418164571
 21
952.0586069871684
 31
0.0
 11
704.0394303749837
 21
952.858767743471
 31
0.0
 11
704.0135414617987
 21
953.5907715397913
 31
0.0
  0
SPLINE
  5
3D74
330
A
100
AcDbEntity
  8
HIDDEN
 48
0.5
100
AcDbSpline
210
0.0
220
0.0
230
1.0
 70
  1080
 71
     3
 72
     8
 73
     4
 74
     2
 42
0.000000001
 43
0.0000000001
 44
0.0
 40
0.0
 40
0.0
 40
0.0
 40
0.0
 40
5.043877044410078
 40
5.043877044410078
 40
5.043877044410078
 40
5.043877044410078
 10
719.0203849721404
 20
963.5953354289119
 30
0.0
 10
720.7016773200417
 20
963.5953072948344
 30
0.0
 10
722.3829696679429
 20
963.5952791607568
 30
0.0
 10
724.0642620158443
 20
963.5952510266794
 30
0.0
 11
719.0203849721404
 21
963.5953354289119
 31
0.0
 11
724.0642620158443
 21
963.5952510266794
 31
0.0
  0
SPLINE
  5
3D75
330
A
100
AcDbEntity
  8
HIDDEN
 48
0.5
100
AcDbSpline
210
0.0
220
0.0
230
1.0
 70
  1080
 71
     3
 72
     8
 73
     4
 74
     2
 42
0.000000001
 43
0.0000000001
 44
0.0
 40
0.0
 40
0.0
 40
0.0
 40
0.0
 40
5.043877044410078
 40
5.043877044410078
 40
5.043877044410078
 40
5.043877044410078
 10
719.0203849721404
 20
963.5953354289119
 30
0.0
 10
717.3390926242391
 20
963.5953072948344
 30
0.0
 10
715.6578002763378
 20
963.5952791607568
 30
0.0
 10
713.9765079284365
 20
963.5952510266794
 30
0.0
 11
719.0203849721404
 21
963.5953354289119
 31
0.0
 11
713.9765079284365
 21
963.5952510266794
 31
0.0
  0
SPLINE
  5
3D76
330
A
100
AcDbEntity
  8
HIDDEN
 48
0.5
100
AcDbSpline
210
0.0
220
0.0
230
1.0
 70
  1064
 71
     3
 72
    22
 73
    18
 74
    16
 42
0.000000001
 43
0.0000000001
 44
0.0
 40
0.0
 40
0.0
 40
0.0
 40
0.0
 40
1.298862838070707
 40
2.25720206318093
 40
3.602182531782313
 40
4.883495218012595
 40
6.099542425468279
 40
7.340568645545421
 40
8.25075272846842
 40
9.305417217386152
 40
10.46616364178198
 40
11.32218524872312
 40
12.23844686005653
 40
13.12432346282633
 40
14.13279722048548
 40
14.93797134988731
 40
15.67043281211799
 40
15.67043281211799
 40
15.67043281211799
 40
15.67043281211799
 10
713.9765079284365
 20
963.5952510266794
 30
0.0
 10
713.5432615821285
 20
963.5778783098219
 30
0.0
 10
712.790353331859
 20
963.5476874912197
 30
0.0
 10
711.6075269150609
 20
963.3250408904297
 30
0.0
 10
710.460951649635
 20
962.9773782817065
 30
0.0
 10
709.2928606056555
 20
962.4429261140244
 30
0.0
 10
708.2304722479893
 20
961.7860522968724
 30
0.0
 10
707.3529094888429
 20
961.0813836245914
 30
0.0
 10
706.5949292721867
 20
960.3262198112499
 30
0.0
 10
705.9308734890535
 20
959.5209052465661
 30
0.0
 10
705.3693083927482
 20
958.6619402044421
 30
0.0
 10
704.9190619811629
 20
957.7928548347217
 30
0.0
 10
704.5827062099914
 20
956.9717389848735
 30
0.0
 10
704.3069951711684
 20
956.0750219004036
 30
0.0
 10
704.1268888273935
 20
955.1919559224
 30
0.0
 10
704.0288332298773
 20
954.3476482275296
 30
0.0
 10
704.0184754494394
 20
953.8349826868373
 30
0.0
 10
704.0135414617987
 20
953.5907715397913
 30
0.0
 11
713.9765079284365
 21
963.5952510266794
 31
0.0
 11
712.6806511940222
 21
963.5069334406948
 31
0.0
 11
711.737877264801
 21
963.3349119630656
 31
0.0
 11
710.451506706451
 21
962.9421992849794
 31
0.0
 11
709.2860501418584
 21
962.4097772757212
 31
0.0
 11
708.2517546274504
 21
961.7702433832368
 31
0.0
 11
707.283999332543
 21
960.9933291227823
 31
0.0
 11
706.6391989841555
 21
960.3509370497258
 31
0.0
 11
705.9682842882241
 21
959.5371860712518
 31
0.0
 11
705.3331856831785
 21
958.5655986981263
 31
0.0
 11
704.9394612425523
 21
957.8054973519864
 31
0.0
 11
704.5921105944609
 21
956.957627746638
 31
0.0
 11
704.3320208254383
 21
956.110792067545
 31
0.0
 11
704.1291418164571
 21
955.1229360924141
 31
0.0
 11
704.0394303749837
 21
954.3227753361115
 31
0.0
 11
704.0135414617987
 21
953.5907715397913
 31
0.0
  0
SPLINE
  5
3D77
330
A
100
AcDbEntity
  8
HIDDEN
 48
0.5
100
AcDbSpline
210
0.0
220
0.0
230
1.0
 70
  1064
 71
     3
 72
    22
 73
    18
 74
    16
 42
0.000000001
 43
0.0000000001
 44
0.0
 40
0.0
 40
0.0
 40
0.0
 40
0.0
 40
1.298862838070707
 40
2.25720206318093
 40
3.602182531782313
 40
4.883495218012595
 40
6.099542425468279
 40
7.340568645545421
 40
8.25075272846842
 40
9.305417217386152
 40
10.46616364178198
 40
11.32218524872312
 40
12.23844686005653
 40
13.12432346282633
 40
14.13279722048548
 40
14.93797134988731
 40
15.67043281211799
 40
15.67043281211799
 40
15.67043281211799
 40
15.67043281211799
 10
724.0642620158443
 20
963.5952510266794
 30
0.0
 10
724.4975083621521
 20
963.5778783098219
 30
0.0
 10
725.2504166124218
 20
963.5476874912197
 30
0.0
 10
726.43324302922
 20
963.3250408904297
 30
0.0
 10
727.5798182946461
 20
962.9773782817065
 30
0.0
 10
728.7479093386252
 20
962.4429261140244
 30
0.0
 10
729.8102976962919
 20
961.7860522968724
 30
0.0
 10
730.6878604554377
 20
961.0813836245914
 30
0.0
 10
731.4458406720943
 20
960.3262198112499
 30
0.0
 10
732.1098964552272
 20
959.5209052465661
 30
0.0
 10
732.671461551533
 20
958.6619402044421
 30
0.0
 10
733.1217079631176
 20
957.7928548347217
 30
0.0
 10
733.4580637342891
 20
956.9717389848735
 30
0.0
 10
733.7337747731126
 20
956.0750219004036
 30
0.0
 10
733.9138811168873
 20
955.1919559224
 30
0.0
 10
734.0119367144033
 20
954.3476482275296
 30
0.0
 10
734.0222944948415
 20
953.8349826868373
 30
0.0
 10
734.0272284824821
 20
953.5907715397913
 30
0.0
 11
724.0642620158443
 21
963.5952510266794
 31
0.0
 11
725.3601187502586
 21
963.5069334406948
 31
0.0
 11
726.3028926794798
 21
963.3349119630656
 31
0.0
 11
727.5892632378298
 21
962.9421992849794
 31
0.0
 11
728.7547198024224
 21
962.4097772757212
 31
0.0
 11
729.7890153168304
 21
961.7702433832368
 31
0.0
 11
730.7567706117378
 21
960.9933291227823
 31
0.0
 11
731.4015709601252
 21
960.3509370497258
 31
0.0
 11
732.0724856560566
 21
959.5371860712518
 31
0.0
 11
732.7075842611023
 21
958.5655986981263
 31
0.0
 11
733.1013087017285
 21
957.8054973519864
 31
0.0
 11
733.4486593498199
 21
956.957627746638
 31
0.0
 11
733.7087491188424
 21
956.110792067545
 31
0.0
 11
733.9116281278236
 21
955.1229360924141
 31
0.0
 11
734.0013395692971
 21
954.3227753361115
 31
0.0
 11
734.0272284824821
 21
953.5907715397913
 31
0.0
  0
DIMENSION
  5
3D78
102
{ACAD_REACTORS
330
3D7A
102
}
102
{ACAD_XDICTIONARY
360
3D79
102
}
330
A
100
AcDbEntity
  8
DIM
100
AcDbDimension
  2
*D24
 10
719.0203849721404
 20
1076.918481407662
 30
0.0
 11
579.0393330098079
 21
1108.922983095795
 31
0.0
 70
    32
 71
     5
 42
279.9621039246649
 73
     0
 74
     0
 75
     0
  3
tfrom線あり
100
AcDbAlignedDimension
 13
439.0582810474755
 23
970.3477270345171
 33
0.0
 14
719.0203849721404
 24
970.3477270345171
 34
0.0
100
AcDbRotatedDimension
  0
DIMENSION
  5
3D87
330
A
100
AcDbEntity
  8
DIM
100
AcDbDimension
  2
*D25
 10
182.8753983264494
 20
1008.233580745704
 30
0.0
 11
182.8753983264494
 21
980.8281064331651
 31
0.0
 70
   160
 71
     5
 42
54.81094862507813
 73
     0
 74
     0
 75
     0
  3
tfrom線あり
100
AcDbAlignedDimension
 13
405.5552266372235
 23
953.4226321206261
 33
0.0
 14
269.6247224787381
 24
1008.233580745704
 34
0.0
 50
90.0
100
AcDbRotatedDimension
1001
ACAD
1000
DSTYLE
1002
{
1070
   172
1070
     1
1002
}
  0
SPLINE
  5
3D95
330
A
100
AcDbEntity
  8
HIDDEN
100
AcDbSpline
210
0.0
220
0.0
230
1.0
 70
    11
 71
     3
 72
    17
 73
    13
 74
     0
 42
0.000000001
 43
0.0000000001
 40
0.0
 40
0.0
 40
0.0
 40
0.0
 40
1.0
 40
1.0
 40
1.0
 40
2.0
 40
2.0
 40
2.0
 40
3.0
 40
3.0
 40
3.0
 40
4.0
 40
4.0
 40
4.0
 40
4.0
 10
1500.959372994941
 20
2212.741665267789
 30
0.0
 10
1500.959372994941
 20
2233.439812597626
 30
0.0
 10
1517.750779467245
 20
2250.217438678901
 30
0.0
 10
1538.466152285873
 20
2250.217438678901
 30
0.0
 10
1559.181525104493
 20
2250.217438678901
 30
0.0
 10
1575.979821772314
 20
2233.439812597626
 30
0.0
 10
1575.979821772314
 20
2212.741665267789
 30
0.0
 10
1575.979821772314
 20
2192.057298328986
 30
0.0
 10
1559.181525104493
 20
2175.286562443234
 30
0.0
 10
1538.466152285873
 20
2175.286562443234
 30
0.0
 10
1517.750779467245
 20
2175.286562443234
 30
0.0
 10
1500.959372994941
 20
2192.057298328986
 30
0.0
 10
1500.959372994941
 20
2212.741665267789
 30
0.0
  0
SPLINE
  5
3D98
330
A
100
AcDbEntity
  8
HIDDEN
100
AcDbSpline
210
0.0
220
0.0
230
1.0
 70
    11
 71
     3
 72
    17
 73
    13
 74
     0
 42
0.000000001
 43
0.0000000001
 40
0.0
 40
0.0
 40
0.0
 40
0.0
 40
1.0
 40
1.0
 40
1.0
 40
2.0
 40
2.0
 40
2.0
 40
3.0
 40
3.0
 40
3.0
 40
4.0
 40
4.0
 40
4.0
 40
4.0
 10
1515.435673773899
 20
2212.741665267789
 30
0.0
 10
1515.435673773899
 20
2225.454075994665
 30
0.0
 10
1525.743406265719
 20
2235.754918290975
 30
0.0
 10
1538.466152285873
 20
2235.754918290975
 30
0.0
 10
1551.188898306023
 20
2235.754918290975
 30
0.0
 10
1561.496630797846
 20
2225.454075994665
 30
0.0
 10
1561.496630797846
 20
2212.741665267789
 30
0.0
 10
1561.496630797846
 20
2200.043034931947
 30
0.0
 10
1551.188898306023
 20
2189.742192635636
 30
0.0
 10
1538.466152285873
 20
2189.742192635636
 30
0.0
 10
1525.743406265719
 20
2189.742192635636
 30
0.0
 10
1515.435673773899
 20
2200.043034931947
 30
0.0
 10
1515.435673773899
 20
2212.741665267789
 30
0.0
  0
LINE
  5
3D99
330
A
100
AcDbEntity
  8
HIDDEN
100
AcDbLine
 10
1238.463594424807
 20
2427.575268444201
 30
0.0
 11
1538.466152285873
 21
2427.612412431863
 31
0.0
  0
LINE
  5
3D9A
330
A
100
AcDbEntity
  8
HIDDEN
100
AcDbLine
 10
1838.468710146931
 20
2427.575268444201
 30
0.0
 11
1538.466152285873
 21
2427.612412431863
 31
0.0
  0
LINE
  5
3D9B
330
A
100
AcDbEntity
  8
HIDDEN
100
AcDbLine
 10
1863.468710146931
 20
2427.575268444201
 30
0.0
 11
1863.468710146931
 21
1972.817853663637
 31
0.0
  0
SPLINE
  5
3D9C
330
A
100
AcDbEntity
  8
HIDDEN
100
AcDbSpline
210
0.0
220
0.0
230
1.0
 70
  1064
 71
     3
 72
    18
 73
    14
 74
    12
 42
0.000000001
 43
0.0000000001
 44
0.0
 40
0.0
 40
0.0
 40
0.0
 40
0.0
 40
0.5977805798901442
 40
1.144561586291574
 40
1.845144077290291
 40
2.539112531327711
 40
3.163877912967008
 40
3.931444575032542
 40
4.744632360592905
 40
5.510004066104814
 40
6.437104505167488
 40
7.247515568245747
 40
7.931173406274732
 40
7.931173406274732
 40
7.931173406274732
 40
7.931173406274732
 10
1863.468710146931
 20
1972.817853663637
 30
0.0
 10
1863.464337728211
 20
1972.618410120907
 30
0.0
 10
1863.455965923112
 20
1972.23653853571
 30
0.0
 10
1863.356465387747
 20
1971.627961990052
 30
0.0
 10
1863.184950760025
 20
1971.002376189066
 30
0.0
 10
1862.919348080916
 20
1970.381447912789
 30
0.0
 10
1862.56510625489
 20
1969.781105126107
 30
0.0
 10
1862.105488483549
 20
1969.203465645701
 30
0.0
 10
1861.525063749257
 20
1968.674139443344
 30
0.0
 10
1860.824347167958
 20
1968.213556780847
 30
0.0
 10
1860.055806758784
 20
1967.878319449037
 30
0.0
 10
1859.270489658863
 20
1967.674705835832
 30
0.0
 10
1858.77367672964
 20
1967.632152632706
 30
0.0
 10
1858.546344474183
 20
1967.61268108703
 30
0.0
 11
1863.468710146931
 21
1972.817853663637
 31
0.0
 11
1863.44104048824
 21
1972.220713804239
 31
0.0
 11
1863.356508606997
 21
1971.680506593981
 31
0.0
 11
1863.16916838297
 21
1971.005436621937
 31
0.0
 11
1862.896272262863
 21
1970.367377124061
 31
0.0
 11
1862.578531801227
 21
1969.82944331667
 31
0.0
 11
1862.100459054298
 21
1969.228939337201
 31
0.0
 11
1861.499721647389
 21
1968.680861840377
 31
0.0
 11
1860.860088609591
 21
1968.260548356706
 31
0.0
 11
1860.011421628925
 21
1967.887346561376
 31
0.0
 11
1859.225785750582
 21
1967.688493958125
 31
0.0
 11
1858.546344474183
 21
1967.61268108703
 31
0.0
  0
LINE
  5
3D9D
330
A
100
AcDbEntity
  8
HIDDEN
100
AcDbLine
 10
1218.385960097555
 20
1967.61268108703
 30
0.0
 11
1858.546344474183
 21
1967.61268108703
 31
0.0
  0
SPLINE
  5
3D9E
330
A
100
AcDbEntity
  8
HIDDEN
100
AcDbSpline
210
0.0
220
0.0
230
1.0
 70
  1064
 71
     3
 72
    18
 73
    14
 74
    12
 42
0.000000001
 43
0.0000000001
 44
0.0
 40
0.0
 40
0.0
 40
0.0
 40
0.0
 40
0.5977805798901863
 40
1.144561586292108
 40
1.84514407728967
 40
2.539112531328341
 40
3.163877912968101
 40
3.931444575031795
 40
4.744632360594341
 40
5.51000406610549
 40
6.437104505168996
 40
7.247515568243288
 40
7.931173406272273
 40
7.931173406272273
 40
7.931173406272273
 40
7.931173406272273
 10
1213.463594424807
 20
1972.817853663637
 30
0.0
 10
1213.467966843527
 20
1972.618410120907
 30
0.0
 10
1213.476338648625
 20
1972.23653853571
 30
0.0
 10
1213.575839183998
 20
1971.627961990053
 30
0.0
 10
1213.747353811711
 20
1971.002376189065
 30
0.0
 10
1214.012956490826
 20
1970.381447912789
 30
0.0
 10
1214.367198316852
 20
1969.781105126108
 30
0.0
 10
1214.82681608819
 20
1969.203465645699
 30
0.0
 10
1215.407240822485
 20
1968.674139443345
 30
0.0
 10
1216.107957403783
 20
1968.213556780847
 30
0.0
 10
1216.876497812958
 20
1967.878319449037
 30
0.0
 10
1217.661814912876
 20
1967.674705835832
 30
0.0
 10
1218.158627842098
 20
1967.632152632706
 30
0.0
 10
1218.385960097555
 20
1967.61268108703
 30
0.0
 11
1213.463594424807
 21
1972.817853663637
 31
0.0
 11
1213.491264083499
 21
1972.220713804239
 31
0.0
 11
1213.575795964745
 21
1971.680506593981
 31
0.0
 11
1213.763136188768
 21
1971.005436621937
 31
0.0
 11
1214.036032308878
 21
1970.367377124061
 31
0.0
 11
1214.353772770515
 21
1969.82944331667
 31
0.0
 11
1214.831845517441
 21
1969.228939337201
 31
0.0
 11
1215.432582924353
 21
1968.680861840377
 31
0.0
 11
1216.07221596215
 21
1968.260548356706
 31
0.0
 11
1216.920882942817
 21
1967.887346561376
 31
0.0
 11
1217.706518821156
 21
1967.688493958125
 31
0.0
 11
1218.385960097555
 21
1967.61268108703
 31
0.0
  0
LINE
  5
3D9F
330
A
100
AcDbEntity
  8
HIDDEN
100
AcDbLine
 10
1213.463594424807
 20
2427.575268444201
 30
0.0
 11
1213.463594424807
 21
1972.817853663637
 31
0.0
  0
CIRCLE
  5
3DA0
330
A
100
AcDbEntity
  8
HIDDEN
 48
0.5
100
AcDbCircle
 10
1638.466152285873
 20
2362.612412431863
 30
0.0
 40
17.5
  0
CIRCLE
  5
3DA1
330
A
100
AcDbEntity
  8
HIDDEN
100
AcDbCircle
 10
1538.466152285873
 20
2362.612412431863
 30
0.0
 40
17.5
  0
CIRCLE
  5
3DA2
330
A
100
AcDbEntity
  8
HIDDEN
 48
0.5
100
AcDbCircle
 10
1438.466152285873
 20
2362.612412431863
 30
0.0
 40
17.5
  0
LINE
  5
3DB0
330
A
100
AcDbEntity
  8
DIM
100
AcDbLine
 10
1275.966152285873
 20
2427.612412431863
 30
0.0
 11
1388.466152285873
 21
2427.612412431863
 31
0.0
  0
LINE
  5
3DB4
102
{ACAD_REACTORS
330
3DB9
102
}
330
A
100
AcDbEntity
  8
DIM
100
AcDbLine
 10
1688.466152285873
 20
2427.612412431863
 30
0.0
 11
1808.466152285873
 21
2427.612412431863
 31
0.0
  0
LINE
  5
3DB5
102
{ACAD_REACTORS
330
3DB9
330
3DDC
330
446E
102
}
330
A
100
AcDbEntity
  8
DIM
100
AcDbLine
 10
1808.466152285873
 20
2427.612412431863
 30
0.0
 11
1808.466152285873
 21
2017.612412431863
 31
0.0
  0
LINE
  5
3DB6
102
{ACAD_REACTORS
330
3DB9
330
3DBE
330
3DDC
330
446E
102
}
330
A
100
AcDbEntity
  8
DIM
100
AcDbLine
 10
1808.466152285873
 20
2017.612412431863
 30
0.0
 11
1268.466152285873
 21
2017.612412431864
 31
0.0
  0
LINE
  5
3DB7
102
{ACAD_REACTORS
330
3DB9
330
3DBE
330
446E
102
}
330
A
100
AcDbEntity
  8
DIM
100
AcDbLine
 10
1268.466152285873
 20
2017.612412431864
 30
0.0
 11
1268.466152285873
 21
2427.612412431864
 31
0.0
  0
LINE
  5
3DB8
102
{ACAD_REACTORS
330
3DB9
102
}
330
A
100
AcDbEntity
  8
DIM
100
AcDbLine
 10
1275.966152285873
 20
2427.612412431863
 30
0.0
 11
1388.466152285873
 21
2427.612412431863
 31
0.0
  0
DIMENSION
  5
3DBC
102
{ACAD_REACTORS
330
3DBE
102
}
102
{ACAD_XDICTIONARY
360
3DBD
102
}
330
A
100
AcDbEntity
  8
DIM
100
AcDbDimension
  2
*D26
 10
1808.466152285873
 20
1840.00386926208
 30
0.0
 11
1538.466152285873
 21
1840.00386926208
 31
0.0
 70
   160
 71
     5
 42
540.0
 73
     0
 74
     0
 75
     0
  3
tfrom線あり
100
AcDbAlignedDimension
 13
1268.466152285873
 23
2017.612412431864
 33
0.0
 14
1808.466152285873
 24
2017.612412431863
 34
0.0
100
AcDbRotatedDimension
  0
DIMENSION
  5
3DDA
102
{ACAD_REACTORS
330
3DDC
102
}
102
{ACAD_XDICTIONARY
360
3DDB
102
}
330
A
100
AcDbEntity
  8
DIM
100
AcDbDimension
  2
*D28
 10
1983.402187298694
 20
2017.612412431863
 30
0.0
 11
1983.402187298694
 21
2222.612412431863
 31
0.0
 70
   160
 71
     5
 42
410.0
 73
     0
 74
     0
 75
     0
  3
tfrom線あり
100
AcDbAlignedDimension
 13
1808.466152285873
 23
2427.612412431863
 33
0.0
 14
1808.466152285873
 24
2017.612412431863
 34
0.0
 50
90.0
100
AcDbRotatedDimension
  0
MTEXT
  5
3E30
330
A
100
AcDbEntity
  8
DIM
390
1D
100
AcDbMText
 10
1396.105908433735
 20
2545.298110843373
 30
0.0
 40
24.4326171875
 41
0.0
 46
27.16112215023749
 71
     1
 72
     1
  1
{カウンター切込寸法}
  7
ＭＳ ゴシック
 73
     1
 44
0.7828267384257843
1001
ACAD
1000
ACAD_MTEXT_DEFINED_HEIGHT_BEGIN
1070
    46
1040
27.16112215023749
1000
ACAD_MTEXT_DEFINED_HEIGHT_END
  0
MTEXT
  5
3E55
330
A
100
AcDbEntity
  8
DIM
390
1D
100
AcDbMText
 10
724.3583319778595
 20
1176.909262385295
 30
34.99521132346014
 40
24.0
 41
1169.771715461011
 46
26.80905339502313
 71
     1
 72
     1
  1
{壁取付ボルト穴(2ヶ所)}
  7
ＭＳ ゴシック
 73
     1
 44
1.174240107638677
1001
ACAD
1000
ACAD_MTEXT_DEFINED_HEIGHT_BEGIN
1070
    46
1040
26.80905339502313
1000
ACAD_MTEXT_DEFINED_HEIGHT_END
  0
MTEXT
  5
3E56
330
A
100
AcDbEntity
  8
DIM
390
1D
100
AcDbMText
 10
181.8451732048186
 20
1746.467421410909
 30
34.99521132346015
 40
24.4326171875
 41
833.929798641839
 46
0.0
 71
     1
 72
     1
  1
＝φ30もしくはφ35の水栓取付用穴あけ加工を承ります。\P  必要な場合、ご注文の際にご指示ください。
  7
ＭＳ ゴシック
 73
     1
 44
0.9822934569727008
  0
CIRCLE
  5
3E7D
330
A
100
AcDbEntity
  8
HIDDEN
 48
0.5
100
AcDbCircle
 10
152.3458855325301
 20
1731.72128428723
 30
0.0
 40
17.5
  0
LINE
  5
3E7E
330
A
100
AcDbEntity
  8
DIM
100
AcDbLine
 10
779.5076269924386
 20
1136.769290398958
 30
0.0
 11
719.0393330098079
 21
953.5907715397913
 31
0.0
  0
LINE
  5
3E84
330
A
100
AcDbEntity
  8
DIM
100
AcDbLine
 10
1930.933703206555
 20
2427.612412431863
 30
0.0
 11
1063.733714084794
 21
2427.612412431864
 31
0.0
  0
LINE
  5
3E85
330
A
100
AcDbEntity
  8
DIM
100
AcDbLine
 10
1094.908353778121
 20
2427.612412431863
 30
0.0
 11
1133.180114433543
 21
2427.612412431863
 31
0.0
  0
LINE
  5
3E86
330
A
100
AcDbEntity
  8
DIM
100
AcDbLine
 10
1133.180114433543
 20
2427.612412431863
 30
0.0
 11
1156.143170826796
 21
2462.827735434795
 31
0.0
  0
LINE
  5
3E87
330
A
100
AcDbEntity
  8
DIM
100
AcDbLine
 10
1145.887019357998
 20
2427.612412431863
 30
0.0
 11
1168.850075751252
 21
2462.827735434795
 31
0.0
  0
LINE
  5
3E88
330
A
100
AcDbEntity
  8
DIM
100
AcDbLine
 10
1160.169700241174
 20
2427.612412431863
 30
0.0
 11
1183.132756634427
 21
2462.827735434795
 31
0.0
  0
SPLINE
  5
425B
330
A
100
AcDbEntity
  8
0
100
AcDbSpline
210
0.0
220
0.0
230
1.0
 70
    11
 71
     3
 72
    17
 73
    13
 74
     0
 42
0.000000001
 43
0.0000000001
 40
0.0
 40
0.0
 40
0.0
 40
0.0
 40
1.0
 40
1.0
 40
1.0
 40
2.0
 40
2.0
 40
2.0
 40
3.0
 40
3.0
 40
3.0
 40
4.0
 40
4.0
 40
4.0
 40
4.0
 10
556.0206601837644
 20
2212.615647269815
 30
0.0
 10
556.0206601837644
 20
2225.322665651314
 30
0.0
 10
566.3287618738668
 20
2235.623715662148
 30
0.0
 10
579.0499912731275
 20
2235.623715662148
 30
0.0
 10
591.7711130131629
 20
2235.623715662148
 30
0.0
 10
602.0792685328779
 20
2225.322665651314
 30
0.0
 10
602.0792685328779
 20
2212.615647269815
 30
0.0
 10
602.0792685328779
 20
2199.915626737969
 30
0.0
 10
591.7711130131629
 20
2189.61446906791
 30
0.0
 10
579.0499912731275
 20
2189.61446906791
 30
0.0
 10
566.3287618738668
 20
2189.61446906791
 30
0.0
 10
556.0206601837644
 20
2199.915626737969
 30
0.0
 10
556.0206601837644
 20
2212.615647269815
 30
0.0
  0
SPLINE
  5
425C
330
A
100
AcDbEntity
  8
0
100
AcDbSpline
210
0.0
220
0.0
230
1.0
 70
    11
 71
     3
 72
    17
 73
    13
 74
     0
 42
0.000000001
 43
0.0000000001
 40
0.0
 40
0.0
 40
0.0
 40
0.0
 40
1.0
 40
1.0
 40
1.0
 40
2.0
 40
2.0
 40
2.0
 40
3.0
 40
3.0
 40
3.0
 40
4.0
 40
4.0
 40
4.0
 40
4.0
 10
541.5426475433833
 20
2212.615647269815
 30
0.0
 10
541.5426475433833
 20
2233.309580610803
 30
0.0
 10
558.3348490647222
 20
2250.087624943993
 30
0.0
 10
579.0498836139013
 20
2250.087624943993
 30
0.0
 10
599.7650258223066
 20
2250.087624943993
 30
0.0
 10
616.564279022914
 20
2233.309580610803
 30
0.0
 10
616.564279022914
 20
2212.615647269815
 30
0.0
 10
616.564279022914
 20
2191.928711778482
 30
0.0
 10
599.7650258223066
 20
2175.157665294946
 30
0.0
 10
579.0498836139013
 20
2175.157665294946
 30
0.0
 10
558.3348490647222
 20
2175.157665294946
 30
0.0
 10
541.5426475433833
 20
2191.928711778482
 30
0.0
 10
541.5426475433833
 20
2212.615647269815
 30
0.0
  0
SPLINE
  5
42CA
330
A
100
AcDbEntity
  8
0
100
AcDbSpline
210
0.0
220
0.0
230
1.0
 70
     8
 71
     3
 72
     8
 73
     4
 74
     0
 42
0.000000001
 43
0.0000000001
 40
0.0
 40
0.0
 40
0.0
 40
0.0
 40
1.0
 40
1.0
 40
1.0
 40
1.0
 10
891.4699580603892
 20
2238.820010406946
 30
0.0
 10
891.4487491929731
 20
2238.954046142648
 30
0.0
 10
891.4205424759011
 20
2239.08808187835
 30
0.0
 10
891.399333608485
 20
2239.229223122933
 30
0.0
  0
SPLINE
  5
42CB
330
A
100
AcDbEntity
  8
0
100
AcDbSpline
210
0.0
220
0.0
230
1.0
 70
     8
 71
     3
 72
     8
 73
     4
 74
     0
 42
0.000000001
 43
0.0000000001
 40
1.0
 40
1.0
 40
1.0
 40
1.0
 40
2.0
 40
2.0
 40
2.0
 40
2.0
 10
891.399333608485
 20
2239.229223122933
 30
0.0
 10
890.9266019494726
 20
2242.136022210458
 30
0.0
 10
890.453870290461
 20
2245.028825598671
 30
0.0
 10
889.7624827445325
 20
2247.893422269814
 30
0.0
  0
SPLINE
  5
42CC
330
A
100
AcDbEntity
  8
0
100
AcDbSpline
210
0.0
220
0.0
230
1.0
 70
     8
 71
     3
 72
     8
 73
     4
 74
     0
 42
0.000000001
 43
0.0000000001
 40
2.0
 40
2.0
 40
2.0
 40
2.0
 40
3.0
 40
3.0
 40
3.0
 40
3.0
 10
889.7624827445325
 20
2247.893422269814
 30
0.0
 10
889.0498863311868
 20
2250.849636941826
 30
0.0
 10
888.2031465229138
 20
2253.770647047111
 30
0.0
 10
887.278892072306
 20
2256.670555944207
 30
0.0
  0
SPLINE
  5
42CD
330
A
100
AcDbEntity
  8
0
100
AcDbSpline
210
0.0
220
0.0
230
1.0
 70
     8
 71
     3
 72
     8
 73
     4
 74
     0
 42
0.000000001
 43
0.0000000001
 40
3.0
 40
3.0
 40
3.0
 40
3.0
 40
4.0
 40
4.0
 40
4.0
 40
4.0
 10
887.278892072306
 20
2256.670555944207
 30
0.0
 10
886.6792301864725
 20
2258.48375261947
 30
0.0
 10
886.0371505658059
 20
2260.282953595421
 30
0.0
 10
885.2892419265081
 20
2262.046842345422
 30
0.0
  0
SPLINE
  5
42CE
330
A
100
AcDbEntity
  8
0
100
AcDbSpline
210
0.0
220
0.0
230
1.0
 70
     8
 71
     3
 72
     8
 73
     4
 74
     0
 42
0.000000001
 43
0.0000000001
 40
4.0
 40
4.0
 40
4.0
 40
4.0
 40
5.0
 40
5.0
 40
5.0
 40
5.0
 10
885.2892419265081
 20
2262.046842345422
 30
0.0
 10
884.047500420008
 20
2264.918436866219
 30
0.0
 10
882.6152020844374
 20
2267.684202368386
 30
0.0
 10
881.0206612960919
 20
2270.379451077873
 30
0.0
  0
SPLINE
  5
42CF
330
A
100
AcDbEntity
  8
0
100
AcDbSpline
210
0.0
220
0.0
230
1.0
 70
     8
 71
     3
 72
     8
 73
     4
 74
     0
 42
0.000000001
 43
0.0000000001
 40
5.0
 40
5.0
 40
5.0
 40
5.0
 40
6.0
 40
6.0
 40
6.0
 40
6.0
 10
881.0206612960919
 20
2270.379451077873
 30
0.0
 10
879.4543272248175
 20
2273.018286353219
 30
0.0
 10
877.6269195317946
 20
2275.515872724754
 30
0.0
 10
875.6865773112586
 20
2277.89363437835
 30
0.0
  0
SPLINE
  5
42D0
330
A
100
AcDbEntity
  8
0
100
AcDbSpline
210
0.0
220
0.0
230
1.0
 70
     8
 71
     3
 72
     8
 73
     4
 74
     0
 42
0.000000001
 43
0.0000000001
 40
6.0
 40
6.0
 40
6.0
 40
6.0
 40
7.0
 40
7.0
 40
7.0
 40
7.0
 10
875.6865773112586
 20
2277.89363437835
 30
0.0
 10
873.7745494670207
 20
2280.243081655648
 30
0.0
 10
871.6719647937116
 20
2282.451495347588
 30
0.0
 10
869.4354520439247
 20
2284.511769945289
 30
0.0
  0
SPLINE
  5
42D1
330
A
100
AcDbEntity
  8
0
100
AcDbSpline
210
0.0
220
0.0
230
1.0
 70
     8
 71
     3
 72
     8
 73
     4
 74
     0
 42
0.000000001
 43
0.0000000001
 40
7.0
 40
7.0
 40
7.0
 40
7.0
 40
8.0
 40
8.0
 40
8.0
 40
8.0
 10
869.4354520439247
 20
2284.511769945289
 30
0.0
 10
867.1706249178415
 20
2286.600143600839
 30
0.0
 10
864.7505531886391
 20
2288.498068086541
 30
0.0
 10
862.2246524408056
 20
2290.269062345422
 30
0.0
  0
SPLINE
  5
42D2
330
A
100
AcDbEntity
  8
0
100
AcDbSpline
210
0.0
220
0.0
230
1.0
 70
     8
 71
     3
 72
     8
 73
     4
 74
     0
 42
0.000000001
 43
0.0000000001
 40
8.0
 40
8.0
 40
8.0
 40
8.0
 40
9.0
 40
9.0
 40
9.0
 40
9.0
 10
862.2246524408056
 20
2290.269062345422
 30
0.0
 10
859.6705449759011
 20
2292.061157812494
 30
0.0
 10
856.9611929078774
 20
2293.563972940743
 30
0.0
 10
854.1954274057107
 20
2294.996271276314
 30
0.0
  0
SPLINE
  5
42D3
330
A
100
AcDbEntity
  8
0
100
AcDbSpline
210
0.0
220
0.0
230
1.0
 70
     8
 71
     3
 72
     8
 73
     4
 74
     0
 42
0.000000001
 43
0.0000000001
 40
9.0
 40
9.0
 40
9.0
 40
9.0
 40
10.0
 40
10.0
 40
10.0
 40
10.0
 10
854.1954274057107
 20
2294.996271276314
 30
0.0
 10
851.563697639247
 20
2296.350947310326
 30
0.0
 10
848.7908266281993
 20
2297.458653081125
 30
0.0
 10
845.9897489000805
 20
2298.404116399148
 30
0.0
  0
SPLINE
  5
42D4
330
A
100
AcDbEntity
  8
0
100
AcDbSpline
210
0.0
220
0.0
230
1.0
 70
     8
 71
     3
 72
     8
 73
     4
 74
     0
 42
0.000000001
 43
0.0000000001
 40
10.0
 40
10.0
 40
10.0
 40
10.0
 40
11.0
 40
11.0
 40
11.0
 40
11.0
 10
845.9897489000805
 20
2298.404116399148
 30
0.0
 10
843.0688464540199
 20
2299.384891943124
 30
0.0
 10
840.0772118968298
 20
2300.175110658029
 30
0.0
 10
837.0503727729147
 20
2300.767774694206
 30
0.0
  0
SPLINE
  5
42D5
330
A
100
AcDbEntity
  8
0
100
AcDbSpline
210
0.0
220
0.0
230
1.0
 70
     8
 71
     3
 72
     8
 73
     4
 74
     0
 42
0.000000001
 43
0.0000000001
 40
11.0
 40
11.0
 40
11.0
 40
11.0
 40
12.0
 40
12.0
 40
12.0
 40
12.0
 10
837.0503727729147
 20
2300.767774694206
 30
0.0
 10
833.9248101392477
 20
2301.374542088921
 30
0.0
 10
830.7991398463537
 20
2301.755548087838
 30
0.0
 10
827.6241616281995
 20
2302.037722917779
 30
0.0
  0
SPLINE
  5
42D6
330
A
100
AcDbEntity
  8
0
100
AcDbSpline
210
0.0
220
0.0
230
1.0
 70
     8
 71
     3
 72
     8
 73
     4
 74
     0
 42
0.000000001
 43
0.0000000001
 40
12.0
 40
12.0
 40
12.0
 40
12.0
 40
13.0
 40
13.0
 40
13.0
 40
13.0
 10
827.6241616281995
 20
2302.037722917779
 30
0.0
 10
824.801982691889
 20
2302.291691030649
 30
0.0
 10
821.9585948881631
 20
2302.320005406946
 30
0.0
 10
819.1293104429733
 20
2302.320005406946
 30
0.0
  0
SPLINE
  5
42D7
330
A
100
AcDbEntity
  8
0
100
AcDbSpline
210
0.0
220
0.0
230
1.0
 70
    24
 71
     3
 72
     8
 73
     4
 74
     0
 42
0.000000001
 43
0.0000000001
 40
13.0
 40
13.0
 40
13.0
 40
13.0
 40
14.0
 40
14.0
 40
14.0
 40
14.0
 10
819.1293104429733
 20
2302.320005406946
 30
0.0
 10
819.1293104429733
 20
2302.320005406946
 30
0.0
 10
338.9635665944006
 20
2302.320005406946
 30
0.0
 10
338.9635665944006
 20
2302.320005406946
 30
0.0
  0
SPLINE
  5
42D8
330
A
100
AcDbEntity
  8
0
100
AcDbSpline
210
0.0
220
0.0
230
1.0
 70
     8
 71
     3
 72
     8
 73
     4
 74
     0
 42
0.000000001
 43
0.0000000001
 40
14.0
 40
14.0
 40
14.0
 40
14.0
 40
15.0
 40
15.0
 40
15.0
 40
15.0
 10
338.9635665944006
 20
2302.320005406946
 30
0.0
 10
336.1342821492108
 20
2302.320005406946
 30
0.0
 10
333.290894345485
 20
2302.291691030649
 30
0.0
 10
330.4686615795617
 20
2302.037722917779
 30
0.0
  0
SPLINE
  5
42D9
330
A
100
AcDbEntity
  8
0
100
AcDbSpline
210
0.0
220
0.0
230
1.0
 70
     8
 71
     3
 72
     8
 73
     4
 74
     0
 42
0.000000001
 43
0.0000000001
 40
15.0
 40
15.0
 40
15.0
 40
15.0
 40
16.0
 40
16.0
 40
16.0
 40
16.0
 10
330.4686615795617
 20
2302.037722917779
 30
0.0
 10
327.300735040676
 20
2301.755548087838
 30
0.0
 10
324.1680668981271
 20
2301.374542088921
 30
0.0
 10
321.0424504348475
 20
2300.767774694206
 30
0.0
  0
SPLINE
  5
42DA
330
A
100
AcDbEntity
  8
0
100
AcDbSpline
210
0.0
220
0.0
230
1.0
 70
     8
 71
     3
 72
     8
 73
     4
 74
     0
 42
0.000000001
 43
0.0000000001
 40
16.0
 40
16.0
 40
16.0
 40
16.0
 40
17.0
 40
17.0
 40
17.0
 40
17.0
 10
321.0424504348475
 20
2300.767774694206
 30
0.0
 10
318.0156113109306
 20
2300.175110658029
 30
0.0
 10
315.0240844129667
 20
2299.384891943124
 30
0.0
 10
312.1030743076808
 20
2298.404116399148
 30
0.0
  0
SPLINE
  5
42DB
330
A
100
AcDbEntity
  8
0
100
AcDbSpline
210
0.0
220
0.0
230
1.0
 70
     8
 71
     3
 72
     8
 73
     4
 74
     0
 42
0.000000001
 43
0.0000000001
 40
17.0
 40
17.0
 40
17.0
 40
17.0
 40
18.0
 40
18.0
 40
18.0
 40
18.0
 10
312.1030743076808
 20
2298.404116399148
 30
0.0
 10
309.3090482588295
 20
2297.458653081125
 30
0.0
 10
306.5221277188593
 20
2296.350947310326
 30
0.0
 10
303.9045013109308
 20
2294.996271276314
 30
0.0
  0
SPLINE
  5
42DC
330
A
100
AcDbEntity
  8
0
100
AcDbSpline
210
0.0
220
0.0
230
1.0
 70
     8
 71
     3
 72
     8
 73
     4
 74
     0
 42
0.000000001
 43
0.0000000001
 40
18.0
 40
18.0
 40
18.0
 40
18.0
 40
19.0
 40
19.0
 40
19.0
 40
19.0
 10
303.9045013109308
 20
2294.996271276314
 30
0.0
 10
301.138735808765
 20
2293.563972940743
 30
0.0
 10
298.4223320614728
 20
2292.061157812494
 30
0.0
 10
295.8682245965674
 20
2290.269062345422
 30
0.0
  0
SPLINE
  5
42DD
330
A
100
AcDbEntity
  8
0
100
AcDbSpline
210
0.0
220
0.0
230
1.0
 70
     8
 71
     3
 72
     8
 73
     4
 74
     0
 42
0.000000001
 43
0.0000000001
 40
19.0
 40
19.0
 40
19.0
 40
19.0
 40
20.0
 40
20.0
 40
20.0
 40
20.0
 10
295.8682245965674
 20
2290.269062345422
 30
0.0
 10
293.3493755280024
 20
2288.498068086541
 30
0.0
 10
290.9223059491451
 20
2286.600143600839
 30
0.0
 10
288.6574249934492
 20
2284.511769945289
 30
0.0
  0
SPLINE
  5
42DE
330
A
100
AcDbEntity
  8
0
100
AcDbSpline
210
0.0
220
0.0
230
1.0
 70
     8
 71
     3
 72
     8
 73
     4
 74
     0
 42
0.000000001
 43
0.0000000001
 40
20.0
 40
20.0
 40
20.0
 40
20.0
 40
21.0
 40
21.0
 40
21.0
 40
21.0
 10
288.6574249934492
 20
2284.511769945289
 30
0.0
 10
286.4208584140497
 20
2282.451495347588
 30
0.0
 10
284.325325420009
 20
2280.243081655648
 30
0.0
 10
282.3991942172343
 20
2277.89363437835
 30
0.0
  0
SPLINE
  5
42DF
330
A
100
AcDbEntity
  8
0
100
AcDbSpline
210
0.0
220
0.0
230
1.0
 70
     8
 71
     3
 72
     8
 73
     4
 74
     0
 42
0.000000001
 43
0.0000000001
 40
21.0
 40
21.0
 40
21.0
 40
21.0
 40
22.0
 40
22.0
 40
22.0
 40
22.0
 10
282.3991942172343
 20
2277.89363437835
 30
0.0
 10
280.4659575055794
 20
2275.515872724754
 30
0.0
 10
278.645601491824
 20
2273.018286353219
 30
0.0
 10
277.0792674205504
 20
2270.379451077873
 30
0.0
  0
SPLINE
  5
42E0
330
A
100
AcDbEntity
  8
0
100
AcDbSpline
210
0.0
220
0.0
230
1.0
 70
     8
 71
     3
 72
     8
 73
     4
 74
     0
 42
0.000000001
 43
0.0000000001
 40
22.0
 40
22.0
 40
22.0
 40
22.0
 40
23.0
 40
23.0
 40
23.0
 40
23.0
 10
277.0792674205504
 20
2270.379451077873
 30
0.0
 10
275.4776749529365
 20
2267.684202368386
 30
0.0
 10
274.0453766173659
 20
2264.918436866219
 30
0.0
 10
272.8106867901333
 20
2262.046842345422
 30
0.0
  0
SPLINE
  5
42E1
330
A
100
AcDbEntity
  8
0
100
AcDbSpline
210
0.0
220
0.0
230
1.0
 70
     8
 71
     3
 72
     8
 73
     4
 74
     0
 42
0.000000001
 43
0.0000000001
 40
23.0
 40
23.0
 40
23.0
 40
23.0
 40
24.0
 40
24.0
 40
24.0
 40
24.0
 10
272.8106867901333
 20
2262.046842345422
 30
0.0
 10
272.0557264715681
 20
2260.282953595421
 30
0.0
 10
271.4136468509014
 20
2258.48375261947
 30
0.0
 10
270.8139311354553
 20
2256.670555944207
 30
0.0
  0
SPLINE
  5
42E2
330
A
100
AcDbEntity
  8
0
100
AcDbSpline
210
0.0
220
0.0
230
1.0
 70
     8
 71
     3
 72
     8
 73
     4
 74
     0
 42
0.000000001
 43
0.0000000001
 40
24.0
 40
24.0
 40
24.0
 40
24.0
 40
25.0
 40
25.0
 40
25.0
 40
25.0
 10
270.8139311354553
 20
2256.670555944207
 30
0.0
 10
269.8896766848475
 20
2253.770647047111
 30
0.0
 10
269.0429907061871
 20
2250.849636941826
 30
0.0
 10
268.3303942928414
 20
2247.893422269814
 30
0.0
  0
SPLINE
  5
42E3
330
A
100
AcDbEntity
  8
0
100
AcDbSpline
210
0.0
220
0.0
230
1.0
 70
     8
 71
     3
 72
     8
 73
     4
 74
     0
 42
0.000000001
 43
0.0000000001
 40
25.0
 40
25.0
 40
25.0
 40
25.0
 40
26.0
 40
26.0
 40
26.0
 40
26.0
 10
268.3303942928414
 20
2247.893422269814
 30
0.0
 10
267.6389529173002
 20
2245.028825598671
 30
0.0
 10
267.1662212582878
 20
2242.136022210458
 30
0.0
 10
266.6864379200088
 20
2239.229223122933
 30
0.0
  0
SPLINE
  5
42E4
330
A
100
AcDbEntity
  8
0
100
AcDbSpline
210
0.0
220
0.0
230
1.0
 70
     8
 71
     3
 72
     8
 73
     4
 74
     0
 42
0.000000001
 43
0.0000000001
 40
26.0
 40
26.0
 40
26.0
 40
26.0
 40
27.0
 40
27.0
 40
27.0
 40
27.0
 10
266.6864379200088
 20
2239.229223122933
 30
0.0
 10
266.6723345614728
 20
2239.08808187835
 30
0.0
 10
266.6441278444008
 20
2238.954046142648
 30
0.0
 10
266.6229728065973
 20
2238.820010406946
 30
0.0
  0
SPLINE
  5
42E5
330
A
100
AcDbEntity
  8
0
100
AcDbSpline
210
0.0
220
0.0
230
1.0
 70
    24
 71
     3
 72
     8
 73
     4
 74
     0
 42
0.000000001
 43
0.0000000001
 40
0.0
 40
0.0
 40
0.0
 40
0.0
 40
1.0
 40
1.0
 40
1.0
 40
1.0
 10
579.0428857642464
 20
1976.085206808166
 30
0.0
 10
579.0428857642464
 20
1976.085206808166
 30
0.0
 10
827.031497592021
 20
1976.085206808166
 30
0.0
 10
827.031497592021
 20
1976.085206808166
 30
0.0
  0
SPLINE
  5
42E6
330
A
100
AcDbEntity
  8
0
100
AcDbSpline
210
0.0
220
0.0
230
1.0
 70
     8
 71
     3
 72
     8
 73
     4
 74
     0
 42
0.000000001
 43
0.0000000001
 40
1.0
 40
1.0
 40
1.0
 40
1.0
 40
2.0
 40
2.0
 40
2.0
 40
2.0
 10
827.031497592021
 20
1976.085206808166
 30
0.0
 10
830.079545583354
 20
1976.099310166701
 30
0.0
 10
833.127485915461
 20
1976.070995790406
 30
0.0
 10
836.1684283979148
 20
1976.332069412154
 30
0.0
  0
SPLINE
  5
42E7
330
A
100
AcDbEntity
  8
0
100
AcDbSpline
210
0.0
220
0.0
230
1.0
 70
     8
 71
     3
 72
     8
 73
     4
 74
     0
 42
0.000000001
 43
0.0000000001
 40
2.0
 40
2.0
 40
2.0
 40
2.0
 40
3.0
 40
3.0
 40
3.0
 40
3.0
 10
836.1684283979148
 20
1976.332069412154
 30
0.0
 10
839.27288982339
 20
1976.600248542785
 30
0.0
 10
842.3491445317941
 20
1977.087083560335
 30
0.0
 10
845.3970848639019
 20
1977.778471106261
 30
0.0
  0
SPLINE
  5
42E8
330
A
100
AcDbEntity
  8
0
100
AcDbSpline
210
0.0
220
0.0
230
1.0
 70
     8
 71
     3
 72
     8
 73
     4
 74
     0
 42
0.000000001
 43
0.0000000001
 40
3.0
 40
3.0
 40
3.0
 40
3.0
 40
4.0
 40
4.0
 40
4.0
 40
4.0
 10
845.3970848639019
 20
1977.778471106261
 30
0.0
 10
848.3463016862588
 20
1978.441759594345
 30
0.0
 10
851.2673117915447
 20
1979.33780732788
 30
0.0
 10
854.0895983870796
 20
1980.438407589798
 30
0.0
  0
SPLINE
  5
42E9
330
A
100
AcDbEntity
  8
0
100
AcDbSpline
210
0.0
220
0.0
230
1.0
 70
     8
 71
     3
 72
     8
 73
     4
 74
     0
 42
0.000000001
 43
0.0000000001
 40
4.0
 40
4.0
 40
4.0
 40
4.0
 40
5.0
 40
5.0
 40
5.0
 40
5.0
 10
854.0895983870796
 20
1980.438407589798
 30
0.0
 10
857.0035029834844
 20
1981.567322228011
 30
0.0
 10
859.8045807116041
 20
1982.907894903488
 30
0.0
 10
862.5491373463537
 20
1984.417815540619
 30
0.0
  0
SPLINE
  5
42EA
330
A
100
AcDbEntity
  8
0
100
AcDbSpline
210
0.0
220
0.0
230
1.0
 70
     8
 71
     3
 72
     8
 73
     4
 74
     0
 42
0.000000001
 43
0.0000000001
 40
5.0
 40
5.0
 40
5.0
 40
5.0
 40
6.0
 40
6.0
 40
6.0
 40
6.0
 10
862.5491373463537
 20
1984.417815540619
 30
0.0
 10
865.3361117159375
 20
1985.941731877059
 30
0.0
 10
867.918425897914
 20
1987.769139570082
 30
0.0
 10
870.4584300042825
 20
1989.674169564667
 30
0.0
  0
SPLINE
  5
42EB
330
A
100
AcDbEntity
  8
0
100
AcDbSpline
210
0.0
220
0.0
230
1.0
 70
     8
 71
     3
 72
     8
 73
     4
 74
     0
 42
0.000000001
 43
0.0000000001
 40
6.0
 40
6.0
 40
6.0
 40
6.0
 40
7.0
 40
7.0
 40
7.0
 40
7.0
 10
870.4584300042825
 20
1989.674169564667
 30
0.0
 10
872.8008794319258
 20
1991.42395495613
 30
0.0
 10
875.0162909735209
 20
1993.434813969345
 30
0.0
 10
877.0412533452709
 20
1995.544396492309
 30
0.0
  0
SPLINE
  5
42EC
330
A
100
AcDbEntity
  8
0
100
AcDbSpline
210
0.0
220
0.0
230
1.0
 70
     8
 71
     3
 72
     8
 73
     4
 74
     0
 42
0.000000001
 43
0.0000000001
 40
7.0
 40
7.0
 40
7.0
 40
7.0
 40
8.0
 40
8.0
 40
8.0
 40
8.0
 10
877.0412533452709
 20
1995.544396492309
 30
0.0
 10
879.235563678676
 20
1997.816221468049
 30
0.0
 10
881.26752390008
 20
2000.21519198906
 30
0.0
 10
883.11614046052
 20
2002.776297303621
 30
0.0
  0
SPLINE
  5
42ED
330
A
100
AcDbEntity
  8
0
100
AcDbSpline
210
0.0
220
0.0
230
1.0
 70
     8
 71
     3
 72
     8
 73
     4
 74
     0
 42
0.000000001
 43
0.0000000001
 40
8.0
 40
8.0
 40
8.0
 40
8.0
 40
9.0
 40
9.0
 40
9.0
 40
9.0
 10
883.11614046052
 20
2002.776297303621
 30
0.0
 10
884.9576515120798
 20
2005.330404768523
 30
0.0
 10
886.5945023760323
 20
2007.99034125206
 30
0.0
 10
888.0620052783306
 20
2010.756106754226
 30
0.0
  0
SPLINE
  5
42EE
330
A
100
AcDbEntity
  8
0
100
AcDbSpline
210
0.0
220
0.0
230
1.0
 70
     8
 71
     3
 72
     8
 73
     4
 74
     0
 42
0.000000001
 43
0.0000000001
 40
9.0
 40
9.0
 40
9.0
 40
9.0
 40
10.0
 40
10.0
 40
10.0
 40
10.0
 10
888.0620052783306
 20
2010.756106754226
 30
0.0
 10
889.4589913879499
 20
2013.401939879226
 30
0.0
 10
890.6726338366034
 20
2016.167813040618
 30
0.0
 10
891.6604072302343
 20
2018.982886468049
 30
0.0
  0
SPLINE
  5
42EF
330
A
100
AcDbEntity
  8
0
100
AcDbSpline
210
0.0
220
0.0
230
1.0
 70
     8
 71
     3
 72
     8
 73
     4
 74
     0
 42
0.000000001
 43
0.0000000001
 40
10.0
 40
10.0
 40
10.0
 40
10.0
 40
11.0
 40
11.0
 40
11.0
 40
11.0
 10
891.6604072302343
 20
2018.982886468049
 30
0.0
 10
892.6975962083534
 20
2021.967415516358
 30
0.0
 10
893.523019489985
 20
2024.994254640273
 30
0.0
 10
894.1792024691877
 20
2028.077507198333
 30
0.0
  0
SPLINE
  5
42F0
330
A
100
AcDbEntity
  8
0
100
AcDbSpline
210
0.0
220
0.0
230
1.0
 70
     8
 71
     3
 72
     8
 73
     4
 74
     0
 42
0.000000001
 43
0.0000000001
 40
11.0
 40
11.0
 40
11.0
 40
11.0
 40
12.0
 40
12.0
 40
12.0
 40
12.0
 10
894.1792024691877
 20
2028.077507198333
 30
0.0
 10
894.8141765809733
 20
2031.069141755524
 30
0.0
 10
895.1740813716988
 20
2034.124187596512
 30
0.0
 10
895.357532691889
 20
2037.172127928621
 30
0.0
  0
SPLINE
  5
42F1
330
A
100
AcDbEntity
  8
0
100
AcDbSpline
210
0.0
220
0.0
230
1.0
 70
     8
 71
     3
 72
     8
 73
     4
 74
     0
 42
0.000000001
 43
0.0000000001
 40
12.0
 40
12.0
 40
12.0
 40
12.0
 40
13.0
 40
13.0
 40
13.0
 40
13.0
 10
895.357532691889
 20
2037.172127928621
 30
0.0
 10
895.5550873706152
 20
2040.170760335464
 30
0.0
 10
895.533878503199
 20
2043.183496100844
 30
0.0
 10
895.5691907291512
 20
2046.182128507689
 30
0.0
  0
SPLINE
  5
42F2
330
A
100
AcDbEntity
  8
0
100
AcDbSpline
210
0.0
220
0.0
230
1.0
 70
    24
 71
     3
 72
     8
 73
     4
 74
     0
 42
0.000000001
 43
0.0000000001
 40
13.0
 40
13.0
 40
13.0
 40
13.0
 40
14.0
 40
14.0
 40
14.0
 40
14.0
 10
895.5691907291512
 20
2046.182128507689
 30
0.0
 10
895.5691907291512
 20
2046.182128507689
 30
0.0
 10
895.3504271830088
 20
2350.347108864053
 30
0.0
 10
895.3504271830088
 20
2350.347108864053
 30
0.0
  0
SPLINE
  5
42F3
330
A
100
AcDbEntity
  8
0
100
AcDbSpline
210
0.0
220
0.0
230
1.0
 70
     8
 71
     3
 72
     8
 73
     4
 74
     0
 42
0.000000001
 43
0.0000000001
 40
14.0
 40
14.0
 40
14.0
 40
14.0
 40
15.0
 40
15.0
 40
15.0
 40
15.0
 10
895.3504271830088
 20
2350.347108864053
 30
0.0
 10
895.3504271830088
 20
2353.388051346505
 30
0.0
 10
895.2940137488667
 20
2356.428993828957
 30
0.0
 10
894.9553178255564
 20
2359.448727443993
 30
0.0
  0
SPLINE
  5
42F4
330
A
100
AcDbEntity
  8
0
100
AcDbSpline
210
0.0
220
0.0
230
1.0
 70
     8
 71
     3
 72
     8
 73
     4
 74
     0
 42
0.000000001
 43
0.0000000001
 40
15.0
 40
15.0
 40
15.0
 40
15.0
 40
16.0
 40
16.0
 40
16.0
 40
16.0
 10
894.9553178255564
 20
2359.448727443993
 30
0.0
 10
894.6237274111272
 20
2362.510878793863
 30
0.0
 10
894.0592700920206
 20
2365.537717917779
 30
0.0
 10
893.290260244532
 20
2368.522139306862
 30
0.0
  0
SPLINE
  5
42F5
330
A
100
AcDbEntity
  8
0
100
AcDbSpline
210
0.0
220
0.0
230
1.0
 70
     8
 71
     3
 72
     8
 73
     4
 74
     0
 42
0.000000001
 43
0.0000000001
 40
16.0
 40
16.0
 40
16.0
 40
16.0
 40
17.0
 40
17.0
 40
17.0
 40
17.0
 10
893.290260244532
 20
2368.522139306862
 30
0.0
 10
892.5211427378181
 20
2371.548978430779
 30
0.0
 10
891.498057118235
 20
2374.484091894601
 30
0.0
 10
890.3127290458779
 20
2377.362791924279
 30
0.0
  0
SPLINE
  5
42F6
330
A
100
AcDbEntity
  8
0
100
AcDbSpline
210
0.0
220
0.0
230
1.0
 70
     8
 71
     3
 72
     8
 73
     4
 74
     0
 42
0.000000001
 43
0.0000000001
 40
17.0
 40
17.0
 40
17.0
 40
17.0
 40
18.0
 40
18.0
 40
18.0
 40
18.0
 10
890.3127290458779
 20
2377.362791924279
 30
0.0
 10
889.1132976149847
 20
2380.241491953957
 30
0.0
 10
887.6598980712233
 20
2383.000151947243
 30
0.0
 10
886.0653572828778
 20
2385.688402807076
 30
0.0
  0
SPLINE
  5
42F7
330
A
100
AcDbEntity
  8
0
100
AcDbSpline
210
0.0
220
0.0
230
1.0
 70
     8
 71
     3
 72
     8
 73
     4
 74
     0
 42
0.000000001
 43
0.0000000001
 40
18.0
 40
18.0
 40
18.0
 40
18.0
 40
19.0
 40
19.0
 40
19.0
 40
19.0
 10
886.0653572828778
 20
2385.688402807076
 30
0.0
 10
884.5131265701393
 20
2388.31302706466
 30
0.0
 10
882.6927167267713
 20
2390.796617736885
 30
0.0
 10
880.7736910328777
 20
2393.1672738816
 30
0.0
  0
SPLINE
  5
42F8
330
A
100
AcDbEntity
  8
0
100
AcDbSpline
210
0.0
220
0.0
230
1.0
 70
     8
 71
     3
 72
     8
 73
     4
 74
     0
 42
0.000000001
 43
0.0000000001
 40
19.0
 40
19.0
 40
19.0
 40
19.0
 40
20.0
 40
20.0
 40
20.0
 40
20.0
 10
880.7736910328777
 20
2393.1672738816
 30
0.0
 10
878.8192454538066
 20
2395.566136743386
 30
0.0
 10
876.6461439878185
 20
2397.75334156791
 30
0.0
 10
874.3954202202704
 20
2399.85592624122
 30
0.0
  0
SPLINE
  5
42F9
330
A
100
AcDbEntity
  8
0
100
AcDbSpline
210
0.0
220
0.0
230
1.0
 70
     8
 71
     3
 72
     8
 73
     4
 74
     0
 42
0.000000001
 43
0.0000000001
 40
20.0
 40
20.0
 40
20.0
 40
20.0
 40
21.0
 40
21.0
 40
21.0
 40
21.0
 10
874.3954202202704
 20
2399.85592624122
 30
0.0
 10
872.1941120372112
 20
2401.916093179696
 30
0.0
 10
869.7670424583539
 20
2403.82822868316
 30
0.0
 10
867.2552450690573
 20
2405.486288414528
 30
0.0
  0
SPLINE
  5
42FA
330
A
100
AcDbEntity
  8
0
100
AcDbSpline
210
0.0
220
0.0
230
1.0
 70
     8
 71
     3
 72
     8
 73
     4
 74
     0
 42
0.000000001
 43
0.0000000001
 40
21.0
 40
21.0
 40
21.0
 40
21.0
 40
22.0
 40
22.0
 40
22.0
 40
22.0
 10
867.2552450690573
 20
2405.486288414528
 30
0.0
 10
864.6799287367348
 20
2407.179552712623
 30
0.0
 10
862.0481989702703
 20
2408.788196859505
 30
0.0
 10
859.2612246006875
 20
2410.093564968254
 30
0.0
  0
SPLINE
  5
42FB
330
A
100
AcDbEntity
  8
0
100
AcDbSpline
210
0.0
220
0.0
230
1.0
 70
     8
 71
     3
 72
     8
 73
     4
 74
     0
 42
0.000000001
 43
0.0000000001
 40
22.0
 40
22.0
 40
22.0
 40
22.0
 40
23.0
 40
23.0
 40
23.0
 40
23.0
 10
859.2612246006875
 20
2410.093564968254
 30
0.0
 10
856.4602545317939
 20
2411.405823267434
 30
0.0
 10
853.6027633695321
 20
2412.612360207208
 30
0.0
 10
850.646441038295
 20
2413.529616808159
 30
0.0
  0
SPLINE
  5
42FC
330
A
100
AcDbEntity
  8
0
100
AcDbSpline
210
0.0
220
0.0
230
1.0
 70
     8
 71
     3
 72
     8
 73
     4
 74
     0
 42
0.000000001
 43
0.0000000001
 40
23.0
 40
23.0
 40
23.0
 40
23.0
 40
24.0
 40
24.0
 40
24.0
 40
24.0
 10
850.646441038295
 20
2413.529616808159
 30
0.0
 10
847.6478086314492
 20
2414.446765749886
 30
0.0
 10
844.6139716578773
 20
2415.222881106256
 30
0.0
 10
841.5236135909372
 20
2415.702718274148
 30
0.0
  0
SPLINE
  5
42FD
330
A
100
AcDbEntity
  8
0
100
AcDbSpline
210
0.0
220
0.0
230
1.0
 70
     8
 71
     3
 72
     8
 73
     4
 74
     0
 42
0.000000001
 43
0.0000000001
 40
24.0
 40
24.0
 40
24.0
 40
24.0
 40
25.0
 40
25.0
 40
25.0
 40
25.0
 10
841.5236135909372
 20
2415.702718274148
 30
0.0
 10
838.4755655996041
 20
2416.17544993316
 30
0.0
 10
835.4205197586161
 20
2416.436415895683
 30
0.0
 10
832.3372672005562
 20
2416.507040347587
 30
0.0
  0
SPLINE
  5
42FE
330
A
100
AcDbEntity
  8
0
100
AcDbSpline
210
0.0
220
0.0
230
1.0
 70
    24
 71
     3
 72
     8
 73
     4
 74
     0
 42
0.000000001
 43
0.0000000001
 40
25.0
 40
25.0
 40
25.0
 40
25.0
 40
26.0
 40
26.0
 40
26.0
 40
26.0
 10
832.3372672005562
 20
2416.507040347587
 30
0.0
 10
832.3372672005562
 20
2416.507040347587
 30
0.0
 10
325.7555021775925
 20
2416.507040347587
 30
0.0
 10
325.7555021775925
 20
2416.507040347587
 30
0.0
  0
SPLINE
  5
42FF
330
A
100
AcDbEntity
  8
0
100
AcDbSpline
210
0.0
220
0.0
230
1.0
 70
     8
 71
     3
 72
     8
 73
     4
 74
     0
 42
0.000000001
 43
0.0000000001
 40
26.0
 40
26.0
 40
26.0
 40
26.0
 40
27.0
 40
27.0
 40
27.0
 40
27.0
 10
325.7555021775925
 20
2416.507040347587
 30
0.0
 10
322.6722496195325
 20
2416.436415895683
 30
0.0
 10
319.617149948931
 20
2416.17544993316
 30
0.0
 10
316.576207466479
 20
2415.702718274148
 30
0.0
  0
SPLINE
  5
4300
330
A
100
AcDbEntity
  8
0
100
AcDbSpline
210
0.0
220
0.0
230
1.0
 70
     8
 71
     3
 72
     8
 73
     4
 74
     0
 42
0.000000001
 43
0.0000000001
 40
27.0
 40
27.0
 40
27.0
 40
27.0
 40
28.0
 40
28.0
 40
28.0
 40
28.0
 10
316.576207466479
 20
2415.702718274148
 30
0.0
 10
313.478851549884
 20
2415.222881106256
 30
0.0
 10
310.4379090674311
 20
2414.446765749886
 30
0.0
 10
307.4533800191221
 20
2413.529616808159
 30
0.0
  0
SPLINE
  5
4301
330
A
100
AcDbEntity
  8
0
100
AcDbSpline
210
0.0
220
0.0
230
1.0
 70
     8
 71
     3
 72
     8
 73
     4
 74
     0
 42
0.000000001
 43
0.0000000001
 40
28.0
 40
28.0
 40
28.0
 40
28.0
 40
29.0
 40
29.0
 40
29.0
 40
29.0
 10
307.4533800191221
 20
2413.529616808159
 30
0.0
 10
304.4900598382292
 20
2412.612360207208
 30
0.0
 10
301.6325686759674
 20
2411.405823267434
 30
0.0
 10
298.8314909478477
 20
2410.093564968254
 30
0.0
  0
SPLINE
  5
4302
330
A
100
AcDbEntity
  8
0
100
AcDbSpline
210
0.0
220
0.0
230
1.0
 70
     8
 71
     3
 72
     8
 73
     4
 74
     0
 42
0.000000001
 43
0.0000000001
 40
29.0
 40
29.0
 40
29.0
 40
29.0
 40
30.0
 40
30.0
 40
30.0
 40
30.0
 10
298.8314909478477
 20
2410.093564968254
 30
0.0
 10
296.0445704078775
 20
2408.788196859505
 30
0.0
 10
293.4128406414138
 20
2407.179552712623
 30
0.0
 10
290.8375781387049
 20
2405.486288414528
 30
0.0
  0
SPLINE
  5
4303
330
A
100
AcDbEntity
  8
0
100
AcDbSpline
210
0.0
220
0.0
230
1.0
 70
     8
 71
     3
 72
     8
 73
     4
 74
     0
 42
0.000000001
 43
0.0000000001
 40
30.0
 40
30.0
 40
30.0
 40
30.0
 40
31.0
 40
31.0
 40
31.0
 40
31.0
 10
290.8375781387049
 20
2405.486288414528
 30
0.0
 10
288.3257807494074
 20
2403.82822868316
 30
0.0
 10
285.891605661669
 20
2401.916093179696
 30
0.0
 10
283.6973491578774
 20
2399.85592624122
 30
0.0
  0
SPLINE
  5
4304
330
A
100
AcDbEntity
  8
0
100
AcDbSpline
210
0.0
220
0.0
230
1.0
 70
     8
 71
     3
 72
     8
 73
     4
 74
     0
 42
0.000000001
 43
0.0000000001
 40
31.0
 40
31.0
 40
31.0
 40
31.0
 40
32.0
 40
32.0
 40
32.0
 40
32.0
 10
283.6973491578774
 20
2399.85592624122
 30
0.0
 10
281.4395737110617
 20
2397.75334156791
 30
0.0
 10
279.273523924343
 20
2395.566136743386
 30
0.0
 10
277.3261838541512
 20
2393.1672738816
 30
0.0
  0
SPLINE
  5
4305
330
A
100
AcDbEntity
  8
0
100
AcDbSpline
210
0.0
220
0.0
230
1.0
 70
     8
 71
     3
 72
     8
 73
     4
 74
     0
 42
0.000000001
 43
0.0000000001
 40
32.0
 40
32.0
 40
32.0
 40
32.0
 40
33.0
 40
33.0
 40
33.0
 40
33.0
 10
277.3261838541512
 20
2393.1672738816
 30
0.0
 10
275.3929471424972
 20
2390.796617736885
 30
0.0
 10
273.579696637622
 20
2388.31302706466
 30
0.0
 10
272.0204142456168
 20
2385.688402807076
 30
0.0
  0
SPLINE
  5
4306
330
A
100
AcDbEntity
  8
0
100
AcDbSpline
210
0.0
220
0.0
230
1.0
 70
     8
 71
     3
 72
     8
 73
     4
 74
     0
 42
0.000000001
 43
0.0000000001
 40
33.0
 40
33.0
 40
33.0
 40
33.0
 40
34.0
 40
34.0
 40
34.0
 40
34.0
 10
272.0204142456168
 20
2385.688402807076
 30
0.0
 10
270.4328713069253
 20
2383.000151947243
 30
0.0
 10
268.979471763163
 20
2380.241491953957
 30
0.0
 10
267.7799865026573
 20
2377.362791924279
 30
0.0
  0
SPLINE
  5
4307
330
A
100
AcDbEntity
  8
0
100
AcDbSpline
210
0.0
220
0.0
230
1.0
 70
     8
 71
     3
 72
     8
 73
     4
 74
     0
 42
0.000000001
 43
0.0000000001
 40
34.0
 40
34.0
 40
34.0
 40
34.0
 40
35.0
 40
35.0
 40
35.0
 40
35.0
 10
267.7799865026573
 20
2377.362791924279
 30
0.0
 10
266.5876067510326
 20
2374.484091894601
 30
0.0
 10
265.5716266403306
 20
2371.548978430779
 30
0.0
 10
264.7955112839609
 20
2368.522139306862
 30
0.0
  0
SPLINE
  5
4308
330
A
100
AcDbEntity
  8
0
100
AcDbSpline
210
0.0
220
0.0
230
1.0
 70
     8
 71
     3
 72
     8
 73
     4
 74
     0
 42
0.000000001
 43
0.0000000001
 40
35.0
 40
35.0
 40
35.0
 40
35.0
 40
36.0
 40
36.0
 40
36.0
 40
36.0
 10
264.7955112839609
 20
2368.522139306862
 30
0.0
 10
264.0334992861281
 20
2365.537717917779
 30
0.0
 10
263.461990287753
 20
2362.510878793863
 30
0.0
 10
263.1303998733238
 20
2359.448727443993
 30
0.0
  0
SPLINE
  5
4309
330
A
100
AcDbEntity
  8
0
100
AcDbSpline
210
0.0
220
0.0
230
1.0
 70
     8
 71
     3
 72
     8
 73
     4
 74
     0
 42
0.000000001
 43
0.0000000001
 40
36.0
 40
36.0
 40
36.0
 40
36.0
 40
37.0
 40
37.0
 40
37.0
 40
37.0
 10
263.1303998733238
 20
2359.448727443993
 30
0.0
 10
262.7988094588954
 20
2356.428993828957
 30
0.0
 10
262.7423421951407
 20
2353.388051346505
 30
0.0
 10
262.7423421951407
 20
2350.347108864053
 30
0.0
  0
SPLINE
  5
430A
330
A
100
AcDbEntity
  8
0
100
AcDbSpline
210
0.0
220
0.0
230
1.0
 70
    24
 71
     3
 72
     8
 73
     4
 74
     0
 42
0.000000001
 43
0.0000000001
 40
37.0
 40
37.0
 40
37.0
 40
37.0
 40
38.0
 40
38.0
 40
38.0
 40
38.0
 10
262.7423421951407
 20
2350.347108864053
 30
0.0
 10
262.7423421951407
 20
2350.347108864053
 30
0.0
 10
262.5306841578777
 20
2046.182128507689
 30
0.0
 10
262.5306841578777
 20
2046.182128507689
 30
0.0
  0
SPLINE
  5
430B
330
A
100
AcDbEntity
  8
0
100
AcDbSpline
210
0.0
220
0.0
230
1.0
 70
     8
 71
     3
 72
     8
 73
     4
 74
     0
 42
0.000000001
 43
0.0000000001
 40
38.0
 40
38.0
 40
38.0
 40
38.0
 40
39.0
 40
39.0
 40
39.0
 40
39.0
 10
262.5306841578777
 20
2046.182128507689
 30
0.0
 10
262.5588908749487
 20
2043.183496100844
 30
0.0
 10
262.5377358371452
 20
2040.170760335464
 30
0.0
 10
262.7282388366039
 20
2037.172127928621
 30
0.0
  0
SPLINE
  5
430C
330
A
100
AcDbEntity
  8
0
100
AcDbSpline
210
0.0
220
0.0
230
1.0
 70
     8
 71
     3
 72
     8
 73
     4
 74
     0
 42
0.000000001
 43
0.0000000001
 40
39.0
 40
39.0
 40
39.0
 40
39.0
 40
40.0
 40
40.0
 40
40.0
 40
40.0
 10
262.7282388366039
 20
2037.172127928621
 30
0.0
 10
262.9187418360625
 20
2034.124187596512
 30
0.0
 10
263.2785389675628
 20
2031.069141755524
 30
0.0
 10
263.913566908961
 20
2028.077507198333
 30
0.0
  0
SPLINE
  5
430D
330
A
100
AcDbEntity
  8
0
100
AcDbSpline
210
0.0
220
0.0
230
1.0
 70
     8
 71
     3
 72
     8
 73
     4
 74
     0
 42
0.000000001
 43
0.0000000001
 40
40.0
 40
40.0
 40
40.0
 40
40.0
 40
41.0
 40
41.0
 40
41.0
 40
41.0
 10
263.913566908961
 20
2028.077507198333
 30
0.0
 10
264.5697498881636
 20
2024.994254640273
 30
0.0
 10
265.3881753201395
 20
2021.967415516358
 30
0.0
 10
266.432415977526
 20
2018.982886468049
 30
0.0
  0
SPLINE
  5
430E
330
A
100
AcDbEntity
  8
0
100
AcDbSpline
210
0.0
220
0.0
230
1.0
 70
     8
 71
     3
 72
     8
 73
     4
 74
     0
 42
0.000000001
 43
0.0000000001
 40
41.0
 40
41.0
 40
41.0
 40
41.0
 40
42.0
 40
42.0
 40
42.0
 40
42.0
 10
266.432415977526
 20
2018.982886468049
 30
0.0
 10
267.420189371157
 20
2016.167813040618
 30
0.0
 10
268.6266724813186
 20
2013.401939879226
 30
0.0
 10
270.0307102702054
 20
2010.756106754226
 30
0.0
  0
SPLINE
  5
430F
330
A
100
AcDbEntity
  8
0
100
AcDbSpline
210
0.0
220
0.0
230
1.0
 70
     8
 71
     3
 72
     8
 73
     4
 74
     0
 42
0.000000001
 43
0.0000000001
 40
42.0
 40
42.0
 40
42.0
 40
42.0
 40
43.0
 40
43.0
 40
43.0
 40
43.0
 10
270.0307102702054
 20
2010.756106754226
 30
0.0
 10
271.4982670021163
 20
2007.99034125206
 30
0.0
 10
273.1351716956815
 20
2005.330404768523
 30
0.0
 10
274.9766827472404
 20
2002.776297303621
 30
0.0
  0
SPLINE
  5
4310
330
A
100
AcDbEntity
  8
0
100
AcDbSpline
210
0.0
220
0.0
230
1.0
 70
     8
 71
     3
 72
     8
 73
     4
 74
     0
 42
0.000000001
 43
0.0000000001
 40
43.0
 40
43.0
 40
43.0
 40
43.0
 40
44.0
 40
44.0
 40
44.0
 40
44.0
 10
274.9766827472404
 20
2002.776297303621
 30
0.0
 10
276.8252454780677
 20
2000.21519198906
 30
0.0
 10
278.8643112083537
 20
1997.816221468049
 30
0.0
 10
281.0515160328778
 20
1995.544396492309
 30
0.0
  0
SPLINE
  5
4311
330
A
100
AcDbEntity
  8
0
100
AcDbSpline
210
0.0
220
0.0
230
1.0
 70
     8
 71
     3
 72
     8
 73
     4
 74
     0
 42
0.000000001
 43
0.0000000001
 40
44.0
 40
44.0
 40
44.0
 40
44.0
 40
45.0
 40
45.0
 40
45.0
 40
45.0
 10
281.0515160328778
 20
1995.544396492309
 30
0.0
 10
283.0764245750152
 20
1993.434813969345
 30
0.0
 10
285.2918899462229
 20
1991.42395495613
 30
0.0
 10
287.6343393738662
 20
1989.674169564667
 30
0.0
  0
SPLINE
  5
4312
330
A
100
AcDbEntity
  8
0
100
AcDbSpline
210
0.0
220
0.0
230
1.0
 70
     8
 71
     3
 72
     8
 73
     4
 74
     0
 42
0.000000001
 43
0.0000000001
 40
45.0
 40
45.0
 40
45.0
 40
45.0
 40
46.0
 40
46.0
 40
46.0
 40
46.0
 10
287.6343393738662
 20
1989.674169564667
 30
0.0
 10
290.1743434802347
 20
1987.769139570082
 30
0.0
 10
292.7566576622112
 20
1985.941731877059
 30
0.0
 10
295.5365803525265
 20
1984.417815540619
 30
0.0
  0
SPLINE
  5
4313
330
A
100
AcDbEntity
  8
0
100
AcDbSpline
210
0.0
220
0.0
230
1.0
 70
     8
 71
     3
 72
     8
 73
     4
 74
     0
 42
0.000000001
 43
0.0000000001
 40
46.0
 40
46.0
 40
46.0
 40
46.0
 40
47.0
 40
47.0
 40
47.0
 40
47.0
 10
295.5365803525265
 20
1984.417815540619
 30
0.0
 10
298.2811908168896
 20
1982.907894903488
 30
0.0
 10
301.0822147153958
 20
1981.567322228011
 30
0.0
 10
303.9961731414132
 20
1980.438407589798
 30
0.0
  0
SPLINE
  5
4314
330
A
100
AcDbEntity
  8
0
100
AcDbSpline
210
0.0
220
0.0
230
1.0
 70
     8
 71
     3
 72
     8
 73
     4
 74
     0
 42
0.000000001
 43
0.0000000001
 40
47.0
 40
47.0
 40
47.0
 40
47.0
 40
48.0
 40
48.0
 40
48.0
 40
48.0
 10
303.9961731414132
 20
1980.438407589798
 30
0.0
 10
306.8184059073355
 20
1979.33780732788
 30
0.0
 10
309.7464676918898
 20
1978.441759594345
 30
0.0
 10
312.6956845142477
 20
1977.778471106261
 30
0.0
  0
SPLINE
  5
4315
330
A
100
AcDbEntity
  8
0
100
AcDbSpline
210
0.0
220
0.0
230
1.0
 70
     8
 71
     3
 72
     8
 73
     4
 74
     0
 42
0.000000001
 43
0.0000000001
 40
48.0
 40
48.0
 40
48.0
 40
48.0
 40
49.0
 40
49.0
 40
49.0
 40
49.0
 10
312.6956845142477
 20
1977.778471106261
 30
0.0
 10
315.7366269966988
 20
1977.087083560335
 30
0.0
 10
318.8198795547596
 20
1976.600248542785
 30
0.0
 10
321.9243409802348
 20
1976.332069412154
 30
0.0
  0
SPLINE
  5
4316
330
A
100
AcDbEntity
  8
0
100
AcDbSpline
210
0.0
220
0.0
230
1.0
 70
     8
 71
     3
 72
     8
 73
     4
 74
     0
 42
0.000000001
 43
0.0000000001
 40
49.0
 40
49.0
 40
49.0
 40
49.0
 40
50.0
 40
50.0
 40
50.0
 40
50.0
 10
321.9243409802348
 20
1976.332069412154
 30
0.0
 10
324.9652834626868
 20
1976.070995790406
 30
0.0
 10
328.0132776244072
 20
1976.099310166701
 30
0.0
 10
331.0612717861277
 20
1976.085206808166
 30
0.0
  0
SPLINE
  5
4317
330
A
100
AcDbEntity
  8
0
100
AcDbSpline
210
0.0
220
0.0
230
1.0
 70
    24
 71
     3
 72
     8
 73
     4
 74
     0
 42
0.000000001
 43
0.0000000001
 40
50.0
 40
50.0
 40
50.0
 40
50.0
 40
51.0
 40
51.0
 40
51.0
 40
51.0
 10
331.0612717861277
 20
1976.085206808166
 30
0.0
 10
331.0612717861277
 20
1976.085206808166
 30
0.0
 10
579.0428857642464
 20
1976.085206808166
 30
0.0
 10
579.0428857642464
 20
1976.085206808166
 30
0.0
  0
SPLINE
  5
4318
102
{ACAD_REACTORS
330
4403
102
}
330
A
100
AcDbEntity
  8
0
100
AcDbSpline
210
0.0
220
0.0
230
1.0
 70
    24
 71
     3
 72
     8
 73
     4
 74
     0
 42
0.000000001
 43
0.0000000001
 40
0.0
 40
0.0
 40
0.0
 40
0.0
 40
1.0
 40
1.0
 40
1.0
 40
1.0
 10
579.0428857642464
 20
1967.61145683113
 30
0.0
 10
579.0428857642464
 20
1967.61145683113
 30
0.0
 10
899.0475526446635
 20
1967.61145683113
 30
0.0
 10
899.0475526446635
 20
1967.61145683113
 30
0.0
  0
SPLINE
  5
4319
330
A
100
AcDbEntity
  8
0
100
AcDbSpline
210
0.0
220
0.0
230
1.0
 70
     8
 71
     3
 72
     8
 73
     4
 74
     0
 42
0.000000001
 43
0.0000000001
 40
1.0
 40
1.0
 40
1.0
 40
1.0
 40
2.0
 40
2.0
 40
2.0
 40
2.0
 10
899.0475526446635
 20
1967.61145683113
 30
0.0
 10
900.3599186030679
 20
1967.639663548201
 30
0.0
 10
901.62986682664
 20
1968.133496415405
 30
0.0
 10
902.5612267861279
 20
1969.064856374893
 30
0.0
  0
SPLINE
  5
431A
330
A
100
AcDbEntity
  8
0
100
AcDbSpline
210
0.0
220
0.0
230
1.0
 70
     8
 71
     3
 72
     8
 73
     4
 74
     0
 42
0.000000001
 43
0.0000000001
 40
2.0
 40
2.0
 40
2.0
 40
2.0
 40
3.0
 40
3.0
 40
3.0
 40
3.0
 10
902.5612267861279
 20
1969.064856374893
 30
0.0
 10
903.5348968212229
 20
1970.031420901107
 30
0.0
 10
903.9935251216993
 20
1971.259166708298
 30
0.0
 10
904.0428330469622
 20
1972.613842742308
 30
0.0
  0
SPLINE
  5
431B
102
{ACAD_REACTORS
330
439D
102
}
330
A
100
AcDbEntity
  8
0
100
AcDbSpline
210
0.0
220
0.0
230
1.0
 70
    24
 71
     3
 72
     8
 73
     4
 74
     0
 42
0.000000001
 43
0.0000000001
 40
3.0
 40
3.0
 40
3.0
 40
3.0
 40
4.0
 40
4.0
 40
4.0
 40
4.0
 10
904.0428330469622
 20
1972.613842742308
 30
0.0
 10
904.0428330469622
 20
1972.613842742308
 30
0.0
 10
904.0428330469622
 20
2425.61576443641
 30
0.0
 10
904.0428330469622
 20
2425.61576443641
 30
0.0
  0
SPLINE
  5
431C
330
A
100
AcDbEntity
  8
0
100
AcDbSpline
210
0.0
220
0.0
230
1.0
 70
     8
 71
     3
 72
     8
 73
     4
 74
     0
 42
0.000000001
 43
0.0000000001
 40
4.0
 40
4.0
 40
4.0
 40
4.0
 40
5.0
 40
5.0
 40
5.0
 40
5.0
 10
904.0428330469622
 20
2425.61576443641
 30
0.0
 10
903.8029682926281
 20
2426.05318386947
 30
0.0
 10
903.3232387839607
 20
2426.434189868385
 30
0.0
 10
902.9704395021154
 20
2426.779883641349
 30
0.0
  0
SPLINE
  5
431D
330
A
100
AcDbEntity
  8
0
100
AcDbSpline
210
0.0
220
0.0
230
1.0
 70
     8
 71
     3
 72
     8
 73
     4
 74
     0
 42
0.000000001
 43
0.0000000001
 40
5.0
 40
5.0
 40
5.0
 40
5.0
 40
6.0
 40
6.0
 40
6.0
 40
6.0
 10
902.9704395021154
 20
2426.779883641349
 30
0.0
 10
902.7869881819252
 20
2426.970440470421
 30
0.0
 10
902.589433503199
 20
2427.160889640267
 30
0.0
 10
902.3918788244728
 20
2427.344340960457
 30
0.0
  0
SPLINE
  5
431E
330
A
100
AcDbEntity
  8
0
100
AcDbSpline
210
0.0
220
0.0
230
1.0
 70
     8
 71
     3
 72
     8
 73
     4
 74
     0
 42
0.000000001
 43
0.0000000001
 40
6.0
 40
6.0
 40
6.0
 40
6.0
 40
7.0
 40
7.0
 40
7.0
 40
7.0
 10
902.3918788244728
 20
2427.344340960457
 30
0.0
 10
902.2930476554975
 20
2427.436066620552
 30
0.0
 10
902.1802207872106
 20
2427.584205714791
 30
0.0
 10
902.0461850515085
 20
2427.612412431863
 30
0.0
  0
SPLINE
  5
431F
102
{ACAD_REACTORS
330
4403
102
}
330
A
100
AcDbEntity
  8
0
100
AcDbSpline
210
0.0
220
0.0
230
1.0
 70
    24
 71
     3
 72
     8
 73
     4
 74
     0
 42
0.000000001
 43
0.0000000001
 40
7.0
 40
7.0
 40
7.0
 40
7.0
 40
8.0
 40
8.0
 40
8.0
 40
8.0
 10
902.0461850515085
 20
2427.612412431863
 30
0.0
 10
902.0461850515085
 20
2427.612412431863
 30
0.0
 10
256.0466381562528
 20
2427.612412431863
 30
0.0
 10
256.0466381562528
 20
2427.612412431863
 30
0.0
  0
SPLINE
  5
4320
330
A
100
AcDbEntity
  8
0
100
AcDbSpline
210
0.0
220
0.0
230
1.0
 70
     8
 71
     3
 72
     8
 73
     4
 74
     0
 42
0.000000001
 43
0.0000000001
 40
8.0
 40
8.0
 40
8.0
 40
8.0
 40
9.0
 40
9.0
 40
9.0
 40
9.0
 10
256.0466381562528
 20
2427.612412431863
 30
0.0
 10
255.9125485909371
 20
2427.584205714791
 30
0.0
 10
255.792616213771
 20
2427.436066620552
 30
0.0
 10
255.6938388744074
 20
2427.344340960457
 30
0.0
  0
SPLINE
  5
4321
330
A
100
AcDbEntity
  8
0
100
AcDbSpline
210
0.0
220
0.0
230
1.0
 70
     8
 71
     3
 72
     8
 73
     4
 74
     0
 42
0.000000001
 43
0.0000000001
 40
9.0
 40
9.0
 40
9.0
 40
9.0
 40
10.0
 40
10.0
 40
10.0
 40
10.0
 10
255.6938388744074
 20
2427.344340960457
 30
0.0
 10
255.5033358749497
 20
2427.160889640267
 30
0.0
 10
255.3057811962226
 20
2426.970440470421
 30
0.0
 10
255.1152781967648
 20
2426.779883641349
 30
0.0
  0
SPLINE
  5
4322
330
A
100
AcDbEntity
  8
0
100
AcDbSpline
210
0.0
220
0.0
230
1.0
 70
     8
 71
     3
 72
     8
 73
     4
 74
     0
 42
0.000000001
 43
0.0000000001
 40
10.0
 40
10.0
 40
10.0
 40
10.0
 40
11.0
 40
11.0
 40
11.0
 40
11.0
 10
255.1152781967648
 20
2426.779883641349
 30
0.0
 10
254.7695844238006
 20
2426.434189868385
 30
0.0
 10
254.2827494062522
 20
2426.05318386947
 30
0.0
 10
254.0428308223063
 20
2425.61576443641
 30
0.0
  0
SPLINE
  5
4323
102
{ACAD_REACTORS
330
439D
102
}
330
A
100
AcDbEntity
  8
0
100
AcDbSpline
210
0.0
220
0.0
230
1.0
 70
    24
 71
     3
 72
     8
 73
     4
 74
     0
 42
0.000000001
 43
0.0000000001
 40
11.0
 40
11.0
 40
11.0
 40
11.0
 40
12.0
 40
12.0
 40
12.0
 40
12.0
 10
254.0428308223063
 20
2425.61576443641
 30
0.0
 10
254.0428308223063
 20
2425.61576443641
 30
0.0
 10
254.0428308223063
 20
1972.613842742308
 30
0.0
 10
254.0428308223063
 20
1972.613842742308
 30
0.0
  0
SPLINE
  5
4324
330
A
100
AcDbEntity
  8
0
100
AcDbSpline
210
0.0
220
0.0
230
1.0
 70
     8
 71
     3
 72
     8
 73
     4
 74
     0
 42
0.000000001
 43
0.0000000001
 40
12.0
 40
12.0
 40
12.0
 40
12.0
 40
13.0
 40
13.0
 40
13.0
 40
13.0
 10
254.0428308223063
 20
1972.613842742308
 30
0.0
 10
254.1063497653304
 20
1971.259166708298
 30
0.0
 10
254.5578725569258
 20
1970.031420901107
 30
0.0
 10
255.5244909127532
 20
1969.064856374893
 30
0.0
  0
SPLINE
  5
4325
330
A
100
AcDbEntity
  8
0
100
AcDbSpline
210
0.0
220
0.0
230
1.0
 70
     8
 71
     3
 72
     8
 73
     4
 74
     0
 42
0.000000001
 43
0.0000000001
 40
13.0
 40
13.0
 40
13.0
 40
13.0
 40
14.0
 40
14.0
 40
14.0
 40
14.0
 10
255.5244909127532
 20
1969.064856374893
 30
0.0
 10
256.4629025515087
 20
1968.133496415405
 30
0.0
 10
257.725852925425
 20
1967.639663548201
 30
0.0
 10
259.0452167334852
 20
1967.61145683113
 30
0.0
  0
SPLINE
  5
4326
330
A
100
AcDbEntity
  8
0
100
AcDbSpline
210
0.0
220
0.0
230
1.0
 70
    24
 71
     3
 72
     8
 73
     4
 74
     0
 42
0.000000001
 43
0.0000000001
 40
14.0
 40
14.0
 40
14.0
 40
14.0
 40
15.0
 40
15.0
 40
15.0
 40
15.0
 10
259.0452167334852
 20
1967.61145683113
 30
0.0
 10
259.0452167334852
 20
1967.61145683113
 30
0.0
 10
579.0428857642464
 20
1967.61145683113
 30
0.0
 10
579.0428857642464
 20
1967.61145683113
 30
0.0
  0
SPLINE
  5
4327
330
A
100
AcDbEntity
  8
0
100
AcDbSpline
210
0.0
220
0.0
230
1.0
 70
    24
 71
     3
 72
     8
 73
     4
 74
     0
 42
0.000000001
 43
0.0000000001
 40
0.0
 40
0.0
 40
0.0
 40
0.0
 40
1.0
 40
1.0
 40
1.0
 40
1.0
 10
579.042885764248
 20
928.089577148216
 30
0.0
 10
579.042885764248
 20
928.089577148216
 30
0.0
 10
896.8955523868669
 20
928.089577148216
 30
0.0
 10
896.8955523868669
 20
928.089577148216
 30
0.0
  0
SPLINE
  5
4328
330
A
100
AcDbEntity
  8
0
100
AcDbSpline
210
0.0
220
0.0
230
1.0
 70
     8
 71
     3
 72
     8
 73
     4
 74
     0
 42
0.000000001
 43
0.0000000001
 40
1.0
 40
1.0
 40
1.0
 40
1.0
 40
2.0
 40
2.0
 40
2.0
 40
2.0
 10
896.8955523868669
 20
928.089577148216
 30
0.0
 10
899.0403394765588
 20
928.089577148216
 30
0.0
 10
900.8042282265594
 20
929.7828414463115
 30
0.0
 10
900.889063696224
 20
931.9136328366917
 30
0.0
  0
SPLINE
  5
4329
330
A
100
AcDbEntity
  8
0
100
AcDbSpline
210
0.0
220
0.0
230
1.0
 70
    24
 71
     3
 72
     8
 73
     4
 74
     0
 42
0.000000001
 43
0.0000000001
 40
2.0
 40
2.0
 40
2.0
 40
2.0
 40
3.0
 40
3.0
 40
3.0
 40
3.0
 10
900.889063696224
 20
931.9136328366917
 30
0.0
 10
900.889063696224
 20
931.9136328366917
 30
0.0
 10
904.042833046962
 20
1003.852065587775
 30
0.0
 10
904.042833046962
 20
1003.852065587775
 30
0.0
  0
SPLINE
  5
432A
330
A
100
AcDbEntity
  8
0
100
AcDbSpline
210
0.0
220
0.0
230
1.0
 70
     8
 71
     3
 72
    11
 73
     7
 74
     0
 42
0.000000001
 43
0.0000000001
 40
3.0
 40
3.0
 40
3.0
 40
3.0
 40
4.0
 40
4.0
 40
4.0
 40
5.0
 40
5.0
 40
5.0
 40
5.0
 10
904.042833046962
 20
1003.852065587775
 30
0.0
 10
904.042833046962
 20
1003.915584530798
 30
0.0
 10
904.042833046962
 20
1003.971997964942
 30
0.0
 10
904.042833046962
 20
1004.035516907965
 30
0.0
 10
904.042833046962
 20
1006.356757468192
 30
0.0
 10
902.1590119197951
 20
1008.233580745704
 30
0.0
 10
899.8447692092248
 20
1008.233580745704
 30
0.0
  0
SPLINE
  5
432B
102
{ACAD_REACTORS
330
441A
102
}
330
A
100
AcDbEntity
  8
0
100
AcDbSpline
210
0.0
220
0.0
230
1.0
 70
    24
 71
     3
 72
     8
 73
     4
 74
     0
 42
0.000000001
 43
0.0000000001
 40
5.0
 40
5.0
 40
5.0
 40
5.0
 40
6.0
 40
6.0
 40
6.0
 40
6.0
 10
899.8447692092248
 20
1008.233580745704
 30
0.0
 10
899.8447692092248
 20
1008.233580745704
 30
0.0
 10
258.2407870008135
 20
1008.233580745704
 30
0.0
 10
258.2407870008135
 20
1008.233580745704
 30
0.0
  0
SPLINE
  5
432C
330
A
100
AcDbEntity
  8
0
100
AcDbSpline
210
0.0
220
0.0
230
1.0
 70
     8
 71
     3
 72
    11
 73
     7
 74
     0
 42
0.000000001
 43
0.0000000001
 40
6.0
 40
6.0
 40
6.0
 40
6.0
 40
7.0
 40
7.0
 40
7.0
 40
8.0
 40
8.0
 40
8.0
 40
8.0
 10
258.2407870008135
 20
1008.233580745704
 30
0.0
 10
255.9194387813611
 20
1008.233580745704
 30
0.0
 10
254.0427231630754
 20
1006.356757468192
 30
0.0
 10
254.0427231630754
 20
1004.035516907965
 30
0.0
 10
254.0427231630754
 20
1003.971997964942
 30
0.0
 10
254.0427231630754
 20
1003.915584530798
 30
0.0
 10
254.0427231630754
 20
1003.852065587775
 30
0.0
  0
SPLINE
  5
432D
330
A
100
AcDbEntity
  8
0
100
AcDbSpline
210
0.0
220
0.0
230
1.0
 70
    24
 71
     3
 72
     8
 73
     4
 74
     0
 42
0.000000001
 43
0.0000000001
 40
8.0
 40
8.0
 40
8.0
 40
8.0
 40
9.0
 40
9.0
 40
9.0
 40
9.0
 10
254.0427231630754
 20
1003.852065587775
 30
0.0
 10
254.0427231630754
 20
1003.852065587775
 30
0.0
 10
257.1824968145036
 20
931.9136328366917
 30
0.0
 10
257.1824968145036
 20
931.9136328366917
 30
0.0
  0
SPLINE
  5
432E
330
A
100
AcDbEntity
  8
0
100
AcDbSpline
210
0.0
220
0.0
230
1.0
 70
     8
 71
     3
 72
     8
 73
     4
 74
     0
 42
0.000000001
 43
0.0000000001
 40
9.0
 40
9.0
 40
9.0
 40
9.0
 40
10.0
 40
10.0
 40
10.0
 40
10.0
 10
257.1824968145036
 20
931.9136328366917
 30
0.0
 10
257.2813279834797
 20
929.7828414463115
 30
0.0
 10
259.0452167334795
 20
928.089577148216
 30
0.0
 10
261.1828983142902
 20
928.089577148216
 30
0.0
  0
SPLINE
  5
432F
330
A
100
AcDbEntity
  8
0
100
AcDbSpline
210
0.0
220
0.0
230
1.0
 70
    24
 71
     3
 72
     8
 73
     4
 74
     0
 42
0.000000001
 43
0.0000000001
 40
10.0
 40
10.0
 40
10.0
 40
10.0
 40
11.0
 40
11.0
 40
11.0
 40
11.0
 10
261.1828983142902
 20
928.089577148216
 30
0.0
 10
261.1828983142902
 20
928.089577148216
 30
0.0
 10
579.042885764248
 20
928.089577148216
 30
0.0
 10
579.042885764248
 20
928.089577148216
 30
0.0
  0
SPLINE
  5
4330
330
A
100
AcDbEntity
  8
0
100
AcDbSpline
210
0.0
220
0.0
230
1.0
 70
    24
 71
     3
 72
     8
 73
     4
 74
     0
 42
0.000000001
 43
0.0000000001
 40
0.0
 40
0.0
 40
0.0
 40
0.0
 40
1.0
 40
1.0
 40
1.0
 40
1.0
 10
542.6293059356037
 20
868.1596697238224
 30
0.0
 10
542.6293059356037
 20
868.1596697238224
 30
0.0
 10
543.8921486502948
 20
850.0127383388594
 30
0.0
 10
543.8921486502948
 20
850.0127383388594
 30
0.0
  0
SPLINE
  5
4331
330
A
100
AcDbEntity
  8
0
100
AcDbSpline
210
0.0
220
0.0
230
1.0
 70
     8
 71
     3
 72
     8
 73
     4
 74
     0
 42
0.000000001
 43
0.0000000001
 40
1.0
 40
1.0
 40
1.0
 40
1.0
 40
2.0
 40
2.0
 40
2.0
 40
2.0
 10
543.8921486502948
 20
850.0127383388594
 30
0.0
 10
543.962773102199
 20
848.9614460022044
 30
0.0
 10
544.8376119683187
 20
848.1500184198835
 30
0.0
 10
545.8887966457485
 20
848.1500184198835
 30
0.0
  0
SPLINE
  5
4332
330
A
100
AcDbEntity
  8
0
100
AcDbSpline
210
0.0
220
0.0
230
1.0
 70
    24
 71
     3
 72
     8
 73
     4
 74
     0
 42
0.000000001
 43
0.0000000001
 40
2.0
 40
2.0
 40
2.0
 40
2.0
 40
3.0
 40
3.0
 40
3.0
 40
3.0
 10
545.8887966457485
 20
848.1500184198835
 30
0.0
 10
545.8887966457485
 20
848.1500184198835
 30
0.0
 10
612.1898693738674
 20
848.1500184198835
 30
0.0
 10
612.1898693738674
 20
848.1500184198835
 30
0.0
  0
SPLINE
  5
4333
330
A
100
AcDbEntity
  8
0
100
AcDbSpline
210
0.0
220
0.0
230
1.0
 70
     8
 71
     3
 72
     8
 73
     4
 74
     0
 42
0.000000001
 43
0.0000000001
 40
3.0
 40
3.0
 40
3.0
 40
3.0
 40
4.0
 40
4.0
 40
4.0
 40
4.0
 10
612.1898693738674
 20
848.1500184198835
 30
0.0
 10
613.2481595601773
 20
848.1500184198835
 30
0.0
 10
614.1161082358665
 20
848.9614460022044
 30
0.0
 10
614.1867326877707
 20
850.0127383388594
 30
0.0
  0
SPLINE
  5
4334
330
A
100
AcDbEntity
  8
0
100
AcDbSpline
210
0.0
220
0.0
230
1.0
 70
    24
 71
     3
 72
     8
 73
     4
 74
     0
 42
0.000000001
 43
0.0000000001
 40
4.0
 40
4.0
 40
4.0
 40
4.0
 40
5.0
 40
5.0
 40
5.0
 40
5.0
 10
614.1867326877707
 20
850.0127383388594
 30
0.0
 10
614.1867326877707
 20
850.0127383388594
 30
0.0
 10
615.4566809113428
 20
868.1596697238224
 30
0.0
 10
615.4566809113428
 20
868.1596697238224
 30
0.0
  0
SPLINE
  5
4335
330
A
100
AcDbEntity
  8
0
100
AcDbSpline
210
0.0
220
0.0
230
1.0
 70
     8
 71
     3
 72
     8
 73
     4
 74
     0
 42
0.000000001
 43
0.0000000001
 40
0.0
 40
0.0
 40
0.0
 40
0.0
 40
1.0
 40
1.0
 40
1.0
 40
1.0
 10
304.3068776660964
 20
928.089577148216
 30
0.0
 10
304.7795016658827
 20
925.0697358739549
 30
0.0
 10
305.4637837029311
 20
922.0782089759891
 30
0.0
 10
306.6633227930495
 20
919.2559223804551
 30
0.0
  0
SPLINE
  5
4336
330
A
100
AcDbEntity
  8
0
100
AcDbSpline
210
0.0
220
0.0
230
1.0
 70
     8
 71
     3
 72
     8
 73
     4
 74
     0
 42
0.000000001
 43
0.0000000001
 40
1.0
 40
1.0
 40
1.0
 40
1.0
 40
2.0
 40
2.0
 40
2.0
 40
2.0
 10
306.6633227930495
 20
919.2559223804551
 30
0.0
 10
307.8768575824795
 20
916.4055367270726
 30
0.0
 10
309.365569352193
 20
913.6679779419778
 30
0.0
 10
311.2847027053119
 20
911.2266973453593
 30
0.0
  0
SPLINE
  5
4337
330
A
100
AcDbEntity
  8
0
100
AcDbSpline
210
0.0
220
0.0
230
1.0
 70
     8
 71
     3
 72
     8
 73
     4
 74
     0
 42
0.000000001
 43
0.0000000001
 40
2.0
 40
2.0
 40
2.0
 40
2.0
 40
3.0
 40
3.0
 40
3.0
 40
3.0
 10
1403.488867573239
 20
2127.178276184
 30
0.0
 10
1404.025010516048
 20
2126.486888638072
 30
0.0
 10
1404.57536447662
 20
2125.816602300332
 30
0.0
 10
1405.161030663144
 20
2125.174522679667
 30
0.0
  0
SPLINE
  5
4338
330
A
100
AcDbEntity
  8
0
100
AcDbSpline
210
0.0
220
0.0
230
1.0
 70
    24
 71
     3
 72
     8
 73
     4
 74
     0
 42
0.000000001
 43
0.0000000001
 40
3.0
 40
3.0
 40
3.0
 40
3.0
 40
4.0
 40
4.0
 40
4.0
 40
4.0
 10
1405.161030663144
 20
2125.174522679667
 30
0.0
 10
1405.161030663144
 20
2125.174522679667
 30
0.0
 10
1405.175241680905
 20
2125.146315962595
 30
0.0
 10
1405.175241680905
 20
2125.146315962595
 30
0.0
  0
SPLINE
  5
4339
330
A
100
AcDbEntity
  8
0
100
AcDbSpline
210
0.0
220
0.0
230
1.0
 70
    24
 71
     3
 72
     8
 73
     4
 74
     0
 42
0.000000001
 43
0.0000000001
 40
4.0
 40
4.0
 40
4.0
 40
4.0
 40
5.0
 40
5.0
 40
5.0
 40
5.0
 10
311.2847027053119
 20
911.2266973453593
 30
0.0
 10
311.2847027053119
 20
911.2266973453593
 30
0.0
 10
326.0518880252882
 20
894.533273163383
 30
0.0
 10
326.0518880252882
 20
894.533273163383
 30
0.0
  0
SPLINE
  5
433A
330
A
100
AcDbEntity
  8
0
100
AcDbSpline
210
0.0
220
0.0
230
1.0
 70
    24
 71
     3
 72
     8
 73
     4
 74
     0
 42
0.000000001
 43
0.0000000001
 40
5.0
 40
5.0
 40
5.0
 40
5.0
 40
6.0
 40
6.0
 40
6.0
 40
6.0
 10
326.0518880252882
 20
894.533273163383
 30
0.0
 10
326.0518880252882
 20
894.533273163383
 30
0.0
 10
339.1329145560501
 20
879.8648113531567
 30
0.0
 10
339.1329145560501
 20
879.8648113531567
 30
0.0
  0
SPLINE
  5
433B
330
A
100
AcDbEntity
  8
0
100
AcDbSpline
210
0.0
220
0.0
230
1.0
 70
    24
 71
     3
 72
     8
 73
     4
 74
     0
 42
0.000000001
 43
0.0000000001
 40
6.0
 40
6.0
 40
6.0
 40
6.0
 40
7.0
 40
7.0
 40
7.0
 40
7.0
 10
1431.337079423977
 20
2095.816390191798
 30
0.0
 10
1431.337079423977
 20
2095.816390191798
 30
0.0
 10
1431.315978215786
 20
2095.84459690887
 30
0.0
 10
1431.315978215786
 20
2095.84459690887
 30
0.0
  0
SPLINE
  5
433C
330
A
100
AcDbEntity
  8
0
100
AcDbSpline
210
0.0
220
0.0
230
1.0
 70
     8
 71
     3
 72
     8
 73
     4
 74
     0
 42
0.000000001
 43
0.0000000001
 40
7.0
 40
7.0
 40
7.0
 40
7.0
 40
8.0
 40
8.0
 40
8.0
 40
8.0
 10
339.1118133478592
 20
879.8930180702287
 30
0.0
 10
340.2547236853841
 20
878.6159643377746
 30
0.0
 10
341.4895750014546
 20
877.4165329068824
 30
0.0
 10
342.7948354509779
 20
876.3158249857393
 30
0.0
  0
SPLINE
  5
433D
330
A
100
AcDbEntity
  8
0
100
AcDbSpline
210
0.0
220
0.0
230
1.0
 70
     8
 71
     3
 72
     8
 73
     4
 74
     0
 42
0.000000001
 43
0.0000000001
 40
8.0
 40
8.0
 40
8.0
 40
8.0
 40
9.0
 40
9.0
 40
9.0
 40
9.0
 10
342.7948354509779
 20
876.3158249857393
 30
0.0
 10
344.3681673719072
 20
875.003566686561
 30
0.0
 10
346.054541479574
 20
873.832341972739
 30
0.0
 10
347.8255357384539
 20
872.8162542028117
 30
0.0
  0
SPLINE
  5
433E
330
A
100
AcDbEntity
  8
0
100
AcDbSpline
210
0.0
220
0.0
230
1.0
 70
     8
 71
     3
 72
     8
 73
     4
 74
     0
 42
0.000000001
 43
0.0000000001
 40
9.0
 40
9.0
 40
9.0
 40
9.0
 40
10.0
 40
10.0
 40
10.0
 40
10.0
 10
347.8255357384539
 20
872.8162542028117
 30
0.0
 10
349.892808185811
 20
871.6309261304546
 30
0.0
 10
352.072907501454
 20
870.6572560953596
 30
0.0
 10
354.3307367778823
 20
869.9094551152871
 30
0.0
  0
SPLINE
  5
433F
330
A
100
AcDbEntity
  8
0
100
AcDbSpline
210
0.0
220
0.0
230
1.0
 70
     8
 71
     3
 72
     8
 73
     4
 74
     0
 42
0.000000001
 43
0.0000000001
 40
10.0
 40
10.0
 40
10.0
 40
10.0
 40
11.0
 40
11.0
 40
11.0
 40
11.0
 10
354.3307367778823
 20
869.9094551152871
 30
0.0
 10
356.9059454509777
 20
869.0627153070131
 30
0.0
 10
359.5799852930502
 20
868.5194668553236
 30
0.0
 10
362.2822318521928
 20
868.2865999506453
 30
0.0
  0
SPLINE
  5
4340
102
{ACAD_REACTORS
330
4429
102
}
330
A
100
AcDbEntity
  8
0
100
AcDbSpline
210
0.0
220
0.0
230
1.0
 70
     8
 71
     3
 72
     8
 73
     4
 74
     0
 42
0.000000001
 43
0.0000000001
 40
11.0
 40
11.0
 40
11.0
 40
11.0
 40
12.0
 40
12.0
 40
12.0
 40
12.0
 10
362.2822318521928
 20
868.2865999506453
 30
0.0
 10
363.2770030954787
 20
868.2019797994294
 30
0.0
 10
364.271989657216
 20
868.1596697238224
 30
0.0
 10
365.2738664093829
 20
868.1596697238224
 30
0.0
  0
SPLINE
  5
4341
330
A
100
AcDbEntity
  8
0
100
AcDbSpline
210
0.0
220
0.0
230
1.0
 70
    24
 71
     3
 72
     8
 73
     4
 74
     0
 42
0.000000001
 43
0.0000000001
 40
12.0
 40
12.0
 40
12.0
 40
12.0
 40
13.0
 40
13.0
 40
13.0
 40
13.0
 10
365.2738664093829
 20
868.1596697238224
 30
0.0
 10
365.2738664093829
 20
868.1596697238224
 30
0.0
 10
792.8123357560078
 20
868.1596697238224
 30
0.0
 10
792.8123357560078
 20
868.1596697238224
 30
0.0
  0
SPLINE
  5
4342
102
{ACAD_REACTORS
330
4429
102
}
330
A
100
AcDbEntity
  8
0
100
AcDbSpline
210
0.0
220
0.0
230
1.0
 70
     8
 71
     3
 72
     8
 73
     4
 74
     0
 42
0.000000001
 43
0.0000000001
 40
13.0
 40
13.0
 40
13.0
 40
13.0
 40
14.0
 40
14.0
 40
14.0
 40
14.0
 10
792.8123357560078
 20
868.1596697238224
 30
0.0
 10
793.8142125081756
 20
868.1596697238224
 30
0.0
 10
794.8089837514615
 20
868.2019797994294
 30
0.0
 10
795.7968648043168
 20
868.2865999506453
 30
0.0
  0
SPLINE
  5
4343
330
A
100
AcDbEntity
  8
0
100
AcDbSpline
210
0.0
220
0.0
230
1.0
 70
     8
 71
     3
 72
     8
 73
     4
 74
     0
 42
0.000000001
 43
0.0000000001
 40
14.0
 40
14.0
 40
14.0
 40
14.0
 40
15.0
 40
15.0
 40
15.0
 40
15.0
 10
795.7968648043168
 20
868.2865999506453
 30
0.0
 10
798.4991113634603
 20
868.5194668553236
 30
0.0
 10
801.1731512055328
 20
869.0627153070131
 30
0.0
 10
803.7483598786282
 20
869.9094551152871
 30
0.0
  0
SPLINE
  5
4344
330
A
100
AcDbEntity
  8
0
100
AcDbSpline
210
0.0
220
0.0
230
1.0
 70
     8
 71
     3
 72
     8
 73
     4
 74
     0
 42
0.000000001
 43
0.0000000001
 40
15.0
 40
15.0
 40
15.0
 40
15.0
 40
16.0
 40
16.0
 40
16.0
 40
16.0
 10
803.7483598786282
 20
869.9094551152871
 30
0.0
 10
806.0132946639367
 20
870.6572560953596
 30
0.0
 10
808.1862884706986
 20
871.6309261304546
 30
0.0
 10
810.2677719358169
 20
872.8162542028117
 30
0.0
  0
SPLINE
  5
4345
330
A
100
AcDbEntity
  8
0
100
AcDbSpline
210
0.0
220
0.0
230
1.0
 70
     8
 71
     3
 72
     8
 73
     4
 74
     0
 42
0.000000001
 43
0.0000000001
 40
16.0
 40
16.0
 40
16.0
 40
16.0
 40
17.0
 40
17.0
 40
17.0
 40
17.0
 10
810.2677719358169
 20
872.8162542028117
 30
0.0
 10
812.0316606858175
 20
873.832341972739
 30
0.0
 10
813.7107139661518
 20
875.003566686561
 30
0.0
 10
815.2842612055326
 20
876.3158249857393
 30
0.0
  0
SPLINE
  5
4346
330
A
100
AcDbEntity
  8
0
100
AcDbSpline
210
0.0
220
0.0
230
1.0
 70
     8
 71
     3
 72
     8
 73
     4
 74
     0
 42
0.000000001
 43
0.0000000001
 40
17.0
 40
17.0
 40
17.0
 40
17.0
 40
18.0
 40
18.0
 40
18.0
 40
18.0
 10
815.2842612055326
 20
876.3158249857393
 30
0.0
 10
816.6106228632468
 20
877.4165329068824
 30
0.0
 10
817.8312631615561
 20
878.6159643377746
 30
0.0
 10
818.9812790079611
 20
879.8930180702287
 30
0.0
  0
SPLINE
  5
4347
330
A
100
AcDbEntity
  8
0
100
AcDbSpline
210
0.0
220
0.0
230
1.0
 70
    24
 71
     3
 72
     8
 73
     4
 74
     0
 42
0.000000001
 43
0.0000000001
 40
18.0
 40
18.0
 40
18.0
 40
18.0
 40
19.0
 40
19.0
 40
19.0
 40
19.0
 10
818.9812790079611
 20
879.8930180702287
 30
0.0
 10
818.9812790079611
 20
879.8930180702287
 30
0.0
 10
818.9530722908892
 20
879.8648113531567
 30
0.0
 10
818.9530722908892
 20
879.8648113531567
 30
0.0
  0
SPLINE
  5
4348
330
A
100
AcDbEntity
  8
0
100
AcDbSpline
210
0.0
220
0.0
230
1.0
 70
    24
 71
     3
 72
     8
 73
     4
 74
     0
 42
0.000000001
 43
0.0000000001
 40
19.0
 40
19.0
 40
19.0
 40
19.0
 40
20.0
 40
20.0
 40
20.0
 40
20.0
 10
818.9530722908892
 20
879.8648113531567
 30
0.0
 10
818.9530722908892
 20
879.8648113531567
 30
0.0
 10
832.02699331277
 20
894.533273163383
 30
0.0
 10
832.02699331277
 20
894.533273163383
 30
0.0
  0
SPLINE
  5
4349
330
A
100
AcDbEntity
  8
0
100
AcDbSpline
210
0.0
220
0.0
230
1.0
 70
    24
 71
     3
 72
     8
 73
     4
 74
     0
 42
0.000000001
 43
0.0000000001
 40
20.0
 40
20.0
 40
20.0
 40
20.0
 40
21.0
 40
21.0
 40
21.0
 40
21.0
 10
832.02699331277
 20
894.533273163383
 30
0.0
 10
832.02699331277
 20
894.533273163383
 30
0.0
 10
845.1222308612939
 20
909.1947371239535
 30
0.0
 10
845.1222308612939
 20
909.1947371239535
 30
0.0
  0
SPLINE
  5
434A
330
A
100
AcDbEntity
  8
0
100
AcDbSpline
210
0.0
220
0.0
230
1.0
 70
    24
 71
     3
 72
     8
 73
     4
 74
     0
 42
0.000000001
 43
0.0000000001
 40
21.0
 40
21.0
 40
21.0
 40
21.0
 40
22.0
 40
22.0
 40
22.0
 40
22.0
 10
1937.326395729221
 20
2125.146315962595
 30
0.0
 10
1937.326395729221
 20
2125.146315962595
 30
0.0
 10
1937.340391428531
 20
2125.174522679667
 30
0.0
 10
1937.340391428531
 20
2125.174522679667
 30
0.0
  0
SPLINE
  5
434B
330
A
100
AcDbEntity
  8
0
100
AcDbSpline
210
0.0
220
0.0
230
1.0
 70
     8
 71
     3
 72
     8
 73
     4
 74
     0
 42
0.000000001
 43
0.0000000001
 40
22.0
 40
22.0
 40
22.0
 40
22.0
 40
23.0
 40
23.0
 40
23.0
 40
23.0
 10
845.1362265606037
 20
909.2229438410254
 30
0.0
 10
845.7147872382473
 20
909.8650234616912
 30
0.0
 10
846.2651411988188
 20
910.5353097994307
 30
0.0
 10
846.8012841416282
 20
911.2266973453593
 30
0.0
  0
SPLINE
  5
434C
330
A
100
AcDbEntity
  8
0
100
AcDbSpline
210
0.0
220
0.0
230
1.0
 70
     8
 71
     3
 72
     8
 73
     4
 74
     0
 42
0.000000001
 43
0.0000000001
 40
23.0
 40
23.0
 40
23.0
 40
23.0
 40
24.0
 40
24.0
 40
24.0
 40
24.0
 10
846.8012841416282
 20
911.2266973453593
 30
0.0
 10
848.7135273043166
 20
913.6679779419778
 30
0.0
 10
850.202239074031
 20
916.4055367270726
 30
0.0
 10
851.4157738634601
 20
919.2559223804551
 30
0.0
  0
SPLINE
  5
434D
330
A
100
AcDbEntity
  8
0
100
AcDbSpline
210
0.0
220
0.0
230
1.0
 70
     8
 71
     3
 72
     8
 73
     4
 74
     0
 42
0.000000001
 43
0.0000000001
 40
24.0
 40
24.0
 40
24.0
 40
24.0
 40
25.0
 40
25.0
 40
25.0
 40
25.0
 10
851.4157738634601
 20
919.2559223804551
 30
0.0
 10
852.6150976351271
 20
922.0782089759891
 30
0.0
 10
853.3064851810566
 20
925.0697358739549
 30
0.0
 10
853.7582232911034
 20
928.089577148216
 30
0.0
  0
SPLINE
  5
4362
330
A
100
AcDbEntity
  8
HIDDEN
100
AcDbSpline
210
0.0
220
0.0
230
1.0
 70
    24
 71
     3
 72
     8
 73
     4
 74
     0
 42
0.000000001
 43
0.0000000001
 40
6.0
 40
6.0
 40
6.0
 40
6.0
 40
7.0
 40
7.0
 40
7.0
 40
7.0
 10
542.0647409572709
 20
892.7200764881204
 30
0.0
 10
542.0647409572709
 20
892.7200764881204
 30
0.0
 10
554.3484432642479
 20
882.4119209684054
 30
0.0
 10
554.3484432642479
 20
882.4119209684054
 30
0.0
  0
SPLINE
  5
4364
330
A
100
AcDbEntity
  8
HIDDEN
100
AcDbSpline
210
0.0
220
0.0
230
1.0
 70
    24
 71
     3
 72
     8
 73
     4
 74
     0
 42
0.000000001
 43
0.0000000001
 40
8.0
 40
8.0
 40
8.0
 40
8.0
 40
9.0
 40
9.0
 40
9.0
 40
9.0
 10
555.0611473368178
 20
880.9373125572279
 30
0.0
 10
555.0611473368178
 20
880.9373125572279
 30
0.0
 10
555.7032269574854
 20
858.6276295604771
 30
0.0
 10
555.7032269574854
 20
858.6276295604771
 30
0.0
  0
LINE
  5
4365
330
A
100
AcDbEntity
  8
HIDDEN
100
AcDbLine
 10
555.8018428080093
 20
855.1986832294538
 30
0.0
 11
555.9992898275111
 21
848.1501260791088
 31
0.0
  0
LINE
  5
4366
102
{ACAD_REACTORS
330
441A
102
}
330
A
100
AcDbEntity
  8
HIDDEN
100
AcDbLine
 10
602.0933718914146
 20
848.1501260791088
 30
0.0
 11
602.2979244197957
 21
855.1985755702285
 31
0.0
  0
SPLINE
  5
4367
330
A
100
AcDbEntity
  8
HIDDEN
100
AcDbSpline
210
0.0
220
0.0
230
1.0
 70
    24
 71
     3
 72
     8
 73
     4
 74
     0
 42
0.000000001
 43
0.0000000001
 40
0.0
 40
0.0
 40
0.0
 40
0.0
 40
1.0
 40
1.0
 40
1.0
 40
1.0
 10
602.4955867577471
 20
862.1130969848696
 30
0.0
 10
602.4955867577471
 20
862.1130969848696
 30
0.0
 10
603.0317297005574
 20
880.9373125572279
 30
0.0
 10
603.0317297005574
 20
880.9373125572279
 30
0.0
  0
SPLINE
  5
4369
330
A
100
AcDbEntity
  8
HIDDEN
100
AcDbSpline
210
0.0
220
0.0
230
1.0
 70
    24
 71
     3
 72
     8
 73
     4
 74
     0
 42
0.000000001
 43
0.0000000001
 40
2.0
 40
2.0
 40
2.0
 40
2.0
 40
3.0
 40
3.0
 40
3.0
 40
3.0
 10
603.7515392820085
 20
882.4119209684054
 30
0.0
 10
603.7515392820085
 20
882.4119209684054
 30
0.0
 10
616.0352415889854
 20
892.7200764881204
 30
0.0
 10
616.0352415889854
 20
892.7200764881204
 30
0.0
  0
DIMENSION
  5
437C
330
A
100
AcDbEntity
  8
DIM
100
AcDbDimension
  2
*D31
 10
895.357532691889
 20
1840.27511334887
 30
0.0
 11
579.0428857642464
 21
1840.27511334887
 31
0.0
 70
   160
  1
635
 71
     5
 42
632.6292938552851
 73
     0
 74
     0
 75
     0
  3
tfrom線あり
100
AcDbAlignedDimension
 13
262.7282388366038
 23
1984.044391308841
 33
0.0
 14
895.357532691889
 24
1982.3434241686
 34
0.0
100
AcDbRotatedDimension
1001
ACAD
1000
DSTYLE
1002
{
1070
   271
1070
     0
1002
}
  0
DIMENSION
  5
438C
330
A
100
AcDbEntity
  8
DIM
100
AcDbDimension
  2
*D32
 10
150.7049970219048
 20
1976.085206808165
 30
0.0
 11
118.7004953337716
 21
2139.061464862973
 31
0.0
 70
    32
  1
325
 71
     5
 42
325.952516109614
 73
     0
 74
     0
 75
     0
  3
tfrom線あり
100
AcDbAlignedDimension
 13
271.3252147296096
 23
2302.037722917779
 33
0.0
 14
269.2109125742902
 24
1976.085206808165
 34
0.0
 50
90.0
100
AcDbRotatedDimension
  0
DIMENSION
  5
439B
102
{ACAD_REACTORS
330
439D
102
}
102
{ACAD_XDICTIONARY
360
439C
102
}
330
A
100
AcDbEntity
  8
DIM
100
AcDbDimension
  2
*D33
 10
904.0428330469622
 20
2539.247367845443
 30
0.0
 11
579.0428319346343
 21
2571.251869533576
 31
0.0
 70
    32
 71
     5
 42
650.0000022246559
 73
     0
 74
     0
 75
     0
  3
tfrom線あり
100
AcDbAlignedDimension
 13
254.0428308223063
 23
2411.581279134669
 33
0.0
 14
904.0428330469622
 24
2409.973865187125
 34
0.0
100
AcDbRotatedDimension
  0
SPLINE
  5
43AE
102
{ACAD_REACTORS
330
43FC
102
}
330
A
100
AcDbEntity
  8
HIDDEN
100
AcDbSpline
210
0.0
220
0.0
230
1.0
 70
     8
 71
     3
 72
     8
 73
     4
 74
     0
 42
0.000000001
 43
0.0000000001
 40
0.0
 40
0.0
 40
0.0
 40
0.0
 40
1.0
 40
1.0
 40
1.0
 40
1.0
 10
1850.889725657188
 20
2238.792448555823
 30
0.0
 10
1850.868516789772
 20
2238.926484291525
 30
0.0
 10
1850.8403100727
 20
2239.060520027227
 30
0.0
 10
1850.819101205283
 20
2239.20166127181
 30
0.0
  0
SPLINE
  5
43AF
102
{ACAD_REACTORS
330
43FC
102
}
330
A
100
AcDbEntity
  8
HIDDEN
100
AcDbSpline
210
0.0
220
0.0
230
1.0
 70
     8
 71
     3
 72
     8
 73
     4
 74
     0
 42
0.000000001
 43
0.0000000001
 40
1.0
 40
1.0
 40
1.0
 40
1.0
 40
2.0
 40
2.0
 40
2.0
 40
2.0
 10
1850.819101205283
 20
2239.20166127181
 30
0.0
 10
1850.346369546271
 20
2242.108460359335
 30
0.0
 10
1849.87363788726
 20
2245.001263747548
 30
0.0
 10
1849.182250341331
 20
2247.865860418691
 30
0.0
  0
SPLINE
  5
43B0
102
{ACAD_REACTORS
330
43FC
102
}
330
A
100
AcDbEntity
  8
HIDDEN
100
AcDbSpline
210
0.0
220
0.0
230
1.0
 70
     8
 71
     3
 72
     8
 73
     4
 74
     0
 42
0.000000001
 43
0.0000000001
 40
2.0
 40
2.0
 40
2.0
 40
2.0
 40
3.0
 40
3.0
 40
3.0
 40
3.0
 10
1849.182250341331
 20
2247.865860418691
 30
0.0
 10
1848.469653927985
 20
2250.822075090703
 30
0.0
 10
1847.622914119712
 20
2253.743085195988
 30
0.0
 10
1846.698659669104
 20
2256.642994093084
 30
0.0
  0
SPLINE
  5
43B1
102
{ACAD_REACTORS
330
43FC
102
}
330
A
100
AcDbEntity
  8
HIDDEN
100
AcDbSpline
210
0.0
220
0.0
230
1.0
 70
     8
 71
     3
 72
     8
 73
     4
 74
     0
 42
0.000000001
 43
0.0000000001
 40
3.0
 40
3.0
 40
3.0
 40
3.0
 40
4.0
 40
4.0
 40
4.0
 40
4.0
 10
1846.698659669104
 20
2256.642994093084
 30
0.0
 10
1846.098997783271
 20
2258.456190768347
 30
0.0
 10
1845.456918162604
 20
2260.255391744298
 30
0.0
 10
1844.709009523307
 20
2262.019280494299
 30
0.0
  0
SPLINE
  5
43B4
102
{ACAD_REACTORS
330
43FC
102
}
330
A
100
AcDbEntity
  8
HIDDEN
100
AcDbSpline
210
0.0
220
0.0
230
1.0
 70
     8
 71
     3
 72
     8
 73
     4
 74
     0
 42
0.000000001
 43
0.0000000001
 40
6.0
 40
6.0
 40
6.0
 40
6.0
 40
7.0
 40
7.0
 40
7.0
 40
7.0
 10
1835.106344908057
 20
2277.866072527227
 30
0.0
 10
1833.194317063819
 20
2280.215519804525
 30
0.0
 10
1831.09173239051
 20
2282.423933496465
 30
0.0
 10
1828.855219640723
 20
2284.484208094167
 30
0.0
  0
SPLINE
  5
43B5
102
{ACAD_REACTORS
330
43FC
102
}
330
A
100
AcDbEntity
  8
HIDDEN
100
AcDbSpline
210
0.0
220
0.0
230
1.0
 70
     8
 71
     3
 72
     8
 73
     4
 74
     0
 42
0.000000001
 43
0.0000000001
 40
7.0
 40
7.0
 40
7.0
 40
7.0
 40
8.0
 40
8.0
 40
8.0
 40
8.0
 10
1828.855219640723
 20
2284.484208094167
 30
0.0
 10
1826.59039251464
 20
2286.572581749716
 30
0.0
 10
1824.170320785438
 20
2288.470506235418
 30
0.0
 10
1821.644420037604
 20
2290.241500494299
 30
0.0
  0
SPLINE
  5
43B8
102
{ACAD_REACTORS
330
43FC
102
}
330
A
100
AcDbEntity
  8
HIDDEN
100
AcDbSpline
210
0.0
220
0.0
230
1.0
 70
     8
 71
     3
 72
     8
 73
     4
 74
     0
 42
0.000000001
 43
0.0000000001
 40
10.0
 40
10.0
 40
10.0
 40
10.0
 40
11.0
 40
11.0
 40
11.0
 40
11.0
 10
1805.409516496879
 20
2298.376554548025
 30
0.0
 10
1802.488614050818
 20
2299.357330092001
 30
0.0
 10
1799.496979493628
 20
2300.147548806906
 30
0.0
 10
1796.470140369713
 20
2300.740212843084
 30
0.0
  0
SPLINE
  5
43B9
102
{ACAD_REACTORS
330
43FC
102
}
330
A
100
AcDbEntity
  8
HIDDEN
100
AcDbSpline
210
0.0
220
0.0
230
1.0
 70
     8
 71
     3
 72
     8
 73
     4
 74
     0
 42
0.000000001
 43
0.0000000001
 40
11.0
 40
11.0
 40
11.0
 40
11.0
 40
12.0
 40
12.0
 40
12.0
 40
12.0
 10
1796.470140369713
 20
2300.740212843084
 30
0.0
 10
1793.344577736046
 20
2301.346980237798
 30
0.0
 10
1790.218907443152
 20
2301.727986236715
 30
0.0
 10
1787.043929224998
 20
2302.010161066657
 30
0.0
  0
SPLINE
  5
43BA
102
{ACAD_REACTORS
330
43FC
102
}
330
A
100
AcDbEntity
  8
HIDDEN
100
AcDbSpline
210
0.0
220
0.0
230
1.0
 70
     8
 71
     3
 72
     8
 73
     4
 74
     0
 42
0.000000001
 43
0.0000000001
 40
12.0
 40
12.0
 40
12.0
 40
12.0
 40
13.0
 40
13.0
 40
13.0
 40
13.0
 10
1787.043929224998
 20
2302.010161066657
 30
0.0
 10
1784.221750288687
 20
2302.264129179526
 30
0.0
 10
1781.378362484962
 20
2302.292443555823
 30
0.0
 10
1778.549078039772
 20
2302.292443555823
 30
0.0
  0
SPLINE
  5
43BB
102
{ACAD_REACTORS
330
43FC
102
}
330
A
100
AcDbEntity
  8
HIDDEN
100
AcDbSpline
210
0.0
220
0.0
230
1.0
 70
    24
 71
     3
 72
     8
 73
     4
 74
     0
 42
0.000000001
 43
0.0000000001
 40
13.0
 40
13.0
 40
13.0
 40
13.0
 40
14.0
 40
14.0
 40
14.0
 40
14.0
 10
1778.549078039772
 20
2302.292443555823
 30
0.0
 10
1778.549078039772
 20
2302.292443555823
 30
0.0
 10
1298.383334191199
 20
2302.292443555823
 30
0.0
 10
1298.383334191199
 20
2302.292443555823
 30
0.0
  0
SPLINE
  5
43BC
102
{ACAD_REACTORS
330
43FC
102
}
330
A
100
AcDbEntity
  8
HIDDEN
100
AcDbSpline
210
0.0
220
0.0
230
1.0
 70
     8
 71
     3
 72
     8
 73
     4
 74
     0
 42
0.000000001
 43
0.0000000001
 40
14.0
 40
14.0
 40
14.0
 40
14.0
 40
15.0
 40
15.0
 40
15.0
 40
15.0
 10
1298.383334191199
 20
2302.292443555823
 30
0.0
 10
1295.554049746009
 20
2302.292443555823
 30
0.0
 10
1292.710661942283
 20
2302.264129179526
 30
0.0
 10
1289.88842917636
 20
2302.010161066657
 30
0.0
  0
SPLINE
  5
43BD
102
{ACAD_REACTORS
330
43FC
102
}
330
A
100
AcDbEntity
  8
HIDDEN
100
AcDbSpline
210
0.0
220
0.0
230
1.0
 70
     8
 71
     3
 72
     8
 73
     4
 74
     0
 42
0.000000001
 43
0.0000000001
 40
15.0
 40
15.0
 40
15.0
 40
15.0
 40
16.0
 40
16.0
 40
16.0
 40
16.0
 10
1289.88842917636
 20
2302.010161066657
 30
0.0
 10
1286.720502637475
 20
2301.727986236715
 30
0.0
 10
1283.587834494926
 20
2301.346980237798
 30
0.0
 10
1280.462218031646
 20
2300.740212843084
 30
0.0
  0
SPLINE
  5
43C0
102
{ACAD_REACTORS
330
43FC
102
}
330
A
100
AcDbEntity
  8
HIDDEN
100
AcDbSpline
210
0.0
220
0.0
230
1.0
 70
     8
 71
     3
 72
     8
 73
     4
 74
     0
 42
0.000000001
 43
0.0000000001
 40
18.0
 40
18.0
 40
18.0
 40
18.0
 40
19.0
 40
19.0
 40
19.0
 40
19.0
 10
1263.324268907729
 20
2294.968709425191
 30
0.0
 10
1260.558503405563
 20
2293.53641108962
 30
0.0
 10
1257.842099658271
 20
2292.033595961371
 30
0.0
 10
1255.287992193366
 20
2290.241500494299
 30
0.0
  0
SPLINE
  5
43C1
102
{ACAD_REACTORS
330
43FC
102
}
330
A
100
AcDbEntity
  8
HIDDEN
100
AcDbSpline
210
0.0
220
0.0
230
1.0
 70
     8
 71
     3
 72
     8
 73
     4
 74
     0
 42
0.000000001
 43
0.0000000001
 40
19.0
 40
19.0
 40
19.0
 40
19.0
 40
20.0
 40
20.0
 40
20.0
 40
20.0
 10
1255.287992193366
 20
2290.241500494299
 30
0.0
 10
1252.769143124801
 20
2288.470506235418
 30
0.0
 10
1250.342073545944
 20
2286.572581749716
 30
0.0
 10
1248.077192590248
 20
2284.484208094167
 30
0.0
  0
SPLINE
  5
43C2
102
{ACAD_REACTORS
330
43FC
102
}
330
A
100
AcDbEntity
  8
HIDDEN
100
AcDbSpline
210
0.0
220
0.0
230
1.0
 70
     8
 71
     3
 72
     8
 73
     4
 74
     0
 42
0.000000001
 43
0.0000000001
 40
20.0
 40
20.0
 40
20.0
 40
20.0
 40
21.0
 40
21.0
 40
21.0
 40
21.0
 10
1248.077192590248
 20
2284.484208094167
 30
0.0
 10
1245.840626010848
 20
2282.423933496465
 30
0.0
 10
1243.745093016807
 20
2280.215519804525
 30
0.0
 10
1241.818961814033
 20
2277.866072527227
 30
0.0
  0
SPLINE
  5
43C5
102
{ACAD_REACTORS
330
43FC
102
}
330
A
100
AcDbEntity
  8
HIDDEN
100
AcDbSpline
210
0.0
220
0.0
230
1.0
 70
     8
 71
     3
 72
     8
 73
     4
 74
     0
 42
0.000000001
 43
0.0000000001
 40
23.0
 40
23.0
 40
23.0
 40
23.0
 40
24.0
 40
24.0
 40
24.0
 40
24.0
 10
1232.230454386932
 20
2262.019280494299
 30
0.0
 10
1231.475494068367
 20
2260.255391744298
 30
0.0
 10
1230.8334144477
 20
2258.456190768347
 30
0.0
 10
1230.233698732254
 20
2256.642994093084
 30
0.0
  0
SPLINE
  5
43C6
102
{ACAD_REACTORS
330
43FC
102
}
330
A
100
AcDbEntity
  8
HIDDEN
100
AcDbSpline
210
0.0
220
0.0
230
1.0
 70
     8
 71
     3
 72
     8
 73
     4
 74
     0
 42
0.000000001
 43
0.0000000001
 40
24.0
 40
24.0
 40
24.0
 40
24.0
 40
25.0
 40
25.0
 40
25.0
 40
25.0
 10
1230.233698732254
 20
2256.642994093084
 30
0.0
 10
1229.309444281646
 20
2253.743085195988
 30
0.0
 10
1228.462758302986
 20
2250.822075090703
 30
0.0
 10
1227.75016188964
 20
2247.865860418691
 30
0.0
  0
SPLINE
  5
43C7
102
{ACAD_REACTORS
330
43FC
102
}
330
A
100
AcDbEntity
  8
HIDDEN
100
AcDbSpline
210
0.0
220
0.0
230
1.0
 70
     8
 71
     3
 72
     8
 73
     4
 74
     0
 42
0.000000001
 43
0.0000000001
 40
25.0
 40
25.0
 40
25.0
 40
25.0
 40
26.0
 40
26.0
 40
26.0
 40
26.0
 10
1227.75016188964
 20
2247.865860418691
 30
0.0
 10
1227.058720514099
 20
2245.001263747548
 30
0.0
 10
1226.585988855086
 20
2242.108460359335
 30
0.0
 10
1226.106205516807
 20
2239.20166127181
 30
0.0
  0
SPLINE
  5
43C8
102
{ACAD_REACTORS
330
43FC
102
}
330
A
100
AcDbEntity
  8
HIDDEN
100
AcDbSpline
210
0.0
220
0.0
230
1.0
 70
     8
 71
     3
 72
     8
 73
     4
 74
     0
 42
0.000000001
 43
0.0000000001
 40
26.0
 40
26.0
 40
26.0
 40
26.0
 40
27.0
 40
27.0
 40
27.0
 40
27.0
 10
1226.106205516807
 20
2239.20166127181
 30
0.0
 10
1226.092102158271
 20
2239.060520027227
 30
0.0
 10
1226.063895441199
 20
2238.926484291525
 30
0.0
 10
1226.042740403396
 20
2238.792448555823
 30
0.0
  0
SPLINE
  5
43C9
102
{ACAD_REACTORS
330
43FC
102
}
330
A
100
AcDbEntity
  8
HIDDEN
100
AcDbSpline
210
0.0
220
0.0
230
1.0
 70
    24
 71
     3
 72
     8
 73
     4
 74
     0
 42
0.000000001
 43
0.0000000001
 40
0.0
 40
0.0
 40
0.0
 40
0.0
 40
1.0
 40
1.0
 40
1.0
 40
1.0
 10
1538.462653361045
 20
1976.057644957043
 30
0.0
 10
1538.462653361045
 20
1976.057644957043
 30
0.0
 10
1786.451265188819
 20
1976.057644957043
 30
0.0
 10
1786.451265188819
 20
1976.057644957043
 30
0.0
  0
SPLINE
  5
43CA
102
{ACAD_REACTORS
330
43FC
102
}
330
A
100
AcDbEntity
  8
HIDDEN
100
AcDbSpline
210
0.0
220
0.0
230
1.0
 70
     8
 71
     3
 72
     8
 73
     4
 74
     0
 42
0.000000001
 43
0.0000000001
 40
1.0
 40
1.0
 40
1.0
 40
1.0
 40
2.0
 40
2.0
 40
2.0
 40
2.0
 10
1786.451265188819
 20
1976.057644957043
 30
0.0
 10
1789.499313180153
 20
1976.071748315578
 30
0.0
 10
1792.547253512259
 20
1976.043433939283
 30
0.0
 10
1795.588195994713
 20
1976.304507561031
 30
0.0
  0
SPLINE
  5
43CD
102
{ACAD_REACTORS
330
43FC
102
}
330
A
100
AcDbEntity
  8
HIDDEN
100
AcDbSpline
210
0.0
220
0.0
230
1.0
 70
     8
 71
     3
 72
     8
 73
     4
 74
     0
 42
0.000000001
 43
0.0000000001
 40
4.0
 40
4.0
 40
4.0
 40
4.0
 40
5.0
 40
5.0
 40
5.0
 40
5.0
 10
1813.509365983878
 20
1980.410845738675
 30
0.0
 10
1816.423270580283
 20
1981.539760376888
 30
0.0
 10
1819.224348308403
 20
1982.880333052366
 30
0.0
 10
1821.968904943152
 20
1984.390253689496
 30
0.0
  0
SPLINE
  5
43CE
102
{ACAD_REACTORS
330
43FC
102
}
330
A
100
AcDbEntity
  8
HIDDEN
100
AcDbSpline
210
0.0
220
0.0
230
1.0
 70
     8
 71
     3
 72
     8
 73
     4
 74
     0
 42
0.000000001
 43
0.0000000001
 40
5.0
 40
5.0
 40
5.0
 40
5.0
 40
6.0
 40
6.0
 40
6.0
 40
6.0
 10
1821.968904943152
 20
1984.390253689496
 30
0.0
 10
1824.755879312736
 20
1985.914170025937
 30
0.0
 10
1827.338193494712
 20
1987.741577718959
 30
0.0
 10
1829.878197601081
 20
1989.646607713544
 30
0.0
  0
SPLINE
  5
43D1
102
{ACAD_REACTORS
330
43FC
102
}
330
A
100
AcDbEntity
  8
HIDDEN
100
AcDbSpline
210
0.0
220
0.0
230
1.0
 70
     8
 71
     3
 72
     8
 73
     4
 74
     0
 42
0.000000001
 43
0.0000000001
 40
8.0
 40
8.0
 40
8.0
 40
8.0
 40
9.0
 40
9.0
 40
9.0
 40
9.0
 10
1842.535908057318
 20
2002.748735452498
 30
0.0
 10
1844.377419108878
 20
2005.302842917401
 30
0.0
 10
1846.014269972831
 20
2007.962779400937
 30
0.0
 10
1847.481772875129
 20
2010.728544903104
 30
0.0
  0
SPLINE
  5
43D2
102
{ACAD_REACTORS
330
43FC
102
}
330
A
100
AcDbEntity
  8
HIDDEN
100
AcDbSpline
210
0.0
220
0.0
230
1.0
 70
     8
 71
     3
 72
     8
 73
     4
 74
     0
 42
0.000000001
 43
0.0000000001
 40
9.0
 40
9.0
 40
9.0
 40
9.0
 40
10.0
 40
10.0
 40
10.0
 40
10.0
 10
1847.481772875129
 20
2010.728544903104
 30
0.0
 10
1848.878758984748
 20
2013.374378028103
 30
0.0
 10
1850.092401433402
 20
2016.140251189495
 30
0.0
 10
1851.080174827033
 20
2018.955324616927
 30
0.0
  0
SPLINE
  5
43D5
102
{ACAD_REACTORS
330
43FC
102
}
330
A
100
AcDbEntity
  8
HIDDEN
100
AcDbSpline
210
0.0
220
0.0
230
1.0
 70
     8
 71
     3
 72
     8
 73
     4
 74
     0
 42
0.000000001
 43
0.0000000001
 40
12.0
 40
12.0
 40
12.0
 40
12.0
 40
13.0
 40
13.0
 40
13.0
 40
13.0
 10
1854.777300288687
 20
2037.144566077498
 30
0.0
 10
1854.974854967414
 20
2040.143198484342
 30
0.0
 10
1854.953646099998
 20
2043.155934249722
 30
0.0
 10
1854.98895832595
 20
2046.154566656567
 30
0.0
  0
SPLINE
  5
43D6
102
{ACAD_REACTORS
330
43FC
102
}
330
A
100
AcDbEntity
  8
HIDDEN
100
AcDbSpline
210
0.0
220
0.0
230
1.0
 70
    24
 71
     3
 72
     8
 73
     4
 74
     0
 42
0.000000001
 43
0.0000000001
 40
13.0
 40
13.0
 40
13.0
 40
13.0
 40
14.0
 40
14.0
 40
14.0
 40
14.0
 10
1854.98895832595
 20
2046.154566656567
 30
0.0
 10
1854.98895832595
 20
2046.154566656567
 30
0.0
 10
1854.770194779807
 20
2350.31954701293
 30
0.0
 10
1854.770194779807
 20
2350.31954701293
 30
0.0
  0
SPLINE
  5
43D8
102
{ACAD_REACTORS
330
43FC
102
}
330
A
100
AcDbEntity
  8
HIDDEN
100
AcDbSpline
210
0.0
220
0.0
230
1.0
 70
     8
 71
     3
 72
     8
 73
     4
 74
     0
 42
0.000000001
 43
0.0000000001
 40
15.0
 40
15.0
 40
15.0
 40
15.0
 40
16.0
 40
16.0
 40
16.0
 40
16.0
 10
1854.375085422355
 20
2359.42116559287
 30
0.0
 10
1854.043495007926
 20
2362.48331694274
 30
0.0
 10
1853.479037688819
 20
2365.510156066657
 30
0.0
 10
1852.71002784133
 20
2368.49457745574
 30
0.0
  0
SPLINE
  5
43D9
102
{ACAD_REACTORS
330
43FC
102
}
330
A
100
AcDbEntity
  8
HIDDEN
100
AcDbSpline
210
0.0
220
0.0
230
1.0
 70
     8
 71
     3
 72
     8
 73
     4
 74
     0
 42
0.000000001
 43
0.0000000001
 40
16.0
 40
16.0
 40
16.0
 40
16.0
 40
17.0
 40
17.0
 40
17.0
 40
17.0
 10
1852.71002784133
 20
2368.49457745574
 30
0.0
 10
1851.940910334617
 20
2371.521416579656
 30
0.0
 10
1850.917824715033
 20
2374.456530043478
 30
0.0
 10
1849.732496642676
 20
2377.335230073156
 30
0.0
  0
SPLINE
  5
43DA
102
{ACAD_REACTORS
330
43FC
102
}
330
A
100
AcDbEntity
  8
HIDDEN
100
AcDbSpline
210
0.0
220
0.0
230
1.0
 70
     8
 71
     3
 72
     8
 73
     4
 74
     0
 42
0.000000001
 43
0.0000000001
 40
17.0
 40
17.0
 40
17.0
 40
17.0
 40
18.0
 40
18.0
 40
18.0
 40
18.0
 10
1849.732496642676
 20
2377.335230073156
 30
0.0
 10
1848.533065211783
 20
2380.213930102834
 30
0.0
 10
1847.079665668022
 20
2382.97259009612
 30
0.0
 10
1845.485124879676
 20
2385.660840955954
 30
0.0
  0
SPLINE
  5
43DC
102
{ACAD_REACTORS
330
43FC
102
}
330
A
100
AcDbEntity
  8
HIDDEN
100
AcDbSpline
210
0.0
220
0.0
230
1.0
 70
     8
 71
     3
 72
     8
 73
     4
 74
     0
 42
0.000000001
 43
0.0000000001
 40
19.0
 40
19.0
 40
19.0
 40
19.0
 40
20.0
 40
20.0
 40
20.0
 40
20.0
 10
1840.193458629676
 20
2393.139712030477
 30
0.0
 10
1838.239013050605
 20
2395.538574892263
 30
0.0
 10
1836.065911584617
 20
2397.725779716787
 30
0.0
 10
1833.815187817069
 20
2399.828364390097
 30
0.0
  0
SPLINE
  5
43DD
102
{ACAD_REACTORS
330
43FC
102
}
330
A
100
AcDbEntity
  8
HIDDEN
100
AcDbSpline
210
0.0
220
0.0
230
1.0
 70
     8
 71
     3
 72
     8
 73
     4
 74
     0
 42
0.000000001
 43
0.0000000001
 40
20.0
 40
20.0
 40
20.0
 40
20.0
 40
21.0
 40
21.0
 40
21.0
 40
21.0
 10
1833.815187817069
 20
2399.828364390097
 30
0.0
 10
1831.61387963401
 20
2401.888531328573
 30
0.0
 10
1829.186810055152
 20
2403.800666832037
 30
0.0
 10
1826.675012665856
 20
2405.458726563405
 30
0.0
  0
SPLINE
  5
43DF
102
{ACAD_REACTORS
330
43FC
102
}
330
A
100
AcDbEntity
  8
HIDDEN
100
AcDbSpline
210
0.0
220
0.0
230
1.0
 70
     8
 71
     3
 72
     8
 73
     4
 74
     0
 42
0.000000001
 43
0.0000000001
 40
22.0
 40
22.0
 40
22.0
 40
22.0
 40
23.0
 40
23.0
 40
23.0
 40
23.0
 10
1818.680992197486
 20
2410.066003117131
 30
0.0
 10
1815.880022128592
 20
2411.378261416311
 30
0.0
 10
1813.022530966331
 20
2412.584798356085
 30
0.0
 10
1810.066208635094
 20
2413.502054957036
 30
0.0
  0
SPLINE
  5
43E0
102
{ACAD_REACTORS
330
43FC
102
}
330
A
100
AcDbEntity
  8
HIDDEN
100
AcDbSpline
210
0.0
220
0.0
230
1.0
 70
     8
 71
     3
 72
     8
 73
     4
 74
     0
 42
0.000000001
 43
0.0000000001
 40
23.0
 40
23.0
 40
23.0
 40
23.0
 40
24.0
 40
24.0
 40
24.0
 40
24.0
 10
1810.066208635094
 20
2413.502054957036
 30
0.0
 10
1807.067576228248
 20
2414.419203898763
 30
0.0
 10
1804.033739254676
 20
2415.195319255133
 30
0.0
 10
1800.943381187736
 20
2415.675156423025
 30
0.0
  0
SPLINE
  5
43E2
102
{ACAD_REACTORS
330
43FC
102
}
330
A
100
AcDbEntity
  8
HIDDEN
100
AcDbSpline
210
0.0
220
0.0
230
1.0
 70
    24
 71
     3
 72
     8
 73
     4
 74
     0
 42
0.000000001
 43
0.0000000001
 40
25.0
 40
25.0
 40
25.0
 40
25.0
 40
26.0
 40
26.0
 40
26.0
 40
26.0
 10
1791.757034797355
 20
2416.479478496465
 30
0.0
 10
1791.757034797355
 20
2416.479478496465
 30
0.0
 10
1285.175269774391
 20
2416.479478496465
 30
0.0
 10
1285.175269774391
 20
2416.479478496465
 30
0.0
  0
SPLINE
  5
43E3
102
{ACAD_REACTORS
330
43FC
102
}
330
A
100
AcDbEntity
  8
HIDDEN
100
AcDbSpline
210
0.0
220
0.0
230
1.0
 70
     8
 71
     3
 72
     8
 73
     4
 74
     0
 42
0.000000001
 43
0.0000000001
 40
26.0
 40
26.0
 40
26.0
 40
26.0
 40
27.0
 40
27.0
 40
27.0
 40
27.0
 10
1285.175269774391
 20
2416.479478496465
 30
0.0
 10
1282.092017216331
 20
2416.40885404456
 30
0.0
 10
1279.036917545729
 20
2416.147888082037
 30
0.0
 10
1275.995975063277
 20
2415.675156423025
 30
0.0
  0
SPLINE
  5
43E6
102
{ACAD_REACTORS
330
43FC
102
}
330
A
100
AcDbEntity
  8
HIDDEN
100
AcDbSpline
210
0.0
220
0.0
230
1.0
 70
     8
 71
     3
 72
     8
 73
     4
 74
     0
 42
0.000000001
 43
0.0000000001
 40
29.0
 40
29.0
 40
29.0
 40
29.0
 40
30.0
 40
30.0
 40
30.0
 40
30.0
 10
1258.251258544646
 20
2410.066003117131
 30
0.0
 10
1255.464338004676
 20
2408.760635008382
 30
0.0
 10
1252.832608238212
 20
2407.151990861501
 30
0.0
 10
1250.257345735503
 20
2405.458726563405
 30
0.0
  0
SPLINE
  5
43E7
102
{ACAD_REACTORS
330
43FC
102
}
330
A
100
AcDbEntity
  8
HIDDEN
100
AcDbSpline
210
0.0
220
0.0
230
1.0
 70
     8
 71
     3
 72
     8
 73
     4
 74
     0
 42
0.000000001
 43
0.0000000001
 40
30.0
 40
30.0
 40
30.0
 40
30.0
 40
31.0
 40
31.0
 40
31.0
 40
31.0
 10
1250.257345735503
 20
2405.458726563405
 30
0.0
 10
1247.745548346206
 20
2403.800666832037
 30
0.0
 10
1245.311373258467
 20
2401.888531328573
 30
0.0
 10
1243.117116754676
 20
2399.828364390097
 30
0.0
  0
SPLINE
  5
43EA
102
{ACAD_REACTORS
330
43FC
102
}
330
A
100
AcDbEntity
  8
HIDDEN
100
AcDbSpline
210
0.0
220
0.0
230
1.0
 70
     8
 71
     3
 72
     8
 73
     4
 74
     0
 42
0.000000001
 43
0.0000000001
 40
33.0
 40
33.0
 40
33.0
 40
33.0
 40
34.0
 40
34.0
 40
34.0
 40
34.0
 10
1231.440181842415
 20
2385.660840955954
 30
0.0
 10
1229.852638903724
 20
2382.97259009612
 30
0.0
 10
1228.399239359961
 20
2380.213930102834
 30
0.0
 10
1227.199754099456
 20
2377.335230073156
 30
0.0
  0
SPLINE
  5
43EB
102
{ACAD_REACTORS
330
43FC
102
}
330
A
100
AcDbEntity
  8
HIDDEN
100
AcDbSpline
210
0.0
220
0.0
230
1.0
 70
     8
 71
     3
 72
     8
 73
     4
 74
     0
 42
0.000000001
 43
0.0000000001
 40
34.0
 40
34.0
 40
34.0
 40
34.0
 40
35.0
 40
35.0
 40
35.0
 40
35.0
 10
1227.199754099456
 20
2377.335230073156
 30
0.0
 10
1226.007374347831
 20
2374.456530043478
 30
0.0
 10
1224.991394237129
 20
2371.521416579656
 30
0.0
 10
1224.215278880759
 20
2368.49457745574
 30
0.0
  0
SPLINE
  5
43EE
102
{ACAD_REACTORS
330
43FC
102
}
330
A
100
AcDbEntity
  8
HIDDEN
100
AcDbSpline
210
0.0
220
0.0
230
1.0
 70
    24
 71
     3
 72
     8
 73
     4
 74
     0
 42
0.000000001
 43
0.0000000001
 40
37.0
 40
37.0
 40
37.0
 40
37.0
 40
38.0
 40
38.0
 40
38.0
 40
38.0
 10
1222.162109791939
 20
2350.31954701293
 30
0.0
 10
1222.162109791939
 20
2350.31954701293
 30
0.0
 10
1221.950451754676
 20
2046.154566656567
 30
0.0
 10
1221.950451754676
 20
2046.154566656567
 30
0.0
  0
SPLINE
  5
43EF
102
{ACAD_REACTORS
330
43FC
102
}
330
A
100
AcDbEntity
  8
HIDDEN
100
AcDbSpline
210
0.0
220
0.0
230
1.0
 70
     8
 71
     3
 72
     8
 73
     4
 74
     0
 42
0.000000001
 43
0.0000000001
 40
38.0
 40
38.0
 40
38.0
 40
38.0
 40
39.0
 40
39.0
 40
39.0
 40
39.0
 10
1221.950451754676
 20
2046.154566656567
 30
0.0
 10
1221.978658471747
 20
2043.155934249722
 30
0.0
 10
1221.957503433944
 20
2040.143198484342
 30
0.0
 10
1222.148006433402
 20
2037.144566077498
 30
0.0
  0
SPLINE
  5
43F2
102
{ACAD_REACTORS
330
43FC
102
}
330
A
100
AcDbEntity
  8
HIDDEN
100
AcDbSpline
210
0.0
220
0.0
230
1.0
 70
     8
 71
     3
 72
     8
 73
     4
 74
     0
 42
0.000000001
 43
0.0000000001
 40
41.0
 40
41.0
 40
41.0
 40
41.0
 40
42.0
 40
42.0
 40
42.0
 40
42.0
 10
1225.852183574324
 20
2018.955324616927
 30
0.0
 10
1226.839956967955
 20
2016.140251189495
 30
0.0
 10
1228.046440078117
 20
2013.374378028103
 30
0.0
 10
1229.450477867004
 20
2010.728544903104
 30
0.0
  0
SPLINE
  5
43F3
102
{ACAD_REACTORS
330
43FC
102
}
330
A
100
AcDbEntity
  8
HIDDEN
100
AcDbSpline
210
0.0
220
0.0
230
1.0
 70
     8
 71
     3
 72
     8
 73
     4
 74
     0
 42
0.000000001
 43
0.0000000001
 40
42.0
 40
42.0
 40
42.0
 40
42.0
 40
43.0
 40
43.0
 40
43.0
 40
43.0
 10
1229.450477867004
 20
2010.728544903104
 30
0.0
 10
1230.918034598915
 20
2007.962779400937
 30
0.0
 10
1232.55493929248
 20
2005.302842917401
 30
0.0
 10
1234.396450344039
 20
2002.748735452498
 30
0.0
  0
SPLINE
  5
43F6
102
{ACAD_REACTORS
330
43FC
102
}
330
A
100
AcDbEntity
  8
HIDDEN
100
AcDbSpline
210
0.0
220
0.0
230
1.0
 70
     8
 71
     3
 72
     8
 73
     4
 74
     0
 42
0.000000001
 43
0.0000000001
 40
45.0
 40
45.0
 40
45.0
 40
45.0
 40
46.0
 40
46.0
 40
46.0
 40
46.0
 10
1247.054106970665
 20
1989.646607713544
 30
0.0
 10
1249.594111077033
 20
1987.741577718959
 30
0.0
 10
1252.17642525901
 20
1985.914170025937
 30
0.0
 10
1254.956347949325
 20
1984.390253689496
 30
0.0
  0
SPLINE
  5
43F7
102
{ACAD_REACTORS
330
43FC
102
}
330
A
100
AcDbEntity
  8
HIDDEN
100
AcDbSpline
210
0.0
220
0.0
230
1.0
 70
     8
 71
     3
 72
     8
 73
     4
 74
     0
 42
0.000000001
 43
0.0000000001
 40
46.0
 40
46.0
 40
46.0
 40
46.0
 40
47.0
 40
47.0
 40
47.0
 40
47.0
 10
1254.956347949325
 20
1984.390253689496
 30
0.0
 10
1257.700958413688
 20
1982.880333052366
 30
0.0
 10
1260.501982312194
 20
1981.539760376888
 30
0.0
 10
1263.415940738212
 20
1980.410845738675
 30
0.0
  0
SPLINE
  5
43FA
102
{ACAD_REACTORS
330
43FC
102
}
330
A
100
AcDbEntity
  8
HIDDEN
100
AcDbSpline
210
0.0
220
0.0
230
1.0
 70
     8
 71
     3
 72
     8
 73
     4
 74
     0
 42
0.000000001
 43
0.0000000001
 40
49.0
 40
49.0
 40
49.0
 40
49.0
 40
50.0
 40
50.0
 40
50.0
 40
50.0
 10
1281.344108577033
 20
1976.304507561031
 30
0.0
 10
1284.385051059485
 20
1976.043433939283
 30
0.0
 10
1287.433045221206
 20
1976.071748315578
 30
0.0
 10
1290.481039382926
 20
1976.057644957043
 30
0.0
  0
SPLINE
  5
43FB
102
{ACAD_REACTORS
330
43FC
102
}
330
A
100
AcDbEntity
  8
HIDDEN
100
AcDbSpline
210
0.0
220
0.0
230
1.0
 70
    24
 71
     3
 72
     8
 73
     4
 74
     0
 42
0.000000001
 43
0.0000000001
 40
50.0
 40
50.0
 40
50.0
 40
50.0
 40
51.0
 40
51.0
 40
51.0
 40
51.0
 10
1290.481039382926
 20
1976.057644957043
 30
0.0
 10
1290.481039382926
 20
1976.057644957043
 30
0.0
 10
1538.462653361045
 20
1976.057644957043
 30
0.0
 10
1538.462653361045
 20
1976.057644957043
 30
0.0
  0
DIMENSION
  5
4401
102
{ACAD_REACTORS
330
4403
102
}
102
{ACAD_XDICTIONARY
360
4402
102
}
330
A
100
AcDbEntity
  8
DIM
100
AcDbDimension
  2
*D34
 10
1006.955962495781
 20
1967.61145683113
 30
0.0
 11
974.9559624957815
 21
2197.611934631496
 31
0.0
 70
    32
 71
     5
 42
460.0009556007335
 73
     0
 74
     0
 75
     0
  3
tfrom線あり
100
AcDbAlignedDimension
 13
883.8147121541703
 23
2427.612412431863
 33
0.0
 14
883.7715235353658
 24
1967.61145683113
 34
0.0
 50
90.0
100
AcDbRotatedDimension
  0
SPLINE
  5
4411
330
A
100
AcDbEntity
  8
HIDDEN
100
AcDbSpline
210
0.0
220
0.0
230
1.0
 70
  1064
 71
     3
 72
    83
 73
    79
 74
    77
 42
0.000000001
 43
0.0000000001
 44
0.0
 40
0.0
 40
0.0
 40
0.0
 40
0.0
 40
0.9735595234184516
 40
2.485129592246142
 40
4.205195033090472
 40
6.07368026785463
 40
7.126697671005912
 40
14.08609074230545
 40
22.55987418980689
 40
32.48587253943159
 40
43.38469639638735
 40
52.58353489888662
 40
69.52595969636556
 40
82.76972118387845
 40
100.7699865231524
 40
109.716636222976
 40
117.8614344206565
 40
120.8165796297792
 40
139.2826057522731
 40
150.7328664846049
 40
161.676936761342
 40
178.1588304059444
 40
185.2777238282375
 40
204.7163658984669
 40
221.4210219878115
 40
241.424787682864
 40
265.928770222477
 40
280.0413077595601
 40
296.7691002242673
 40
304.4921805343989
 40
314.3508806702515
 40
327.1909027974087
 40
342.885365526759
 40
371.5523788675806
 40
387.0760367606006
 40
392.8973862048105
 40
403.0352083319889
 40
412.5114164466509
 40
424.6935253489377
 40
441.5057210312537
 40
453.8372829694098
 40
462.4899841261949
 40
477.0311046871653
 40
487.7951112944753
 40
493.3715207755886
 40
501.4232580278027
 40
518.3742284718344
 40
531.3198331613069
 40
550.0630143460324
 40
561.4555076235497
 40
575.9109850986947
 40
583.6200842133471
 40
600.9221569063948
 40
613.3853158205559
 40
630.66526407058
 40
644.3393611395403
 40
655.0872262836739
 40
658.9309666237539
 40
665.9906641622537
 40
673.0255029589316
 40
679.9854864745762
 40
686.1784503172773
 40
690.7484070605922
 40
696.8384990631622
 40
702.8875358200834
 40
706.0520134949398
 40
710.2189379641902
 40
713.7010743251325
 40
716.6219070572798
 40
716.9796121399426
 40
717.4854717537903
 40
718.0913872634072
 40
718.421087656062
 40
719.1210234003398
 40
719.8093001953612
 40
720.3374490629305
 40
720.7748546955874
 40
721.085299848464
 40
721.085299848464
 40
721.085299848464
 40
721.085299848464
 10
258.0927049301865
 20
1007.743171108938
 30
0.0
 10
258.4183855589881
 20
1007.727418270893
 30
0.0
 10
259.249725142021
 20
1007.687207227763
 30
0.0
 10
260.5697368430452
 20
1007.122675895209
 30
0.0
 10
261.8736690029243
 20
1005.956973749047
 30
0.0
 10
262.4433299664715
 20
1004.4761908136
 30
0.0
 10
263.2140099396026
 20
1001.283021408884
 30
0.0
 10
264.8521141727716
 20
996.020390883659
 30
0.0
 10
267.9603410009867
 20
988.1529604544008
 30
0.0
 10
272.5216209523861
 20
979.4896500705186
 30
0.0
 10
278.2698953551051
 20
971.2581692696538
 30
0.0
 10
286.5733349420702
 20
962.092273832259
 30
0.0
 10
296.6625690397153
 20
953.5957374477599
 30
0.0
 10
310.1633912723688
 20
944.8567897481187
 30
0.0
 10
322.0982289548655
 20
938.7173731268705
 30
0.0
 10
332.8025883296883
 20
933.9984715261546
 30
0.0
 10
339.0105635635715
 20
931.5219649386407
 30
0.0
 10
348.2363426616798
 20
928.0560683324738
 30
0.0
 10
358.6374656896462
 20
924.587249145031
 30
0.0
 10
371.7114747383723
 20
920.766593124399
 30
0.0
 10
384.2275913277991
 20
917.4055748942607
 30
0.0
 10
395.4017012568983
 20
914.621532165115
 30
0.0
 10
409.3643760553986
 20
911.3251022696771
 30
0.0
 10
423.4484194911226
 20
908.2209525921359
 30
0.0
 10
441.8050849018895
 20
904.5671449409375
 30
0.0
 10
461.8986540908178
 20
901.011205412831
 30
0.0
 10
481.2252225075311
 20
898.1064858847014
 30
0.0
 10
499.535337546749
 20
895.8466631941203
 30
0.0
 10
512.3271906479146
 20
894.5604434270808
 30
0.0
 10
523.7278623995242
 20
893.6554197188848
 30
0.0
 10
533.8454585338461
 20
892.9579115836386
 30
0.0
 10
546.6422706692157
 20
892.5862481826614
 30
0.0
 10
565.7098127933759
 20
892.7709709800163
 30
0.0
 10
585.6712889643989
 20
892.7314208107011
 30
0.0
 10
602.3421405767582
 20
892.697758949743
 30
0.0
 10
612.8360832427079
 20
892.6719530209248
 30
0.0
 10
621.3162218254326
 20
892.812388195882
 30
0.0
 10
631.8944434929459
 20
893.5008634657288
 30
0.0
 10
644.6813083507268
 20
894.4696573793331
 30
0.0
 10
658.3877780460465
 20
895.8670198271722
 30
0.0
 10
670.892743252033
 20
897.4057351928119
 30
0.0
 10
682.623913294233
 20
899.0225197333516
 30
0.0
 10
693.8130667622255
 20
900.7383825175277
 30
0.0
 10
703.963918765328
 20
902.4497269841715
 30
0.0
 10
711.9682017721984
 20
903.8783360746489
 30
0.0
 10
721.9882861588595
 20
905.748739304625
 30
0.0
 10
734.3890686403516
 20
908.249156924092
 30
0.0
 10
750.2265045148147
 20
911.7219144304892
 30
0.0
 10
764.1977356386922
 20
915.0477497177337
 30
0.0
 10
778.6001863365063
 20
918.7227161532791
 30
0.0
 10
789.3850798531702
 20
921.6967672378896
 30
0.0
 10
801.9765785536677
 20
925.5084937891971
 30
0.0
 10
813.8137398030959
 20
929.5202207147714
 30
0.0
 10
828.3837132929967
 20
935.3330922013631
 30
0.0
 10
841.477142500511
 20
941.5377769653478
 30
0.0
 10
853.5225371916254
 20
948.5096257154473
 30
0.0
 10
861.2278703196811
 20
953.955511948253
 30
0.0
 10
866.8468310319123
 20
958.4862302523254
 30
0.0
 10
871.3092754601681
 20
962.4735352902683
 30
0.0
 10
876.2074824687031
 20
967.5086411122402
 30
0.0
 10
880.500429505547
 20
972.7015739876324
 30
0.0
 10
883.8763730946571
 20
977.5569471912809
 30
0.0
 10
886.7779863774219
 20
982.3702287363315
 30
0.0
 10
889.346194503624
 20
987.3176711585954
 30
0.0
 10
891.374430379685
 20
992.0043795218642
 30
0.0
 10
892.9348232183887
 20
996.1801960629471
 30
0.0
 10
894.0588654834523
 20
999.6190288555298
 30
0.0
 10
895.0262945579857
 20
1002.96727926073
 30
0.0
 10
895.536714361024
 20
1005.252482641888
 30
0.0
 10
896.3292666647282
 20
1006.239513841928
 30
0.0
 10
896.6697884773982
 20
1006.592363880878
 30
0.0
 10
897.0452907950437
 20
1006.895158270436
 30
0.0
 10
897.5031208786347
 20
1007.19127568756
 30
0.0
 10
898.0177817260853
 20
1007.450881640361
 30
0.0
 10
898.6319633263461
 20
1007.628323868325
 30
0.0
 10
899.1706092344211
 20
1007.760490331198
 30
0.0
 10
899.5983880908416
 20
1007.753935349222
 30
0.0
 10
899.8471234466488
 20
1007.740990119993
 30
0.0
 10
899.950377581101
 20
1007.73561634257
 30
0.0
 11
258.0927049301865
 21
1007.743171108938
 31
0.0
 11
259.0618803693074
 21
1007.650882898187
 31
0.0
 11
260.4631177431294
 21
1007.083980882685
 31
0.0
 11
261.7261217122962
 21
1005.916313937595
 31
0.0
 11
262.4899556266735
 21
1004.211088197765
 31
0.0
 11
262.7562872588308
 21
1003.192307989353
 31
0.0
 11
264.7744670993764
 21
996.5319700060321
 31
0.0
 11
267.9115742393783
 21
988.6602761154328
 31
0.0
 11
272.5394291815301
 21
979.8791371305884
 31
0.0
 11
278.7887361887757
 21
970.9499421280062
 31
0.0
 11
284.9409877474193
 21
964.1111973196199
 31
0.0
 11
297.8383636193544
 21
953.1246849687301
 31
0.0
 11
308.9248998275996
 21
945.8799673592301
 31
0.0
 11
324.8839524804683
 21
937.5542126963043
 31
0.0
 11
333.0689044370903
 21
933.9418585720324
 31
0.0
 11
340.6318045440726
 21
930.9185690303667
 31
0.0
 11
343.3981047915448
 21
929.8791142945382
 31
0.0
 11
360.8978433020018
 21
923.9839236426377
 31
0.0
 11
371.8850302398183
 21
920.7605412526856
 31
0.0
 11
382.4513339659699
 21
917.9099448608973
 31
0.0
 11
398.4412456208998
 21
913.9130031075662
 31
0.0
 11
405.3698196091146
 21
912.2779171624851
 31
0.0
 11
424.3529834507641
 21
908.0945816397735
 31
0.0
 11
440.7365172035525
 21
904.834925701715
 31
0.0
 11
460.434279790515
 21
901.3494141108262
 31
0.0
 11
484.6690559377991
 21
897.727151642052
 31
0.0
 11
498.6757219042655
 21
896.0017461130786
 31
0.0
 11
515.3207635530223
 21
894.3399310651663
 31
0.0
 11
523.0192004712063
 21
893.723458443323
 31
0.0
 11
532.857074755932
 21
893.0829914835246
 31
0.0
 11
545.6910344483218
 21
892.6884704574692
 31
0.0
 11
561.3854856647448
 21
892.707480409717
 31
0.0
 11
590.0524950681062
 21
892.7225054035322
 31
0.0
 11
605.5761180299392
 21
892.6895733769444
 31
0.0
 11
611.3974674413756
 21
892.6889556628031
 31
0.0
 11
621.5330807629834
 21
892.9005686991537
 31
0.0
 11
630.9929436471145
 21
893.4569089240377
 31
0.0
 11
643.1387070110159
 21
894.39723313158
 31
0.0
 11
659.8659290008508
 21
896.0854180039406
 31
0.0
 11
672.1053237359246
 21
897.5902888800052
 31
0.0
 11
680.6771256364923
 21
898.7707334937223
 31
0.0
 11
695.0509591679046
 21
900.9700735720018
 31
0.0
 11
705.6651758785321
 21
902.7595544637826
 31
0.0
 11
711.1548449185138
 21
903.7392873521331
 31
0.0
 11
719.0698843741616
 21
905.2166577167446
 31
0.0
 11
735.6866616828576
 21
908.5660025582982
 31
0.0
 11
748.3318595605938
 21
911.3386639889433
 31
0.0
 11
766.5662832759409
 21
915.6760171786938
 31
0.0
 11
777.6028453566847
 21
918.5014729854908
 31
0.0
 11
791.5311584405423
 21
922.3696668369502
 31
0.0
 11
798.9084951682587
 21
924.6068775926507
 31
0.0
 11
815.2801504270385
 21
930.204254081969
 31
0.0
 11
826.8494905775855
 21
934.8389815389588
 31
0.0
 11
842.441795132786
 21
942.2872464497542
 31
0.0
 11
854.2434157553276
 21
949.1939592230602
 31
0.0
 11
863.0063866297495
 21
955.4170570537646
 31
0.0
 11
865.9976517365805
 21
957.8309072692117
 31
0.0
 11
871.2584485880583
 21
962.538703550125
 31
0.0
 11
876.1541962749553
 21
967.5904964478483
 31
0.0
 11
880.581901262473
 21
972.9604870513368
 31
0.0
 11
884.1202743551532
 21
978.0430766485796
 31
0.0
 11
886.4800757416383
 21
981.9566226176609
 31
0.0
 11
889.2878289053218
 21
987.360856399761
 31
0.0
 11
891.6935219628812
 21
992.9109452818776
 31
0.0
 11
892.8006148376486
 21
995.8754459685539
 31
0.0
 11
894.1018525096908
 21
999.8339861102344
 31
0.0
 11
895.0473158277148
 21
1003.185310139699
 31
0.0
 11
896.0787275326371
 21
1005.917974360589
 31
0.0
 11
896.3015438305625
 21
1006.197806137808
 31
0.0
 11
896.6532242891006
 21
1006.561419674416
 31
0.0
 11
897.124866914987
 21
1006.941796905913
 31
0.0
 11
897.4015588156924
 21
1007.121084220023
 31
0.0
 11
898.0286533913536
 21
1007.431990056723
 31
0.0
 11
898.6853092438577
 21
1007.638213328778
 31
0.0
 11
899.2029240530534
 21
1007.743171108938
 31
0.0
 11
899.6402737044539
 21
1007.750168958592
 31
0.0
 11
899.950377581101
 21
1007.73561634257
 31
0.0
  0
DIMENSION
  5
4418
102
{ACAD_REACTORS
330
441A
102
}
102
{ACAD_XDICTIONARY
360
4419
102
}
330
A
100
AcDbEntity
  8
DIM
100
AcDbDimension
  2
*D35
 10
1018.81689539039
 20
848.1501260791088
 30
0.0
 11
986.8123937022566
 21
928.1918534124065
 31
0.0
 70
    32
 71
     5
 42
160.0834546665957
 73
     0
 74
     0
 75
     0
  3
tfrom線あり
100
AcDbAlignedDimension
 13
891.323561154792
 23
1008.233580745704
 33
0.0
 14
602.0933718914146
 24
848.1501260791088
 34
0.0
 50
90.0
100
AcDbRotatedDimension
  0
CIRCLE
  5
443D
102
{ACAD_REACTORS
330
444B
330
445A
102
}
330
A
100
AcDbEntity
  8
HIDDEN
 48
0.5
100
AcDbCircle
 10
579.0499912731275
 20
2362.612412431863
 30
0.0
 40
17.5
  0
CIRCLE
  5
443E
102
{ACAD_REACTORS
330
445A
102
}
330
A
100
AcDbEntity
  8
HIDDEN
 48
0.5
100
AcDbCircle
 10
679.0499912731275
 20
2362.612412431863
 30
0.0
 40
17.5
  0
CIRCLE
  5
443F
102
{ACAD_REACTORS
330
444B
102
}
330
A
100
AcDbEntity
  8
HIDDEN
 48
0.5
100
AcDbCircle
 10
479.0499912731275
 20
2362.612412431863
 30
0.0
 40
17.5
  0
DIMENSION
  5
4449
102
{ACAD_REACTORS
330
444B
102
}
102
{ACAD_XDICTIONARY
360
444A
102
}
330
A
100
AcDbEntity
  8
DIM
100
AcDbDimension
  2
*D37
 10
579.0499912731275
 20
2476.856089214458
 30
0.0
 11
529.0499912731275
 21
2508.860590902591
 31
0.0
 70
    32
 71
     5
 42
100.0
 73
     0
 74
     0
 75
     0
  3
tfrom線あり
100
AcDbAlignedDimension
 13
479.0499912731275
 23
2362.612412431863
 33
0.0
 14
579.0499912731275
 24
2362.612412431863
 34
0.0
100
AcDbRotatedDimension
  0
DIMENSION
  5
4458
102
{ACAD_REACTORS
330
445A
102
}
102
{ACAD_XDICTIONARY
360
4459
102
}
330
A
100
AcDbEntity
  8
DIM
100
AcDbDimension
  2
*D38
 10
679.0499912731275
 20
2476.856089214458
 30
0.0
 11
629.0499912731275
 21
2508.860590902591
 31
0.0
 70
    32
 71
     5
 42
100.0
 73
     0
 74
     0
 75
     0
  3
tfrom線あり
100
AcDbAlignedDimension
 13
579.0499912731275
 23
2362.612412431863
 33
0.0
 14
679.0499912731275
 24
2362.612412431863
 34
0.0
100
AcDbRotatedDimension
  0
LINE
  5
446A
102
{ACAD_REACTORS
330
446E
102
}
330
A
100
AcDbEntity
  8
DIM
100
AcDbLine
 10
1268.466152285873
 20
2427.612412431864
 30
0.0
 11
1808.466152285873
 21
2427.612412431863
 31
0.0
  0
HATCH
  5
446E
330
A
100
AcDbEntity
  8
DIM
100
AcDbHatch
 10
0.0
 20
0.0
 30
0.0
210
0.0
220
0.0
230
1.0
  2
ANSI31
 70
     0
 71
     1
 91
        1
 92
        1
 93
        4
 72
     1
 10
1268.466152285873
 20
2017.612412431864
 11
1268.466152285873
 21
2427.612412431864
 72
     1
 10
1268.466152285873
 20
2427.612412431864
 11
1808.466152285873
 21
2427.612412431863
 72
     1
 10
1808.466152285873
 20
2427.612412431863
 11
1808.466152285873
 21
2017.612412431863
 72
     1
 10
1808.466152285873
 20
2017.612412431863
 11
1268.466152285873
 21
2017.612412431864
 97
        4
330
3DB7
330
446A
330
3DB5
330
3DB6
 75
     0
 76
     1
 52
0.0
 41
6.0
 77
     0
 78
     1
 53
45.0
 43
0.0
 44
0.0
 45
-13.47038418160373
 46
13.47038418160373
 79
     0
 98
        1
 10
0.0
 20
0.0
1001
ACAD
1010
0.0
1020
0.0
1030
0.0
  0
MTEXT
  5
4492
330
A
100
AcDbEntity
  8
DIM
390
1D
100
AcDbMText
 10
1299.487507320289
 20
1741.185610483662
 30
34.99521132346014
 40
24.0
 41
1169.771715461011
 46
113.3803926472427
 71
     1
 72
     1
  1
{※陶器製品には寸法公差があります。\P　必ず現物を合わせてカウンターに\P  切込を行ってください。}
  7
ＭＳ ゴシック
 73
     1
 44
1.0
1001
ACAD
1000
ACAD_MTEXT_DEFINED_HEIGHT_BEGIN
1070
    46
1040
113.3803926472427
1000
ACAD_MTEXT_DEFINED_HEIGHT_END
  0
MTEXT
  5
44B7
330
A
100
AcDbEntity
  8
TEMPLATE
 62
     1
390
1D
100
AcDbMText
 10
127.6517621204815
 20
234.7117863643599
 30
0.0
 40
24.4326171875
 41
0.0
 46
111.8649296953154
 71
     1
 72
     1
  1
{\C256;壁掛け,半埋め込み/オーバーフロー付き/\Pカウンター固定金具,壁取付ボルト,型紙付属/\P陶器/ホワイト}
  7
ＭＳ ゴシック
 73
     1
 44
0.9822934569727008
1001
ACAD
1000
ACAD_MTEXT_DEFINED_HEIGHT_BEGIN
1070
    46
1040
111.8649296953154
1000
ACAD_MTEXT_DEFINED_HEIGHT_END
  0
VIEWPORT
  5
349
330
B
100
AcDbEntity
 67
     1
  8
0
100
AcDbViewport
 10
202.5
 20
128.5
 30
0.0
 40
486.0
 41
308.4
 68
     1
 69
     1
 12
202.5
 22
128.5
 13
0.0
 23
0.0
 14
0.5
 24
0.5
 15
0.0
 25
0.0
 16
0.0
 26
0.0
 36
1.0
 17
0.0
 27
0.0
 37
0.0
 42
50.0
 43
0.0
 44
0.0
 45
308.4
 50
0.0
 51
0.0
 72
   100
 90
   557152
  1

281
     0
 71
     1
 74
     0
110
0.0
120
0.0
130
0.0
111
1.0
121
0.0
131
0.0
112
0.0
122
1.0
132
0.0
 79
     0
146
0.0
170
     0
 61
     5
348
26C
292
     1
282
     1
141
0.0
142
0.0
 63
   256
  0
VIEWPORT
  5
34A
330
B
100
AcDbEntity
 67
     1
  8
0
100
AcDbViewport
 10
202.5
 20
128.5
 30
0.0
 40
324.0
 41
205.6
 68
     2
 69
     2
 12
986.6781359294573
 22
1427.077061889956
 13
0.0
 23
0.0
 14
0.5
 24
0.5
 15
0.0
 25
0.0
 16
0.0
 26
0.0
 36
1.0
 17
0.0
 27
0.0
 37
0.0
 42
50.0
 43
0.0
 44
0.0
 45
2890.021615685494
 50
0.0
 51
0.0
 72
   100
 90
   557152
  1

281
     0
 71
     1
 74
     0
110
0.0
120
0.0
130
0.0
111
1.0
121
0.0
131
0.0
112
0.0
122
1.0
132
0.0
 79
     0
146
0.0
170
     0
 61
     5
348
26C
292
     1
282
     1
141
0.0
142
0.0
 63
   256
  0
ENDSEC
  0
SECTION
  2
OBJECTS
  0
DICTIONARY
  5
19
330
0
100
AcDbDictionary
281
     1
  3
ACAD_COLOR
350
674
  3
ACAD_DETAILVIEWSTYLE
350
BBF
  3
ACAD_FIELDLIST
350
146A
  3
ACAD_GROUP
350
1A
  3
ACAD_IMAGE_VARS
350
27B
  3
ACAD_LAYOUT
350
1E
  3
ACAD_MATERIAL
350
263
  3
ACAD_MLEADERSTYLE
350
336
  3
ACAD_MLINESTYLE
350
1B
  3
ACAD_PLOTSETTINGS
350
22
  3
ACAD_PLOTSTYLENAME
350
1F
  3
ACAD_SCALELIST
350
241
  3
ACAD_SECTIONVIEWSTYLE
350
BC0
  3
ACAD_TABLESTYLE
350
278
  3
ACAD_VISUALSTYLE
350
267
  3
ACDB_RECOMPOSE_DATA
350
44BB
  3
AcDbVariableDictionary
350
330
  3
APPDATA
350
27A
  3
DimOffsetDictionary
350
E3E
  0
SUN
  5
904
330
15
100
AcDbSun
 90
        1
290
     0
 63
     7
421
 16777215
 40
1.0
291
     1
 91
  2455826
 92
 54000000
292
     0
 70
     2
 71
   256
280
     1
  0
DICTIONARY
  5
2E1
330
2
100
AcDbDictionary
280
     1
281
     1
  3
ACAD_LAYERSTATES
360
2E2
  3
ACLYDICTIONARY
360
DF9
  0
DICTIONARY
  5
374D
330
A
100
AcDbDictionary
280
     1
281
     1
  3
ACAD_SORTENTS
360
374E
  0
DICTIONARY
  5
1468
330
1466
100
AcDbDictionary
280
     1
281
     1
  3
ACAD_FIELD
360
44B8
  0
DICTIONARY
  5
3C96
330
3C95
100
AcDbDictionary
280
     1
281
     1
  3
ACAD_DIMASSOC
360
3C97
  0
DICTIONARY
  5
3CCE
330
3CCD
100
AcDbDictionary
280
     1
281
     1
  3
ACAD_DIMASSOC
360
3CCF
  0
DICTIONARY
  5
3CEE
330
3CED
100
AcDbDictionary
280
     1
281
     1
  3
ACAD_DIMASSOC
360
3CEF
  0
DICTIONARY
  5
3CFD
330
3CFC
100
AcDbDictionary
280
     1
281
     1
  3
ACAD_DIMASSOC
360
3CFE
  0
DICTIONARY
  5
3D79
330
3D78
100
AcDbDictionary
280
     1
281
     1
  3
ACAD_DIMASSOC
360
3D7A
  0
DICTIONARY
  5
3DBD
330
3DBC
100
AcDbDictionary
280
     1
281
     1
  3
ACAD_DIMASSOC
360
3DBE
  0
DICTIONARY
  5
3DDB
330
3DDA
100
AcDbDictionary
280
     1
281
     1
  3
ACAD_DIMASSOC
360
3DDC
  0
DICTIONARY
  5
439C
330
439B
100
AcDbDictionary
280
     1
281
     1
  3
ACAD_DIMASSOC
360
439D
  0
DICTIONARY
  5
4402
330
4401
100
AcDbDictionary
280
     1
281
     1
  3
ACAD_DIMASSOC
360
4403
  0
DICTIONARY
  5
4419
330
4418
100
AcDbDictionary
280
     1
281
     1
  3
ACAD_DIMASSOC
360
441A
  0
DICTIONARY
  5
444A
330
4449
100
AcDbDictionary
280
     1
281
     1
  3
ACAD_DIMASSOC
360
444B
  0
DICTIONARY
  5
4459
330
4458
100
AcDbDictionary
280
     1
281
     1
  3
ACAD_DIMASSOC
360
445A
  0
DICTIONARY
  5
674
102
{ACAD_REACTORS
330
19
102
}
330
19
100
AcDbDictionary
281
     1
  0
DICTIONARY
  5
BBF
102
{ACAD_REACTORS
330
19
102
}
330
19
100
AcDbDictionary
281
     1
  0
FIELDLIST
  5
146A
102
{ACAD_REACTORS
330
19
102
}
330
19
100
AcDbIdSet
 90
        2
330
146B
330
1467
100
AcDbFieldList
  0
DICTIONARY
  5
1A
102
{ACAD_REACTORS
330
19
102
}
330
19
100
AcDbDictionary
281
     1
  3
*A1
350
36AC
  3
*A2
350
3DB9
  3
*A3
350
43FC
  0
RASTERVARIABLES
  5
27B
102
{ACAD_REACTORS
330
19
102
}
330
19
100
AcDbRasterVariables
 90
        0
 70
     1
 71
     1
 72
     1
  0
DICTIONARY
  5
1E
102
{ACAD_REACTORS
330
19
102
}
330
19
100
AcDbDictionary
281
     1
  3
Layout1
350
21
  3
Model
350
20
  0
DICTIONARY
  5
263
102
{ACAD_REACTORS
330
19
102
}
330
19
100
AcDbDictionary
281
     1
  3
ByBlock
350
265
  3
ByLayer
350
264
  3
Global
350
266
  0
DICTIONARY
  5
336
102
{ACAD_REACTORS
330
19
102
}
330
19
100
AcDbDictionary
281
     1
  3
Standard
350
DAB
  0
DICTIONARY
  5
1B
102
{ACAD_REACTORS
330
19
102
}
330
19
100
AcDbDictionary
281
     1
  3
Standard
350
1C
  0
DICTIONARY
  5
22
102
{ACAD_REACTORS
330
19
102
}
330
19
100
AcDbDictionary
281
     1
  0
ACDBDICTIONARYWDFLT
  5
1F
102
{ACAD_REACTORS
330
19
102
}
330
19
100
AcDbDictionary
281
     1
  3
Normal
350
1D
100
AcDbDictionaryWithDefault
340
1D
  0
DICTIONARY
  5
241
102
{ACAD_REACTORS
330
19
102
}
330
19
100
AcDbDictionary
281
     1
  3
A0
350
242
  3
A1
350
243
  3
A2
350
244
  3
A3
350
245
  3
A4
350
246
  3
A5
350
247
  3
A6
350
248
  3
A7
350
249
  3
A8
350
24A
  3
A9
350
24B
  3
B0
350
24C
  3
B1
350
24D
  3
B2
350
24E
  3
B3
350
24F
  3
B4
350
250
  3
B5
350
251
  3
B6
350
252
  3
B7
350
253
  3
B8
350
254
  3
B9
350
255
  3
C0
350
256
  3
C1
350
257
  3
C2
350
258
  3
C3
350
259
  3
C4
350
25A
  3
C5
350
25B
  3
C6
350
25C
  3
C7
350
25D
  3
C8
350
25E
  3
C9
350
25F
  3
D0
350
260
  3
D1
350
261
  3
D2
350
262
  0
DICTIONARY
  5
BC0
102
{ACAD_REACTORS
330
19
102
}
330
19
100
AcDbDictionary
281
     1
  0
DICTIONARY
  5
278
102
{ACAD_REACTORS
330
19
102
}
330
19
100
AcDbDictionary
281
     1
  3
Standard
350
279
  0
DICTIONARY
  5
267
102
{ACAD_REACTORS
330
19
102
}
330
19
100
AcDbDictionary
281
     1
  3
2dWireframe
350
26C
  3
3D Hidden
350
26E
  3
3dWireframe
350
26D
  3
Basic
350
26F
  3
Brighten
350
273
  3
ColorChange
350
277
  3
Conceptual
350
271
  3
Dim
350
272
  3
EdgeColorOff
350
8FE
  3
Facepattern
350
276
  3
Flat
350
268
  3
FlatWithEdges
350
269
  3
Gouraud
350
26A
  3
GouraudWithEdges
350
26B
  3
Hidden
350
8FB
  3
JitterOff
350
8FC
  3
Linepattern
350
275
  3
OverhangOff
350
8FD
  3
Realistic
350
270
  3
Shaded
350
903
  3
Shaded with edges
350
902
  3
Shades of Gray
350
8FF
  3
Sketchy
350
900
  3
Thicken
350
274
  3
Wireframe
350
8FA
  3
X-Ray
350
901
  0
XRECORD
  5
44BB
102
{ACAD_REACTORS
330
19
102
}
330
19
100
AcDbXrecord
280
     1
 90
        1
330
279
  0
DICTIONARY
  5
330
102
{ACAD_REACTORS
330
19
102
}
330
19
100
AcDbDictionary
281
     1
  3
CANNOSCALE
350
331
  3
CMLEADERSTYLE
350
DB1
  3
CTABLESTYLE
350
335
  3
HPTRANSPARENCY
350
D52
  3
XCLIPFRAME
350
896
  0
DICTIONARY
  5
27A
102
{ACAD_REACTORS
330
19
102
}
330
19
100
AcDbDictionary
281
     1
  0
DICTIONARY
  5
E3E
102
{ACAD_REACTORS
330
19
102
}
330
19
100
AcDbDictionary
281
     1
  3
DIMRAILANGLE
350
ECE
  3
DIMRAILFIRSTOFFSET
350
ECC
  3
DIMRAILOFFSET
350
ECD
  3
DIMRAILSENABLED
350
ECF
  0
DICTIONARY
  5
2E2
102
{ACAD_REACTORS
330
2E1
102
}
330
2E1
100
AcDbDictionary
281
     1
  0
DICTIONARY
  5
DF9
102
{ACAD_REACTORS
330
2E1
102
}
330
2E1
100
AcDbDictionary
281
     1
1001
ACAD
1000
<All
  0
SORTENTSTABLE
  5
374E
102
{ACAD_REACTORS
330
374D
102
}
330
374D
100
AcDbSortentsTable
330
A
331
17A
  5
180
331
17B
  5
181
331
17C
  5
182
331
17E
  5
183
331
180
  5
184
331
181
  5
185
331
182
  5
186
331
183
  5
187
331
184
  5
188
331
185
  5
189
331
186
  5
68C
331
187
  5
7D9
331
188
  5
DAC
331
189
  5
121B
331
68C
  5
1466
331
DAC
  5
262A
331
121B
  5
262B
331
1466
  5
262C
331
146D
  5
2812
331
262A
  5
2813
331
262B
  5
2814
331
262C
  5
28CA
331
2812
  5
2A52
331
2813
  5
2B9B
331
2814
  5
35AE
331
28CA
  5
369A
331
2A52
  5
369B
331
2B9B
  5
369C
331
369B
  5
36A7
331
369C
  5
36A8
331
36A7
  5
36A9
331
36A8
  5
38BF
331
36A9
  5
38C0
331
36AA
  5
38C1
331
36AB
  5
38C2
331
3BDE
  5
3BE6
331
3BE2
  5
3BEB
331
3BE3
  5
3BEF
331
3BE4
  5
3BF3
331
3BE5
  5
3BF7
331
3BE6
  5
3BFB
331
3BEB
  5
3C00
331
3BEF
  5
3C01
331
3BF3
  5
3C02
331
3BF7
  5
3C06
331
3BFB
  5
3C0A
331
3C00
  5
3C0E
331
3C01
  5
3C0F
331
3C02
  5
3C10
331
3C06
  5
3C11
331
3C0A
  5
3C12
331
3C0E
  5
3C13
331
3C95
  5
3CB9
331
3CBA
  5
3CDE
331
3CBB
  5
3CED
331
3CBD
  5
3D0C
331
3CCD
  5
3D1B
331
3CED
  5
3D1D
331
3CFC
  5
3D54
331
0
  5
3D55
331
3D56
  5
3D62
331
3D5A
  5
3D63
331
3D60
  5
3D65
331
3D61
  5
3D66
331
3D62
  5
3D67
331
3D63
  5
3D68
331
3D64
  5
3D6C
331
3D65
  5
3D70
331
3D66
  5
3D71
331
3D67
  5
3D72
331
3D68
  5
3D73
331
3D6C
  5
3D74
331
3D70
  5
3D75
331
3D71
  5
3D76
331
3D72
  5
3D77
331
3D73
  5
3D78
331
3D74
  5
3D87
331
3D75
  5
3D95
331
3D76
  5
3D96
331
3D77
  5
3D97
331
3D78
  5
3D98
331
3D87
  5
3D99
331
3D95
  5
3D9A
331
3D98
  5
3D9D
331
3D99
  5
3D9E
331
3D9A
  5
3D9F
331
3D9B
  5
3DA0
331
3D9C
  5
3DA1
331
3D9D
  5
3DA2
331
3D9E
  5
3DA3
331
3D9F
  5
3DA4
331
3DA0
  5
3DA5
331
3DA1
  5
3DA6
331
3DA2
  5
3DA7
331
0
  5
3DAD
331
0
  5
3DAC
331
0
  5
3DB3
331
0
  5
3DB4
331
0
  5
3DB5
331
3DB4
  5
3DB6
331
3DB5
  5
3DBB
331
3DB6
  5
3DBC
331
3DB7
  5
3DDA
331
3DB8
  5
3DE9
331
0
  5
3DB2
331
3DBC
  5
3DF8
331
0
  5
3E13
331
3DDA
  5
3E14
331
0
  5
3E15
331
0
  5
3E30
331
0
  5
3E55
331
0
  5
3E56
331
0
  5
3E57
331
3E30
  5
3E7D
331
3E55
  5
3E7E
331
3E56
  5
3E84
331
0
  5
3E85
331
3E7D
  5
3E86
331
3E7E
  5
3E87
331
3E84
  5
3E88
331
3E85
  5
3EAF
331
3E86
  5
425B
331
3E87
  5
425C
331
3E88
  5
42CA
331
0
  5
42CB
331
425B
  5
42CC
331
425C
  5
42CD
331
42CA
  5
42CE
331
42CB
  5
42CF
331
42CC
  5
42D0
331
42CD
  5
42D1
331
42CE
  5
42D2
331
42CF
  5
42D3
331
42D0
  5
42D4
331
42D1
  5
42D5
331
42D2
  5
42D6
331
42D3
  5
42D7
331
42D4
  5
42D8
331
42D5
  5
42D9
331
42D6
  5
42DA
331
42D7
  5
42DB
331
42D8
  5
42DC
331
42D9
  5
42DD
331
42DA
  5
42DE
331
42DB
  5
42DF
331
42DC
  5
42E0
331
42DD
  5
42E1
331
42DE
  5
42E2
331
42DF
  5
42E3
331
42E0
  5
42E4
331
42E1
  5
42E5
331
42E2
  5
42E6
331
42E3
  5
42E7
331
42E4
  5
42E8
331
42E5
  5
42E9
331
42E6
  5
42EA
331
42E7
  5
42EB
331
42E8
  5
42EC
331
42E9
  5
42ED
331
42EA
  5
42EE
331
42EB
  5
42EF
331
42EC
  5
42F0
331
42ED
  5
42F1
331
42EE
  5
42F2
331
42EF
  5
42F3
331
42F0
  5
42F4
331
42F1
  5
42F5
331
42F2
  5
42F6
331
42F3
  5
42F7
331
42F4
  5
42F8
331
42F5
  5
42F9
331
42F6
  5
42FA
331
42F7
  5
42FB
331
42F8
  5
42FC
331
42F9
  5
42FD
331
42FA
  5
42FE
331
42FB
  5
42FF
331
42FC
  5
4300
331
42FD
  5
4301
331
42FE
  5
4302
331
42FF
  5
4303
331
4300
  5
4304
331
4301
  5
4305
331
4302
  5
4306
331
4303
  5
4307
331
4304
  5
4308
331
4305
  5
4309
331
4306
  5
430A
331
4307
  5
430B
331
4308
  5
430C
331
4309
  5
430D
331
430A
  5
430E
331
430B
  5
430F
331
430C
  5
4310
331
430D
  5
4311
331
430E
  5
4312
331
430F
  5
4313
331
4310
  5
4314
331
4311
  5
4315
331
4312
  5
4316
331
4313
  5
4317
331
4314
  5
4318
331
4315
  5
4319
331
4316
  5
431A
331
4317
  5
431B
331
4318
  5
431C
331
4319
  5
431D
331
431A
  5
431E
331
431B
  5
431F
331
431C
  5
4320
331
431D
  5
4321
331
431E
  5
4322
331
431F
  5
4323
331
4320
  5
4324
331
4321
  5
4325
331
4322
  5
4326
331
4323
  5
4327
331
4324
  5
4328
331
4325
  5
4329
331
4326
  5
432A
331
4327
  5
432B
331
4328
  5
432C
331
4329
  5
432D
331
432A
  5
432E
331
432B
  5
432F
331
432C
  5
4330
331
432D
  5
4331
331
432E
  5
4332
331
432F
  5
4333
331
4330
  5
4334
331
4331
  5
4335
331
4332
  5
4336
331
4333
  5
4337
331
4334
  5
4338
331
4335
  5
4339
331
4336
  5
433A
331
4337
  5
433B
331
4338
  5
433C
331
4339
  5
433D
331
433A
  5
433E
331
433B
  5
433F
331
433C
  5
4340
331
433D
  5
4341
331
433E
  5
4342
331
433F
  5
4343
331
4340
  5
4344
331
4341
  5
4345
331
4342
  5
4346
331
4343
  5
4347
331
4344
  5
4348
331
4345
  5
4349
331
4346
  5
434A
331
4347
  5
434B
331
4348
  5
434C
331
4349
  5
434D
331
434A
  5
4362
331
434B
  5
4364
331
434C
  5
4365
331
434D
  5
4366
331
4362
  5
4367
331
4364
  5
4369
331
4365
  5
437C
331
4366
  5
438C
331
4367
  5
439B
331
4369
  5
43AE
331
437C
  5
43AF
331
438C
  5
43B0
331
439B
  5
43B1
331
43AE
  5
43B4
331
43AF
  5
43B5
331
43B0
  5
43B8
331
43B1
  5
43B9
331
43B4
  5
43BA
331
43B5
  5
43BB
331
43B8
  5
43BC
331
43B9
  5
43BD
331
43BA
  5
43C0
331
43BB
  5
43C1
331
43BC
  5
43C2
331
43BD
  5
43C5
331
43C0
  5
43C6
331
43C1
  5
43C7
331
43C2
  5
43C8
331
43C5
  5
43C9
331
43C6
  5
43CA
331
43C7
  5
43CD
331
43C8
  5
43CE
331
43C9
  5
43D1
331
43CA
  5
43D2
331
43CD
  5
43D5
331
43CE
  5
43D6
331
43D1
  5
43D8
331
43D2
  5
43D9
331
43D5
  5
43DA
331
43D6
  5
43DC
331
43D8
  5
43DD
331
43D9
  5
43DF
331
43DA
  5
43E0
331
43DC
  5
43E2
331
43DD
  5
43E3
331
43DF
  5
43E6
331
43E0
  5
43E7
331
43E2
  5
43EA
331
43E3
  5
43EB
331
43E6
  5
43EE
331
43E7
  5
43EF
331
43EA
  5
43F2
331
43EB
  5
43F3
331
43EE
  5
43F6
331
43EF
  5
43F7
331
43F2
  5
43FA
331
43F3
  5
43FB
331
43F6
  5
4401
331
43F7
  5
4411
331
43FA
  5
4418
331
43FB
  5
4427
331
4401
  5
443D
331
4411
  5
443E
331
4418
  5
443F
331
0
  5
4449
331
443D
  5
4458
331
443E
  5
446A
331
443F
  5
446B
331
4449
  5
446C
331
4458
  5
446D
331
446A
  5
446E
331
0
  5
3DCB
331
0
  5
3DB7
331
0
  5
3DB8
331
446E
  5
3DBA
  0
DICTIONARY
  5
44B8
102
{ACAD_REACTORS
330
1468
102
}
330
1468
100
AcDbDictionary
280
     1
281
     1
  3
TEXT
360
1467
  0
DIMASSOC
  5
3C97
102
{ACAD_REACTORS
330
3C96
102
}
330
3C96
100
AcDbDimAssoc
330
3C95
 90
        3
 70
     0
 71
     1
  1
AcDbOsnapPointRef
 72
    10
331
3C0E
 73
     0
 91
        0
 40
2.506324747424061
 10
0.0
 20
0.0
 30
0.0
 75
     0
  1
AcDbOsnapPointRef
 72
    10
331
3BE3
 73
     0
 91
        0
 40
0.9318355105541373
 10
0.0
 20
0.0
 30
0.0
 75
     0
  0
DIMASSOC
  5
3CCF
102
{ACAD_REACTORS
330
3CCE
102
}
330
3CCE
100
AcDbDimAssoc
330
3CCD
 90
        3
 70
     0
 71
     1
  1
AcDbOsnapPointRef
 72
     6
331
3C06
 73
     2
 91
        1
 40
0.4710232620680095
 10
0.0
 20
0.0
 30
0.0
332
3BDE
 74
     2
 92
        1
 75
     0
  1
AcDbOsnapPointRef
 72
    10
331
3BE2
 73
     0
 91
        0
 40
2.519260007304959
 10
0.0
 20
0.0
 30
0.0
 75
     0
  0
DIMASSOC
  5
3CEF
102
{ACAD_REACTORS
330
3CEE
102
}
330
3CEE
100
AcDbDimAssoc
330
3CED
 90
        3
 70
     0
 71
     1
  1
AcDbOsnapPointRef
 72
    10
331
3BE2
 73
     0
 91
        0
 40
2.073297156459593
 10
0.0
 20
0.0
 30
0.0
 75
     0
  1
AcDbOsnapPointRef
 72
    10
331
3BE2
 73
     0
 91
        0
 40
4.944084870840252
 10
0.0
 20
0.0
 30
0.0
 75
     0
  0
DIMASSOC
  5
3CFE
102
{ACAD_REACTORS
330
3CFD
102
}
330
3CFD
100
AcDbDimAssoc
330
3CFC
 90
        2
 70
     0
 71
     1
  1
AcDbOsnapPointRef
 72
    10
331
3BE3
 73
     0
 91
        0
 40
1.962039930828902
 10
0.0
 20
0.0
 30
0.0
 75
     0
  0
DIMASSOC
  5
3D7A
102
{ACAD_REACTORS
330
3D79
102
}
330
3D79
100
AcDbDimAssoc
330
3D78
 90
        3
 70
     0
 71
     1
  1
AcDbOsnapPointRef
 72
    13
331
3D56
 73
     2
 91
        1
 40
0.0
 10
0.0
 20
0.0
 30
0.0
 75
     0
  1
AcDbOsnapPointRef
 72
    13
331
3D68
 73
     2
 91
        1
 40
0.0
 10
0.0
 20
0.0
 30
0.0
 75
     0
  0
DIMASSOC
  5
3DBE
102
{ACAD_REACTORS
330
3DBD
102
}
330
3DBD
100
AcDbDimAssoc
330
3DBC
 90
        3
 70
     0
 71
     1
  1
AcDbOsnapPointRef
 72
    13
331
3DB7
 73
     0
 91
        0
 40
0.0
 10
0.0
 20
0.0
 30
0.0
 75
     0
  1
AcDbOsnapPointRef
 72
    13
331
3DB6
 73
     0
 91
        0
 40
0.0
 10
0.0
 20
0.0
 30
0.0
 75
     0
  0
DIMASSOC
  5
3DDC
102
{ACAD_REACTORS
330
3DDB
102
}
330
3DDB
100
AcDbDimAssoc
330
3DDA
 90
        3
 70
     0
 71
     1
  1
AcDbOsnapPointRef
 72
    13
331
3DB5
 73
     0
 91
        0
 40
0.0
 10
0.0
 20
0.0
 30
0.0
 75
     0
  1
AcDbOsnapPointRef
 72
    13
331
3DB6
 73
     0
 91
        0
 40
0.0
 10
0.0
 20
0.0
 30
0.0
 75
     0
  0
DIMASSOC
  5
439D
102
{ACAD_REACTORS
330
439C
102
}
330
439C
100
AcDbDimAssoc
330
439B
 90
        3
 70
     0
 71
     1
  1
AcDbOsnapPointRef
 72
    10
331
4323
 73
     0
 91
        0
 40
11.1053918746118
 10
0.0
 20
0.0
 30
0.0
 75
     0
  1
AcDbOsnapPointRef
 72
    10
331
431B
 73
     0
 91
        0
 40
3.888491463724157
 10
0.0
 20
0.0
 30
0.0
 75
     0
  0
DIMASSOC
  5
4403
102
{ACAD_REACTORS
330
4402
102
}
330
4402
100
AcDbDimAssoc
330
4401
 90
        3
 70
     0
 71
     1
  1
AcDbOsnapPointRef
 72
    10
331
431F
 73
     0
 91
        0
 40
7.100410573393613
 10
0.0
 20
0.0
 30
0.0
 75
     0
  1
AcDbOsnapPointRef
 72
    10
331
4318
 73
     0
 91
        0
 40
0.8679057232050637
 10
0.0
 20
0.0
 30
0.0
 75
     0
  0
DIMASSOC
  5
441A
102
{ACAD_REACTORS
330
4419
102
}
330
4419
100
AcDbDimAssoc
330
4418
 90
        3
 70
     0
 71
     1
  1
AcDbOsnapPointRef
 72
    10
331
432B
 73
     0
 91
        0
 40
5.068099775913886
 10
0.0
 20
0.0
 30
0.0
 75
     0
  1
AcDbOsnapPointRef
 72
    13
331
4366
 73
     0
 91
        0
 40
0.0
 10
0.0
 20
0.0
 30
0.0
 75
     0
  0
DIMASSOC
  5
444B
102
{ACAD_REACTORS
330
444A
102
}
330
444A
100
AcDbDimAssoc
330
4449
 90
        3
 70
     0
 71
     1
  1
AcDbOsnapPointRef
 72
     3
331
443F
 73
     0
 91
        0
 40
0.0
 10
0.0
 20
0.0
 30
0.0
 75
     0
  1
AcDbOsnapPointRef
 72
     3
331
443D
 73
     0
 91
        0
 40
0.0
 10
0.0
 20
0.0
 30
0.0
 75
     0
  0
DIMASSOC
  5
445A
102
{ACAD_REACTORS
330
4459
102
}
330
4459
100
AcDbDimAssoc
330
4458
 90
        3
 70
     0
 71
     1
  1
AcDbOsnapPointRef
 72
     3
331
443D
 73
     0
 91
        0
 40
0.0
 10
0.0
 20
0.0
 30
0.0
 75
     0
  1
AcDbOsnapPointRef
 72
     3
331
443E
 73
     0
 91
        0
 40
0.0
 10
0.0
 20
0.0
 30
0.0
 75
     0
  0
GROUP
  5
36AC
102
{ACAD_REACTORS
330
1A
102
}
330
1A
100
AcDbGroup
300

 70
     1
 71
     1
340
369B
340
369C
340
36A7
340
36A8
340
36A9
340
36AA
340
36AB
  0
GROUP
  5
3DB9
102
{ACAD_REACTORS
330
1A
102
}
330
1A
100
AcDbGroup
300

 70
     1
 71
     1
340
3DB8
340
3DB7
340
3DB4
340
3DB5
340
3DB6
  0
GROUP
  5
43FC
102
{ACAD_REACTORS
330
1A
102
}
330
1A
100
AcDbGroup
300

 70
     1
 71
     1
340
43AE
340
43AF
340
43B0
340
43B1
340
43B4
340
43B5
340
43B8
340
43B9
340
43BA
340
43BB
340
43BC
340
43BD
340
43C0
340
43C1
340
43C2
340
43C5
340
43C6
340
43C7
340
43C8
340
43C9
340
43CA
340
43CD
340
43CE
340
43D1
340
43D2
340
43D5
340
43D6
340
43D8
340
43D9
340
43DA
340
43DC
340
43DD
340
43DF
340
43E0
340
43E2
340
43E3
340
43E6
340
43E7
340
43EA
340
43EB
340
43EE
340
43EF
340
43F2
340
43F3
340
43F6
340
43F7
340
43FA
340
43FB
  0
LAYOUT
  5
21
102
{ACAD_REACTORS
330
1E
102
}
330
1E
100
AcDbPlotSettings
  1

  2
none_device
  4
ISO_A3_(420.00_x_297.00_MM)
  6

 40
7.5
 41
20.0
 42
7.5
 43
20.0
 44
420.0
 45
297.0
 46
0.0
 47
0.0
 48
0.0
 49
0.0
140
0.0
141
0.0
142
1.0
143
1.0
 70
     0
 72
     1
 73
     0
 74
     0
  7

 75
     0
 76
     0
 77
     2
 78
   300
147
1.0
148
0.0
149
0.0
100
AcDbLayout
  1
Layout1
 70
     0
 71
     0
 10
-7.5
 20
-20.0
 11
412.5
 21
277.0
 12
0.0
 22
0.0
 32
0.0
 14
0.0
 24
0.0
 34
0.0
 15
0.0
 25
0.0
 35
0.0
146
0.0
 13
0.0
 23
0.0
 33
0.0
 16
0.0
 26
0.0
 36
0.0
 17
0.0
 27
0.0
 37
0.0
 76
     0
330
B
331
349
  0
LAYOUT
  5
20
102
{ACAD_REACTORS
330
1E
102
}
330
1E
100
AcDbPlotSettings
  1

  2
Adobe PDF
  4
A4
  6

 40
0.0
 41
0.0400000000000205
 42
0.0600000000000023
 43
0.0
 44
210.0
 45
297.0
 46
0.0
 47
0.0224285714285486
 48
0.0
 49
0.0
140
0.0
141
0.0
142
1.0
143
10.00285795941698
 70
  1712
 72
     1
 73
     0
 74
     1
  7
monochrome.ctb
 75
     0
 76
    61
 77
     2
 78
   300
147
0.0999714285714286
148
-91.02013567089693
149
73.59871453016603
100
AcDbLayout
  1
Model
 70
     0
 71
     1
 10
0.0
 20
0.0
 11
2100.0
 21
2970.0
 12
0.0
 22
0.0
 32
0.0
 14
0.0
 24
0.0
 34
-0.0000000000000142
 15
2100.0
 25
2970.0
 35
34.99521132346014
146
0.0
 13
0.0
 23
0.0
 33
0.0
 16
0.0
 26
0.0
 36
0.0
 17
0.0
 27
0.0
 37
0.0
 76
     0
330
A
331
15
1001
PLOTTRANSPARENCY
1071
        0
  0
MATERIAL
  5
265
102
{ACAD_REACTORS
330
263
102
}
330
263
100
AcDbMaterial
  1
ByBlock
 72
     1
 94
      127
  0
MATERIAL
  5
264
102
{ACAD_REACTORS
330
263
102
}
330
263
100
AcDbMaterial
  1
ByLayer
 72
     1
 94
      127
  0
MATERIAL
  5
266
102
{ACAD_REACTORS
330
263
102
}
330
263
100
AcDbMaterial
  1
Global
 72
     1
 94
      127
  0
MLEADERSTYLE
  5
DAB
102
{ACAD_REACTORS
330
336
102
}
330
336
100
AcDbMLeaderStyle
170
     2
171
     1
172
     0
 90
        2
 40
0.0
 41
0.0
173
     1
 91
-1056964608
340
11
 92
       -2
290
     1
 42
2.0
291
     1
 43
8.0
  3
Standard
341
0
 44
4.0
300

342
17
174
     1
178
     6
175
     1
176
     0
 93
-1056964608
 45
4.0
292
     0
297
     0
 46
4.0
343
0
 94
-1056964608
 47
1.0
 49
1.0
140
1.0
293
     1
141
0.0
294
     1
177
     0
142
1.0
295
     0
296
     0
143
3.75
1001
ACAD_MLEADERVER
1070
     2
  0
MLINESTYLE
  5
1C
102
{ACAD_REACTORS
330
1B
102
}
330
1B
100
AcDbMlineStyle
  2
Standard
 70
     0
  3

 62
     0
 51
90.0
 52
90.0
 71
     2
 49
0.5
 62
   256
  6
BYLAYER
 49
-0.5
 62
   256
  6
BYLAYER
  0
ACDBPLACEHOLDER
  5
1D
102
{ACAD_REACTORS
330
1F
102
}
330
1F
  0
SCALE
  5
242
102
{ACAD_REACTORS
330
241
102
}
330
241
100
AcDbScale
 70
     0
300
1:1
140
1.0
141
1.0
290
     1
  0
SCALE
  5
243
102
{ACAD_REACTORS
330
241
102
}
330
241
100
AcDbScale
 70
     0
300
1:2
140
1.0
141
2.0
290
     0
  0
SCALE
  5
244
102
{ACAD_REACTORS
330
241
102
}
330
241
100
AcDbScale
 70
     0
300
1:4
140
1.0
141
4.0
290
     0
  0
SCALE
  5
245
102
{ACAD_REACTORS
330
241
102
}
330
241
100
AcDbScale
 70
     0
300
1:5
140
1.0
141
5.0
290
     0
  0
SCALE
  5
246
102
{ACAD_REACTORS
330
241
102
}
330
241
100
AcDbScale
 70
     0
300
1:8
140
1.0
141
8.0
290
     0
  0
SCALE
  5
247
102
{ACAD_REACTORS
330
241
102
}
330
241
100
AcDbScale
 70
     0
300
1:10
140
1.0
141
10.0
290
     0
  0
SCALE
  5
248
102
{ACAD_REACTORS
330
241
102
}
330
241
100
AcDbScale
 70
     0
300
1:16
140
1.0
141
16.0
290
     0
  0
SCALE
  5
249
102
{ACAD_REACTORS
330
241
102
}
330
241
100
AcDbScale
 70
     0
300
1:20
140
1.0
141
20.0
290
     0
  0
SCALE
  5
24A
102
{ACAD_REACTORS
330
241
102
}
330
241
100
AcDbScale
 70
     0
300
1:30
140
1.0
141
30.0
290
     0
  0
SCALE
  5
24B
102
{ACAD_REACTORS
330
241
102
}
330
241
100
AcDbScale
 70
     0
300
1:40
140
1.0
141
40.0
290
     0
  0
SCALE
  5
24C
102
{ACAD_REACTORS
330
241
102
}
330
241
100
AcDbScale
 70
     0
300
1:50
140
1.0
141
50.0
290
     0
  0
SCALE
  5
24D
102
{ACAD_REACTORS
330
241
102
}
330
241
100
AcDbScale
 70
     0
300
1:100
140
1.0
141
100.0
290
     0
  0
SCALE
  5
24E
102
{ACAD_REACTORS
330
241
102
}
330
241
100
AcDbScale
 70
     0
300
2:1
140
2.0
141
1.0
290
     0
  0
SCALE
  5
24F
102
{ACAD_REACTORS
330
241
102
}
330
241
100
AcDbScale
 70
     0
300
4:1
140
4.0
141
1.0
290
     0
  0
SCALE
  5
250
102
{ACAD_REACTORS
330
241
102
}
330
241
100
AcDbScale
 70
     0
300
8:1
140
8.0
141
1.0
290
     0
  0
SCALE
  5
251
102
{ACAD_REACTORS
330
241
102
}
330
241
100
AcDbScale
 70
     0
300
10:1
140
10.0
141
1.0
290
     0
  0
SCALE
  5
252
102
{ACAD_REACTORS
330
241
102
}
330
241
100
AcDbScale
 70
     0
300
100:1
140
100.0
141
1.0
290
     0
  0
SCALE
  5
253
102
{ACAD_REACTORS
330
241
102
}
330
241
100
AcDbScale
 70
     0
300
1/128" = 1'-0"
140
0.0078125
141
12.0
290
     0
  0
SCALE
  5
254
102
{ACAD_REACTORS
330
241
102
}
330
241
100
AcDbScale
 70
     0
300
1/64" = 1'-0"
140
0.015625
141
12.0
290
     0
  0
SCALE
  5
255
102
{ACAD_REACTORS
330
241
102
}
330
241
100
AcDbScale
 70
     0
300
1/32" = 1'-0"
140
0.03125
141
12.0
290
     0
  0
SCALE
  5
256
102
{ACAD_REACTORS
330
241
102
}
330
241
100
AcDbScale
 70
     0
300
1/16" = 1'-0"
140
0.0625
141
12.0
290
     0
  0
SCALE
  5
257
102
{ACAD_REACTORS
330
241
102
}
330
241
100
AcDbScale
 70
     0
300
3/32" = 1'-0"
140
0.09375
141
12.0
290
     0
  0
SCALE
  5
258
102
{ACAD_REACTORS
330
241
102
}
330
241
100
AcDbScale
 70
     0
300
1/8" = 1'-0"
140
0.125
141
12.0
290
     0
  0
SCALE
  5
259
102
{ACAD_REACTORS
330
241
102
}
330
241
100
AcDbScale
 70
     0
300
3/16" = 1'-0"
140
0.1875
141
12.0
290
     0
  0
SCALE
  5
25A
102
{ACAD_REACTORS
330
241
102
}
330
241
100
AcDbScale
 70
     0
300
1/4" = 1'-0"
140
0.25
141
12.0
290
     0
  0
SCALE
  5
25B
102
{ACAD_REACTORS
330
241
102
}
330
241
100
AcDbScale
 70
     0
300
3/8" = 1'-0"
140
0.375
141
12.0
290
     0
  0
SCALE
  5
25C
102
{ACAD_REACTORS
330
241
102
}
330
241
100
AcDbScale
 70
     0
300
1/2" = 1'-0"
140
0.5
141
12.0
290
     0
  0
SCALE
  5
25D
102
{ACAD_REACTORS
330
241
102
}
330
241
100
AcDbScale
 70
     0
300
3/4" = 1'-0"
140
0.75
141
12.0
290
     0
  0
SCALE
  5
25E
102
{ACAD_REACTORS
330
241
102
}
330
241
100
AcDbScale
 70
     0
300
1" = 1'-0"
140
1.0
141
12.0
290
     0
  0
SCALE
  5
25F
102
{ACAD_REACTORS
330
241
102
}
330
241
100
AcDbScale
 70
     0
300
1-1/2" = 1'-0"
140
1.5
141
12.0
290
     0
  0
SCALE
  5
260
102
{ACAD_REACTORS
330
241
102
}
330
241
100
AcDbScale
 70
     0
300
3" = 1'-0"
140
3.0
141
12.0
290
     0
  0
SCALE
  5
261
102
{ACAD_REACTORS
330
241
102
}
330
241
100
AcDbScale
 70
     0
300
6" = 1'-0"
140
6.0
141
12.0
290
     0
  0
SCALE
  5
262
102
{ACAD_REACTORS
330
241
102
}
330
241
100
AcDbScale
 70
     0
300
1'-0" = 1'-0"
140
12.0
141
12.0
290
     0
  0
TABLESTYLE
  5
279
102
{ACAD_REACTORS
330
278
102
}
102
{ACAD_XDICTIONARY
360
44B9
102
}
330
278
100
AcDbTableStyle
  3
Standard
 70
     0
 71
     0
 40
0.06
 41
0.06
280
     0
281
     0
  7
Standard
140
4.5
170
     2
 62
     0
 63
   257
283
     0
 90
        4
 91
        0
  1

274
    -2
284
     1
 64
     0
275
    -2
285
     1
 65
     0
276
    -2
286
     1
 66
     0
277
    -2
287
     1
 67
     0
278
    -2
288
     1
 68
     0
279
    -2
289
     1
 69
     0
  7
Standard
140
6.0
170
     5
 62
     0
 63
   257
283
     0
 90
        4
 91
        0
  1

274
    -2
284
     1
 64
     0
275
    -2
285
     1
 65
     0
276
    -2
286
     1
 66
     0
277
    -2
287
     1
 67
     0
278
    -2
288
     1
 68
     0
279
    -2
289
     1
 69
     0
  7
Standard
140
4.5
170
     5
 62
     0
 63
   257
283
     0
 90
        4
 91
        0
  1

274
    -2
284
     1
 64
     0
275
    -2
285
     1
 65
     0
276
    -2
286
     1
 66
     0
277
    -2
287
     1
 67
     0
278
    -2
288
     1
 68
     0
279
    -2
289
     1
 69
     0
  0
VISUALSTYLE
  5
26C
102
{ACAD_REACTORS
330
267
102
}
330
267
100
AcDbVisualStyle
  2
2dWireframe
 70
     4
 71
     0
 72
     2
 73
     0
 90
        0
 40
-0.6
 41
-30.0
 62
     5
 63
     7
421
 16777215
 74
     1
 91
        4
 64
     7
 65
   257
 75
     1
175
     1
 42
1.0
 92
        0
 66
   257
 43
1.0
 76
     1
 77
     6
 78
     2
 67
     7
 79
     5
170
     0
171
     0
290
     0
174
     0
 93
        1
 44
0.0
173
     0
291
     0
 45
0.0
  0
VISUALSTYLE
  5
26E
102
{ACAD_REACTORS
330
267
102
}
330
267
100
AcDbVisualStyle
  2
3D Hidden
 70
     6
 71
     1
 72
     2
 73
     2
 90
        0
 40
-0.6
 41
-30.0
 62
     5
 63
     7
421
 16777215
 74
     2
 91
        2
 64
     7
 65
   257
 75
     2
175
     1
 42
40.0
 92
        0
 66
   257
 43
1.0
 76
     1
 77
     6
 78
     2
 67
     7
 79
     3
170
     0
171
     0
290
     0
174
     0
 93
        1
 44
0.0
173
     0
291
     0
 45
0.0
  0
VISUALSTYLE
  5
26D
102
{ACAD_REACTORS
330
267
102
}
330
267
100
AcDbVisualStyle
  2
3dWireframe
 70
     5
 71
     0
 72
     2
 73
     0
 90
        0
 40
-0.6
 41
-30.0
 62
     5
 63
     7
421
 16777215
 74
     1
 91
        4
 64
     7
 65
   257
 75
     1
175
     1
 42
1.0
 92
        0
 66
   257
 43
1.0
 76
     1
 77
     6
 78
     2
 67
     7
 79
     5
170
     0
171
     0
290
     0
174
     0
 93
        1
 44
0.0
173
     0
291
     0
 45
0.0
  0
VISUALSTYLE
  5
26F
102
{ACAD_REACTORS
330
267
102
}
330
267
100
AcDbVisualStyle
  2
Basic
 70
     7
 71
     1
 72
     0
 73
     1
 90
        0
 40
-0.6
 41
-30.0
 62
     5
 63
     7
421
 16777215
 74
     0
 91
        4
 64
     7
 65
   257
 75
     1
175
     1
 42
1.0
 92
        8
 66
     7
 43
1.0
 76
     1
 77
     6
 78
     2
 67
     7
 79
     5
170
     0
171
     0
290
     0
174
     0
 93
        1
 44
0.0
173
     0
291
     1
 45
0.0
  0
VISUALSTYLE
  5
273
102
{ACAD_REACTORS
330
267
102
}
330
267
100
AcDbVisualStyle
  2
Brighten
 70
    12
 71
     2
 72
     2
 73
     0
 90
        0
 40
-0.6
 41
-30.0
 62
     5
 63
     7
421
 16777215
 74
     1
 91
        4
 64
     7
 65
   257
 75
     1
175
     1
 42
1.0
 92
        8
 66
     7
 43
1.0
 76
     1
 77
     6
 78
     2
 67
     7
 79
     5
170
     0
171
     0
290
     0
174
     0
 93
        1
 44
50.0
173
     0
291
     1
 45
0.0
  0
VISUALSTYLE
  5
277
102
{ACAD_REACTORS
330
267
102
}
330
267
100
AcDbVisualStyle
  2
ColorChange
 70
    16
 71
     2
 72
     2
 73
     3
 90
        0
 40
-0.6
 41
-30.0
 62
     5
 63
     8
421
  8421504
 74
     1
 91
        4
 64
     7
 65
   257
 75
     1
175
     1
 42
1.0
 92
        8
 66
     8
424
  8421504
 43
1.0
 76
     1
 77
     6
 78
     2
 67
     7
 79
     5
170
     0
171
     0
290
     0
174
     0
 93
        1
 44
0.0
173
     0
291
     1
 45
0.0
  0
VISUALSTYLE
  5
271
102
{ACAD_REACTORS
330
267
102
}
330
267
100
AcDbVisualStyle
  2
Conceptual
 70
     9
 71
     3
 72
     2
 73
     0
 90
        0
 40
-0.6
 41
-30.0
 62
     5
 63
     7
421
 16777215
 74
     2
 91
        2
 64
     7
 65
   257
 75
     1
175
     1
 42
40.0
 92
        8
 66
     7
 43
1.0
 76
     1
 77
     6
 78
     2
 67
     7
 79
     3
170
     0
171
     0
290
     0
174
     0
 93
        1
 44
0.0
173
     0
291
     0
 45
0.0
  0
VISUALSTYLE
  5
272
102
{ACAD_REACTORS
330
267
102
}
330
267
100
AcDbVisualStyle
  2
Dim
 70
    11
 71
     2
 72
     2
 73
     0
 90
        0
 40
-0.6
 41
-30.0
 62
     5
 63
     7
421
 16777215
 74
     1
 91
        4
 64
     7
 65
   257
 75
     1
175
     1
 42
1.0
 92
        8
 66
     7
 43
1.0
 76
     1
 77
     6
 78
     2
 67
     7
 79
     5
170
     0
171
     0
290
     0
174
     0
 93
        1
 44
-50.0
173
     0
291
     1
 45
0.0
  0
VISUALSTYLE
  5
8FE
102
{ACAD_REACTORS
330
267
102
}
330
267
100
AcDbVisualStyle
  2
EdgeColorOff
 70
    22
 71
     2
 72
     2
 73
     0
 90
        0
 40
0.6
 41
30.0
 62
     5
 63
     7
421
 16777215
 74
     1
 91
        4
 64
     7
 65
   257
 75
     1
175
     1
 42
1.0
 92
        8
 66
     7
 43
1.0
 76
     1
 77
     6
 78
     2
 67
     7
 79
     5
170
     0
171
     0
290
     0
174
     0
 93
        1
 44
0.0
173
     0
291
     1
 45
0.0
  0
VISUALSTYLE
  5
276
102
{ACAD_REACTORS
330
267
102
}
330
267
100
AcDbVisualStyle
  2
Facepattern
 70
    15
 71
     2
 72
     2
 73
     0
 90
        0
 40
-0.6
 41
-30.0
 62
     5
 63
     7
421
 16777215
 74
     1
 91
        4
 64
     7
 65
   257
 75
     1
175
     1
 42
1.0
 92
        8
 66
     7
 43
1.0
 76
     1
 77
     6
 78
     2
 67
     7
 79
     5
170
     0
171
     0
290
     0
174
     0
 93
        1
 44
0.0
173
     0
291
     1
 45
0.0
  0
VISUALSTYLE
  5
268
102
{ACAD_REACTORS
330
267
102
}
330
267
100
AcDbVisualStyle
  2
Flat
 70
     0
 71
     2
 72
     1
 73
     1
 90
        2
 40
-0.6
 41
30.0
 62
     5
 63
     7
421
 16777215
 74
     0
 91
        4
 64
     7
 65
   257
 75
     1
175
     1
 42
1.0
 92
        8
 66
     7
 43
1.0
 76
     1
 77
     6
 78
     2
 67
     7
 79
     5
170
     0
171
     0
290
     0
174
     0
 93
       13
 44
0.0
173
     0
291
     1
 45
0.0
  0
VISUALSTYLE
  5
269
102
{ACAD_REACTORS
330
267
102
}
330
267
100
AcDbVisualStyle
  2
FlatWithEdges
 70
     1
 71
     2
 72
     1
 73
     1
 90
        2
 40
-0.6
 41
30.0
 62
     5
 63
     7
421
 16777215
 74
     1
 91
        4
 64
     7
 65
   257
 75
     1
175
     1
 42
1.0
 92
        0
 66
   257
 43
1.0
 76
     1
 77
     6
 78
     2
 67
     7
 79
     5
170
     0
171
     0
290
     0
174
     0
 93
       13
 44
0.0
173
     0
291
     1
 45
0.0
  0
VISUALSTYLE
  5
26A
102
{ACAD_REACTORS
330
267
102
}
330
267
100
AcDbVisualStyle
  2
Gouraud
 70
     2
 71
     2
 72
     2
 73
     1
 90
        2
 40
-0.6
 41
30.0
 62
     5
 63
     7
421
 16777215
 74
     0
 91
        4
 64
     7
 65
   257
 75
     1
175
     1
 42
1.0
 92
        0
 66
     7
 43
1.0
 76
     1
 77
     6
 78
     2
 67
     7
 79
     5
170
     0
171
     0
290
     0
174
     0
 93
       13
 44
0.0
173
     0
291
     1
 45
0.0
  0
VISUALSTYLE
  5
26B
102
{ACAD_REACTORS
330
267
102
}
330
267
100
AcDbVisualStyle
  2
GouraudWithEdges
 70
     3
 71
     2
 72
     2
 73
     1
 90
        2
 40
-0.6
 41
30.0
 62
     5
 63
     7
421
 16777215
 74
     1
 91
        4
 64
     7
 65
   257
 75
     1
175
     1
 42
1.0
 92
        0
 66
   257
 43
1.0
 76
     1
 77
     6
 78
     2
 67
     7
 79
     5
170
     0
171
     0
290
     0
174
     0
 93
       13
 44
0.0
173
     0
291
     1
 45
0.0
  0
VISUALSTYLE
  5
8FB
102
{ACAD_REACTORS
330
267
102
}
330
267
100
AcDbVisualStyle
  2
Hidden
 70
     6
 71
     1
 72
     2
 73
     2
 90
        0
 40
0.6
 41
30.0
 62
     5
 63
     7
421
 16777215
 74
     2
 91
        2
 64
     7
 65
   257
 75
     2
175
     1
 42
40.0
 92
        0
 66
   257
 43
1.0
 76
     1
 77
     6
 78
     2
 67
     7
 79
     3
170
     0
171
     0
290
     0
174
     0
 93
        1
 44
0.0
173
     0
291
     0
 45
0.0
  0
VISUALSTYLE
  5
8FC
102
{ACAD_REACTORS
330
267
102
}
330
267
100
AcDbVisualStyle
  2
JitterOff
 70
    20
 71
     2
 72
     2
 73
     0
 90
        0
 40
0.6
 41
30.0
 62
     5
 63
     7
421
 16777215
 74
     1
 91
        4
 64
     7
 65
   257
 75
     1
175
     1
 42
1.0
 92
       10
 66
     7
 43
1.0
 76
     1
 77
     6
 78
     2
 67
     7
 79
     5
170
     0
171
     0
290
     0
174
     0
 93
        1
 44
0.0
173
     0
291
     1
 45
0.0
  0
VISUALSTYLE
  5
275
102
{ACAD_REACTORS
330
267
102
}
330
267
100
AcDbVisualStyle
  2
Linepattern
 70
    14
 71
     2
 72
     2
 73
     0
 90
        0
 40
-0.6
 41
-30.0
 62
     5
 63
     7
421
 16777215
 74
     1
 91
        4
 64
     7
 65
   257
 75
     7
175
     7
 42
1.0
 92
        8
 66
     7
 43
1.0
 76
     1
 77
     6
 78
     2
 67
     7
 79
     5
170
     0
171
     0
290
     0
174
     0
 93
        1
 44
0.0
173
     0
291
     1
 45
0.0
  0
VISUALSTYLE
  5
8FD
102
{ACAD_REACTORS
330
267
102
}
330
267
100
AcDbVisualStyle
  2
OverhangOff
 70
    21
 71
     2
 72
     2
 73
     0
 90
        0
 40
0.6
 41
30.0
 62
     5
 63
     7
421
 16777215
 74
     1
 91
        4
 64
     7
 65
   257
 75
     1
175
     1
 42
1.0
 92
        9
 66
     7
 43
1.0
 76
     1
 77
     6
 78
     2
 67
     7
 79
     5
170
     0
171
     0
290
     0
174
     0
 93
        1
 44
0.0
173
     0
291
     1
 45
0.0
  0
VISUALSTYLE
  5
270
102
{ACAD_REACTORS
330
267
102
}
330
267
100
AcDbVisualStyle
  2
Realistic
 70
     8
 71
     2
 72
     2
 73
     0
 90
        0
 40
-0.6
 41
-30.0
 62
     5
 63
     7
421
 16777215
 74
     1
 91
        0
 64
     7
 65
   257
 75
     1
175
     1
 42
1.0
 92
        8
 66
     8
424
  7895160
 43
1.0
 76
     1
 77
     6
 78
     2
 67
     7
 79
     5
170
     0
171
     0
290
     0
174
     0
 93
       13
 44
0.0
173
     0
291
     0
 45
0.0
  0
VISUALSTYLE
  5
903
102
{ACAD_REACTORS
330
267
102
}
330
267
100
AcDbVisualStyle
  2
Shaded
 70
    27
 71
     2
 72
     2
 73
     1
 90
        2
 40
0.6
 41
30.0
 62
     5
 63
     7
421
 16777215
 74
     0
 91
        4
 64
     7
 65
   257
 75
     1
175
     1
 42
1.0
 92
        8
 66
   257
 43
1.0
 76
     1
 77
     6
 78
     2
 67
     8
425
  7895160
 79
     3
170
     0
171
     0
290
     0
174
     0
 93
        5
 44
0.0
173
     0
291
     0
 45
0.0
  0
VISUALSTYLE
  5
902
102
{ACAD_REACTORS
330
267
102
}
330
267
100
AcDbVisualStyle
  2
Shaded with edges
 70
    26
 71
     2
 72
     2
 73
     1
 90
        2
 40
0.6
 41
30.0
 62
     5
 63
     7
421
 16777215
 74
     1
 91
       10
 64
     7
 65
   257
 75
     2
175
     1
 42
1.0
 92
        8
 66
   257
 43
1.0
 76
     1
 77
     6
 78
     2
 67
     7
 79
     3
170
     0
171
     0
290
     0
174
     0
 93
        5
 44
0.0
173
     0
291
     0
 45
0.0
  0
VISUALSTYLE
  5
8FF
102
{ACAD_REACTORS
330
267
102
}
330
267
100
AcDbVisualStyle
  2
Shades of Gray
 70
    23
 71
     2
 72
     2
 73
     3
 90
        0
 40
0.6
 41
30.0
 62
     5
 63
     7
421
 16777215
 74
     2
 91
        2
 64
     7
 65
     7
 75
     1
175
     1
 42
40.0
 92
        8
 66
     7
 43
1.0
 76
     1
 77
     6
 78
     2
 67
     7
 79
     3
170
     0
171
     0
290
     0
174
     0
 93
        1
 44
0.0
173
     0
291
     0
 45
0.0
  0
VISUALSTYLE
  5
900
102
{ACAD_REACTORS
330
267
102
}
330
267
100
AcDbVisualStyle
  2
Sketchy
 70
    24
 71
     1
 72
     2
 73
     2
 90
        0
 40
0.6
 41
30.0
 62
     5
 63
     7
421
 16777215
 74
     2
 91
        2
 64
     7
 65
     7
 75
     1
175
     1
 42
40.0
 92
       11
 66
     7
 43
1.0
 76
     1
 77
     6
 78
     2
 67
     7
 79
     6
170
     0
171
     0
290
     0
174
     0
 93
        1
 44
0.0
173
     0
291
     0
 45
0.0
  0
VISUALSTYLE
  5
274
102
{ACAD_REACTORS
330
267
102
}
330
267
100
AcDbVisualStyle
  2
Thicken
 70
    13
 71
     2
 72
     2
 73
     0
 90
        0
 40
-0.6
 41
-30.0
 62
     5
 63
     7
421
 16777215
 74
     1
 91
        4
 64
     7
 65
   257
 75
     1
175
     1
 42
1.0
 92
       12
 66
     7
 43
1.0
 76
     1
 77
     6
 78
     2
 67
     7
 79
     5
170
     0
171
     0
290
     0
174
     0
 93
        1
 44
0.0
173
     0
291
     1
 45
0.0
  0
VISUALSTYLE
  5
8FA
102
{ACAD_REACTORS
330
267
102
}
330
267
100
AcDbVisualStyle
  2
Wireframe
 70
     5
 71
     0
 72
     2
 73
     0
 90
        0
 40
0.6
 41
30.0
 62
     5
 63
     7
421
 16777215
 74
     1
 91
        4
 64
     7
 65
   257
 75
     1
175
     1
 42
1.0
 92
        0
 66
   257
 43
1.0
 76
     1
 77
     6
 78
     2
 67
     7
 79
     3
170
     0
171
     0
290
     0
174
     0
 93
        1
 44
0.0
173
     0
291
     0
 45
0.0
  0
VISUALSTYLE
  5
901
102
{ACAD_REACTORS
330
267
102
}
330
267
100
AcDbVisualStyle
  2
X-Ray
 70
    25
 71
     2
 72
     2
 73
     1
 90
        1
 40
0.5
 41
30.0
 62
     5
 63
     7
421
 16777215
 74
     1
 91
        0
 64
     7
 65
   257
 75
     1
175
     1
 42
1.0
 92
        8
 66
     7
 43
1.0
 76
     1
 77
     6
 78
     2
 67
     7
 79
     3
170
     0
171
     0
290
     0
174
     0
 93
       13
 44
0.0
173
     0
291
     0
 45
0.0
  0
DICTIONARYVAR
  5
331
102
{ACAD_REACTORS
330
330
102
}
330
330
100
DictionaryVariables
280
     0
  1
1:1
  0
DICTIONARYVAR
  5
DB1
102
{ACAD_REACTORS
330
330
102
}
330
330
100
DictionaryVariables
280
     0
  1
Standard
  0
DICTIONARYVAR
  5
335
102
{ACAD_REACTORS
330
330
102
}
330
330
100
DictionaryVariables
280
     0
  1
Standard
  0
DICTIONARYVAR
  5
D52
102
{ACAD_REACTORS
330
330
102
}
330
330
100
DictionaryVariables
280
     0
  1
ByLayer
  0
DICTIONARYVAR
  5
896
102
{ACAD_REACTORS
330
330
102
}
330
330
100
DictionaryVariables
280
     0
  1
0
  0
DICTIONARYVAR
  5
ECE
102
{ACAD_REACTORS
330
E3E
102
}
330
E3E
100
DictionaryVariables
280
     0
  1
0.261799
  0
DICTIONARYVAR
  5
ECC
102
{ACAD_REACTORS
330
E3E
102
}
330
E3E
100
DictionaryVariables
280
     0
  1
0.400000
  0
DICTIONARYVAR
  5
ECD
102
{ACAD_REACTORS
330
E3E
102
}
330
E3E
100
DictionaryVariables
280
     0
  1
0.250000
  0
DICTIONARYVAR
  5
ECF
102
{ACAD_REACTORS
330
E3E
102
}
330
E3E
100
DictionaryVariables
280
     0
  1
1
  0
FIELD
  5
1467
102
{ACAD_REACTORS
330
3E80
330
44B8
102
}
330
44B8
100
AcDbField
  1
_text
  2
{%<\_FldIdx 0>%M}
 90
        1
360
146B
 97
        0
 91
       63
 92
        0
 94
       11
 95
        2
 96
        0
300

 93
        1
  6
ACFD_FIELDTEXT_CHECKSUM
 93
        2
 90
        2
140
4502.0
 94
        0
300

302

304
ACVALUE_END
  7
ACFD_FIELD_VALUE
 93
        6
 90
        4
  1
{20240416M}
 94
        0
300

302

304
ACVALUE_END
301
{20240416M}
 98
       11
  0
DICTIONARY
  5
44B9
330
279
100
AcDbDictionary
280
     1
281
     1
  3
ACAD_ROUNDTRIP_2008_TABLESTYLE_CELLSTYLEMAP
360
44BA
  0
FIELD
  5
146B
330
1467
100
AcDbField
  1
AcVar
  2
\AcVar Date \f "yyyyMMdd"
 90
        0
 97
        0
 91
       63
 92
        0
 94
        8
 95
       64
 96
        0
300
Variable not supported
 93
        1
  6
Variable
 93
        2
 90
        4
  1
Date
 94
        0
300

302

304
ACVALUE_END
  7
ACFD_FIELD_VALUE
 93
        6
 90
        8
 92
       16
310
E807040000001000060033002A000000
 94
        0
300
yyyyMMdd
302

304
ACVALUE_END
301
20240416
 98
        8
  0
CELLSTYLEMAP
  5
44BA
102
{ACAD_REACTORS
330
44B9
102
}
330
44B9
100
AcDbCellStyleMap
 90
        3
300
CELLSTYLE
  1
TABLEFORMAT_BEGIN
 90
        5
170
     1
 91
        0
 92
    32768
 62
   257
 93
        1
300
CONTENTFORMAT
  1
CONTENTFORMAT_BEGIN
 90
        0
 91
        0
 92
        4
 93
        0
300

 40
0.0
140
1.0
 94
        5
 62
     0
340
17
144
6.0
309
CONTENTFORMAT_END
171
     1
301
MARGIN
  1
CELLMARGIN_BEGIN
 40
0.06
 40
0.06
 40
0.06
 40
0.06
 40
0.18
 40
0.18
309
CELLMARGIN_END
 94
        6
 95
        1
302
GRIDFORMAT
  1
GRIDFORMAT_BEGIN
 90
        0
 91
        1
 62
     0
 92
       -2
340
0
 93
        0
 40
0.045
309
GRIDFORMAT_END
 95
        2
302
GRIDFORMAT
  1
GRIDFORMAT_BEGIN
 90
        0
 91
        1
 62
     0
 92
       -2
340
0
 93
        0
 40
0.045
309
GRIDFORMAT_END
 95
        4
302
GRIDFORMAT
  1
GRIDFORMAT_BEGIN
 90
        0
 91
        1
 62
     0
 92
       -2
340
0
 93
        0
 40
0.045
309
GRIDFORMAT_END
 95
        8
302
GRIDFORMAT
  1
GRIDFORMAT_BEGIN
 90
        0
 91
        1
 62
     0
 92
       -2
340
0
 93
        0
 40
0.045
309
GRIDFORMAT_END
 95
       16
302
GRIDFORMAT
  1
GRIDFORMAT_BEGIN
 90
        0
 91
        1
 62
     0
 92
       -2
340
0
 93
        0
 40
0.045
309
GRIDFORMAT_END
 95
       32
302
GRIDFORMAT
  1
GRIDFORMAT_BEGIN
 90
        0
 91
        1
 62
     0
 92
       -2
340
0
 93
        0
 40
0.045
309
GRIDFORMAT_END
309
TABLEFORMAT_END
  1
CELLSTYLE_BEGIN
 90
        1
 91
        1
300
_TITLE
309
CELLSTYLE_END
300
CELLSTYLE
  1
TABLEFORMAT_BEGIN
 90
        5
170
     1
 91
        0
 92
        0
 62
   257
 93
        1
300
CONTENTFORMAT
  1
CONTENTFORMAT_BEGIN
 90
        0
 91
        0
 92
        4
 93
        0
300

 40
0.0
140
1.0
 94
        5
 62
     0
340
17
144
4.5
309
CONTENTFORMAT_END
171
     1
301
MARGIN
  1
CELLMARGIN_BEGIN
 40
0.06
 40
0.06
 40
0.06
 40
0.06
 40
0.18
 40
0.18
309
CELLMARGIN_END
 94
        6
 95
        1
302
GRIDFORMAT
  1
GRIDFORMAT_BEGIN
 90
        0
 91
        1
 62
     0
 92
       -2
340
0
 93
        0
 40
0.045
309
GRIDFORMAT_END
 95
        2
302
GRIDFORMAT
  1
GRIDFORMAT_BEGIN
 90
        0
 91
        1
 62
     0
 92
       -2
340
0
 93
        0
 40
0.045
309
GRIDFORMAT_END
 95
        4
302
GRIDFORMAT
  1
GRIDFORMAT_BEGIN
 90
        0
 91
        1
 62
     0
 92
       -2
340
0
 93
        0
 40
0.045
309
GRIDFORMAT_END
 95
        8
302
GRIDFORMAT
  1
GRIDFORMAT_BEGIN
 90
        0
 91
        1
 62
     0
 92
       -2
340
0
 93
        0
 40
0.045
309
GRIDFORMAT_END
 95
       16
302
GRIDFORMAT
  1
GRIDFORMAT_BEGIN
 90
        0
 91
        1
 62
     0
 92
       -2
340
0
 93
        0
 40
0.045
309
GRIDFORMAT_END
 95
       32
302
GRIDFORMAT
  1
GRIDFORMAT_BEGIN
 90
        0
 91
        1
 62
     0
 92
       -2
340
0
 93
        0
 40
0.045
309
GRIDFORMAT_END
309
TABLEFORMAT_END
  1
CELLSTYLE_BEGIN
 90
        2
 91
        1
300
_HEADER
309
CELLSTYLE_END
300
CELLSTYLE
  1
TABLEFORMAT_BEGIN
 90
        5
170
     1
 91
        0
 92
        0
 62
   257
 93
        1
300
CONTENTFORMAT
  1
CONTENTFORMAT_BEGIN
 90
        0
 91
        0
 92
        4
 93
        0
300

 40
0.0
140
1.0
 94
        2
 62
     0
340
17
144
4.5
309
CONTENTFORMAT_END
171
     1
301
MARGIN
  1
CELLMARGIN_BEGIN
 40
0.06
 40
0.06
 40
0.06
 40
0.06
 40
0.18
 40
0.18
309
CELLMARGIN_END
 94
        6
 95
        1
302
GRIDFORMAT
  1
GRIDFORMAT_BEGIN
 90
        0
 91
        1
 62
     0
 92
       -2
340
0
 93
        0
 40
0.045
309
GRIDFORMAT_END
 95
        2
302
GRIDFORMAT
  1
GRIDFORMAT_BEGIN
 90
        0
 91
        1
 62
     0
 92
       -2
340
0
 93
        0
 40
0.045
309
GRIDFORMAT_END
 95
        4
302
GRIDFORMAT
  1
GRIDFORMAT_BEGIN
 90
        0
 91
        1
 62
     0
 92
       -2
340
0
 93
        0
 40
0.045
309
GRIDFORMAT_END
 95
        8
302
GRIDFORMAT
  1
GRIDFORMAT_BEGIN
 90
        0
 91
        1
 62
     0
 92
       -2
340
0
 93
        0
 40
0.045
309
GRIDFORMAT_END
 95
       16
302
GRIDFORMAT
  1
GRIDFORMAT_BEGIN
 90
        0
 91
        1
 62
     0
 92
       -2
340
0
 93
        0
 40
0.045
309
GRIDFORMAT_END
 95
       32
302
GRIDFORMAT
  1
GRIDFORMAT_BEGIN
 90
        0
 91
        1
 62
     0
 92
       -2
340
0
 93
        0
 40
0.045
309
GRIDFORMAT_END
309
TABLEFORMAT_END
  1
CELLSTYLE_BEGIN
 90
        3
 91
        2
300
_DATA
309
CELLSTYLE_END
  0
ENDSEC
  0
EOF
