  0
SECTION
  2
HEADER
  9
$ACADVER
  1
AC1021
  9
$ACADMAINTVER
 70
    25
  9
$DWGCODEPAGE
  3
ANSI_932
  9
$LASTSAVEDBY
  1
tform
  9
$INSBASE
 10
0.0
 20
0.0
 30
0.0
  9
$EXTMIN
 10
0.0
 20
0.0
 30
-0.0000000000000142
  9
$EXTMAX
 10
2100.0
 20
2970.0
 30
34.99521132346014
  9
$LIMMIN
 10
0.0
 20
0.0
  9
$LIMMAX
 10
2100.0
 20
2970.0
  9
$ORTHOMODE
 70
     1
  9
$REGENMODE
 70
     1
  9
$FILLMODE
 70
     1
  9
$QTEXTMODE
 70
     0
  9
$MIRRTEXT
 70
     1
  9
$LTSCALE
 40
5.0
  9
$ATTMODE
 70
     1
  9
$TEXTSIZE
 40
2.5
  9
$TRACEWID
 40
1.0
  9
$TEXTSTYLE
  7
ＭＳ ゴシック
  9
$CLAYER
  8
DIM
  9
$CELTYPE
  6
ByLayer
  9
$CECOLOR
 62
   256
  9
$CELTSCALE
 40
1.0
  9
$DISPSILH
 70
     0
  9
$DIMSCALE
 40
1.0
  9
$DIMASZ
 40
10.0
  9
$DIMEXO
 40
30.0
  9
$DIMDLI
 40
0.9999999999999999
  9
$DIMRND
 40
0.0
  9
$DIMDLE
 40
0.0
  9
$DIMEXE
 40
0.0
  9
$DIMTP
 40
0.0
  9
$DIMTM
 40
0.0
  9
$DIMTXT
 40
24.0
  9
$DIMCEN
 40
0.0
  9
$DIMTSZ
 40
0.0
  9
$DIMTOL
 70
     0
  9
$DIMLIM
 70
     0
  9
$DIMTIH
 70
     0
  9
$DIMTOH
 70
     0
  9
$DIMSE1
 70
     0
  9
$DIMSE2
 70
     0
  9
$DIMTAD
 70
     1
  9
$DIMZIN
 70
    11
  9
$DIMBLK
  1
DOT
  9
$DIMASO
 70
     1
  9
$DIMSHO
 70
     1
  9
$DIMPOST
  1
<>
  9
$DIMAPOST
  1
[]
  9
$DIMALT
 70
     0
  9
$DIMALTD
 70
     1
  9
$DIMALTF
 40
1.0
  9
$DIMLFAC
 40
1.0
  9
$DIMTOFL
 70
     0
  9
$DIMTVP
 40
0.0
  9
$DIMTIX
 70
     1
  9
$DIMSOXD
 70
     0
  9
$DIMSAH
 70
     0
  9
$DIMBLK1
  1

  9
$DIMBLK2
  1

  9
$DIMSTYLE
  2
tfrom線あり
  9
$DIMCLRD
 70
     0
  9
$DIMCLRE
 70
     0
  9
$DIMCLRT
 70
     0
  9
$DIMTFAC
 40
1.0
  9
$DIMGAP
 40
20.0
  9
$DIMJUST
 70
     0
  9
$DIMSD1
 70
     0
  9
$DIMSD2
 70
     0
  9
$DIMTOLJ
 70
     1
  9
$DIMTZIN
 70
    11
  9
$DIMALTZ
 70
    11
  9
$DIMALTTZ
 70
    11
  9
$DIMUPT
 70
     0
  9
$DIMDEC
 70
     0
  9
$DIMTDEC
 70
     1
  9
$DIMALTU
 70
     2
  9
$DIMALTTD
 70
     2
  9
$DIMTXSTY
  7
ＭＳ ゴシック
  9
$DIMAUNIT
 70
     0
  9
$DIMADEC
 70
     2
  9
$DIMALTRND
 40
0.0
  9
$DIMAZIN
 70
     0
  9
$DIMDSEP
 70
    46
  9
$DIMATFIT
 70
     0
  9
$DIMFRAC
 70
     2
  9
$DIMLDRBLK
  1
DOT
  9
$DIMLUNIT
 70
     2
  9
$DIMLWD
 70
    -2
  9
$DIMLWE
 70
    -2
  9
$DIMTMOVE
 70
     0
  9
$DIMFXL
 40
1.0
  9
$DIMFXLON
 70
     0
  9
$DIMJOGANG
 40
0.7853981633974483
  9
$DIMTFILL
 70
     0
  9
$DIMTFILLCLR
 70
     0
  9
$DIMARCSYM
 70
     0
  9
$DIMLTYPE
  6

  9
$DIMLTEX1
  6

  9
$DIMLTEX2
  6

  9
$LUNITS
 70
     2
  9
$LUPREC
 70
     0
  9
$SKETCHINC
 40
0.1
  9
$FILLETRAD
 40
0.0
  9
$AUNITS
 70
     0
  9
$AUPREC
 70
     0
  9
$MENU
  1
acad
  9
$ELEVATION
 40
0.0
  9
$PELEVATION
 40
0.0
  9
$THICKNESS
 40
0.0
  9
$LIMCHECK
 70
     0
  9
$CHAMFERA
 40
0.0
  9
$CHAMFERB
 40
0.0
  9
$CHAMFERC
 40
0.0
  9
$CHAMFERD
 40
0.0
  9
$SKPOLY
 70
     0
  9
$TDCREATE
 40
2447893.375
  9
$TDUCREATE
 40
0.0
  9
$TDUPDATE
 40
2460417.684771713
  9
$TDUUPDATE
 40
2460417.309771713
  9
$TDINDWG
 40
0.1801041088
  9
$TDUSRTIMER
 40
0.0010851157
  9
$USRTIMER
 70
     1
  9
$ANGBASE
 50
0.0
  9
$ANGDIR
 70
     0
  9
$PDMODE
 70
     1
  9
$PDSIZE
 40
-2.0
  9
$PLINEWID
 40
0.0
  9
$SPLFRAME
 70
     0
  9
$SPLINETYPE
 70
     6
  9
$SPLINESEGS
 70
     8
  9
$HANDSEED
  5
4AD0
  9
$SURFTAB1
 70
     6
  9
$SURFTAB2
 70
     6
  9
$SURFTYPE
 70
     6
  9
$SURFU
 70
     6
  9
$SURFV
 70
     6
  9
$UCSBASE
  2

  9
$UCSNAME
  2

  9
$UCSORG
 10
0.0
 20
0.0
 30
0.0
  9
$UCSXDIR
 10
1.0
 20
0.0
 30
0.0
  9
$UCSYDIR
 10
0.0
 20
1.0
 30
0.0
  9
$UCSORTHOREF
  2

  9
$UCSORTHOVIEW
 70
     0
  9
$UCSORGTOP
 10
0.0
 20
0.0
 30
0.0
  9
$UCSORGBOTTOM
 10
0.0
 20
0.0
 30
0.0
  9
$UCSORGLEFT
 10
0.0
 20
0.0
 30
0.0
  9
$UCSORGRIGHT
 10
0.0
 20
0.0
 30
0.0
  9
$UCSORGFRONT
 10
0.0
 20
0.0
 30
0.0
  9
$UCSORGBACK
 10
0.0
 20
0.0
 30
0.0
  9
$PUCSBASE
  2

  9
$PUCSNAME
  2

  9
$PUCSORG
 10
0.0
 20
0.0
 30
0.0
  9
$PUCSXDIR
 10
1.0
 20
0.0
 30
0.0
  9
$PUCSYDIR
 10
0.0
 20
1.0
 30
0.0
  9
$PUCSORTHOREF
  2

  9
$PUCSORTHOVIEW
 70
     0
  9
$PUCSORGTOP
 10
0.0
 20
0.0
 30
0.0
  9
$PUCSORGBOTTOM
 10
0.0
 20
0.0
 30
0.0
  9
$PUCSORGLEFT
 10
0.0
 20
0.0
 30
0.0
  9
$PUCSORGRIGHT
 10
0.0
 20
0.0
 30
0.0
  9
$PUCSORGFRONT
 10
0.0
 20
0.0
 30
0.0
  9
$PUCSORGBACK
 10
0.0
 20
0.0
 30
0.0
  9
$USERI1
 70
     0
  9
$USERI2
 70
     0
  9
$USERI3
 70
     0
  9
$USERI4
 70
     0
  9
$USERI5
 70
     0
  9
$USERR1
 40
0.0
  9
$USERR2
 40
0.0
  9
$USERR3
 40
0.0
  9
$USERR4
 40
0.0
  9
$USERR5
 40
0.0
  9
$WORLDVIEW
 70
     1
  9
$SHADEDGE
 70
     3
  9
$SHADEDIF
 70
    70
  9
$TILEMODE
 70
     1
  9
$MAXACTVP
 70
    64
  9
$PINSBASE
 10
0.0
 20
0.0
 30
0.0
  9
$PLIMCHECK
 70
     0
  9
$PEXTMIN
 10
0.0
 20
0.0
 30
0.0
  9
$PEXTMAX
 10
0.0
 20
0.0
 30
0.0
  9
$PLIMMIN
 10
-7.5
 20
-20.0
  9
$PLIMMAX
 10
412.5
 20
277.0
  9
$UNITMODE
 70
     0
  9
$VISRETAIN
 70
     0
  9
$PLINEGEN
 70
     1
  9
$PSLTSCALE
 70
     0
  9
$TREEDEPTH
 70
  3020
  9
$CMLSTYLE
  2
Standard
  9
$CMLJUST
 70
     0
  9
$CMLSCALE
 40
1.0
  9
$PROXYGRAPHICS
 70
     0
  9
$MEASUREMENT
 70
     1
  9
$CELWEIGHT
370
    -1
  9
$ENDCAPS
280
     0
  9
$JOINSTYLE
280
     0
  9
$LWDISPLAY
290
     1
  9
$INSUNITS
 70
     4
  9
$HYPERLINKBASE
  1

  9
$STYLESHEET
  1

  9
$XEDIT
290
     1
  9
$CEPSNTYPE
380
     0
  9
$PSTYLEMODE
290
     1
  9
$FINGERPRINTGUID
  2

  9
$VERSIONGUID
  2

  9
$EXTNAMES
290
     1
  9
$PSVPSCALE
 40
0.0
  9
$OLESTARTUP
290
     0
  9
$SORTENTS
280
   127
  9
$INDEXCTL
280
     0
  9
$HIDETEXT
280
     1
  9
$XCLIPFRAME
290
     0
  9
$HALOGAP
280
     0
  9
$OBSCOLOR
 70
   257
  9
$OBSLTYPE
280
     0
  9
$INTERSECTIONDISPLAY
280
     0
  9
$INTERSECTIONCOLOR
 70
   257
  9
$DIMASSOC
280
     2
  9
$PROJECTNAME
  1

  9
$CAMERADISPLAY
290
     0
  9
$LENSLENGTH
 40
50.0
  9
$CAMERAHEIGHT
 40
0.0
  9
$STEPSPERSEC
 40
2.0
  9
$STEPSIZE
 40
6.0
  9
$3DDWFPREC
 40
2.0
  9
$PSOLWIDTH
 40
0.25
  9
$PSOLHEIGHT
 40
4.0
  9
$LOFTANG1
 40
1.570796326794897
  9
$LOFTANG2
 40
1.570796326794897
  9
$LOFTMAG1
 40
0.0
  9
$LOFTMAG2
 40
0.0
  9
$LOFTPARAM
 70
     7
  9
$LOFTNORMALS
280
     1
  9
$LATITUDE
 40
37.795
  9
$LONGITUDE
 40
-122.394
  9
$NORTHDIRECTION
 40
0.0
  9
$TIMEZONE
 70
 -8000
  9
$LIGHTGLYPHDISPLAY
280
     1
  9
$TILEMODELIGHTSYNCH
280
     1
  9
$SOLIDHIST
280
     1
  9
$SHOWHIST
280
     1
  9
$DWFFRAME
280
     2
  9
$DGNFRAME
280
     2
  9
$REALWORLDSCALE
290
     1
  9
$INTERFERECOLOR
 62
   256
  9
$CSHADOW
280
     0
  9
$SHADOWPLANELOCATION
 40
0.0
  0
ENDSEC
  0
SECTION
  2
CLASSES
  0
CLASS
  1
LWPOLYLINE
  2
AcDbPolyline
  3
ObjectDBX Classes
 90
        0
 91
        1
280
     0
281
     1
  0
CLASS
  1
IMAGE
  2
AcDbRasterImage
  3
ISM
 90
      127
 91
        4
280
     0
281
     1
  0
CLASS
  1
OLE2FRAME
  2
AcDbOle2Frame
  3
ObjectDBX Classes
 90
        0
 91
        1
280
     0
281
     1
  0
CLASS
  1
HATCH
  2
AcDbHatch
  3
ObjectDBX Classes
 90
        0
 91
        1
280
     0
281
     1
  0
CLASS
  1
DICTIONARYVAR
  2
AcDbDictionaryVar
  3
ObjectDBX Classes
 90
        0
 91
        3
280
     0
281
     0
  0
CLASS
  1
RASTERVARIABLES
  2
AcDbRasterVariables
  3
ISM
 90
        0
 91
        3
280
     0
281
     0
  0
CLASS
  1
IMAGEDEF
  2
AcDbRasterImageDef
  3
ISM
 90
        0
 91
        3
280
     0
281
     0
  0
CLASS
  1
IMAGEDEF_REACTOR
  2
AcDbRasterImageDefReactor
  3
ISM
 90
        1
 91
        3
280
     0
281
     0
  0
CLASS
  1
IDBUFFER
  2
AcDbIdBuffer
  3
ObjectDBX Classes
 90
        0
 91
        3
280
     0
281
     0
  0
CLASS
  1
SPATIAL_FILTER
  2
AcDbSpatialFilter
  3
ObjectDBX Classes
 90
        0
 91
        3
280
     0
281
     0
  0
CLASS
  1
XRECORD
  2
AcDbXrecord
  3
ObjectDBX Classes
 90
        0
 91
        1
280
     0
281
     0
  0
CLASS
  1
SORTENTSTABLE
  2
AcDbSortentsTable
  3
ObjectDBX Classes
 90
        0
 91
        3
280
     0
281
     0
  0
CLASS
  1
LAYER_INDEX
  2
AcDbLayerIndex
  3
ObjectDBX Classes
 90
        0
 91
        3
280
     0
281
     0
  0
CLASS
  1
SPATIAL_INDEX
  2
AcDbSpatialIndex
  3
AutoCAD 2000
 90
        0
 91
        3
280
     0
281
     0
  0
CLASS
  1
OBJECT_PTR
  2
CAseDLPNTableRecord
  3
ASE-LPNTableRecord
 90
        1
 91
        3
280
     0
281
     0
  0
CLASS
  1
LAYOUT
  2
AcDbLayout
  3
ObjectDBX Classes
 90
        0
 91
        1
280
     0
281
     0
  0
CLASS
  1
PLOTSETTINGS
  2
AcDbPlotSettings
  3
ObjectDBX Classes
 90
        0
 91
        3
280
     0
281
     0
  0
CLASS
  1
ACDBDICTIONARYWDFLT
  2
AcDbDictionaryWithDefault
  3
ObjectDBX Classes
 90
        0
 91
        3
280
     0
281
     0
  0
CLASS
  1
ACDBPLACEHOLDER
  2
AcDbPlaceHolder
  3
ObjectDBX Classes
 90
        0
 91
        1
280
     0
281
     0
  0
CLASS
  1
SCALE
  2
AcDbScale
  3
ObjectDBX Classes
 90
     1153
 91
        3
280
     0
281
     0
  0
CLASS
  1
MATERIAL
  2
AcDbMaterial
  3
ObjectDBX Classes
 90
     1153
 91
        3
280
     0
281
     0
  0
CLASS
  1
VISUALSTYLE
  2
AcDbVisualStyle
  3
ObjectDBX Classes
 90
     4095
 91
        3
280
     0
281
     0
  0
CLASS
  1
TABLESTYLE
  2
AcDbTableStyle
  3
ObjectDBX Classes
 90
     4095
 91
        3
280
     0
281
     0
  0
CLASS
  1
DIMASSOC
  2
AcDbDimAssoc
  3
"AcDbDimAssoc|Product Desc:     AcDim ARX App For Dimension|Company:          Autodesk, Inc.|WEB Address:      www.autodesk.com"
 90
        0
 91
        3
280
     0
281
     0
  0
CLASS
  1
CELLSTYLEMAP
  2
AcDbCellStyleMap
  3
ObjectDBX Classes
 90
     1152
 91
        3
280
     0
281
     0
  0
CLASS
  1
SUN
  2
AcDbSun
  3
SCENEOE
 90
     1153
 91
        3
280
     0
281
     0
  0
CLASS
  1
MLEADERSTYLE
  2
AcDbMLeaderStyle
  3
ACDB_MLEADERSTYLE_CLASS
 90
     4095
 91
        3
280
     0
281
     0
  0
CLASS
  1
FIELD
  2
AcDbField
  3
ObjectDBX Classes
 90
     1152
 91
        3
280
     0
281
     0
  0
CLASS
  1
FIELDLIST
  2
AcDbFieldList
  3
ObjectDBX Classes
 90
     1152
 91
        3
280
     0
281
     0
  0
CLASS
  1
MULTILEADER
  2
AcDbMLeader
  3
ACDB_MLEADER_CLASS
 90
     1025
 91
        3
280
     0
281
     1
  0
ENDSEC
  0
SECTION
  2
TABLES
  0
TABLE
  2
VPORT
  5
7
330
0
100
AcDbSymbolTable
 70
     1
  0
VPORT
  5
15
330
7
100
AcDbSymbolTableRecord
100
AcDbViewportTableRecord
  2
*ACTIVE
 70
     0
 10
0.0
 20
0.0
 11
1.0
 21
1.0
 12
1262.682786273305
 22
1522.763164987907
 13
0.0
 23
0.0
 14
1.0
 24
1.0
 15
0.0
 25
0.0
 16
0.0
 26
0.0
 36
1.0
 17
-91.02013567089534
 27
73.59871453016603
 37
-46.86809886248109
 40
2423.52
 41
2.136546184738956
 42
50.0
 43
0.0
 44
0.0
 50
0.0
 51
0.0
 71
    16
 72
  2000
 73
     1
 74
     1
 75
     0
 76
     0
 77
     0
 78
     0
281
     0
 65
     1
110
0.0
120
0.0
130
0.0
111
1.0
121
0.0
131
0.0
112
0.0
122
1.0
132
0.0
 79
     0
146
0.0
348
26C
 60
     3
 61
     5
292
     1
282
     1
141
0.0
142
0.0
 63
   256
361
904
  0
ENDTAB
  0
TABLE
  2
LTYPE
  5
4
330
0
100
AcDbSymbolTable
 70
    15
  0
LTYPE
  5
11
330
4
100
AcDbSymbolTableRecord
100
AcDbLinetypeTableRecord
  2
ByBlock
 70
     0
  3

 72
    65
 73
     0
 40
0.0
  0
LTYPE
  5
12
330
4
100
AcDbSymbolTableRecord
100
AcDbLinetypeTableRecord
  2
ByLayer
 70
     0
  3

 72
    65
 73
     0
 40
0.0
  0
LTYPE
  5
13
330
4
100
AcDbSymbolTableRecord
100
AcDbLinetypeTableRecord
  2
Continuous
 70
     0
  3
Solid line
 72
    65
 73
     0
 40
0.0
  0
LTYPE
  5
DAF
330
4
100
AcDbSymbolTableRecord
100
AcDbLinetypeTableRecord
  2
BORDER
 70
     0
  3
Border __  __  . __  __  . __  __  . __  __  . 
 72
    65
 73
     6
 40
44.45
 49
12.7
 74
     0
 49
-6.35
 74
     0
 49
12.7
 74
     0
 49
-6.35
 74
     0
 49
0.0
 74
     0
 49
-6.35
 74
     0
  0
LTYPE
  5
33DD
330
4
100
AcDbSymbolTableRecord
100
AcDbLinetypeTableRecord
  2
HIDDEN
 70
     0
  3
Hidden _ _ _ _ _ _ _ _ _ _ _ _ _ _ _ _ _ _ _ _ 
 72
    65
 73
     2
 40
9.524999999999999
 49
6.35
 74
     0
 49
-3.175
 74
     0
  0
LTYPE
  5
3779
330
4
100
AcDbSymbolTableRecord
100
AcDbLinetypeTableRecord
  2
AI-Linetype-1
 70
     0
  3
Adobe Illustrator Linetype No. 1
 72
    65
 73
     2
 40
1.058122392397357
 49
0.7054149282649048
 74
     0
 49
-0.3527074641324524
 74
     0
  0
LTYPE
  5
377A
330
4
100
AcDbSymbolTableRecord
100
AcDbLinetypeTableRecord
  2
AI-Linetype-2
 70
     0
  3
Adobe Illustrator Linetype No. 2
 72
    65
 73
     2
 40
1.058122392397357
 49
0.7054149282649048
 74
     0
 49
-0.3527074641324524
 74
     0
  0
LTYPE
  5
377B
330
4
100
AcDbSymbolTableRecord
100
AcDbLinetypeTableRecord
  2
AI-Linetype-3
 70
     0
  3
Adobe Illustrator Linetype No. 3
 72
    65
 73
     2
 40
1.058122392397357
 49
0.7054149282649048
 74
     0
 49
-0.3527074641324524
 74
     0
  0
LTYPE
  5
377C
330
4
100
AcDbSymbolTableRecord
100
AcDbLinetypeTableRecord
  2
AI-Linetype-4
 70
     0
  3
Adobe Illustrator Linetype No. 4
 72
    65
 73
     2
 40
0.5290611961986786
 49
0.3527074641324524
 74
     0
 49
-0.1763537320662262
 74
     0
  0
LTYPE
  5
377D
330
4
100
AcDbSymbolTableRecord
100
AcDbLinetypeTableRecord
  2
AI-Linetype-5
 70
     0
  3
Adobe Illustrator Linetype No. 5
 72
    65
 73
     2
 40
0.5290611961986786
 49
0.3527074641324524
 74
     0
 49
-0.1763537320662262
 74
     0
  0
LTYPE
  5
3A6E
330
4
100
AcDbSymbolTableRecord
100
AcDbLinetypeTableRecord
  2
AI-Linetype-8
 70
     0
  3
Adobe Illustrator Linetype No. 8
 72
    65
 73
     2
 40
1.237580549911208
 49
0.8250419527406053
 74
     0
 49
-0.4125385971706028
 74
     0
  0
LTYPE
  5
3A6F
330
4
100
AcDbSymbolTableRecord
100
AcDbLinetypeTableRecord
  2
AI-Linetype-9
 70
     0
  3
Adobe Illustrator Linetype No. 9
 72
    65
 73
     2
 40
0.8534934893893988
 49
0.5689956595929325
 74
     0
 49
-0.2844978297964663
 74
     0
  0
LTYPE
  5
3A70
330
4
100
AcDbSymbolTableRecord
100
AcDbLinetypeTableRecord
  2
AI-Linetype-10
 70
     0
  3
Adobe Illustrator Linetype No. 10
 72
    65
 73
     2
 40
1.048960732737734
 49
0.6993118652530802
 74
     0
 49
-0.3496488674846537
 74
     0
  0
LTYPE
  5
3A71
330
4
100
AcDbSymbolTableRecord
100
AcDbLinetypeTableRecord
  2
AI-Linetype-11
 70
     0
  3
Adobe Illustrator Linetype No. 11
 72
    65
 73
     2
 40
1.048921916511774
 49
0.6992765815980639
 74
     0
 49
-0.3496453349137104
 74
     0
  0
LTYPE
  5
3A72
330
4
100
AcDbSymbolTableRecord
100
AcDbLinetypeTableRecord
  2
AI-Linetype-12
 70
     0
  3
Adobe Illustrator Linetype No. 12
 72
    65
 73
     2
 40
0.8534934893893988
 49
0.5689956595929325
 74
     0
 49
-0.2844978297964663
 74
     0
  0
LTYPE
  5
3AF8
330
4
100
AcDbSymbolTableRecord
100
AcDbLinetypeTableRecord
  2
AI-Linetype-6
 70
     0
  3
Adobe Illustrator Linetype No. 6
 72
    65
 73
     2
 40
1.081723183460906
 49
0.7211487889739376
 74
     0
 49
-0.3605743944869688
 74
     0
  0
LTYPE
  5
3AF9
330
4
100
AcDbSymbolTableRecord
100
AcDbLinetypeTableRecord
  2
AI-Linetype-7
 70
     0
  3
Adobe Illustrator Linetype No. 7
 72
    65
 73
     2
 40
0.9043428925867423
 49
0.6028976167717903
 74
     0
 49
-0.3014452758149519
 74
     0
  0
ENDTAB
  0
TABLE
  2
LAYER
  5
2
102
{ACAD_XDICTIONARY
360
2E1
102
}
330
0
100
AcDbSymbolTable
 70
    11
  0
LAYER
  5
14
330
2
100
AcDbSymbolTableRecord
100
AcDbLayerTableRecord
  2
0
 70
     0
 62
     7
  6
Continuous
370
    -3
390
1D
347
266
  0
LAYER
  5
4B
330
2
100
AcDbSymbolTableRecord
100
AcDbLayerTableRecord
  2
TEMPLATE
 70
     0
 62
     7
  6
Continuous
370
    20
390
1D
347
266
  0
LAYER
  5
4C
330
2
100
AcDbSymbolTableRecord
100
AcDbLayerTableRecord
  2
DIM
 70
     0
 62
     3
  6
Continuous
370
    13
390
1D
347
266
  0
LAYER
  5
4D
330
2
100
AcDbSymbolTableRecord
100
AcDbLayerTableRecord
  2
MODEL
 70
     0
 62
     7
  6
Continuous
370
    20
390
1D
347
266
  0
LAYER
  5
D5D
330
2
100
AcDbSymbolTableRecord
100
AcDbLayerTableRecord
  2
Defpoints
 70
     0
 62
     7
  6
Continuous
290
     0
370
    -3
390
1D
347
266
  0
LAYER
  5
DAE
330
2
100
AcDbSymbolTableRecord
100
AcDbLayerTableRecord
  2
BORDER
 70
     0
 62
     4
  6
BORDER
290
     0
370
    20
390
1D
347
266
1001
AcAecLayerStandard
1000

1000

  0
LAYER
  5
157B
330
2
100
AcDbSymbolTableRecord
100
AcDbLayerTableRecord
  2
Layer3
 70
     0
 62
     7
  6
Continuous
370
    -3
390
1D
347
266
  0
LAYER
  5
157F
330
2
100
AcDbSymbolTableRecord
100
AcDbLayerTableRecord
  2
Layer9
 70
     0
 62
     7
  6
Continuous
370
    -3
390
1D
347
266
  0
LAYER
  5
1582
330
2
100
AcDbSymbolTableRecord
100
AcDbLayerTableRecord
  2
Standard
 70
     0
 62
     7
  6
Continuous
370
    -3
390
1D
347
266
  0
LAYER
  5
33DC
330
2
100
AcDbSymbolTableRecord
100
AcDbLayerTableRecord
  2
HIDDEN
 70
     0
 62
     8
  6
HIDDEN
370
    20
390
1D
347
266
1001
AcAecLayerStandard
1000

1000

  0
LAYER
  5
3777
330
2
100
AcDbSymbolTableRecord
100
AcDbLayerTableRecord
  2
レイヤー 1
 70
     0
 62
     7
  6
Continuous
370
    -3
390
1D
347
266
  0
ENDTAB
  0
TABLE
  2
STYLE
  5
3
330
0
100
AcDbSymbolTable
 70
     3
  0
STYLE
  5
17
330
3
100
AcDbSymbolTableRecord
100
AcDbTextStyleTableRecord
  2
Standard
 70
     0
 40
0.0
 41
1.0
 50
0.0
 71
     0
 42
2.5
  3
txt
  4
BIGFONT.SHX
  0
STYLE
  5
39
330
3
100
AcDbSymbolTableRecord
100
AcDbTextStyleTableRecord
  2
ＭＳ ゴシック
 70
     0
 40
0.0
 41
1.0
 50
0.0
 71
     0
 42
2.5
  3
msgothic.ttc
  4
ＭＳ ゴシック
1001
ACAD
1000
ＭＳ ゴシック
1071
        0
  0
STYLE
  5
3EBC
330
3
100
AcDbSymbolTableRecord
100
AcDbTextStyleTableRecord
  2
MtXpl_century_shx
 70
     0
 40
0.0
 41
1.0
 50
0.0
 71
     0
 42
2.5
  3
century.shx
  4

  0
ENDTAB
  0
TABLE
  2
VIEW
  5
5
330
0
100
AcDbSymbolTable
 70
     0
  0
ENDTAB
  0
TABLE
  2
UCS
  5
6
330
0
100
AcDbSymbolTable
 70
     0
  0
ENDTAB
  0
TABLE
  2
APPID
  5
8
330
0
100
AcDbSymbolTable
 70
     8
  0
APPID
  5
16
330
8
100
AcDbSymbolTableRecord
100
AcDbRegAppTableRecord
  2
ACAD
 70
     0
  0
APPID
  5
7AC
330
8
100
AcDbSymbolTableRecord
100
AcDbRegAppTableRecord
  2
AcAecLayerStandard
 70
     0
  0
APPID
  5
F3A
330
8
100
AcDbSymbolTableRecord
100
AcDbRegAppTableRecord
  2
ACAD_MLEADERVER
 70
     0
  0
APPID
  5
3E42
330
8
100
AcDbSymbolTableRecord
100
AcDbRegAppTableRecord
  2
ACAD_DSTYLE_DIMJAG
 70
     0
  0
APPID
  5
3E43
330
8
100
AcDbSymbolTableRecord
100
AcDbRegAppTableRecord
  2
ACAD_DSTYLE_DIMTALN
 70
     0
  0
APPID
  5
3EA3
330
8
100
AcDbSymbolTableRecord
100
AcDbRegAppTableRecord
  2
PLOTTRANSPARENCY
 70
     0
  0
APPID
  5
3EBA
330
8
100
AcDbSymbolTableRecord
100
AcDbRegAppTableRecord
  2
AcadAnnotative
 70
     0
  0
APPID
  5
3EBB
330
8
100
AcDbSymbolTableRecord
100
AcDbRegAppTableRecord
  2
ACAD_NAV_VCDISPLAY
 70
     0
  0
ENDTAB
  0
TABLE
  2
DIMSTYLE
  5
9
330
0
100
AcDbSymbolTable
 70
     6
100
AcDbDimStyleTable
  0
DIMSTYLE
105
18
330
9
100
AcDbSymbolTableRecord
100
AcDbDimStyleTableRecord
  2
Standard
 70
     0
178
     0
340
17
  0
DIMSTYLE
105
57
102
{ACAD_REACTORS
330
3C95
330
3CBD
330
3CCD
330
3CED
330
3CFC
330
3DBC
330
3DDA
330
496C
330
49A9
330
49C2
330
4A13
330
4A22
330
4A31
330
4A40
330
4A59
330
4A68
102
}
330
9
100
AcDbSymbolTableRecord
100
AcDbDimStyleTableRecord
  2
tfrom線あり
 70
     0
  3
<>
  4
[]
 41
10.0
 42
30.0
 43
0.9999999999999999
 44
0.0
 73
     0
 74
     0
 77
     1
 78
    11
140
24.0
141
0.0
143
1.0
147
20.0
171
     1
174
     1
178
     0
179
     2
271
     0
272
     1
276
     2
284
    11
285
    11
286
    11
289
     0
340
39
341
4E
342
4E
  0
DIMSTYLE
105
3E37
330
9
100
AcDbSymbolTableRecord
100
AcDbDimStyleTableRecord
  2
tform線あり
 70
     0
  3
<>
  4
[]
 41
9.999389648437498
 42
25.0
 43
0.9999999999999999
 44
0.0
 73
     0
 74
     0
 77
     1
 78
    11
140
24.4326171875
141
0.0
143
1.0
146
0.8
147
10.0
171
     1
172
     1
174
     1
178
     0
179
     2
271
     1
272
     1
276
     2
284
    11
285
    11
286
    11
289
     0
340
39
341
4E
342
4E
  0
DIMSTYLE
105
3E41
330
9
100
AcDbSymbolTableRecord
100
AcDbDimStyleTableRecord
  2
scala  A3
 70
     0
 41
5.0
 42
0.625
 43
0.0
 44
1.25
 49
10.0
 90
        2
290
     1
 73
     0
 74
     0
 77
     1
 78
     8
140
6.0
141
2.5
143
0.03937007874016
147
2.0
171
     3
176
   256
177
   256
178
     0
271
     0
272
     0
274
     3
278
    44
283
     0
284
     8
340
17
371
    -1
372
     0
345
12
346
12
347
12
1001
ACAD_DSTYLE_DIMJAG
1070
   388
1040
1.5
1001
ACAD_DSTYLE_DIMTALN
1070
   392
1070
     0
  0
DIMSTYLE
105
3E44
330
9
100
AcDbSymbolTableRecord
100
AcDbDimStyleTableRecord
  2
Standard1
 70
     0
 41
0.0
 42
5.0
 44
0.0
 73
     0
 74
     0
 77
     2
140
20.0
141
0.0
147
2.0
178
     0
271
     0
272
     0
340
17
341
3E45
342
3E45
1001
ACAD_DSTYLE_DIMJAG
1070
   388
1040
1.5
1001
ACAD_DSTYLE_DIMTALN
1070
   392
1070
     0
  0
DIMSTYLE
105
3EB9
330
9
100
AcDbSymbolTableRecord
100
AcDbDimStyleTableRecord
  2
Annotative
 70
     0
178
     0
340
17
1001
AcadAnnotative
1000
AnnotativeData
1002
{
1070
     1
1070
     1
1002
}
  0
ENDTAB
  0
TABLE
  2
BLOCK_RECORD
  5
1
330
0
100
AcDbSymbolTable
 70
    49
  0
BLOCK_RECORD
  5
A
102
{ACAD_XDICTIONARY
360
374D
102
}
330
1
100
AcDbSymbolTableRecord
100
AcDbBlockTableRecord
  2
*MODEL_SPACE
340
20
 70
     0
280
     1
281
     0
  0
BLOCK_RECORD
  5
B
330
1
100
AcDbSymbolTableRecord
100
AcDbBlockTableRecord
  2
*PAPER_SPACE
340
21
 70
     0
280
     1
281
     0
  0
BLOCK_RECORD
  5
4E
330
1
100
AcDbSymbolTableRecord
100
AcDbBlockTableRecord
  2
_DOT
340
0
102
{BLKREFS
331
373A
331
373B
331
3746
331
3747
331
39FF
331
3A00
331
3A0F
331
3A10
331
3A1E
331
3A1F
331
3BD7
331
3BD8
331
3C1E
331
3C1F
331
3C35
331
3C36
331
3C44
331
3C45
331
3C53
331
3C54
331
3C62
331
3C63
331
3C8F
331
3C90
331
3C9E
331
3C9F
331
3CAD
331
3CAE
331
3CC6
331
3CC7
331
3CD6
331
3CD7
331
3CE7
331
3CE8
331
3CF6
331
3CF7
331
3D05
331
3D06
331
3D15
331
3D16
331
3D81
331
3D82
331
3D8E
331
3D8F
331
3DC5
331
3DC6
331
3DD4
331
3DD5
331
3DE3
331
3DE4
331
3DF2
331
3DF3
331
4385
331
4386
331
4395
331
4396
331
43A4
331
43A5
331
440A
331
440B
331
4421
331
4422
331
4430
331
4431
331
46B0
331
46B1
331
48FB
331
48FC
331
4993
331
4994
331
49A3
331
49A4
331
49B2
331
49B3
331
49CB
331
49CC
331
4A1C
331
4A1D
331
4A2B
331
4A2C
331
4A3A
331
4A3B
331
4A49
331
4A4A
331
4A62
331
4A63
331
4A71
331
4A72
102
}
 70
     0
280
     1
281
     0
  0
BLOCK_RECORD
  5
68D
330
1
100
AcDbSymbolTableRecord
100
AcDbBlockTableRecord
  2
block 2
340
0
102
{BLKREFS
331
68C
102
}
 70
     0
280
     1
281
     0
  0
BLOCK_RECORD
  5
199A
330
1
100
AcDbSymbolTableRecord
100
AcDbBlockTableRecord
  2
SEANNOT_GROUP
340
0
102
{BLKREFS
331
28CA
102
}
 70
     0
280
     1
281
     0
  0
BLOCK_RECORD
  5
1F2F
330
1
100
AcDbSymbolTableRecord
100
AcDbBlockTableRecord
  2
SEANNOT_GROUP1
340
0
102
{BLKREFS
331
2B9B
102
}
 70
     0
280
     1
281
     0
  0
BLOCK_RECORD
  5
3734
330
1
100
AcDbSymbolTableRecord
100
AcDbBlockTableRecord
  2
*D4
340
0
 70
     0
280
     1
281
     0
  0
BLOCK_RECORD
  5
3740
330
1
100
AcDbSymbolTableRecord
100
AcDbBlockTableRecord
  2
*D5
340
0
 70
     0
280
     1
281
     0
  0
BLOCK_RECORD
  5
39F9
330
1
100
AcDbSymbolTableRecord
100
AcDbBlockTableRecord
  2
*D6
340
0
 70
     0
280
     1
281
     0
  0
BLOCK_RECORD
  5
3A09
330
1
100
AcDbSymbolTableRecord
100
AcDbBlockTableRecord
  2
*D7
340
0
 70
     0
280
     1
281
     0
  0
BLOCK_RECORD
  5
3A18
330
1
100
AcDbSymbolTableRecord
100
AcDbBlockTableRecord
  2
*D8
340
0
 70
     0
280
     1
281
     0
  0
BLOCK_RECORD
  5
3BD1
330
1
100
AcDbSymbolTableRecord
100
AcDbBlockTableRecord
  2
*D9
340
0
 70
     0
280
     1
281
     0
  0
BLOCK_RECORD
  5
3C17
330
1
100
AcDbSymbolTableRecord
100
AcDbBlockTableRecord
  2
*D10
340
0
 70
     0
280
     1
281
     0
  0
BLOCK_RECORD
  5
3C2F
330
1
100
AcDbSymbolTableRecord
100
AcDbBlockTableRecord
  2
*D11
340
0
 70
     0
280
     1
281
     0
  0
BLOCK_RECORD
  5
3C3E
330
1
100
AcDbSymbolTableRecord
100
AcDbBlockTableRecord
  2
*D12
340
0
 70
     0
280
     1
281
     0
  0
BLOCK_RECORD
  5
3C4D
330
1
100
AcDbSymbolTableRecord
100
AcDbBlockTableRecord
  2
*D13
340
0
 70
     0
280
     1
281
     0
  0
BLOCK_RECORD
  5
3C5C
330
1
100
AcDbSymbolTableRecord
100
AcDbBlockTableRecord
  2
*D14
340
0
 70
     0
280
     1
281
     0
  0
BLOCK_RECORD
  5
3C89
330
1
100
AcDbSymbolTableRecord
100
AcDbBlockTableRecord
  2
*D15
340
0
 70
     0
280
     1
281
     0
  0
BLOCK_RECORD
  5
3C98
330
1
100
AcDbSymbolTableRecord
100
AcDbBlockTableRecord
  2
*D16
340
0
 70
     0
280
     1
281
     0
  0
BLOCK_RECORD
  5
3CA7
330
1
100
AcDbSymbolTableRecord
100
AcDbBlockTableRecord
  2
*D17
340
0
 70
     0
280
     1
281
     0
  0
BLOCK_RECORD
  5
3CC0
330
1
100
AcDbSymbolTableRecord
100
AcDbBlockTableRecord
  2
*D18
340
0
 70
     0
280
     1
281
     0
  0
BLOCK_RECORD
  5
3CD0
330
1
100
AcDbSymbolTableRecord
100
AcDbBlockTableRecord
  2
*D19
340
0
 70
     0
280
     1
281
     0
  0
BLOCK_RECORD
  5
3CE1
330
1
100
AcDbSymbolTableRecord
100
AcDbBlockTableRecord
  2
*D20
340
0
 70
     0
280
     1
281
     0
  0
BLOCK_RECORD
  5
3CF0
330
1
100
AcDbSymbolTableRecord
100
AcDbBlockTableRecord
  2
*D21
340
0
 70
     0
280
     1
281
     0
  0
BLOCK_RECORD
  5
3CFF
330
1
100
AcDbSymbolTableRecord
100
AcDbBlockTableRecord
  2
*D22
340
0
 70
     0
280
     1
281
     0
  0
BLOCK_RECORD
  5
3D0F
330
1
100
AcDbSymbolTableRecord
100
AcDbBlockTableRecord
  2
*D23
340
0
 70
     0
280
     1
281
     0
  0
BLOCK_RECORD
  5
3D7B
330
1
100
AcDbSymbolTableRecord
100
AcDbBlockTableRecord
  2
*D24
340
0
 70
     0
280
     1
281
     0
  0
BLOCK_RECORD
  5
3D88
330
1
100
AcDbSymbolTableRecord
100
AcDbBlockTableRecord
  2
*D25
340
0
 70
     0
280
     1
281
     0
  0
BLOCK_RECORD
  5
3DBF
330
1
100
AcDbSymbolTableRecord
100
AcDbBlockTableRecord
  2
*D26
340
0
 70
     0
280
     1
281
     0
  0
BLOCK_RECORD
  5
3DCE
330
1
100
AcDbSymbolTableRecord
100
AcDbBlockTableRecord
  2
*D27
340
0
 70
     0
280
     1
281
     0
  0
BLOCK_RECORD
  5
3DDD
330
1
100
AcDbSymbolTableRecord
100
AcDbBlockTableRecord
  2
*D28
340
0
 70
     0
280
     1
281
     0
  0
BLOCK_RECORD
  5
3DEC
330
1
100
AcDbSymbolTableRecord
100
AcDbBlockTableRecord
  2
*D29
340
0
 70
     0
280
     1
281
     0
  0
BLOCK_RECORD
  5
3E45
330
1
100
AcDbSymbolTableRecord
100
AcDbBlockTableRecord
  2
_None
340
0
 70
     0
280
     1
281
     0
  0
BLOCK_RECORD
  5
437F
330
1
100
AcDbSymbolTableRecord
100
AcDbBlockTableRecord
  2
*D31
340
0
 70
     0
280
     1
281
     0
  0
BLOCK_RECORD
  5
438F
330
1
100
AcDbSymbolTableRecord
100
AcDbBlockTableRecord
  2
*D32
340
0
 70
     0
280
     1
281
     0
  0
BLOCK_RECORD
  5
439E
330
1
100
AcDbSymbolTableRecord
100
AcDbBlockTableRecord
  2
*D33
340
0
 70
     0
280
     1
281
     0
  0
BLOCK_RECORD
  5
4404
330
1
100
AcDbSymbolTableRecord
100
AcDbBlockTableRecord
  2
*D34
340
0
 70
     0
280
     1
281
     0
  0
BLOCK_RECORD
  5
441B
330
1
100
AcDbSymbolTableRecord
100
AcDbBlockTableRecord
  2
*D35
340
0
 70
     0
280
     1
281
     0
  0
BLOCK_RECORD
  5
442A
330
1
100
AcDbSymbolTableRecord
100
AcDbBlockTableRecord
  2
*D36
340
0
 70
     0
280
     1
281
     0
  0
BLOCK_RECORD
  5
46AA
330
1
100
AcDbSymbolTableRecord
100
AcDbBlockTableRecord
  2
*D37
340
0
 70
     0
280
     1
281
     0
  0
BLOCK_RECORD
  5
48F5
330
1
100
AcDbSymbolTableRecord
100
AcDbBlockTableRecord
  2
*D38
340
0
 70
     0
280
     1
281
     0
  0
BLOCK_RECORD
  5
498D
330
1
100
AcDbSymbolTableRecord
100
AcDbBlockTableRecord
  2
*D39
340
0
 70
     0
280
     1
281
     0
  0
BLOCK_RECORD
  5
499D
330
1
100
AcDbSymbolTableRecord
100
AcDbBlockTableRecord
  2
*D40
340
0
 70
     0
280
     1
281
     0
  0
BLOCK_RECORD
  5
49AC
330
1
100
AcDbSymbolTableRecord
100
AcDbBlockTableRecord
  2
*D41
340
0
 70
     0
280
     1
281
     0
  0
BLOCK_RECORD
  5
49C5
330
1
100
AcDbSymbolTableRecord
100
AcDbBlockTableRecord
  2
*D42
340
0
 70
     0
280
     1
281
     0
  0
BLOCK_RECORD
  5
4A16
330
1
100
AcDbSymbolTableRecord
100
AcDbBlockTableRecord
  2
*D43
340
0
 70
     0
280
     1
281
     0
  0
BLOCK_RECORD
  5
4A25
330
1
100
AcDbSymbolTableRecord
100
AcDbBlockTableRecord
  2
*D44
340
0
 70
     0
280
     1
281
     0
  0
BLOCK_RECORD
  5
4A34
330
1
100
AcDbSymbolTableRecord
100
AcDbBlockTableRecord
  2
*D45
340
0
 70
     0
280
     1
281
     0
  0
BLOCK_RECORD
  5
4A43
330
1
100
AcDbSymbolTableRecord
100
AcDbBlockTableRecord
  2
*D46
340
0
 70
     0
280
     1
281
     0
  0
BLOCK_RECORD
  5
4A5C
330
1
100
AcDbSymbolTableRecord
100
AcDbBlockTableRecord
  2
*D47
340
0
 70
     0
280
     1
281
     0
  0
BLOCK_RECORD
  5
4A6B
330
1
100
AcDbSymbolTableRecord
100
AcDbBlockTableRecord
  2
*D48
340
0
 70
     0
280
     1
281
     0
  0
ENDTAB
  0
ENDSEC
  0
SECTION
  2
BLOCKS
  0
BLOCK
  5
D
330
A
100
AcDbEntity
  8
0
390
1D
100
AcDbBlockBegin
  2
*MODEL_SPACE
 70
     0
 10
0.0
 20
0.0
 30
0.0
  3
*MODEL_SPACE
  1
*MODEL_SPACE
  0
ENDBLK
  5
E
330
A
100
AcDbEntity
  8
0
390
1D
100
AcDbBlockEnd
  0
BLOCK
  5
F
330
B
100
AcDbEntity
 67
     1
  8
0
390
1D
100
AcDbBlockBegin
  2
*PAPER_SPACE
 70
     0
 10
0.0
 20
0.0
 30
0.0
  3
*PAPER_SPACE
  1
*PAPER_SPACE
  0
ENDBLK
  5
10
330
B
100
AcDbEntity
 67
     1
  8
0
390
1D
100
AcDbBlockEnd
  0
BLOCK
  5
EC4
330
4E
100
AcDbEntity
  8
0
390
1D
100
AcDbBlockBegin
  2
_DOT
 70
     0
 10
0.0
 20
0.0
 30
0.0
  3
_DOT
  1
_DOT
  0
POLYLINE
  5
EC6
330
4E
100
AcDbEntity
  8
0
  6
ByBlock
 62
     0
370
    -2
390
1D
100
AcDb2dPolyline
 66
     1
 10
0.0
 20
0.0
 30
0.0
 70
     1
 40
0.5
 41
0.5
  0
VERTEX
  5
EC7
330
EC6
100
AcDbEntity
  8
0
  6
ByBlock
 62
     0
370
    -2
390
1D
100
AcDbVertex
100
AcDb2dVertex
 10
-0.25
 20
0.0
 30
0.0
 42
1.0
  0
VERTEX
  5
EC8
330
EC6
100
AcDbEntity
  8
0
  6
ByBlock
 62
     0
370
    -2
390
1D
100
AcDbVertex
100
AcDb2dVertex
 10
0.25
 20
0.0
 30
0.0
 42
1.0
  0
SEQEND
  5
EC9
330
EC6
100
AcDbEntity
  8
0
390
1D
  0
LINE
  5
ECA
330
4E
100
AcDbEntity
  8
0
  6
ByBlock
 62
     0
370
    -2
390
1D
100
AcDbLine
 10
-0.5
 20
0.0
 30
0.0
 11
-1.0
 21
0.0
 31
0.0
  0
ENDBLK
  5
ECB
330
4E
100
AcDbEntity
  8
0
390
1D
100
AcDbBlockEnd
  0
BLOCK
  5
68E
330
68D
100
AcDbEntity
  8
0
100
AcDbBlockBegin
  2
block 2
 70
     0
 10
0.0
 20
0.0
 30
0.0
  3
block 2
  1
block 2
  0
ENDBLK
  5
6B0
330
68D
100
AcDbEntity
  8
0
100
AcDbBlockEnd
  0
BLOCK
  5
199B
330
199A
100
AcDbEntity
  8
0
100
AcDbBlockBegin
  2
SEANNOT_GROUP
 70
     0
 10
0.0
 20
0.0
 30
0.0
  3
SEANNOT_GROUP
  1
SEANNOT_GROUP
  0
ENDBLK
  5
199C
330
199A
100
AcDbEntity
  8
0
100
AcDbBlockEnd
  0
BLOCK
  5
1F30
330
1F2F
100
AcDbEntity
  8
0
100
AcDbBlockBegin
  2
SEANNOT_GROUP1
 70
     0
 10
0.0
 20
0.0
 30
0.0
  3
SEANNOT_GROUP1
  1
SEANNOT_GROUP1
  0
ENDBLK
  5
1F31
330
1F2F
100
AcDbEntity
  8
0
100
AcDbBlockEnd
  0
BLOCK
  5
3735
330
3734
100
AcDbEntity
  8
0
100
AcDbBlockBegin
  2
*D4
 70
     1
 10
0.0
 20
0.0
 30
0.0
  3
*D4
  1

  0
LINE
  5
3737
330
3734
100
AcDbEntity
  8
DIM
 62
     0
370
    -2
100
AcDbLine
 10
792.5747720364734
 20
1624.375151854103
 30
0.0
 11
792.5747720364734
 21
1945.106376948328
 31
0.0
  0
LINE
  5
3738
330
3734
100
AcDbEntity
  8
DIM
 62
     0
370
    -2
100
AcDbLine
 10
1363.464741641327
 20
1624.375151854103
 30
0.0
 11
1363.464741641327
 21
1945.106376948328
 31
0.0
  0
LINE
  5
3739
330
3734
100
AcDbEntity
  8
DIM
 62
     0
370
    -2
100
AcDbLine
 10
802.5747720364734
 20
1945.106376948328
 30
0.0
 11
1353.464741641327
 21
1945.106376948328
 31
0.0
  0
INSERT
  5
373A
330
3734
100
AcDbEntity
  8
DIM
 62
     0
370
    -2
100
AcDbBlockReference
  2
_DOT
 10
792.5747720364734
 20
1945.106376948328
 30
0.0
 41
10.0
 42
10.0
 43
10.0
 50
180.0
  0
INSERT
  5
373B
330
3734
100
AcDbEntity
  8
DIM
 62
     0
370
    -2
100
AcDbBlockReference
  2
_DOT
 10
1363.464741641327
 20
1945.106376948328
 30
0.0
 41
10.0
 42
10.0
 43
10.0
  0
MTEXT
  5
373C
330
3734
100
AcDbEntity
  8
DIM
 62
     0
100
AcDbMText
 10
1078.019756838897
 20
1977.106376948328
 30
0.0
 40
24.0
 41
0.0
 46
0.0
 71
     5
 72
     1
  1
\A1;571
  7
ＭＳ ゴシック
 73
     1
 44
1.0
  0
POINT
  5
373D
330
3734
100
AcDbEntity
  8
Defpoints
 62
     0
100
AcDbPoint
 10
792.5747720364734
 20
1594.375151854103
 30
0.0
  0
POINT
  5
373E
330
3734
100
AcDbEntity
  8
Defpoints
 62
     0
100
AcDbPoint
 10
1363.464741641327
 20
1594.375151854103
 30
0.0
  0
POINT
  5
373F
330
3734
100
AcDbEntity
  8
Defpoints
 62
     0
100
AcDbPoint
 10
1363.464741641327
 20
1945.106376948328
 30
0.0
  0
ENDBLK
  5
3736
330
3734
100
AcDbEntity
  8
0
100
AcDbBlockEnd
  0
BLOCK
  5
3741
330
3740
100
AcDbEntity
  8
0
100
AcDbBlockBegin
  2
*D5
 70
     1
 10
0.0
 20
0.0
 30
0.0
  3
*D5
  1

  0
LINE
  5
3743
330
3740
100
AcDbEntity
  8
DIM
 62
     0
370
    -2
100
AcDbLine
 10
888.5851999139768
 20
1564.375151854103
 30
0.0
 11
888.5851999139768
 21
1160.881823708206
 31
0.0
  0
LINE
  5
3744
330
3740
100
AcDbEntity
  8
DIM
 62
     0
370
    -2
100
AcDbLine
 10
1267.454313763824
 20
1564.375151854103
 30
0.0
 11
1267.454313763824
 21
1160.881823708206
 31
0.0
  0
LINE
  5
3745
330
3740
100
AcDbEntity
  8
DIM
 62
     0
370
    -2
100
AcDbLine
 10
898.5851999139768
 20
1160.881823708206
 30
0.0
 11
1257.454313763824
 21
1160.881823708206
 31
0.0
  0
INSERT
  5
3746
330
3740
100
AcDbEntity
  8
DIM
 62
     0
370
    -2
100
AcDbBlockReference
  2
_DOT
 10
888.5851999139768
 20
1160.881823708206
 30
0.0
 41
10.0
 42
10.0
 43
10.0
 50
180.0
  0
INSERT
  5
3747
330
3740
100
AcDbEntity
  8
DIM
 62
     0
370
    -2
100
AcDbBlockReference
  2
_DOT
 10
1267.454313763824
 20
1160.881823708206
 30
0.0
 41
10.0
 42
10.0
 43
10.0
  0
MTEXT
  5
3748
330
3740
100
AcDbEntity
  8
DIM
 62
     0
100
AcDbMText
 10
1078.0197568389
 20
1192.881823708206
 30
0.0
 40
24.0
 41
0.0
 46
0.0
 71
     5
 72
     1
  1
\A1;379
  7
ＭＳ ゴシック
 73
     1
 44
1.0
  0
POINT
  5
3749
330
3740
100
AcDbEntity
  8
Defpoints
 62
     0
100
AcDbPoint
 10
888.5851999139768
 20
1594.375151854103
 30
0.0
  0
POINT
  5
374A
330
3740
100
AcDbEntity
  8
Defpoints
 62
     0
100
AcDbPoint
 10
1267.454313763824
 20
1594.375151854103
 30
0.0
  0
POINT
  5
374B
330
3740
100
AcDbEntity
  8
Defpoints
 62
     0
100
AcDbPoint
 10
1267.454313763824
 20
1160.881823708206
 30
0.0
  0
ENDBLK
  5
3742
330
3740
100
AcDbEntity
  8
0
100
AcDbBlockEnd
  0
BLOCK
  5
39FA
330
39F9
100
AcDbEntity
  8
0
100
AcDbBlockBegin
  2
*D6
 70
     1
 10
0.0
 20
0.0
 30
0.0
  3
*D6
  1

  0
LINE
  5
39FC
330
39F9
100
AcDbEntity
  8
DIM
 62
     0
370
    -2
100
AcDbLine
 10
3137.270341015266
 20
1043.656761067386
 30
0.0
 11
3336.904816242005
 21
1043.656761067386
 31
0.0
  0
LINE
  5
39FD
330
39F9
100
AcDbEntity
  8
DIM
 62
     0
370
    -2
100
AcDbLine
 10
3137.270341015266
 20
143.6567611531113
 30
0.0
 11
3336.904816242005
 21
143.6567611531113
 31
0.0
  0
LINE
  5
39FE
330
39F9
100
AcDbEntity
  8
DIM
 62
     0
370
    -2
100
AcDbLine
 10
3336.904816242005
 20
1033.656761067386
 30
0.0
 11
3336.904816242005
 21
153.6567611531113
 31
0.0
  0
INSERT
  5
39FF
330
39F9
100
AcDbEntity
  8
DIM
 62
     0
370
    -2
100
AcDbBlockReference
  2
_DOT
 10
3336.904816242005
 20
1043.656761067386
 30
0.0
 41
10.0
 42
10.0
 43
10.0
 50
90.0
  0
INSERT
  5
3A00
330
39F9
100
AcDbEntity
  8
DIM
 62
     0
370
    -2
100
AcDbBlockReference
  2
_DOT
 10
3336.904816242005
 20
143.6567611531113
 30
0.0
 41
10.0
 42
10.0
 43
10.0
 50
270.0
  0
MTEXT
  5
3A01
330
39F9
100
AcDbEntity
  8
DIM
 62
     0
100
AcDbMText
 10
3304.900314553872
 20
593.6567611102487
 30
0.0
 40
24.0
 41
0.0
 46
0.0
 71
     5
 72
     1
  1
\A1;899.99999991
  7
ＭＳ ゴシック
 11
0.0
 21
1.0
 31
0.0
 73
     1
 44
1.0
  0
POINT
  5
3A02
330
39F9
100
AcDbEntity
  8
Defpoints
 62
     0
100
AcDbPoint
 10
3107.270341015266
 20
1043.656761067386
 30
0.0
  0
POINT
  5
3A03
330
39F9
100
AcDbEntity
  8
Defpoints
 62
     0
100
AcDbPoint
 10
3107.270341015266
 20
143.6567611531113
 30
0.0
  0
POINT
  5
3A04
330
39F9
100
AcDbEntity
  8
Defpoints
 62
     0
100
AcDbPoint
 10
3336.904816242005
 20
143.6567611531113
 30
0.0
  0
ENDBLK
  5
39FB
330
39F9
100
AcDbEntity
  8
0
100
AcDbBlockEnd
  0
BLOCK
  5
3A0A
330
3A09
100
AcDbEntity
  8
0
100
AcDbBlockBegin
  2
*D7
 70
     1
 10
0.0
 20
0.0
 30
0.0
  3
*D7
  1

  0
LINE
  5
3A0C
330
3A09
100
AcDbEntity
  8
DIM
 62
     0
370
    -2
100
AcDbLine
 10
4351.658790769584
 20
1982.209994149385
 30
0.0
 11
4351.658790769584
 21
1888.257715266244
 31
0.0
  0
LINE
  5
3A0D
330
3A09
100
AcDbEntity
  8
DIM
 62
     0
370
    -2
100
AcDbLine
 10
4708.113216813483
 20
1981.397163952127
 30
0.0
 11
4708.113216813483
 21
1888.257715266244
 31
0.0
  0
LINE
  5
3A0E
330
3A09
100
AcDbEntity
  8
DIM
 62
     0
370
    -2
100
AcDbLine
 10
4361.658790769584
 20
1888.257715266244
 30
0.0
 11
4698.113216813483
 21
1888.257715266244
 31
0.0
  0
INSERT
  5
3A0F
330
3A09
100
AcDbEntity
  8
DIM
 62
     0
370
    -2
100
AcDbBlockReference
  2
_DOT
 10
4351.658790769584
 20
1888.257715266244
 30
0.0
 41
10.0
 42
10.0
 43
10.0
 50
180.0
  0
INSERT
  5
3A10
330
3A09
100
AcDbEntity
  8
DIM
 62
     0
370
    -2
100
AcDbBlockReference
  2
_DOT
 10
4708.113216813483
 20
1888.257715266244
 30
0.0
 41
10.0
 42
10.0
 43
10.0
  0
MTEXT
  5
3A11
330
3A09
100
AcDbEntity
  8
DIM
 62
     0
100
AcDbMText
 10
4529.886003791533
 20
1920.262216954377
 30
0.0
 40
24.0
 41
0.0
 46
0.0
 71
     5
 72
     1
  1
\A1;356
  7
ＭＳ ゴシック
 73
     1
 44
1.0
  0
POINT
  5
3A12
330
3A09
100
AcDbEntity
  8
Defpoints
 62
     0
100
AcDbPoint
 10
4351.658790769584
 20
2012.209994149385
 30
0.0
  0
POINT
  5
3A13
330
3A09
100
AcDbEntity
  8
Defpoints
 62
     0
100
AcDbPoint
 10
4708.113216813483
 20
2011.397163952127
 30
0.0
  0
POINT
  5
3A14
330
3A09
100
AcDbEntity
  8
Defpoints
 62
     0
100
AcDbPoint
 10
4708.113216813483
 20
1888.257715266244
 30
0.0
  0
ENDBLK
  5
3A0B
330
3A09
100
AcDbEntity
  8
0
100
AcDbBlockEnd
  0
BLOCK
  5
3A19
330
3A18
100
AcDbEntity
  8
0
100
AcDbBlockBegin
  2
*D8
 70
     1
 10
0.0
 20
0.0
 30
0.0
  3
*D8
  1

  0
LINE
  5
3A1B
330
3A18
100
AcDbEntity
  8
DIM
 62
     0
370
    -2
100
AcDbLine
 10
5972.766092132339
 20
2550.657101359189
 30
0.0
 11
6049.179698566782
 21
2550.657101359189
 31
0.0
  0
LINE
  5
3A1C
330
3A18
100
AcDbEntity
  8
DIM
 62
     0
370
    -2
100
AcDbLine
 10
5972.766092132339
 20
2385.657101359189
 30
0.0
 11
6049.179698566782
 21
2385.657101359189
 31
0.0
  0
LINE
  5
3A1D
330
3A18
100
AcDbEntity
  8
DIM
 62
     0
370
    -2
100
AcDbLine
 10
6049.179698566782
 20
2540.657101359189
 30
0.0
 11
6049.179698566782
 21
2395.657101359189
 31
0.0
  0
INSERT
  5
3A1E
330
3A18
100
AcDbEntity
  8
DIM
 62
     0
370
    -2
100
AcDbBlockReference
  2
_DOT
 10
6049.179698566782
 20
2550.657101359189
 30
0.0
 41
10.0
 42
10.0
 43
10.0
 50
90.0
  0
INSERT
  5
3A1F
330
3A18
100
AcDbEntity
  8
DIM
 62
     0
370
    -2
100
AcDbBlockReference
  2
_DOT
 10
6049.179698566782
 20
2385.657101359189
 30
0.0
 41
10.0
 42
10.0
 43
10.0
 50
270.0
  0
MTEXT
  5
3A20
330
3A18
100
AcDbEntity
  8
DIM
 62
     0
100
AcDbMText
 10
6017.175196878648
 20
2468.157101359189
 30
0.0
 40
24.0
 41
0.0
 46
0.0
 71
     5
 72
     1
  1
\A1;165
  7
ＭＳ ゴシック
 11
0.0
 21
1.0
 31
0.0
 73
     1
 44
1.0
  0
POINT
  5
3A21
330
3A18
100
AcDbEntity
  8
Defpoints
 62
     0
100
AcDbPoint
 10
5942.766092132339
 20
2550.657101359189
 30
0.0
  0
POINT
  5
3A22
330
3A18
100
AcDbEntity
  8
Defpoints
 62
     0
100
AcDbPoint
 10
5942.766092132339
 20
2385.657101359189
 30
0.0
  0
POINT
  5
3A23
330
3A18
100
AcDbEntity
  8
Defpoints
 62
     0
100
AcDbPoint
 10
6049.179698566782
 20
2385.657101359189
 30
0.0
  0
ENDBLK
  5
3A1A
330
3A18
100
AcDbEntity
  8
0
100
AcDbBlockEnd
  0
BLOCK
  5
3BD2
330
3BD1
100
AcDbEntity
  8
0
100
AcDbBlockBegin
  2
*D9
 70
     1
 10
0.0
 20
0.0
 30
0.0
  3
*D9
  1

  0
LINE
  5
3BD4
330
3BD1
100
AcDbEntity
  8
DIM
 62
     0
370
    -2
100
AcDbLine
 10
3352.058368186681
 20
2774.246965857637
 30
0.0
 11
3352.058368186681
 21
1606.137955991413
 31
0.0
  0
LINE
  5
3BD5
330
3BD1
100
AcDbEntity
  8
DIM
 62
     0
370
    -2
100
AcDbLine
 10
3952.063483908805
 20
2774.527126783389
 30
0.0
 11
3952.063483908805
 21
1606.137955991413
 31
0.0
  0
LINE
  5
3BD6
330
3BD1
100
AcDbEntity
  8
DIM
 62
     0
370
    -2
100
AcDbLine
 10
3362.058368186681
 20
1606.137955991413
 30
0.0
 11
3942.063483908805
 21
1606.137955991413
 31
0.0
  0
INSERT
  5
3BD7
330
3BD1
100
AcDbEntity
  8
DIM
 62
     0
370
    -2
100
AcDbBlockReference
  2
_DOT
 10
3352.058368186681
 20
1606.137955991413
 30
0.0
 41
10.0
 42
10.0
 43
10.0
 50
180.0
  0
INSERT
  5
3BD8
330
3BD1
100
AcDbEntity
  8
DIM
 62
     0
370
    -2
100
AcDbBlockReference
  2
_DOT
 10
3952.063483908805
 20
1606.137955991413
 30
0.0
 41
10.0
 42
10.0
 43
10.0
  0
MTEXT
  5
3BD9
330
3BD1
100
AcDbEntity
  8
DIM
 62
     0
100
AcDbMText
 10
3652.060926047743
 20
1638.137955991413
 30
0.0
 40
24.0
 41
0.0
 46
0.0
 71
     5
 72
     1
  1
\A1;600
  7
ＭＳ ゴシック
 73
     1
 44
1.0
  0
POINT
  5
3BDA
330
3BD1
100
AcDbEntity
  8
Defpoints
 62
     0
100
AcDbPoint
 10
3352.058368186681
 20
2804.246965857637
 30
0.0
  0
POINT
  5
3BDB
330
3BD1
100
AcDbEntity
  8
Defpoints
 62
     0
100
AcDbPoint
 10
3952.063483908805
 20
2804.527126783389
 30
0.0
  0
POINT
  5
3BDC
330
3BD1
100
AcDbEntity
  8
Defpoints
 62
     0
100
AcDbPoint
 10
3952.063483908805
 20
1606.137955991413
 30
0.0
  0
ENDBLK
  5
3BD3
330
3BD1
100
AcDbEntity
  8
0
100
AcDbBlockEnd
  0
BLOCK
  5
3C18
330
3C17
100
AcDbEntity
  8
0
100
AcDbBlockBegin
  2
*D10
 70
     1
 10
0.0
 20
0.0
 30
0.0
  3
*D10
  1

  0
LINE
  5
3C1A
330
3C17
100
AcDbEntity
  8
DIM
 62
     0
370
    -2
100
AcDbLine
 10
709.7971738341186
 20
2362.706770671863
 30
0.0
 11
785.3030798351735
 21
2362.706770671863
 31
0.0
  0
LINE
  5
3C1B
330
3C17
100
AcDbEntity
  8
DIM
 62
     0
370
    -2
100
AcDbLine
 10
675.6697124264349
 20
2360.19184930855
 30
0.0
 11
785.3030798351735
 21
2360.19184930855
 31
0.0
  0
LINE
  5
3C1C
330
3C17
100
AcDbEntity
  8
DIM
 62
     0
370
    -2
100
AcDbLine
 10
785.3030798351735
 20
2372.706770671863
 30
0.0
 11
785.3030798351735
 21
2382.706770671863
 31
0.0
  0
LINE
  5
3C1D
330
3C17
100
AcDbEntity
  8
DIM
 62
     0
370
    -2
100
AcDbLine
 10
785.3030798351735
 20
2350.19184930855
 30
0.0
 11
785.3030798351735
 21
2340.19184930855
 31
0.0
  0
INSERT
  5
3C1E
330
3C17
100
AcDbEntity
  8
DIM
 62
     0
370
    -2
100
AcDbBlockReference
  2
_DOT
 10
785.3030798351735
 20
2362.706770671863
 30
0.0
 41
10.0
 42
10.0
 43
10.0
 50
270.0
  0
INSERT
  5
3C1F
330
3C17
100
AcDbEntity
  8
DIM
 62
     0
370
    -2
100
AcDbBlockReference
  2
_DOT
 10
785.3030798351735
 20
2360.19184930855
 30
0.0
 41
10.0
 42
10.0
 43
10.0
 50
90.0
  0
MTEXT
  5
3C20
330
3C17
100
AcDbEntity
  8
DIM
 62
     0
100
AcDbMText
 10
753.2985781470404
 20
2361.449309990207
 30
0.0
 40
24.0
 41
0.0
 46
0.0
 71
     5
 72
     1
  1
\A1;3
  7
ＭＳ ゴシック
 11
0.0
 21
1.0
 31
0.0
 73
     1
 44
1.0
  0
POINT
  5
3C21
330
3C17
100
AcDbEntity
  8
Defpoints
 62
     0
100
AcDbPoint
 10
679.7971738341186
 20
2362.706770671863
 30
0.0
  0
POINT
  5
3C22
330
3C17
100
AcDbEntity
  8
Defpoints
 62
     0
100
AcDbPoint
 10
645.6697124264349
 20
2360.19184930855
 30
0.0
  0
POINT
  5
3C23
330
3C17
100
AcDbEntity
  8
Defpoints
 62
     0
100
AcDbPoint
 10
785.3030798351735
 20
2360.19184930855
 30
0.0
  0
ENDBLK
  5
3C19
330
3C17
100
AcDbEntity
  8
0
100
AcDbBlockEnd
  0
BLOCK
  5
3C30
330
3C2F
100
AcDbEntity
  8
0
100
AcDbBlockBegin
  2
*D11
 70
     1
 10
0.0
 20
0.0
 30
0.0
  3
*D11
  1

  0
LINE
  5
3C32
330
3C2F
100
AcDbEntity
  8
DIM
 62
     0
370
    -2
100
AcDbLine
 10
-1851.789352560976
 20
2457.575268444201
 30
0.0
 11
-1851.789352560976
 21
2560.670453605898
 31
0.0
  0
LINE
  5
3C33
330
3C2F
100
AcDbEntity
  8
DIM
 62
     0
370
    -2
100
AcDbLine
 10
-1251.784236838852
 20
2457.575268444201
 30
0.0
 11
-1251.784236838852
 21
2560.670453605898
 31
0.0
  0
LINE
  5
3C34
330
3C2F
100
AcDbEntity
  8
DIM
 62
     0
370
    -2
100
AcDbLine
 10
-1841.789352560976
 20
2560.670453605898
 30
0.0
 11
-1261.784236838852
 21
2560.670453605898
 31
0.0
  0
INSERT
  5
3C35
330
3C2F
100
AcDbEntity
  8
DIM
 62
     0
370
    -2
100
AcDbBlockReference
  2
_DOT
 10
-1851.789352560976
 20
2560.670453605898
 30
0.0
 41
10.0
 42
10.0
 43
10.0
 50
180.0
  0
INSERT
  5
3C36
330
3C2F
100
AcDbEntity
  8
DIM
 62
     0
370
    -2
100
AcDbBlockReference
  2
_DOT
 10
-1251.784236838852
 20
2560.670453605898
 30
0.0
 41
10.0
 42
10.0
 43
10.0
  0
MTEXT
  5
3C37
330
3C2F
100
AcDbEntity
  8
DIM
 62
     0
100
AcDbMText
 10
-1551.786794699914
 20
2592.670453605898
 30
0.0
 40
24.0
 41
0.0
 46
0.0
 71
     5
 72
     1
  1
\A1;600
  7
ＭＳ ゴシック
 73
     1
 44
1.0
  0
POINT
  5
3C38
330
3C2F
100
AcDbEntity
  8
Defpoints
 62
     0
100
AcDbPoint
 10
-1851.789352560976
 20
2427.575268444201
 30
0.0
  0
POINT
  5
3C39
330
3C2F
100
AcDbEntity
  8
Defpoints
 62
     0
100
AcDbPoint
 10
-1251.784236838852
 20
2427.575268444201
 30
0.0
  0
POINT
  5
3C3A
330
3C2F
100
AcDbEntity
  8
Defpoints
 62
     0
100
AcDbPoint
 10
-1251.784236838852
 20
2560.670453605898
 30
0.0
  0
ENDBLK
  5
3C31
330
3C2F
100
AcDbEntity
  8
0
100
AcDbBlockEnd
  0
BLOCK
  5
3C3F
330
3C3E
100
AcDbEntity
  8
0
100
AcDbBlockBegin
  2
*D12
 70
     1
 10
0.0
 20
0.0
 30
0.0
  3
*D12
  1

  0
LINE
  5
3C41
330
3C3E
100
AcDbEntity
  8
DIM
 62
     0
370
    -2
100
AcDbLine
 10
-1226.7066025116
 20
1967.612681087031
 30
0.0
 11
-1127.106186193796
 21
1967.612681087031
 31
0.0
  0
LINE
  5
3C42
330
3C3E
100
AcDbEntity
  8
DIM
 62
     0
370
    -2
100
AcDbLine
 10
-1221.784236838852
 20
2427.575268444201
 30
0.0
 11
-1127.106186193796
 21
2427.575268444201
 31
0.0
  0
LINE
  5
3C43
330
3C3E
100
AcDbEntity
  8
DIM
 62
     0
370
    -2
100
AcDbLine
 10
-1127.106186193796
 20
1977.612681087031
 30
0.0
 11
-1127.106186193796
 21
2417.575268444201
 31
0.0
  0
INSERT
  5
3C44
330
3C3E
100
AcDbEntity
  8
DIM
 62
     0
370
    -2
100
AcDbBlockReference
  2
_DOT
 10
-1127.106186193796
 20
1967.612681087031
 30
0.0
 41
10.0
 42
10.0
 43
10.0
 50
270.0
  0
INSERT
  5
3C45
330
3C3E
100
AcDbEntity
  8
DIM
 62
     0
370
    -2
100
AcDbBlockReference
  2
_DOT
 10
-1127.106186193796
 20
2427.575268444201
 30
0.0
 41
10.0
 42
10.0
 43
10.0
 50
90.0
  0
MTEXT
  5
3C46
330
3C3E
100
AcDbEntity
  8
DIM
 62
     0
100
AcDbMText
 10
-1159.106186193796
 20
2197.593974765617
 30
0.0
 40
24.0
 41
0.0
 46
0.0
 71
     5
 72
     1
  1
\A1;460
  7
ＭＳ ゴシック
 11
0.0
 21
1.0
 31
0.0
 73
     1
 44
1.0
  0
POINT
  5
3C47
330
3C3E
100
AcDbEntity
  8
Defpoints
 62
     0
100
AcDbPoint
 10
-1256.7066025116
 20
1967.612681087031
 30
0.0
  0
POINT
  5
3C48
330
3C3E
100
AcDbEntity
  8
Defpoints
 62
     0
100
AcDbPoint
 10
-1251.784236838852
 20
2427.575268444201
 30
0.0
  0
POINT
  5
3C49
330
3C3E
100
AcDbEntity
  8
Defpoints
 62
     0
100
AcDbPoint
 10
-1127.106186193796
 20
2427.575268444201
 30
0.0
  0
ENDBLK
  5
3C40
330
3C3E
100
AcDbEntity
  8
0
100
AcDbBlockEnd
  0
BLOCK
  5
3C4E
330
3C4D
100
AcDbEntity
  8
0
100
AcDbBlockBegin
  2
*D13
 70
     1
 10
0.0
 20
0.0
 30
0.0
  3
*D13
  1

  0
LINE
  5
3C50
330
3C4D
100
AcDbEntity
  8
DIM
 62
     0
370
    -2
100
AcDbLine
 10
-1867.055540761067
 20
2302.389999125469
 30
0.0
 11
-1948.811518510327
 21
2302.389999125469
 31
0.0
  0
LINE
  5
3C51
330
3C4D
100
AcDbEntity
  8
DIM
 62
     0
370
    -2
100
AcDbLine
 10
-1876.772094423965
 20
1976.54576298194
 30
0.0
 11
-1948.811518510327
 21
1976.54576298194
 31
0.0
  0
LINE
  5
3C52
330
3C4D
100
AcDbEntity
  8
DIM
 62
     0
370
    -2
100
AcDbLine
 10
-1948.811518510327
 20
2292.389999125469
 30
0.0
 11
-1948.811518510327
 21
1986.54576298194
 31
0.0
  0
INSERT
  5
3C53
330
3C4D
100
AcDbEntity
  8
DIM
 62
     0
370
    -2
100
AcDbBlockReference
  2
_DOT
 10
-1948.811518510327
 20
2302.389999125469
 30
0.0
 41
10.0
 42
10.0
 43
10.0
 50
90.0
  0
INSERT
  5
3C54
330
3C4D
100
AcDbEntity
  8
DIM
 62
     0
370
    -2
100
AcDbBlockReference
  2
_DOT
 10
-1948.811518510327
 20
1976.54576298194
 30
0.0
 41
10.0
 42
10.0
 43
10.0
 50
270.0
  0
MTEXT
  5
3C55
330
3C4D
100
AcDbEntity
  8
DIM
 62
     0
100
AcDbMText
 10
-1980.81602019846
 20
2139.467881053704
 30
0.0
 40
24.0
 41
0.0
 46
0.0
 71
     5
 72
     1
  1
\A1;325
  7
ＭＳ ゴシック
 11
0.0
 21
1.0
 31
0.0
 73
     1
 44
1.0
  0
POINT
  5
3C56
330
3C4D
100
AcDbEntity
  8
Defpoints
 62
     0
100
AcDbPoint
 10
-1837.055540761067
 20
2302.389999125469
 30
0.0
  0
POINT
  5
3C57
330
3C4D
100
AcDbEntity
  8
Defpoints
 62
     0
100
AcDbPoint
 10
-1846.772094423965
 20
1976.54576298194
 30
0.0
  0
POINT
  5
3C58
330
3C4D
100
AcDbEntity
  8
Defpoints
 62
     0
100
AcDbPoint
 10
-1948.811518510327
 20
1976.54576298194
 30
0.0
  0
ENDBLK
  5
3C4F
330
3C4D
100
AcDbEntity
  8
0
100
AcDbBlockEnd
  0
BLOCK
  5
3C5D
330
3C5C
100
AcDbEntity
  8
0
100
AcDbBlockBegin
  2
*D14
 70
     1
 10
0.0
 20
0.0
 30
0.0
  3
*D14
  1

  0
LINE
  5
3C5F
330
3C5C
100
AcDbEntity
  8
DIM
 62
     0
370
    -2
100
AcDbLine
 10
-1842.364445162231
 20
1951.761658507186
 30
0.0
 11
-1842.364445162231
 21
1839.658360311719
 31
0.0
  0
LINE
  5
3C60
330
3C5C
100
AcDbEntity
  8
DIM
 62
     0
370
    -2
100
AcDbLine
 10
-1261.029983914658
 20
1951.904114505181
 30
0.0
 11
-1261.029983914658
 21
1839.658360311719
 31
0.0
  0
LINE
  5
3C61
330
3C5C
100
AcDbEntity
  8
DIM
 62
     0
370
    -2
100
AcDbLine
 10
-1832.364445162231
 20
1839.658360311719
 30
0.0
 11
-1271.029983914658
 21
1839.658360311719
 31
0.0
  0
INSERT
  5
3C62
330
3C5C
100
AcDbEntity
  8
DIM
 62
     0
370
    -2
100
AcDbBlockReference
  2
_DOT
 10
-1842.364445162231
 20
1839.658360311719
 30
0.0
 41
10.0
 42
10.0
 43
10.0
 50
180.0
  0
INSERT
  5
3C63
330
3C5C
100
AcDbEntity
  8
DIM
 62
     0
370
    -2
100
AcDbBlockReference
  2
_DOT
 10
-1261.029983914658
 20
1839.658360311719
 30
0.0
 41
10.0
 42
10.0
 43
10.0
  0
MTEXT
  5
3C64
330
3C5C
100
AcDbEntity
  8
DIM
 62
     0
100
AcDbMText
 10
-1551.697214538445
 20
1871.662861999853
 30
0.0
 40
24.0
 41
0.0
 46
0.0
 71
     5
 72
     1
  1
\A1;580
  7
ＭＳ ゴシック
 73
     1
 44
1.0
  0
POINT
  5
3C65
330
3C5C
100
AcDbEntity
  8
Defpoints
 62
     0
100
AcDbPoint
 10
-1842.364445162231
 20
1981.761658507186
 30
0.0
  0
POINT
  5
3C66
330
3C5C
100
AcDbEntity
  8
Defpoints
 62
     0
100
AcDbPoint
 10
-1261.029983914658
 20
1981.904114505181
 30
0.0
  0
POINT
  5
3C67
330
3C5C
100
AcDbEntity
  8
Defpoints
 62
     0
100
AcDbPoint
 10
-1261.029983914658
 20
1839.658360311719
 30
0.0
  0
ENDBLK
  5
3C5E
330
3C5C
100
AcDbEntity
  8
0
100
AcDbBlockEnd
  0
BLOCK
  5
3C8A
330
3C89
100
AcDbEntity
  8
0
100
AcDbBlockBegin
  2
*D15
 70
     1
 10
0.0
 20
0.0
 30
0.0
  3
*D15
  1

  0
LINE
  5
3C8C
330
3C89
100
AcDbEntity
  8
DIM
 62
     0
370
    -2
100
AcDbLine
 10
-723.5304231097122
 20
852.055967653428
 30
0.0
 11
-359.2934152623709
 21
852.055967653428
 31
0.0
  0
LINE
  5
3C8D
330
3C89
100
AcDbEntity
  8
DIM
 62
     0
370
    -2
100
AcDbLine
 10
-497.6419868856954
 20
1014.058244623822
 30
0.0
 11
-359.2934152623709
 21
1014.058244623822
 31
0.0
  0
LINE
  5
3C8E
330
3C89
100
AcDbEntity
  8
DIM
 62
     0
370
    -2
100
AcDbLine
 10
-359.2934152623709
 20
862.055967653428
 30
0.0
 11
-359.2934152623709
 21
1004.058244623822
 31
0.0
  0
INSERT
  5
3C8F
330
3C89
100
AcDbEntity
  8
DIM
 62
     0
370
    -2
100
AcDbBlockReference
  2
_DOT
 10
-359.2934152623709
 20
852.055967653428
 30
0.0
 41
10.0
 42
10.0
 43
10.0
 50
270.0
  0
INSERT
  5
3C90
330
3C89
100
AcDbEntity
  8
DIM
 62
     0
370
    -2
100
AcDbBlockReference
  2
_DOT
 10
-359.2934152623709
 20
1014.058244623822
 30
0.0
 41
10.0
 42
10.0
 43
10.0
 50
90.0
  0
MTEXT
  5
3C91
330
3C89
100
AcDbEntity
  8
DIM
 62
     0
100
AcDbMText
 10
-391.2979169505039
 20
933.0571061386246
 30
0.0
 40
24.0
 41
0.0
 46
0.0
 71
     5
 72
     1
  1
\A1;165
  7
ＭＳ ゴシック
 11
0.0
 21
1.0
 31
0.0
 73
     1
 44
1.0
  0
POINT
  5
3C92
330
3C89
100
AcDbEntity
  8
Defpoints
 62
     0
100
AcDbPoint
 10
-753.5304231097122
 20
852.055967653428
 30
0.0
  0
POINT
  5
3C93
330
3C89
100
AcDbEntity
  8
Defpoints
 62
     0
100
AcDbPoint
 10
-527.6419868856954
 20
1014.058244623822
 30
0.0
  0
POINT
  5
3C94
330
3C89
100
AcDbEntity
  8
Defpoints
 62
     0
100
AcDbPoint
 10
-359.2934152623709
 20
1014.058244623822
 30
0.0
  0
ENDBLK
  5
3C8B
330
3C89
100
AcDbEntity
  8
0
100
AcDbBlockEnd
  0
BLOCK
  5
3C99
330
3C98
100
AcDbEntity
  8
0
100
AcDbBlockBegin
  2
*D16
 70
     1
 10
0.0
 20
0.0
 30
0.0
  3
*D16
  1

  0
LINE
  5
3C9B
330
3C98
100
AcDbEntity
  8
DIM
 62
     0
370
    -2
100
AcDbLine
 10
1679.762936436087
 20
2263.259676886892
 30
0.0
 11
1768.537927222516
 21
2263.259676886892
 31
0.0
  0
LINE
  5
3C9C
330
3C98
100
AcDbEntity
  8
DIM
 62
     0
370
    -2
100
AcDbLine
 10
1656.805724764688
 20
2477.616215796395
 30
0.0
 11
1768.537927222516
 21
2477.616215796395
 31
0.0
  0
LINE
  5
3C9D
330
3C98
100
AcDbEntity
  8
DIM
 62
     0
370
    -2
100
AcDbLine
 10
1768.537927222516
 20
2273.259676886892
 30
0.0
 11
1768.537927222516
 21
2467.616215796395
 31
0.0
  0
INSERT
  5
3C9E
330
3C98
100
AcDbEntity
  8
DIM
 62
     0
370
    -2
100
AcDbBlockReference
  2
_DOT
 10
1768.537927222516
 20
2263.259676886892
 30
0.0
 41
10.0
 42
10.0
 43
10.0
 50
270.0
  0
INSERT
  5
3C9F
330
3C98
100
AcDbEntity
  8
DIM
 62
     0
370
    -2
100
AcDbBlockReference
  2
_DOT
 10
1768.537927222516
 20
2477.616215796395
 30
0.0
 41
10.0
 42
10.0
 43
10.0
 50
90.0
  0
MTEXT
  5
3CA0
330
3C98
100
AcDbEntity
  8
DIM
 62
     0
100
AcDbMText
 10
1736.533425534383
 20
2370.437946341644
 30
0.0
 40
24.0
 41
0.0
 46
0.0
 71
     5
 72
     1
  1
\A1;215
  7
ＭＳ ゴシック
 11
0.0
 21
1.0
 31
0.0
 73
     1
 44
1.0
  0
POINT
  5
3CA1
330
3C98
100
AcDbEntity
  8
Defpoints
 62
     0
100
AcDbPoint
 10
1649.762936436087
 20
2263.259676886892
 30
0.0
  0
POINT
  5
3CA2
330
3C98
100
AcDbEntity
  8
Defpoints
 62
     0
100
AcDbPoint
 10
1626.805724764688
 20
2477.616215796395
 30
0.0
  0
POINT
  5
3CA3
330
3C98
100
AcDbEntity
  8
Defpoints
 62
     0
100
AcDbPoint
 10
1768.537927222516
 20
2477.616215796395
 30
0.0
  0
ENDBLK
  5
3C9A
330
3C98
100
AcDbEntity
  8
0
100
AcDbBlockEnd
  0
BLOCK
  5
3CA8
330
3CA7
100
AcDbEntity
  8
0
100
AcDbBlockBegin
  2
*D17
 70
     1
 10
0.0
 20
0.0
 30
0.0
  3
*D17
  1

  0
LINE
  5
3CAA
330
3CA7
100
AcDbEntity
  8
DIM
 62
     0
370
    -2
100
AcDbLine
 10
1298.691878288434
 20
1014.058244623821
 30
0.0
 11
1159.990976235728
 21
1014.058244623821
 31
0.0
  0
LINE
  5
3CAB
330
3CA7
100
AcDbEntity
  8
DIM
 62
     0
370
    -2
100
AcDbLine
 10
1420.912395192318
 20
874.0563619357736
 30
0.0
 11
1159.990976235728
 21
874.0563619357736
 31
0.0
  0
LINE
  5
3CAC
330
3CA7
100
AcDbEntity
  8
DIM
 62
     0
370
    -2
100
AcDbLine
 10
1159.990976235728
 20
1004.058244623821
 30
0.0
 11
1159.990976235728
 21
884.0563619357736
 31
0.0
  0
INSERT
  5
3CAD
330
3CA7
100
AcDbEntity
  8
DIM
 62
     0
370
    -2
100
AcDbBlockReference
  2
_DOT
 10
1159.990976235728
 20
1014.058244623821
 30
0.0
 41
10.0
 42
10.0
 43
10.0
 50
90.0
  0
INSERT
  5
3CAE
330
3CA7
100
AcDbEntity
  8
DIM
 62
     0
370
    -2
100
AcDbBlockReference
  2
_DOT
 10
1159.990976235728
 20
874.0563619357736
 30
0.0
 41
10.0
 42
10.0
 43
10.0
 50
270.0
  0
MTEXT
  5
3CAF
330
3CA7
100
AcDbEntity
  8
DIM
 62
     0
100
AcDbMText
 10
1127.986474547595
 20
944.0573032797976
 30
0.0
 40
24.0
 41
0.0
 46
0.0
 71
     5
 72
     1
  1
\A1;140
  7
ＭＳ ゴシック
 11
0.0
 21
1.0
 31
0.0
 73
     1
 44
1.0
  0
POINT
  5
3CB0
330
3CA7
100
AcDbEntity
  8
Defpoints
 62
     0
100
AcDbPoint
 10
1328.691878288434
 20
1014.058244623821
 30
0.0
  0
POINT
  5
3CB1
330
3CA7
100
AcDbEntity
  8
Defpoints
 62
     0
100
AcDbPoint
 10
1450.912395192318
 20
874.0563619357736
 30
0.0
  0
POINT
  5
3CB2
330
3CA7
100
AcDbEntity
  8
Defpoints
 62
     0
100
AcDbPoint
 10
1159.990976235728
 20
874.0563619357736
 30
0.0
  0
ENDBLK
  5
3CA9
330
3CA7
100
AcDbEntity
  8
0
100
AcDbBlockEnd
  0
BLOCK
  5
3CC1
330
3CC0
100
AcDbEntity
  8
0
100
AcDbBlockBegin
  2
*D18
 70
     1
 10
0.0
 20
0.0
 30
0.0
  3
*D18
  1

  0
LINE
  5
3CC3
330
3CC0
100
AcDbEntity
  8
DIM
 62
     0
370
    -2
100
AcDbLine
 10
1457.60218496883
 20
2477.735082132964
 30
0.0
 11
1421.047797197678
 21
2477.735082132964
 31
0.0
  0
LINE
  5
3CC4
330
3CC0
100
AcDbEntity
  8
DIM
 62
     0
370
    -2
100
AcDbLine
 10
1466.318699418709
 20
2412.616215796396
 30
0.0
 11
1421.047797197678
 21
2412.616215796396
 31
0.0
  0
LINE
  5
3CC5
330
3CC0
100
AcDbEntity
  8
DIM
 62
     0
370
    -2
100
AcDbLine
 10
1421.047797197678
 20
2467.735082132964
 30
0.0
 11
1421.047797197678
 21
2422.616215796396
 31
0.0
  0
INSERT
  5
3CC6
330
3CC0
100
AcDbEntity
  8
DIM
 62
     0
370
    -2
100
AcDbBlockReference
  2
_DOT
 10
1421.047797197678
 20
2477.735082132964
 30
0.0
 41
10.0
 42
10.0
 43
10.0
 50
90.0
  0
INSERT
  5
3CC7
330
3CC0
100
AcDbEntity
  8
DIM
 62
     0
370
    -2
100
AcDbBlockReference
  2
_DOT
 10
1421.047797197678
 20
2412.616215796396
 30
0.0
 41
10.0
 42
10.0
 43
10.0
 50
270.0
  0
MTEXT
  5
3CC8
330
3CC0
100
AcDbEntity
  8
DIM
 62
     0
100
AcDbMText
 10
1389.043295509545
 20
2445.17564896468
 30
0.0
 40
24.0
 41
0.0
 46
0.0
 71
     5
 72
     1
  1
\A1;65
  7
ＭＳ ゴシック
 11
0.0
 21
1.0
 31
0.0
 73
     1
 44
1.0
  0
POINT
  5
3CC9
330
3CC0
100
AcDbEntity
  8
Defpoints
 62
     0
100
AcDbPoint
 10
1487.60218496883
 20
2477.735082132964
 30
0.0
  0
POINT
  5
3CCA
330
3CC0
100
AcDbEntity
  8
Defpoints
 62
     0
100
AcDbPoint
 10
1496.318699418709
 20
2412.616215796396
 30
0.0
  0
POINT
  5
3CCB
330
3CC0
100
AcDbEntity
  8
Defpoints
 62
     0
100
AcDbPoint
 10
1421.047797197678
 20
2412.616215796396
 30
0.0
  0
ENDBLK
  5
3CC2
330
3CC0
100
AcDbEntity
  8
0
100
AcDbBlockEnd
  0
BLOCK
  5
3CD1
330
3CD0
100
AcDbEntity
  8
0
100
AcDbBlockBegin
  2
*D19
 70
     1
 10
0.0
 20
0.0
 30
0.0
  3
*D19
  1

  0
LINE
  5
3CD3
330
3CD0
100
AcDbEntity
  8
DIM
 62
     0
370
    -2
100
AcDbLine
 10
1487.60218496883
 20
2262.788086938248
 30
0.0
 11
1297.521404676221
 21
2262.788086938248
 31
0.0
  0
LINE
  5
3CD4
330
3CD0
100
AcDbEntity
  8
DIM
 62
     0
370
    -2
100
AcDbLine
 10
1592.620218716136
 20
2262.788086938248
 30
0.0
 11
1497.60218496883
 21
2262.788086938248
 31
0.0
  0
LINE
  5
3CD5
330
3CD0
100
AcDbEntity
  8
DIM
 62
     0
370
    -2
100
AcDbLine
 10
1497.60218496883
 20
2262.788086938248
 30
0.0
 11
1507.60218496883
 21
2262.788086938248
 31
0.0
  0
INSERT
  5
3CD6
330
3CD0
100
AcDbEntity
  8
DIM
 62
     0
370
    -2
100
AcDbBlockReference
  2
_DOT
 10
1602.620218716136
 20
2262.788086938248
 30
0.0
 41
10.0
 42
10.0
 43
10.0
  0
INSERT
  5
3CD7
330
3CD0
100
AcDbEntity
  8
DIM
 62
     0
370
    -2
100
AcDbBlockReference
  2
_DOT
 10
1487.60218496883
 20
2262.788086938248
 30
0.0
 41
10.0
 42
10.0
 43
10.0
 50
180.0
  0
MTEXT
  5
3CD8
330
3CD0
100
AcDbEntity
  8
DIM
 62
     0
100
AcDbMText
 10
1382.561794822525
 20
2296.7973404083
 30
0.0
 40
24.0
 41
0.0
 46
0.0
 71
     5
 72
     1
  1
\A1;115(深さ)
  7
ＭＳ ゴシック
 73
     1
 44
1.0
  0
POINT
  5
3CD9
330
3CD0
100
AcDbEntity
  8
Defpoints
 62
     0
100
AcDbPoint
 10
1602.620218716136
 20
2262.621445113038
 30
0.0
  0
POINT
  5
3CDA
330
3CD0
100
AcDbEntity
  8
Defpoints
 62
     0
100
AcDbPoint
 10
1487.60218496883
 20
2262.92960740432
 30
0.0
  0
POINT
  5
3CDB
330
3CD0
100
AcDbEntity
  8
Defpoints
 62
     0
100
AcDbPoint
 10
1487.60218496883
 20
2262.788086938248
 30
0.0
  0
ENDBLK
  5
3CD2
330
3CD0
100
AcDbEntity
  8
0
100
AcDbBlockEnd
  0
BLOCK
  5
3CE2
330
3CE1
100
AcDbEntity
  8
0
100
AcDbBlockBegin
  2
*D20
 70
     1
 10
0.0
 20
0.0
 30
0.0
  3
*D20
  1

  0
LINE
  5
3CE4
330
3CE1
100
AcDbEntity
  8
DIM
 62
     0
370
    -2
100
AcDbLine
 10
-977.1492554015707
 20
844.3032920267547
 30
0.0
 11
-977.1492554015707
 21
737.7165329534139
 31
0.0
  0
LINE
  5
3CE5
330
3CE1
100
AcDbEntity
  8
DIM
 62
     0
370
    -2
100
AcDbLine
 10
-590.7922700906939
 20
844.0816680074385
 30
0.0
 11
-590.7922700906939
 21
737.7165329534139
 31
0.0
  0
LINE
  5
3CE6
330
3CE1
100
AcDbEntity
  8
DIM
 62
     0
370
    -2
100
AcDbLine
 10
-967.1492554015707
 20
737.7165329534139
 30
0.0
 11
-600.7922700906939
 21
737.7165329534139
 31
0.0
  0
INSERT
  5
3CE7
330
3CE1
100
AcDbEntity
  8
DIM
 62
     0
370
    -2
100
AcDbBlockReference
  2
_DOT
 10
-977.1492554015707
 20
737.7165329534139
 30
0.0
 41
10.0
 42
10.0
 43
10.0
 50
180.0
  0
INSERT
  5
3CE8
330
3CE1
100
AcDbEntity
  8
DIM
 62
     0
370
    -2
100
AcDbBlockReference
  2
_DOT
 10
-590.7922700906939
 20
737.7165329534139
 30
0.0
 41
10.0
 42
10.0
 43
10.0
  0
MTEXT
  5
3CE9
330
3CE1
100
AcDbEntity
  8
DIM
 62
     0
100
AcDbMText
 10
-783.9707627461323
 20
769.7210346415469
 30
0.0
 40
24.0
 41
0.0
 46
0.0
 71
     5
 72
     1
  1
\A1;386
  7
ＭＳ ゴシック
 73
     1
 44
1.0
  0
POINT
  5
3CEA
330
3CE1
100
AcDbEntity
  8
Defpoints
 62
     0
100
AcDbPoint
 10
-977.1492554015707
 20
874.3032920267547
 30
0.0
  0
POINT
  5
3CEB
330
3CE1
100
AcDbEntity
  8
Defpoints
 62
     0
100
AcDbPoint
 10
-590.7922700906939
 20
874.0816680074385
 30
0.0
  0
POINT
  5
3CEC
330
3CE1
100
AcDbEntity
  8
Defpoints
 62
     0
100
AcDbPoint
 10
-590.7922700906939
 20
737.7165329534139
 30
0.0
  0
ENDBLK
  5
3CE3
330
3CE1
100
AcDbEntity
  8
0
100
AcDbBlockEnd
  0
BLOCK
  5
3CF1
330
3CF0
100
AcDbEntity
  8
0
100
AcDbBlockBegin
  2
*D21
 70
     1
 10
0.0
 20
0.0
 30
0.0
  3
*D21
  1

  0
LINE
  5
3CF3
330
3CF0
100
AcDbEntity
  8
DIM
 62
     0
370
    -2
100
AcDbLine
 10
1487.60218496883
 20
1998.911901967315
 30
0.0
 11
1487.60218496883
 21
1967.949239661085
 31
0.0
  0
LINE
  5
3CF4
330
3CF0
100
AcDbEntity
  8
DIM
 62
     0
370
    -2
100
AcDbLine
 10
1567.604245104212
 20
1999.782797143124
 30
0.0
 11
1567.604245104212
 21
1967.949239661085
 31
0.0
  0
LINE
  5
3CF5
330
3CF0
100
AcDbEntity
  8
DIM
 62
     0
370
    -2
100
AcDbLine
 10
1497.60218496883
 20
1967.949239661085
 30
0.0
 11
1557.604245104212
 21
1967.949239661085
 31
0.0
  0
INSERT
  5
3CF6
330
3CF0
100
AcDbEntity
  8
DIM
 62
     0
370
    -2
100
AcDbBlockReference
  2
_DOT
 10
1487.60218496883
 20
1967.949239661085
 30
0.0
 41
10.0
 42
10.0
 43
10.0
 50
180.0
  0
INSERT
  5
3CF7
330
3CF0
100
AcDbEntity
  8
DIM
 62
     0
370
    -2
100
AcDbBlockReference
  2
_DOT
 10
1567.604245104212
 20
1967.949239661085
 30
0.0
 41
10.0
 42
10.0
 43
10.0
  0
MTEXT
  5
3CF8
330
3CF0
100
AcDbEntity
  8
DIM
 62
     0
100
AcDbMText
 10
1527.603215036521
 20
1999.949239661085
 30
0.0
 40
24.0
 41
0.0
 46
0.0
 71
     5
 72
     1
  1
\A1;80
  7
ＭＳ ゴシック
 73
     1
 44
1.0
  0
POINT
  5
3CF9
330
3CF0
100
AcDbEntity
  8
Defpoints
 62
     0
100
AcDbPoint
 10
1487.60218496883
 20
2028.911901967315
 30
0.0
  0
POINT
  5
3CFA
330
3CF0
100
AcDbEntity
  8
Defpoints
 62
     0
100
AcDbPoint
 10
1567.604245104212
 20
2029.782797143124
 30
0.0
  0
POINT
  5
3CFB
330
3CF0
100
AcDbEntity
  8
Defpoints
 62
     0
100
AcDbPoint
 10
1567.604245104212
 20
1967.949239661085
 30
0.0
  0
ENDBLK
  5
3CF2
330
3CF0
100
AcDbEntity
  8
0
100
AcDbBlockEnd
  0
BLOCK
  5
3D00
330
3CFF
100
AcDbEntity
  8
0
100
AcDbBlockBegin
  2
*D22
 70
     1
 10
0.0
 20
0.0
 30
0.0
  3
*D22
  1

  0
LINE
  5
3D02
330
3CFF
100
AcDbEntity
  8
DIM
 62
     0
370
    -2
100
AcDbLine
 10
1567.604245104212
 20
1999.768100787033
 30
0.0
 11
1567.604245104212
 21
1967.949239661085
 31
0.0
  0
LINE
  5
3D03
330
3CFF
100
AcDbEntity
  8
DIM
 62
     0
370
    -2
100
AcDbLine
 10
1627.604067656877
 20
2102.959381548515
 30
0.0
 11
1627.604067656877
 21
1967.949239661085
 31
0.0
  0
LINE
  5
3D04
330
3CFF
100
AcDbEntity
  8
DIM
 62
     0
370
    -2
100
AcDbLine
 10
1577.604245104212
 20
1967.949239661085
 30
0.0
 11
1617.604067656877
 21
1967.949239661085
 31
0.0
  0
INSERT
  5
3D05
330
3CFF
100
AcDbEntity
  8
DIM
 62
     0
370
    -2
100
AcDbBlockReference
  2
_DOT
 10
1567.604245104212
 20
1967.949239661085
 30
0.0
 41
10.0
 42
10.0
 43
10.0
 50
180.0
  0
INSERT
  5
3D06
330
3CFF
100
AcDbEntity
  8
DIM
 62
     0
370
    -2
100
AcDbBlockReference
  2
_DOT
 10
1627.604067656877
 20
1967.949239661085
 30
0.0
 41
10.0
 42
10.0
 43
10.0
  0
MTEXT
  5
3D07
330
3CFF
100
AcDbEntity
  8
DIM
 62
     0
100
AcDbMText
 10
1597.604156380545
 20
1999.949239661085
 30
0.0
 40
24.0
 41
0.0
 46
0.0
 71
     5
 72
     1
  1
\A1;60
  7
ＭＳ ゴシック
 73
     1
 44
1.0
  0
POINT
  5
3D08
330
3CFF
100
AcDbEntity
  8
Defpoints
 62
     0
100
AcDbPoint
 10
1567.604245104212
 20
2029.768100787033
 30
0.0
  0
POINT
  5
3D09
330
3CFF
100
AcDbEntity
  8
Defpoints
 62
     0
100
AcDbPoint
 10
1627.604067656877
 20
2132.959381548515
 30
0.0
  0
POINT
  5
3D0A
330
3CFF
100
AcDbEntity
  8
Defpoints
 62
     0
100
AcDbPoint
 10
1627.604067656877
 20
1967.949239661085
 30
0.0
  0
ENDBLK
  5
3D01
330
3CFF
100
AcDbEntity
  8
0
100
AcDbBlockEnd
  0
BLOCK
  5
3D10
330
3D0F
100
AcDbEntity
  8
0
100
AcDbBlockBegin
  2
*D23
 70
     1
 10
0.0
 20
0.0
 30
0.0
  3
*D23
  1

  0
LINE
  5
3D12
330
3D0F
100
AcDbEntity
  8
DIM
 62
     0
370
    -2
100
AcDbLine
 10
1657.604067656877
 20
2477.616215796395
 30
0.0
 11
1843.269407540827
 21
2477.616215796395
 31
0.0
  0
LINE
  5
3D13
330
3D0F
100
AcDbEntity
  8
DIM
 62
     0
370
    -2
100
AcDbLine
 10
1657.472346523859
 20
2129.513688680297
 30
0.0
 11
1843.269407540827
 21
2129.513688680297
 31
0.0
  0
LINE
  5
3D14
330
3D0F
100
AcDbEntity
  8
DIM
 62
     0
370
    -2
100
AcDbLine
 10
1843.269407540827
 20
2467.616215796395
 30
0.0
 11
1843.269407540827
 21
2139.513688680297
 31
0.0
  0
INSERT
  5
3D15
330
3D0F
100
AcDbEntity
  8
DIM
 62
     0
370
    -2
100
AcDbBlockReference
  2
_DOT
 10
1843.269407540827
 20
2477.616215796395
 30
0.0
 41
10.0
 42
10.0
 43
10.0
 50
90.0
  0
INSERT
  5
3D16
330
3D0F
100
AcDbEntity
  8
DIM
 62
     0
370
    -2
100
AcDbBlockReference
  2
_DOT
 10
1843.269407540827
 20
2129.513688680297
 30
0.0
 41
10.0
 42
10.0
 43
10.0
 50
270.0
  0
MTEXT
  5
3D17
330
3D0F
100
AcDbEntity
  8
DIM
 62
     0
100
AcDbMText
 10
1811.264905852694
 20
2303.564952238346
 30
0.0
 40
24.0
 41
0.0
 46
0.0
 71
     5
 72
     1
  1
\A1;348
  7
ＭＳ ゴシック
 11
0.0
 21
1.0
 31
0.0
 73
     1
 44
1.0
  0
POINT
  5
3D18
330
3D0F
100
AcDbEntity
  8
Defpoints
 62
     0
100
AcDbPoint
 10
1627.604067656877
 20
2477.616215796395
 30
0.0
  0
POINT
  5
3D19
330
3D0F
100
AcDbEntity
  8
Defpoints
 62
     0
100
AcDbPoint
 10
1627.472346523859
 20
2129.513688680297
 30
0.0
  0
POINT
  5
3D1A
330
3D0F
100
AcDbEntity
  8
Defpoints
 62
     0
100
AcDbPoint
 10
1843.269407540827
 20
2129.513688680297
 30
0.0
  0
ENDBLK
  5
3D11
330
3D0F
100
AcDbEntity
  8
0
100
AcDbBlockEnd
  0
BLOCK
  5
3D7C
330
3D7B
100
AcDbEntity
  8
0
100
AcDbBlockBegin
  2
*D24
 70
     1
 10
0.0
 20
0.0
 30
0.0
  3
*D24
  1

  0
LINE
  5
3D7E
330
3D7B
100
AcDbEntity
  8
DIM
 62
     0
370
    -2
100
AcDbLine
 10
3011.441235321542
 20
1000.347727034517
 30
0.0
 11
3011.441235321542
 21
1076.918481407662
 31
0.0
  0
LINE
  5
3D7F
330
3D7B
100
AcDbEntity
  8
DIM
 62
     0
370
    -2
100
AcDbLine
 10
3291.403339246207
 20
1000.347727034517
 30
0.0
 11
3291.403339246207
 21
1076.918481407662
 31
0.0
  0
LINE
  5
3D80
330
3D7B
100
AcDbEntity
  8
DIM
 62
     0
370
    -2
100
AcDbLine
 10
3021.441235321542
 20
1076.918481407662
 30
0.0
 11
3281.403339246207
 21
1076.918481407662
 31
0.0
  0
INSERT
  5
3D81
330
3D7B
100
AcDbEntity
  8
DIM
 62
     0
370
    -2
100
AcDbBlockReference
  2
_DOT
 10
3011.441235321542
 20
1076.918481407662
 30
0.0
 41
10.0
 42
10.0
 43
10.0
 50
180.0
  0
INSERT
  5
3D82
330
3D7B
100
AcDbEntity
  8
DIM
 62
     0
370
    -2
100
AcDbBlockReference
  2
_DOT
 10
3291.403339246207
 20
1076.918481407662
 30
0.0
 41
10.0
 42
10.0
 43
10.0
  0
MTEXT
  5
3D83
330
3D7B
100
AcDbEntity
  8
DIM
 62
     0
100
AcDbMText
 10
3151.422287283875
 20
1108.922983095795
 30
0.0
 40
24.0
 41
0.0
 46
0.0
 71
     5
 72
     1
  1
\A1;280
  7
ＭＳ ゴシック
 73
     1
 44
1.0
  0
POINT
  5
3D84
330
3D7B
100
AcDbEntity
  8
Defpoints
 62
     0
100
AcDbPoint
 10
3011.441235321542
 20
970.3477270345171
 30
0.0
  0
POINT
  5
3D85
330
3D7B
100
AcDbEntity
  8
Defpoints
 62
     0
100
AcDbPoint
 10
3291.403339246207
 20
970.3477270345171
 30
0.0
  0
POINT
  5
3D86
330
3D7B
100
AcDbEntity
  8
Defpoints
 62
     0
100
AcDbPoint
 10
3291.403339246207
 20
1076.918481407662
 30
0.0
  0
ENDBLK
  5
3D7D
330
3D7B
100
AcDbEntity
  8
0
100
AcDbBlockEnd
  0
BLOCK
  5
3D89
330
3D88
100
AcDbEntity
  8
0
100
AcDbBlockBegin
  2
*D25
 70
     1
 10
0.0
 20
0.0
 30
0.0
  3
*D25
  1

  0
LINE
  5
3D8B
330
3D88
100
AcDbEntity
  8
DIM
 62
     0
370
    -2
100
AcDbLine
 10
2947.93818091129
 20
953.4226321206261
 30
0.0
 11
2755.258352600516
 21
953.4226321206261
 31
0.0
  0
LINE
  5
3D8C
330
3D88
100
AcDbEntity
  8
DIM
 62
     0
370
    -2
100
AcDbLine
 10
2812.007676752805
 20
1008.233580745704
 30
0.0
 11
2755.258352600516
 21
1008.233580745704
 31
0.0
  0
LINE
  5
3D8D
330
3D88
100
AcDbEntity
  8
DIM
 62
     0
370
    -2
100
AcDbLine
 10
2755.258352600516
 20
963.4226321206261
 30
0.0
 11
2755.258352600516
 21
998.233580745704
 31
0.0
  0
INSERT
  5
3D8E
330
3D88
100
AcDbEntity
  8
DIM
 62
     0
370
    -2
100
AcDbBlockReference
  2
_DOT
 10
2755.258352600516
 20
953.4226321206261
 30
0.0
 41
10.0
 42
10.0
 43
10.0
 50
270.0
  0
INSERT
  5
3D8F
330
3D88
100
AcDbEntity
  8
DIM
 62
     0
370
    -2
100
AcDbBlockReference
  2
_DOT
 10
2755.258352600516
 20
1008.233580745704
 30
0.0
 41
10.0
 42
10.0
 43
10.0
 50
90.0
  0
MTEXT
  5
3D90
330
3D88
100
AcDbEntity
  8
DIM
 62
     0
100
AcDbMText
 10
2723.253850912383
 20
980.8281064331651
 30
0.0
 40
24.0
 41
0.0
 46
0.0
 71
     5
 72
     1
  1
\A1;55
  7
ＭＳ ゴシック
 11
0.0
 21
1.0
 31
0.0
 73
     1
 44
1.0
  0
POINT
  5
3D91
330
3D88
100
AcDbEntity
  8
Defpoints
 62
     0
100
AcDbPoint
 10
2977.93818091129
 20
953.4226321206261
 30
0.0
  0
POINT
  5
3D92
330
3D88
100
AcDbEntity
  8
Defpoints
 62
     0
100
AcDbPoint
 10
2842.007676752805
 20
1008.233580745704
 30
0.0
  0
POINT
  5
3D93
330
3D88
100
AcDbEntity
  8
Defpoints
 62
     0
100
AcDbPoint
 10
2755.258352600516
 20
1008.233580745704
 30
0.0
  0
ENDBLK
  5
3D8A
330
3D88
100
AcDbEntity
  8
0
100
AcDbBlockEnd
  0
BLOCK
  5
3DC0
330
3DBF
100
AcDbEntity
  8
0
100
AcDbBlockBegin
  2
*D26
 70
     1
 10
0.0
 20
0.0
 30
0.0
  3
*D26
  1

  0
LINE
  5
3DC2
330
3DBF
100
AcDbEntity
  8
DIM
 62
     0
370
    -2
100
AcDbLine
 10
805.3485912693832
 20
1855.767503705204
 30
0.0
 11
952.9571344391672
 21
1855.767503705204
 31
0.0
  0
LINE
  5
3DC3
330
3DBF
100
AcDbEntity
  8
DIM
 62
     0
370
    -2
100
AcDbLine
 10
805.3485912693841
 20
2575.767503705204
 30
0.0
 11
952.9571344391672
 21
2575.767503705204
 31
0.0
  0
LINE
  5
3DC4
330
3DBF
100
AcDbEntity
  8
DIM
 62
     0
370
    -2
100
AcDbLine
 10
952.9571344391672
 20
1865.767503705204
 30
0.0
 11
952.9571344391672
 21
2565.767503705204
 31
0.0
  0
INSERT
  5
3DC5
330
3DBF
100
AcDbEntity
  8
DIM
 62
     0
370
    -2
100
AcDbBlockReference
  2
_DOT
 10
952.9571344391672
 20
1855.767503705204
 30
0.0
 41
10.0
 42
10.0
 43
10.0
 50
270.0
  0
INSERT
  5
3DC6
330
3DBF
100
AcDbEntity
  8
DIM
 62
     0
370
    -2
100
AcDbBlockReference
  2
_DOT
 10
952.9571344391672
 20
2575.767503705204
 30
0.0
 41
10.0
 42
10.0
 43
10.0
 50
90.0
  0
MTEXT
  5
3DC7
330
3DBF
100
AcDbEntity
  8
DIM
 62
     0
100
AcDbMText
 10
920.9526327510341
 20
2215.767503705204
 30
0.0
 40
24.0
 41
0.0
 46
0.0
 71
     5
 72
     1
  1
\A1;720
  7
ＭＳ ゴシック
 11
0.0
 21
1.0
 31
0.0
 73
     1
 44
1.0
  0
POINT
  5
3DC8
330
3DBF
100
AcDbEntity
  8
Defpoints
 62
     0
100
AcDbPoint
 10
775.3485912693832
 20
1855.767503705204
 30
0.0
  0
POINT
  5
3DC9
330
3DBF
100
AcDbEntity
  8
Defpoints
 62
     0
100
AcDbPoint
 10
775.3485912693841
 20
2575.767503705204
 30
0.0
  0
POINT
  5
3DCA
330
3DBF
100
AcDbEntity
  8
Defpoints
 62
     0
100
AcDbPoint
 10
952.9571344391672
 20
2575.767503705204
 30
0.0
  0
ENDBLK
  5
3DC1
330
3DBF
100
AcDbEntity
  8
0
100
AcDbBlockEnd
  0
BLOCK
  5
3DCF
330
3DCE
100
AcDbEntity
  8
0
100
AcDbBlockBegin
  2
*D27
 70
     1
 10
0.0
 20
0.0
 30
0.0
  3
*D27
  1

  0
LINE
  5
3DD1
330
3DCE
100
AcDbEntity
  8
DIM
 62
     0
370
    -2
100
AcDbLine
 10
660.3485912693841
 20
2065.767503705204
 30
0.0
 11
879.8421250203721
 21
2065.767503705204
 31
0.0
  0
LINE
  5
3DD2
330
3DCE
100
AcDbEntity
  8
DIM
 62
     0
370
    -2
100
AcDbLine
 10
660.3485912693841
 20
2365.767503705204
 30
0.0
 11
879.8421250203721
 21
2365.767503705204
 31
0.0
  0
LINE
  5
3DD3
330
3DCE
100
AcDbEntity
  8
DIM
 62
     0
370
    -2
100
AcDbLine
 10
879.8421250203721
 20
2075.767503705204
 30
0.0
 11
879.8421250203721
 21
2355.767503705204
 31
0.0
  0
INSERT
  5
3DD4
330
3DCE
100
AcDbEntity
  8
DIM
 62
     0
370
    -2
100
AcDbBlockReference
  2
_DOT
 10
879.8421250203721
 20
2065.767503705204
 30
0.0
 41
10.0
 42
10.0
 43
10.0
 50
270.0
  0
INSERT
  5
3DD5
330
3DCE
100
AcDbEntity
  8
DIM
 62
     0
370
    -2
100
AcDbBlockReference
  2
_DOT
 10
879.8421250203721
 20
2365.767503705204
 30
0.0
 41
10.0
 42
10.0
 43
10.0
 50
90.0
  0
MTEXT
  5
3DD6
330
3DCE
100
AcDbEntity
  8
DIM
 62
     0
100
AcDbMText
 10
847.837623332239
 20
2215.767503705204
 30
0.0
 40
24.0
 41
0.0
 46
0.0
 71
     5
 72
     1
  1
\A1;300
  7
ＭＳ ゴシック
 11
0.0
 21
1.0
 31
0.0
 73
     1
 44
1.0
  0
POINT
  5
3DD7
330
3DCE
100
AcDbEntity
  8
Defpoints
 62
     0
100
AcDbPoint
 10
630.3485912693841
 20
2065.767503705204
 30
0.0
  0
POINT
  5
3DD8
330
3DCE
100
AcDbEntity
  8
Defpoints
 62
     0
100
AcDbPoint
 10
630.3485912693841
 20
2365.767503705204
 30
0.0
  0
POINT
  5
3DD9
330
3DCE
100
AcDbEntity
  8
Defpoints
 62
     0
100
AcDbPoint
 10
879.8421250203721
 20
2365.767503705204
 30
0.0
  0
ENDBLK
  5
3DD0
330
3DCE
100
AcDbEntity
  8
0
100
AcDbBlockEnd
  0
BLOCK
  5
3DDE
330
3DDD
100
AcDbEntity
  8
0
100
AcDbBlockBegin
  2
*D28
 70
     1
 10
0.0
 20
0.0
 30
0.0
  3
*D28
  1

  0
LINE
  5
3DE0
330
3DDD
100
AcDbEntity
  8
DIM
 62
     0
370
    -2
100
AcDbLine
 10
365.3485912693841
 20
2643.029685922237
 30
0.0
 11
365.3485912693841
 21
2751.981866024097
 31
0.0
  0
LINE
  5
3DE1
330
3DDD
100
AcDbEntity
  8
DIM
 62
     0
370
    -2
100
AcDbLine
 10
775.348591269384
 20
2640.998790956416
 30
0.0
 11
775.348591269384
 21
2751.981866024097
 31
0.0
  0
LINE
  5
3DE2
330
3DDD
100
AcDbEntity
  8
DIM
 62
     0
370
    -2
100
AcDbLine
 10
375.3485912693841
 20
2751.981866024097
 30
0.0
 11
765.348591269384
 21
2751.981866024097
 31
0.0
  0
INSERT
  5
3DE3
330
3DDD
100
AcDbEntity
  8
DIM
 62
     0
370
    -2
100
AcDbBlockReference
  2
_DOT
 10
365.3485912693841
 20
2751.981866024097
 30
0.0
 41
10.0
 42
10.0
 43
10.0
 50
180.0
  0
INSERT
  5
3DE4
330
3DDD
100
AcDbEntity
  8
DIM
 62
     0
370
    -2
100
AcDbBlockReference
  2
_DOT
 10
775.348591269384
 20
2751.981866024097
 30
0.0
 41
10.0
 42
10.0
 43
10.0
  0
MTEXT
  5
3DE5
330
3DDD
100
AcDbEntity
  8
DIM
 62
     0
100
AcDbMText
 10
570.3485912693842
 20
2783.98636771223
 30
0.0
 40
24.0
 41
0.0
 46
0.0
 71
     5
 72
     1
  1
\A1;410
  7
ＭＳ ゴシック
 73
     1
 44
1.0
  0
POINT
  5
3DE6
330
3DDD
100
AcDbEntity
  8
Defpoints
 62
     0
100
AcDbPoint
 10
365.3485912693841
 20
2613.029685922237
 30
0.0
  0
POINT
  5
3DE7
330
3DDD
100
AcDbEntity
  8
Defpoints
 62
     0
100
AcDbPoint
 10
775.348591269384
 20
2610.998790956416
 30
0.0
  0
POINT
  5
3DE8
330
3DDD
100
AcDbEntity
  8
Defpoints
 62
     0
100
AcDbPoint
 10
775.348591269384
 20
2751.981866024097
 30
0.0
  0
ENDBLK
  5
3DDF
330
3DDD
100
AcDbEntity
  8
0
100
AcDbBlockEnd
  0
BLOCK
  5
3DED
330
3DEC
100
AcDbEntity
  8
0
100
AcDbBlockBegin
  2
*D29
 70
     1
 10
0.0
 20
0.0
 30
0.0
  3
*D29
  1

  0
LINE
  5
3DEF
330
3DEC
100
AcDbEntity
  8
DIM
 62
     0
370
    -2
100
AcDbLine
 10
365.3485912693841
 20
2395.767503705204
 30
0.0
 11
365.348591269384
 21
2670.920150746988
 31
0.0
  0
LINE
  5
3DF0
330
3DEC
100
AcDbEntity
  8
DIM
 62
     0
370
    -2
100
AcDbLine
 10
630.3485912693842
 20
2586.636421012048
 30
0.0
 11
630.3485912693842
 21
2670.920150746988
 31
0.0
  0
LINE
  5
3DF1
330
3DEC
100
AcDbEntity
  8
DIM
 62
     0
370
    -2
100
AcDbLine
 10
375.348591269384
 20
2670.920150746988
 30
0.0
 11
620.3485912693842
 21
2670.920150746988
 31
0.0
  0
INSERT
  5
3DF2
330
3DEC
100
AcDbEntity
  8
DIM
 62
     0
370
    -2
100
AcDbBlockReference
  2
_DOT
 10
365.348591269384
 20
2670.920150746988
 30
0.0
 41
10.0
 42
10.0
 43
10.0
 50
180.0
  0
INSERT
  5
3DF3
330
3DEC
100
AcDbEntity
  8
DIM
 62
     0
370
    -2
100
AcDbBlockReference
  2
_DOT
 10
630.3485912693842
 20
2670.920150746988
 30
0.0
 41
10.0
 42
10.0
 43
10.0
  0
MTEXT
  5
3DF4
330
3DEC
100
AcDbEntity
  8
DIM
 62
     0
100
AcDbMText
 10
497.8485912693841
 20
2702.924652435121
 30
0.0
 40
24.0
 41
0.0
 46
0.0
 71
     5
 72
     1
  1
\A1;265
  7
ＭＳ ゴシック
 73
     1
 44
1.0
  0
POINT
  5
3DF5
330
3DEC
100
AcDbEntity
  8
Defpoints
 62
     0
100
AcDbPoint
 10
365.3485912693841
 20
2365.767503705204
 30
0.0
  0
POINT
  5
3DF6
330
3DEC
100
AcDbEntity
  8
Defpoints
 62
     0
100
AcDbPoint
 10
630.3485912693842
 20
2556.636421012048
 30
0.0
  0
POINT
  5
3DF7
330
3DEC
100
AcDbEntity
  8
Defpoints
 62
     0
100
AcDbPoint
 10
630.3485912693842
 20
2670.920150746988
 30
0.0
  0
ENDBLK
  5
3DEE
330
3DEC
100
AcDbEntity
  8
0
100
AcDbBlockEnd
  0
BLOCK
  5
3E46
330
3E45
100
AcDbEntity
  8
0
100
AcDbBlockBegin
  2
_None
 70
     0
 10
0.0
 20
0.0
 30
0.0
  3
_None
  1

  0
ENDBLK
  5
3E47
330
3E45
100
AcDbEntity
  8
0
100
AcDbBlockEnd
  0
BLOCK
  5
4380
330
437F
100
AcDbEntity
  8
0
100
AcDbBlockBegin
  2
*D31
 70
     1
 10
0.0
 20
0.0
 30
0.0
  3
*D31
  1

  0
LINE
  5
4382
330
437F
100
AcDbEntity
  8
DIM
 62
     0
370
    -2
100
AcDbLine
 10
2835.111193110671
 20
1954.044391308841
 30
0.0
 11
2835.111193110671
 21
1840.27511334887
 31
0.0
  0
LINE
  5
4383
330
437F
100
AcDbEntity
  8
DIM
 62
     0
370
    -2
100
AcDbLine
 10
3467.740486965956
 20
1952.3434241686
 30
0.0
 11
3467.740486965956
 21
1840.27511334887
 31
0.0
  0
LINE
  5
4384
330
437F
100
AcDbEntity
  8
DIM
 62
     0
370
    -2
100
AcDbLine
 10
2845.111193110671
 20
1840.27511334887
 30
0.0
 11
3457.740486965956
 21
1840.27511334887
 31
0.0
  0
INSERT
  5
4385
330
437F
100
AcDbEntity
  8
DIM
 62
     0
370
    -2
100
AcDbBlockReference
  2
_DOT
 10
2835.111193110671
 20
1840.27511334887
 30
0.0
 41
10.0
 42
10.0
 43
10.0
 50
180.0
  0
INSERT
  5
4386
330
437F
100
AcDbEntity
  8
DIM
 62
     0
370
    -2
100
AcDbBlockReference
  2
_DOT
 10
3467.740486965956
 20
1840.27511334887
 30
0.0
 41
10.0
 42
10.0
 43
10.0
  0
MTEXT
  5
4387
330
437F
100
AcDbEntity
  8
DIM
 62
     0
100
AcDbMText
 10
3151.425840038313
 20
1872.279615037003
 30
0.0
 40
24.0
 41
0.0
 46
0.0
 71
     5
 72
     1
  1
\A1;635
  7
ＭＳ ゴシック
 73
     1
 44
1.0
  0
POINT
  5
4388
330
437F
100
AcDbEntity
  8
Defpoints
 62
     0
100
AcDbPoint
 10
2835.111193110671
 20
1984.044391308841
 30
0.0
  0
POINT
  5
4389
330
437F
100
AcDbEntity
  8
Defpoints
 62
     0
100
AcDbPoint
 10
3467.740486965956
 20
1982.3434241686
 30
0.0
  0
POINT
  5
438A
330
437F
100
AcDbEntity
  8
Defpoints
 62
     0
100
AcDbPoint
 10
3467.740486965956
 20
1840.27511334887
 30
0.0
  0
ENDBLK
  5
4381
330
437F
100
AcDbEntity
  8
0
100
AcDbBlockEnd
  0
BLOCK
  5
4390
330
438F
100
AcDbEntity
  8
0
100
AcDbBlockBegin
  2
*D32
 70
     1
 10
0.0
 20
0.0
 30
0.0
  3
*D32
  1

  0
LINE
  5
4392
330
438F
100
AcDbEntity
  8
DIM
 62
     0
370
    -2
100
AcDbLine
 10
2813.708169003677
 20
2302.037722917779
 30
0.0
 11
2723.087951295972
 21
2302.037722917779
 31
0.0
  0
LINE
  5
4393
330
438F
100
AcDbEntity
  8
DIM
 62
     0
370
    -2
100
AcDbLine
 10
2811.593866848357
 20
1976.085206808165
 30
0.0
 11
2723.087951295972
 21
1976.085206808165
 31
0.0
  0
LINE
  5
4394
330
438F
100
AcDbEntity
  8
DIM
 62
     0
370
    -2
100
AcDbLine
 10
2723.087951295972
 20
2292.037722917779
 30
0.0
 11
2723.087951295972
 21
1986.085206808165
 31
0.0
  0
INSERT
  5
4395
330
438F
100
AcDbEntity
  8
DIM
 62
     0
370
    -2
100
AcDbBlockReference
  2
_DOT
 10
2723.087951295972
 20
2302.037722917779
 30
0.0
 41
10.0
 42
10.0
 43
10.0
 50
90.0
  0
INSERT
  5
4396
330
438F
100
AcDbEntity
  8
DIM
 62
     0
370
    -2
100
AcDbBlockReference
  2
_DOT
 10
2723.087951295972
 20
1976.085206808165
 30
0.0
 41
10.0
 42
10.0
 43
10.0
 50
270.0
  0
MTEXT
  5
4397
330
438F
100
AcDbEntity
  8
DIM
 62
     0
100
AcDbMText
 10
2691.083449607839
 20
2139.061464862972
 30
0.0
 40
24.0
 41
0.0
 46
0.0
 71
     5
 72
     1
  1
\A1;325
  7
ＭＳ ゴシック
 11
0.0
 21
1.0
 31
0.0
 73
     1
 44
1.0
  0
POINT
  5
4398
330
438F
100
AcDbEntity
  8
Defpoints
 62
     0
100
AcDbPoint
 10
2843.708169003677
 20
2302.037722917779
 30
0.0
  0
POINT
  5
4399
330
438F
100
AcDbEntity
  8
Defpoints
 62
     0
100
AcDbPoint
 10
2841.593866848357
 20
1976.085206808165
 30
0.0
  0
POINT
  5
439A
330
438F
100
AcDbEntity
  8
Defpoints
 62
     0
100
AcDbPoint
 10
2723.087951295972
 20
1976.085206808165
 30
0.0
  0
ENDBLK
  5
4391
330
438F
100
AcDbEntity
  8
0
100
AcDbBlockEnd
  0
BLOCK
  5
439F
330
439E
100
AcDbEntity
  8
0
100
AcDbBlockBegin
  2
*D33
 70
     1
 10
0.0
 20
0.0
 30
0.0
  3
*D33
  1

  0
LINE
  5
43A1
330
439E
100
AcDbEntity
  8
DIM
 62
     0
370
    -2
100
AcDbLine
 10
2826.425785096373
 20
2441.581279134669
 30
0.0
 11
2826.425785096373
 21
2539.247367845443
 31
0.0
  0
LINE
  5
43A2
330
439E
100
AcDbEntity
  8
DIM
 62
     0
370
    -2
100
AcDbLine
 10
3476.425787321029
 20
2439.973865187125
 30
0.0
 11
3476.425787321029
 21
2539.247367845443
 31
0.0
  0
LINE
  5
43A3
330
439E
100
AcDbEntity
  8
DIM
 62
     0
370
    -2
100
AcDbLine
 10
2836.425785096373
 20
2539.247367845443
 30
0.0
 11
3466.425787321029
 21
2539.247367845443
 31
0.0
  0
INSERT
  5
43A4
330
439E
100
AcDbEntity
  8
DIM
 62
     0
370
    -2
100
AcDbBlockReference
  2
_DOT
 10
2826.425785096373
 20
2539.247367845443
 30
0.0
 41
10.0
 42
10.0
 43
10.0
 50
180.0
  0
INSERT
  5
43A5
330
439E
100
AcDbEntity
  8
DIM
 62
     0
370
    -2
100
AcDbBlockReference
  2
_DOT
 10
3476.425787321029
 20
2539.247367845443
 30
0.0
 41
10.0
 42
10.0
 43
10.0
  0
MTEXT
  5
43A6
330
439E
100
AcDbEntity
  8
DIM
 62
     0
100
AcDbMText
 10
3151.425786208701
 20
2571.251869533576
 30
0.0
 40
24.0
 41
0.0
 46
0.0
 71
     5
 72
     1
  1
\A1;650
  7
ＭＳ ゴシック
 73
     1
 44
1.0
  0
POINT
  5
43A7
330
439E
100
AcDbEntity
  8
Defpoints
 62
     0
100
AcDbPoint
 10
2826.425785096373
 20
2411.581279134669
 30
0.0
  0
POINT
  5
43A8
330
439E
100
AcDbEntity
  8
Defpoints
 62
     0
100
AcDbPoint
 10
3476.425787321029
 20
2409.973865187125
 30
0.0
  0
POINT
  5
43A9
330
439E
100
AcDbEntity
  8
Defpoints
 62
     0
100
AcDbPoint
 10
3476.425787321029
 20
2539.247367845443
 30
0.0
  0
ENDBLK
  5
43A0
330
439E
100
AcDbEntity
  8
0
100
AcDbBlockEnd
  0
BLOCK
  5
4405
330
4404
100
AcDbEntity
  8
0
100
AcDbBlockBegin
  2
*D34
 70
     1
 10
0.0
 20
0.0
 30
0.0
  3
*D34
  1

  0
LINE
  5
4407
330
4404
100
AcDbEntity
  8
DIM
 62
     0
370
    -2
100
AcDbLine
 10
3486.197666428237
 20
2427.612412431863
 30
0.0
 11
3579.338916769848
 21
2427.612412431863
 31
0.0
  0
LINE
  5
4408
330
4404
100
AcDbEntity
  8
DIM
 62
     0
370
    -2
100
AcDbLine
 10
3486.154477809433
 20
1967.61145683113
 30
0.0
 11
3579.338916769848
 21
1967.61145683113
 31
0.0
  0
LINE
  5
4409
330
4404
100
AcDbEntity
  8
DIM
 62
     0
370
    -2
100
AcDbLine
 10
3579.338916769848
 20
2417.612412431863
 30
0.0
 11
3579.338916769848
 21
1977.61145683113
 31
0.0
  0
INSERT
  5
440A
330
4404
100
AcDbEntity
  8
DIM
 62
     0
370
    -2
100
AcDbBlockReference
  2
_DOT
 10
3579.338916769848
 20
2427.612412431863
 30
0.0
 41
10.0
 42
10.0
 43
10.0
 50
90.0
  0
INSERT
  5
440B
330
4404
100
AcDbEntity
  8
DIM
 62
     0
370
    -2
100
AcDbBlockReference
  2
_DOT
 10
3579.338916769848
 20
1967.61145683113
 30
0.0
 41
10.0
 42
10.0
 43
10.0
 50
270.0
  0
MTEXT
  5
440C
330
4404
100
AcDbEntity
  8
DIM
 62
     0
100
AcDbMText
 10
3547.338916769848
 20
2197.611934631496
 30
0.0
 40
24.0
 41
0.0
 46
0.0
 71
     5
 72
     1
  1
\A1;460
  7
ＭＳ ゴシック
 11
0.0
 21
1.0
 31
0.0
 73
     1
 44
1.0
  0
POINT
  5
440D
330
4404
100
AcDbEntity
  8
Defpoints
 62
     0
100
AcDbPoint
 10
3456.197666428237
 20
2427.612412431863
 30
0.0
  0
POINT
  5
440E
330
4404
100
AcDbEntity
  8
Defpoints
 62
     0
100
AcDbPoint
 10
3456.154477809433
 20
1967.61145683113
 30
0.0
  0
POINT
  5
440F
330
4404
100
AcDbEntity
  8
Defpoints
 62
     0
100
AcDbPoint
 10
3579.338916769848
 20
1967.61145683113
 30
0.0
  0
ENDBLK
  5
4406
330
4404
100
AcDbEntity
  8
0
100
AcDbBlockEnd
  0
BLOCK
  5
441C
330
441B
100
AcDbEntity
  8
0
100
AcDbBlockBegin
  2
*D35
 70
     1
 10
0.0
 20
0.0
 30
0.0
  3
*D35
  1

  0
LINE
  5
441E
330
441B
100
AcDbEntity
  8
DIM
 62
     0
370
    -2
100
AcDbLine
 10
3493.706515428859
 20
1008.233580745704
 30
0.0
 11
3591.199849664457
 21
1008.233580745704
 31
0.0
  0
LINE
  5
441F
330
441B
100
AcDbEntity
  8
DIM
 62
     0
370
    -2
100
AcDbLine
 10
3204.476326165482
 20
848.1501260791088
 30
0.0
 11
3591.199849664457
 21
848.1501260791088
 31
0.0
  0
LINE
  5
4420
330
441B
100
AcDbEntity
  8
DIM
 62
     0
370
    -2
100
AcDbLine
 10
3591.199849664457
 20
998.233580745704
 30
0.0
 11
3591.199849664457
 21
858.1501260791088
 31
0.0
  0
INSERT
  5
4421
330
441B
100
AcDbEntity
  8
DIM
 62
     0
370
    -2
100
AcDbBlockReference
  2
_DOT
 10
3591.199849664457
 20
1008.233580745704
 30
0.0
 41
10.0
 42
10.0
 43
10.0
 50
90.0
  0
INSERT
  5
4422
330
441B
100
AcDbEntity
  8
DIM
 62
     0
370
    -2
100
AcDbBlockReference
  2
_DOT
 10
3591.199849664457
 20
848.1501260791088
 30
0.0
 41
10.0
 42
10.0
 43
10.0
 50
270.0
  0
MTEXT
  5
4423
330
441B
100
AcDbEntity
  8
DIM
 62
     0
100
AcDbMText
 10
3559.195347976324
 20
928.1918534124063
 30
0.0
 40
24.0
 41
0.0
 46
0.0
 71
     5
 72
     1
  1
\A1;160
  7
ＭＳ ゴシック
 11
0.0
 21
1.0
 31
0.0
 73
     1
 44
1.0
  0
POINT
  5
4424
330
441B
100
AcDbEntity
  8
Defpoints
 62
     0
100
AcDbPoint
 10
3463.706515428859
 20
1008.233580745704
 30
0.0
  0
POINT
  5
4425
330
441B
100
AcDbEntity
  8
Defpoints
 62
     0
100
AcDbPoint
 10
3174.476326165482
 20
848.1501260791088
 30
0.0
  0
POINT
  5
4426
330
441B
100
AcDbEntity
  8
Defpoints
 62
     0
100
AcDbPoint
 10
3591.199849664457
 20
848.1501260791088
 30
0.0
  0
ENDBLK
  5
441D
330
441B
100
AcDbEntity
  8
0
100
AcDbBlockEnd
  0
BLOCK
  5
442B
330
442A
100
AcDbEntity
  8
0
100
AcDbBlockBegin
  2
*D36
 70
     1
 10
0.0
 20
0.0
 30
0.0
  3
*D36
  1

  0
LINE
  5
442D
330
442A
100
AcDbEntity
  8
DIM
 62
     0
370
    -2
100
AcDbLine
 10
2934.66518612626
 20
838.2865999506453
 30
0.0
 11
2934.66518612626
 21
753.5340287121081
 31
0.0
  0
LINE
  5
442E
330
442A
100
AcDbEntity
  8
DIM
 62
     0
370
    -2
100
AcDbLine
 10
3365.195290030075
 20
838.1596697238224
 30
0.0
 11
3365.195290030075
 21
753.5340287121081
 31
0.0
  0
LINE
  5
442F
330
442A
100
AcDbEntity
  8
DIM
 62
     0
370
    -2
100
AcDbLine
 10
2944.66518612626
 20
753.5340287121081
 30
0.0
 11
3355.195290030075
 21
753.5340287121081
 31
0.0
  0
INSERT
  5
4430
330
442A
100
AcDbEntity
  8
DIM
 62
     0
370
    -2
100
AcDbBlockReference
  2
_DOT
 10
2934.66518612626
 20
753.5340287121081
 30
0.0
 41
10.0
 42
10.0
 43
10.0
 50
180.0
  0
INSERT
  5
4431
330
442A
100
AcDbEntity
  8
DIM
 62
     0
370
    -2
100
AcDbBlockReference
  2
_DOT
 10
3365.195290030075
 20
753.5340287121081
 30
0.0
 41
10.0
 42
10.0
 43
10.0
  0
MTEXT
  5
4432
330
442A
100
AcDbEntity
  8
DIM
 62
     0
100
AcDbMText
 10
3149.930238078167
 20
785.5385304002411
 30
0.0
 40
24.0
 41
0.0
 46
0.0
 71
     5
 72
     1
  1
\A1;431
  7
ＭＳ ゴシック
 73
     1
 44
1.0
  0
POINT
  5
4433
330
442A
100
AcDbEntity
  8
Defpoints
 62
     0
100
AcDbPoint
 10
2934.66518612626
 20
868.2865999506453
 30
0.0
  0
POINT
  5
4434
330
442A
100
AcDbEntity
  8
Defpoints
 62
     0
100
AcDbPoint
 10
3365.195290030075
 20
868.1596697238224
 30
0.0
  0
POINT
  5
4435
330
442A
100
AcDbEntity
  8
Defpoints
 62
     0
100
AcDbPoint
 10
3365.195290030075
 20
753.5340287121081
 30
0.0
  0
ENDBLK
  5
442C
330
442A
100
AcDbEntity
  8
0
100
AcDbBlockEnd
  0
BLOCK
  5
46AB
330
46AA
100
AcDbEntity
  8
0
100
AcDbBlockBegin
  2
*D37
 70
     1
 10
0.0
 20
0.0
 30
0.0
  3
*D37
  1

  0
LINE
  5
46AD
330
46AA
100
AcDbEntity
  8
DIM
 62
     0
370
    -2
100
AcDbLine
 10
-1521.43479677948
 20
2274.677904750623
 30
0.0
 11
-1521.43479677948
 21
2269.897835009746
 31
0.0
  0
LINE
  5
46AE
330
46AA
100
AcDbEntity
  8
DIM
 62
     0
370
    -2
100
AcDbLine
 10
-1429.308804958191
 20
2274.677904750433
 30
0.0
 11
-1429.308804958191
 21
2269.897835009746
 31
0.0
  0
LINE
  5
46AF
330
46AA
100
AcDbEntity
  8
DIM
 62
     0
370
    -2
100
AcDbLine
 10
-1511.43479677948
 20
2269.897835009746
 30
0.0
 11
-1439.308804958191
 21
2269.897835009746
 31
0.0
  0
INSERT
  5
46B0
330
46AA
100
AcDbEntity
  8
DIM
 62
     0
370
    -2
100
AcDbBlockReference
  2
_DOT
 10
-1521.43479677948
 20
2269.897835009746
 30
0.0
 41
10.0
 42
10.0
 43
10.0
 50
180.0
  0
INSERT
  5
46B1
330
46AA
100
AcDbEntity
  8
DIM
 62
     0
370
    -2
100
AcDbBlockReference
  2
_DOT
 10
-1429.308804958191
 20
2269.897835009746
 30
0.0
 41
10.0
 42
10.0
 43
10.0
  0
MTEXT
  5
46B2
330
46AA
100
AcDbEntity
  8
DIM
 62
     0
100
AcDbMText
 10
-1475.371800868835
 20
2301.902336697879
 30
0.0
 40
24.0
 41
0.0
 46
0.0
 71
     5
 72
     1
  1
\A1;92
  7
ＭＳ ゴシック
 73
     1
 44
1.0
  0
POINT
  5
46B3
330
46AA
100
AcDbEntity
  8
Defpoints
 62
     0
100
AcDbPoint
 10
-1521.43479677948
 20
2304.677904750623
 30
0.0
  0
POINT
  5
46B4
330
46AA
100
AcDbEntity
  8
Defpoints
 62
     0
100
AcDbPoint
 10
-1429.308804958191
 20
2304.677904750433
 30
0.0
  0
POINT
  5
46B5
330
46AA
100
AcDbEntity
  8
Defpoints
 62
     0
100
AcDbPoint
 10
-1429.308804958191
 20
2269.897835009746
 30
0.0
  0
ENDBLK
  5
46AC
330
46AA
100
AcDbEntity
  8
0
100
AcDbBlockEnd
  0
BLOCK
  5
48F6
330
48F5
100
AcDbEntity
  8
0
100
AcDbBlockBegin
  2
*D38
 70
     1
 10
0.0
 20
0.0
 30
0.0
  3
*D38
  1

  0
LINE
  5
48F8
330
48F5
100
AcDbEntity
  8
DIM
 62
     0
370
    -2
100
AcDbLine
 10
125.3929861629276
 20
983.4073828687069
 30
0.0
 11
125.3929861629276
 21
477.3658541169862
 31
0.0
  0
LINE
  5
48F9
330
48F5
100
AcDbEntity
  8
DIM
 62
     0
370
    -2
100
AcDbLine
 10
925.3872498644632
 20
982.4006185515391
 30
0.0
 11
925.3872498644632
 21
477.3658541169862
 31
0.0
  0
LINE
  5
48FA
330
48F5
100
AcDbEntity
  8
DIM
 62
     0
370
    -2
100
AcDbLine
 10
135.3929861629276
 20
477.3658541169862
 30
0.0
 11
915.3872498644632
 21
477.3658541169862
 31
0.0
  0
INSERT
  5
48FB
330
48F5
100
AcDbEntity
  8
DIM
 62
     0
370
    -2
100
AcDbBlockReference
  2
_DOT
 10
125.3929861629276
 20
477.3658541169862
 30
0.0
 41
10.0
 42
10.0
 43
10.0
 50
180.0
  0
INSERT
  5
48FC
330
48F5
100
AcDbEntity
  8
DIM
 62
     0
370
    -2
100
AcDbBlockReference
  2
_DOT
 10
925.3872498644632
 20
477.3658541169862
 30
0.0
 41
10.0
 42
10.0
 43
10.0
  0
MTEXT
  5
48FD
330
48F5
100
AcDbEntity
  8
DIM
 62
     0
100
AcDbMText
 10
525.3901180136954
 20
509.3658541169862
 30
0.0
 40
24.0
 41
0.0
 46
0.0
 71
     5
 72
     1
  1
\A1;800
  7
ＭＳ ゴシック
 73
     1
 44
1.0
  0
POINT
  5
48FE
330
48F5
100
AcDbEntity
  8
Defpoints
 62
     0
100
AcDbPoint
 10
125.3929861629276
 20
1013.407382868707
 30
0.0
  0
POINT
  5
48FF
330
48F5
100
AcDbEntity
  8
Defpoints
 62
     0
100
AcDbPoint
 10
925.3872498644632
 20
1012.400618551539
 30
0.0
  0
POINT
  5
4900
330
48F5
100
AcDbEntity
  8
Defpoints
 62
     0
100
AcDbPoint
 10
925.3872498644632
 20
477.3658541169862
 30
0.0
  0
ENDBLK
  5
48F7
330
48F5
100
AcDbEntity
  8
0
100
AcDbBlockEnd
  0
BLOCK
  5
498E
330
498D
100
AcDbEntity
  8
0
100
AcDbBlockBegin
  2
*D39
 70
     1
 10
0.0
 20
0.0
 30
0.0
  3
*D39
  1

  0
LINE
  5
4990
330
498D
100
AcDbEntity
  8
DIM
 62
     0
370
    -2
100
AcDbLine
 10
1490.840885411818
 20
881.6078719660653
 30
0.0
 11
1414.270131038673
 21
881.6078719660652
 31
0.0
  0
LINE
  5
4991
330
498D
100
AcDbEntity
  8
DIM
 62
     0
370
    -2
100
AcDbLine
 10
1490.840885411817
 20
1161.569975890731
 30
0.0
 11
1414.270131038672
 21
1161.56997589073
 31
0.0
  0
LINE
  5
4992
330
498D
100
AcDbEntity
  8
DIM
 62
     0
370
    -2
100
AcDbLine
 10
1414.270131038673
 20
891.6078719660652
 30
0.0
 11
1414.270131038672
 21
1151.56997589073
 31
0.0
  0
INSERT
  5
4993
330
498D
100
AcDbEntity
  8
DIM
 62
     0
370
    -2
100
AcDbBlockReference
  2
_DOT
 10
1414.270131038673
 20
881.6078719660652
 30
0.0
 41
10.0
 42
10.0
 43
10.0
 50
270.0000000000002
  0
INSERT
  5
4994
330
498D
100
AcDbEntity
  8
DIM
 62
     0
370
    -2
100
AcDbBlockReference
  2
_DOT
 10
1414.270131038672
 20
1161.56997589073
 30
0.0
 41
10.0
 42
10.0
 43
10.0
 50
90.00000000000016
  0
MTEXT
  5
4995
330
498D
100
AcDbEntity
  8
DIM
 62
     0
100
AcDbMText
 10
1382.265629350539
 20
1021.588923928398
 30
0.0
 40
24.0
 41
0.0
 46
0.0
 71
     5
 72
     1
  1
\A1;280
  7
ＭＳ ゴシック
 11
-2.436476282923091E-15
 21
1.0
 31
0.0
 73
     1
 44
1.0
  0
POINT
  5
4996
330
498D
100
AcDbEntity
  8
Defpoints
 62
     0
100
AcDbPoint
 10
1520.840885411818
 20
881.6078719660654
 30
0.0
  0
POINT
  5
4997
330
498D
100
AcDbEntity
  8
Defpoints
 62
     0
100
AcDbPoint
 10
1520.840885411817
 20
1161.569975890731
 30
0.0
  0
POINT
  5
4998
330
498D
100
AcDbEntity
  8
Defpoints
 62
     0
100
AcDbPoint
 10
1414.270131038672
 20
1161.56997589073
 30
0.0
  0
ENDBLK
  5
498F
330
498D
100
AcDbEntity
  8
0
100
AcDbBlockEnd
  0
BLOCK
  5
499E
330
499D
100
AcDbEntity
  8
0
100
AcDbBlockBegin
  2
*D40
 70
     1
 10
0.0
 20
0.0
 30
0.0
  3
*D40
  1

  0
LINE
  5
49A0
330
499D
100
AcDbEntity
  8
DIM
 62
     0
370
    -2
100
AcDbLine
 10
1657.598591269384
 20
733.4291486193158
 30
0.0
 11
1783.561820867253
 21
733.4291486193158
 31
0.0
  0
LINE
  5
49A1
330
499D
100
AcDbEntity
  8
DIM
 62
     0
370
    -2
100
AcDbLine
 10
1657.598591269385
 20
1309.783498939496
 30
0.0
 11
1783.561820867253
 21
1309.783498939496
 31
0.0
  0
LINE
  5
49A2
330
499D
100
AcDbEntity
  8
DIM
 62
     0
370
    -2
100
AcDbLine
 10
1783.561820867253
 20
743.4291486193158
 30
0.0
 11
1783.561820867253
 21
1299.783498939496
 31
0.0
  0
INSERT
  5
49A3
330
499D
100
AcDbEntity
  8
DIM
 62
     0
370
    -2
100
AcDbBlockReference
  2
_DOT
 10
1783.561820867253
 20
733.4291486193158
 30
0.0
 41
10.0
 42
10.0
 43
10.0
 50
270.0
  0
INSERT
  5
49A4
330
499D
100
AcDbEntity
  8
DIM
 62
     0
370
    -2
100
AcDbBlockReference
  2
_DOT
 10
1783.561820867253
 20
1309.783498939496
 30
0.0
 41
10.0
 42
10.0
 43
10.0
 50
90.0
  0
MTEXT
  5
49A5
330
499D
100
AcDbEntity
  8
DIM
 62
     0
100
AcDbMText
 10
1751.55731917912
 20
1021.606323779406
 30
0.0
 40
24.0
 41
0.0
 46
0.0
 71
     5
 72
     1
  1
\A1;576
  7
ＭＳ ゴシック
 11
0.0
 21
1.0
 31
0.0
 73
     1
 44
1.0
  0
POINT
  5
49A6
330
499D
100
AcDbEntity
  8
Defpoints
 62
     0
100
AcDbPoint
 10
1627.598591269384
 20
733.4291486193158
 30
0.0
  0
POINT
  5
49A7
330
499D
100
AcDbEntity
  8
Defpoints
 62
     0
100
AcDbPoint
 10
1627.598591269385
 20
1309.783498939496
 30
0.0
  0
POINT
  5
49A8
330
499D
100
AcDbEntity
  8
Defpoints
 62
     0
100
AcDbPoint
 10
1783.561820867253
 20
1309.783498939496
 30
0.0
  0
ENDBLK
  5
499F
330
499D
100
AcDbEntity
  8
0
100
AcDbBlockEnd
  0
BLOCK
  5
49AD
330
49AC
100
AcDbEntity
  8
0
100
AcDbBlockBegin
  2
*D41
 70
     1
 10
0.0
 20
0.0
 30
0.0
  3
*D41
  1

  0
LINE
  5
49AF
330
49AC
100
AcDbEntity
  8
DIM
 62
     0
370
    -2
100
AcDbLine
 10
1537.597840906544
 20
1270.821892167124
 30
0.0
 11
1537.597840906544
 21
1509.90265090365
 31
0.0
  0
LINE
  5
49B0
330
49AC
100
AcDbEntity
  8
DIM
 62
     0
370
    -2
100
AcDbLine
 10
1487.602184968831
 20
1447.620585085829
 30
0.0
 11
1487.602184968831
 21
1509.90265090365
 31
0.0
  0
LINE
  5
49B1
330
49AC
100
AcDbEntity
  8
DIM
 62
     0
370
    -2
100
AcDbLine
 10
1527.597840906544
 20
1509.90265090365
 30
0.0
 11
1497.602184968831
 21
1509.90265090365
 31
0.0
  0
INSERT
  5
49B2
330
49AC
100
AcDbEntity
  8
DIM
 62
     0
370
    -2
100
AcDbBlockReference
  2
_DOT
 10
1537.597840906544
 20
1509.90265090365
 30
0.0
 41
10.0
 42
10.0
 43
10.0
  0
INSERT
  5
49B3
330
49AC
100
AcDbEntity
  8
DIM
 62
     0
370
    -2
100
AcDbBlockReference
  2
_DOT
 10
1487.602184968831
 20
1509.90265090365
 30
0.0
 41
10.0
 42
10.0
 43
10.0
 50
180.0
  0
MTEXT
  5
49B4
330
49AC
100
AcDbEntity
  8
DIM
 62
     0
100
AcDbMText
 10
1512.600012937687
 20
1541.907152591783
 30
0.0
 40
24.0
 41
0.0
 46
0.0
 71
     5
 72
     1
  1
\A1;50
  7
ＭＳ ゴシック
 73
     1
 44
1.0
  0
POINT
  5
49B5
330
49AC
100
AcDbEntity
  8
Defpoints
 62
     0
100
AcDbPoint
 10
1537.597840906544
 20
1240.821892167124
 30
0.0
  0
POINT
  5
49B6
330
49AC
100
AcDbEntity
  8
Defpoints
 62
     0
100
AcDbPoint
 10
1487.602184968831
 20
1417.620585085829
 30
0.0
  0
POINT
  5
49B7
330
49AC
100
AcDbEntity
  8
Defpoints
 62
     0
100
AcDbPoint
 10
1487.602184968831
 20
1509.90265090365
 30
0.0
  0
ENDBLK
  5
49AE
330
49AC
100
AcDbEntity
  8
0
100
AcDbBlockEnd
  0
BLOCK
  5
49C6
330
49C5
100
AcDbEntity
  8
0
100
AcDbBlockBegin
  2
*D42
 70
     1
 10
0.0
 20
0.0
 30
0.0
  3
*D42
  1

  0
LINE
  5
49C8
330
49C5
100
AcDbEntity
  8
DIM
 62
     0
370
    -2
100
AcDbLine
 10
1487.60218496883
 20
594.3144966930486
 30
0.0
 11
1487.60218496883
 21
521.9843135361522
 31
0.0
  0
LINE
  5
49C9
330
49C5
100
AcDbEntity
  8
DIM
 62
     0
370
    -2
100
AcDbLine
 10
1647.601030822713
 20
963.3563274396959
 30
0.0
 11
1647.601030822713
 21
521.9843135361522
 31
0.0
  0
LINE
  5
49CA
330
49C5
100
AcDbEntity
  8
DIM
 62
     0
370
    -2
100
AcDbLine
 10
1497.60218496883
 20
521.9843135361522
 30
0.0
 11
1637.601030822713
 21
521.9843135361522
 31
0.0
  0
INSERT
  5
49CB
330
49C5
100
AcDbEntity
  8
DIM
 62
     0
370
    -2
100
AcDbBlockReference
  2
_DOT
 10
1487.60218496883
 20
521.9843135361522
 30
0.0
 41
10.0
 42
10.0
 43
10.0
 50
180.0
  0
INSERT
  5
49CC
330
49C5
100
AcDbEntity
  8
DIM
 62
     0
370
    -2
100
AcDbBlockReference
  2
_DOT
 10
1647.601030822713
 20
521.9843135361522
 30
0.0
 41
10.0
 42
10.0
 43
10.0
  0
MTEXT
  5
49CD
330
49C5
100
AcDbEntity
  8
DIM
 62
     0
100
AcDbMText
 10
1567.601607895772
 20
553.9888152242852
 30
0.0
 40
24.0
 41
0.0
 46
0.0
 71
     5
 72
     1
  1
\A1;160
  7
ＭＳ ゴシック
 73
     1
 44
1.0
  0
POINT
  5
49CE
330
49C5
100
AcDbEntity
  8
Defpoints
 62
     0
100
AcDbPoint
 10
1487.60218496883
 20
624.3144966930486
 30
0.0
  0
POINT
  5
49CF
330
49C5
100
AcDbEntity
  8
Defpoints
 62
     0
100
AcDbPoint
 10
1647.601030822713
 20
993.3563274396959
 30
0.0
  0
POINT
  5
49D0
330
49C5
100
AcDbEntity
  8
Defpoints
 62
     0
100
AcDbPoint
 10
1647.601030822713
 20
521.9843135361522
 30
0.0
  0
ENDBLK
  5
49C7
330
49C5
100
AcDbEntity
  8
0
100
AcDbBlockEnd
  0
BLOCK
  5
4A17
330
4A16
100
AcDbEntity
  8
0
100
AcDbBlockBegin
  2
*D43
 70
     1
 10
0.0
 20
0.0
 30
0.0
  3
*D43
  1

  0
LINE
  5
4A19
330
4A16
100
AcDbEntity
  8
DIM
 62
     0
370
    -2
100
AcDbLine
 10
351.2925089218607
 20
1421.586509681197
 30
0.0
 11
211.8758080061943
 21
1421.586509681197
 31
0.0
  0
LINE
  5
4A1A
330
4A16
100
AcDbEntity
  8
DIM
 62
     0
370
    -2
100
AcDbLine
 10
352.9691381046649
 20
621.5855795939583
 30
0.0
 11
211.8758080061942
 21
621.5855795939583
 31
0.0
  0
LINE
  5
4A1B
330
4A16
100
AcDbEntity
  8
DIM
 62
     0
370
    -2
100
AcDbLine
 10
211.8758080061943
 20
1411.586509681197
 30
0.0
 11
211.8758080061942
 21
631.5855795939583
 31
0.0
  0
INSERT
  5
4A1C
330
4A16
100
AcDbEntity
  8
DIM
 62
     0
370
    -2
100
AcDbBlockReference
  2
_DOT
 10
211.8758080061943
 20
1421.586509681197
 30
0.0
 41
10.0
 42
10.0
 43
10.0
 50
90.0
  0
INSERT
  5
4A1D
330
4A16
100
AcDbEntity
  8
DIM
 62
     0
370
    -2
100
AcDbBlockReference
  2
_DOT
 10
211.8758080061942
 20
621.5855795939583
 30
0.0
 41
10.0
 42
10.0
 43
10.0
 50
270.0
  0
MTEXT
  5
4A1E
330
4A16
100
AcDbEntity
  8
DIM
 62
     0
100
AcDbMText
 10
179.8758080061943
 20
1021.586044637578
 30
0.0
 40
24.0
 41
0.0
 46
0.0
 71
     5
 72
     1
  1
\A1;800
  7
ＭＳ ゴシック
 11
7.105419096776464E-17
 21
1.0
 31
0.0
 73
     1
 44
1.0
  0
POINT
  5
4A1F
330
4A16
100
AcDbEntity
  8
Defpoints
 62
     0
100
AcDbPoint
 10
381.2925089218607
 20
1421.586509681197
 30
0.0
  0
POINT
  5
4A20
330
4A16
100
AcDbEntity
  8
Defpoints
 62
     0
100
AcDbPoint
 10
382.9691381046649
 20
621.5855795939583
 30
0.0
  0
POINT
  5
4A21
330
4A16
100
AcDbEntity
  8
Defpoints
 62
     0
100
AcDbPoint
 10
211.8758080061942
 20
621.5855795939583
 30
0.0
  0
ENDBLK
  5
4A18
330
4A16
100
AcDbEntity
  8
0
100
AcDbBlockEnd
  0
BLOCK
  5
4A26
330
4A25
100
AcDbEntity
  8
0
100
AcDbBlockBegin
  2
*D44
 70
     1
 10
0.0
 20
0.0
 30
0.0
  3
*D44
  1

  0
LINE
  5
4A28
330
4A25
100
AcDbEntity
  8
DIM
 62
     0
370
    -2
100
AcDbLine
 10
491.8970674457901
 20
607.0927763359254
 30
0.0
 11
491.8970674457901
 21
502.4824892751056
 31
0.0
  0
LINE
  5
4A29
330
4A25
100
AcDbEntity
  8
DIM
 62
     0
370
    -2
100
AcDbLine
 10
816.7827987879963
 20
607.9432599060456
 30
0.0
 11
816.7827987879963
 21
502.4824892751056
 31
0.0
  0
LINE
  5
4A2A
330
4A25
100
AcDbEntity
  8
DIM
 62
     0
370
    -2
100
AcDbLine
 10
501.8970674457901
 20
502.4824892751056
 30
0.0
 11
806.7827987879963
 21
502.4824892751056
 31
0.0
  0
INSERT
  5
4A2B
330
4A25
100
AcDbEntity
  8
DIM
 62
     0
370
    -2
100
AcDbBlockReference
  2
_DOT
 10
491.8970674457901
 20
502.4824892751056
 30
0.0
 41
10.0
 42
10.0
 43
10.0
 50
180.0
  0
INSERT
  5
4A2C
330
4A25
100
AcDbEntity
  8
DIM
 62
     0
370
    -2
100
AcDbBlockReference
  2
_DOT
 10
816.7827987879963
 20
502.4824892751056
 30
0.0
 41
10.0
 42
10.0
 43
10.0
  0
MTEXT
  5
4A2D
330
4A25
100
AcDbEntity
  8
DIM
 62
     0
100
AcDbMText
 10
654.3399331168931
 20
534.4869909632387
 30
0.0
 40
24.0
 41
0.0
 46
0.0
 71
     5
 72
     1
  1
\A1;325
  7
ＭＳ ゴシック
 73
     1
 44
1.0
  0
POINT
  5
4A2E
330
4A25
100
AcDbEntity
  8
Defpoints
 62
     0
100
AcDbPoint
 10
491.8970674457901
 20
637.0927763359254
 30
0.0
  0
POINT
  5
4A2F
330
4A25
100
AcDbEntity
  8
Defpoints
 62
     0
100
AcDbPoint
 10
816.7827987879963
 20
637.9432599060456
 30
0.0
  0
POINT
  5
4A30
330
4A25
100
AcDbEntity
  8
Defpoints
 62
     0
100
AcDbPoint
 10
816.7827987879963
 20
502.4824892751056
 30
0.0
  0
ENDBLK
  5
4A27
330
4A25
100
AcDbEntity
  8
0
100
AcDbBlockEnd
  0
BLOCK
  5
4A35
330
4A34
100
AcDbEntity
  8
0
100
AcDbBlockBegin
  2
*D45
 70
     1
 10
0.0
 20
0.0
 30
0.0
  3
*D45
  1

  0
LINE
  5
4A37
330
4A34
100
AcDbEntity
  8
DIM
 62
     0
370
    -2
100
AcDbLine
 10
845.9516437377183
 20
1413.35440767365
 30
0.0
 11
979.6963085974769
 21
1413.35440767365
 31
0.0
  0
LINE
  5
4A38
330
4A34
100
AcDbEntity
  8
DIM
 62
     0
370
    -2
100
AcDbLine
 10
844.3187152830869
 20
629.7839099690063
 30
0.0
 11
979.6963085974769
 21
629.7839099690063
 31
0.0
  0
LINE
  5
4A39
330
4A34
100
AcDbEntity
  8
DIM
 62
     0
370
    -2
100
AcDbLine
 10
979.6963085974769
 20
1403.35440767365
 30
0.0
 11
979.6963085974769
 21
639.7839099690063
 31
0.0
  0
INSERT
  5
4A3A
330
4A34
100
AcDbEntity
  8
DIM
 62
     0
370
    -2
100
AcDbBlockReference
  2
_DOT
 10
979.6963085974769
 20
1413.35440767365
 30
0.0
 41
10.0
 42
10.0
 43
10.0
 50
90.0
  0
INSERT
  5
4A3B
330
4A34
100
AcDbEntity
  8
DIM
 62
     0
370
    -2
100
AcDbBlockReference
  2
_DOT
 10
979.6963085974769
 20
629.7839099690063
 30
0.0
 41
10.0
 42
10.0
 43
10.0
 50
270.0
  0
MTEXT
  5
4A3C
330
4A34
100
AcDbEntity
  8
DIM
 62
     0
100
AcDbMText
 10
947.6918069093438
 20
1021.569158821328
 30
0.0
 40
24.0
 41
0.0
 46
0.0
 71
     5
 72
     1
  1
\A1;785
  7
ＭＳ ゴシック
 11
0.0
 21
1.0
 31
0.0
 73
     1
 44
1.0
  0
POINT
  5
4A3D
330
4A34
100
AcDbEntity
  8
Defpoints
 62
     0
100
AcDbPoint
 10
815.9516437377183
 20
1413.35440767365
 30
0.0
  0
POINT
  5
4A3E
330
4A34
100
AcDbEntity
  8
Defpoints
 62
     0
100
AcDbPoint
 10
814.3187152830869
 20
629.7839099690063
 30
0.0
  0
POINT
  5
4A3F
330
4A34
100
AcDbEntity
  8
Defpoints
 62
     0
100
AcDbPoint
 10
979.6963085974769
 20
629.7839099690063
 30
0.0
  0
ENDBLK
  5
4A36
330
4A34
100
AcDbEntity
  8
0
100
AcDbBlockEnd
  0
BLOCK
  5
4A44
330
4A43
100
AcDbEntity
  8
0
100
AcDbBlockBegin
  2
*D46
 70
     1
 10
0.0
 20
0.0
 30
0.0
  3
*D46
  1

  0
LINE
  5
4A46
330
4A43
100
AcDbEntity
  8
DIM
 62
     0
370
    -2
100
AcDbLine
 10
365.3485912693841
 20
1441.104053144564
 30
0.0
 11
365.3485912693841
 21
1573.852589122817
 31
0.0
  0
LINE
  5
4A47
330
4A43
100
AcDbEntity
  8
DIM
 62
     0
370
    -2
100
AcDbLine
 10
825.363682828146
 20
1440.559743659682
 30
0.0
 11
825.363682828146
 21
1573.852589122817
 31
0.0
  0
LINE
  5
4A48
330
4A43
100
AcDbEntity
  8
DIM
 62
     0
370
    -2
100
AcDbLine
 10
375.3485912693841
 20
1573.852589122817
 30
0.0
 11
815.363682828146
 21
1573.852589122817
 31
0.0
  0
INSERT
  5
4A49
330
4A43
100
AcDbEntity
  8
DIM
 62
     0
370
    -2
100
AcDbBlockReference
  2
_DOT
 10
365.3485912693841
 20
1573.852589122817
 30
0.0
 41
10.0
 42
10.0
 43
10.0
 50
180.0
  0
INSERT
  5
4A4A
330
4A43
100
AcDbEntity
  8
DIM
 62
     0
370
    -2
100
AcDbBlockReference
  2
_DOT
 10
825.363682828146
 20
1573.852589122817
 30
0.0
 41
10.0
 42
10.0
 43
10.0
  0
MTEXT
  5
4A4B
330
4A43
100
AcDbEntity
  8
DIM
 62
     0
100
AcDbMText
 10
595.356137048765
 20
1605.852589122817
 30
0.0
 40
24.0
 41
0.0
 46
0.0
 71
     5
 72
     1
  1
\A1;460
  7
ＭＳ ゴシック
 73
     1
 44
1.0
  0
POINT
  5
4A4C
330
4A43
100
AcDbEntity
  8
Defpoints
 62
     0
100
AcDbPoint
 10
365.3485912693841
 20
1411.104053144564
 30
0.0
  0
POINT
  5
4A4D
330
4A43
100
AcDbEntity
  8
Defpoints
 62
     0
100
AcDbPoint
 10
825.363682828146
 20
1410.559743659682
 30
0.0
  0
POINT
  5
4A4E
330
4A43
100
AcDbEntity
  8
Defpoints
 62
     0
100
AcDbPoint
 10
825.363682828146
 20
1573.852589122817
 30
0.0
  0
ENDBLK
  5
4A45
330
4A43
100
AcDbEntity
  8
0
100
AcDbBlockEnd
  0
BLOCK
  5
4A5D
330
4A5C
100
AcDbEntity
  8
0
100
AcDbBlockBegin
  2
*D47
 70
     1
 10
0.0
 20
0.0
 30
0.0
  3
*D47
  1

  0
LINE
  5
4A5F
330
4A5C
100
AcDbEntity
  8
DIM
 62
     0
370
    -2
100
AcDbLine
 10
400.3549587588251
 20
921.5860576102657
 30
0.0
 11
300.9668587951801
 21
921.5860576102657
 31
0.0
  0
LINE
  5
4A60
330
4A5C
100
AcDbEntity
  8
DIM
 62
     0
370
    -2
100
AcDbLine
 10
400.3549587588252
 20
1021.586057610266
 30
0.0
 11
300.9668587951801
 21
1021.586057610266
 31
0.0
  0
LINE
  5
4A61
330
4A5C
100
AcDbEntity
  8
DIM
 62
     0
370
    -2
100
AcDbLine
 10
300.9668587951801
 20
931.5860576102657
 30
0.0
 11
300.9668587951801
 21
1011.586057610266
 31
0.0
  0
INSERT
  5
4A62
330
4A5C
100
AcDbEntity
  8
DIM
 62
     0
370
    -2
100
AcDbBlockReference
  2
_DOT
 10
300.9668587951801
 20
921.5860576102657
 30
0.0
 41
10.0
 42
10.0
 43
10.0
 50
270.0
  0
INSERT
  5
4A63
330
4A5C
100
AcDbEntity
  8
DIM
 62
     0
370
    -2
100
AcDbBlockReference
  2
_DOT
 10
300.9668587951801
 20
1021.586057610266
 30
0.0
 41
10.0
 42
10.0
 43
10.0
 50
90.0
  0
MTEXT
  5
4A64
330
4A5C
100
AcDbEntity
  8
DIM
 62
     0
100
AcDbMText
 10
268.9623571070471
 20
971.5860576102659
 30
0.0
 40
24.0
 41
0.0
 46
0.0
 71
     5
 72
     1
  1
\A1;100
  7
ＭＳ ゴシック
 11
0.0
 21
1.0
 31
0.0
 73
     1
 44
1.0
  0
POINT
  5
4A65
330
4A5C
100
AcDbEntity
  8
Defpoints
 62
     0
100
AcDbPoint
 10
430.3549587588251
 20
921.5860576102657
 30
0.0
  0
POINT
  5
4A66
330
4A5C
100
AcDbEntity
  8
Defpoints
 62
     0
100
AcDbPoint
 10
430.3549587588252
 20
1021.586057610266
 30
0.0
  0
POINT
  5
4A67
330
4A5C
100
AcDbEntity
  8
Defpoints
 62
     0
100
AcDbPoint
 10
300.9668587951801
 20
1021.586057610266
 30
0.0
  0
ENDBLK
  5
4A5E
330
4A5C
100
AcDbEntity
  8
0
100
AcDbBlockEnd
  0
BLOCK
  5
4A6C
330
4A6B
100
AcDbEntity
  8
0
100
AcDbBlockBegin
  2
*D48
 70
     1
 10
0.0
 20
0.0
 30
0.0
  3
*D48
  1

  0
LINE
  5
4A6E
330
4A6B
100
AcDbEntity
  8
DIM
 62
     0
370
    -2
100
AcDbLine
 10
400.3549587588252
 20
1021.586057610266
 30
0.0
 11
300.9668587951801
 21
1021.586057610266
 31
0.0
  0
LINE
  5
4A6F
330
4A6B
100
AcDbEntity
  8
DIM
 62
     0
370
    -2
100
AcDbLine
 10
400.3549587588253
 20
1121.586057610266
 30
0.0
 11
300.9668587951801
 21
1121.586057610266
 31
0.0
  0
LINE
  5
4A70
330
4A6B
100
AcDbEntity
  8
DIM
 62
     0
370
    -2
100
AcDbLine
 10
300.9668587951801
 20
1031.586057610266
 30
0.0
 11
300.9668587951801
 21
1111.586057610266
 31
0.0
  0
INSERT
  5
4A71
330
4A6B
100
AcDbEntity
  8
DIM
 62
     0
370
    -2
100
AcDbBlockReference
  2
_DOT
 10
300.9668587951801
 20
1021.586057610266
 30
0.0
 41
10.0
 42
10.0
 43
10.0
 50
270.0
  0
INSERT
  5
4A72
330
4A6B
100
AcDbEntity
  8
DIM
 62
     0
370
    -2
100
AcDbBlockReference
  2
_DOT
 10
300.9668587951801
 20
1121.586057610266
 30
0.0
 41
10.0
 42
10.0
 43
10.0
 50
90.0
  0
MTEXT
  5
4A73
330
4A6B
100
AcDbEntity
  8
DIM
 62
     0
100
AcDbMText
 10
268.962357107047
 20
1071.586057610266
 30
0.0
 40
24.0
 41
0.0
 46
0.0
 71
     5
 72
     1
  1
\A1;100
  7
ＭＳ ゴシック
 11
0.0
 21
1.0
 31
0.0
 73
     1
 44
1.0
  0
POINT
  5
4A74
330
4A6B
100
AcDbEntity
  8
Defpoints
 62
     0
100
AcDbPoint
 10
430.3549587588252
 20
1021.586057610266
 30
0.0
  0
POINT
  5
4A75
330
4A6B
100
AcDbEntity
  8
Defpoints
 62
     0
100
AcDbPoint
 10
430.3549587588253
 20
1121.586057610266
 30
0.0
  0
POINT
  5
4A76
330
4A6B
100
AcDbEntity
  8
Defpoints
 62
     0
100
AcDbPoint
 10
300.9668587951801
 20
1121.586057610266
 30
0.0
  0
ENDBLK
  5
4A6D
330
4A6B
100
AcDbEntity
  8
0
100
AcDbBlockEnd
  0
ENDSEC
  0
SECTION
  2
ENTITIES
  0
MTEXT
  5
177
330
A
100
AcDbEntity
  8
TEMPLATE
390
1D
100
AcDbMText
 10
79.20214454773075
 20
343.7317516314282
 30
0.0
 40
16.28841145833333
 41
0.0
 46
0.0
 71
     1
 72
     1
  1
品名
  7
ＭＳ ゴシック
 73
     1
 44
0.7828267384257843
  0
MTEXT
  5
178
330
A
100
AcDbEntity
  8
TEMPLATE
390
1D
100
AcDbMText
 10
79.20214454773075
 20
258.731751631428
 30
0.0
 40
16.28841145833333
 41
0.0
 46
0.0
 71
     1
 72
     1
  1
仕様
  7
ＭＳ ゴシック
 73
     1
 44
0.7828267384257843
  0
LINE
  5
179
330
A
100
AcDbEntity
  8
TEMPLATE
390
1D
100
AcDbLine
 10
2022.202144547248
 20
267.1466735064284
 30
0.0
 11
72.20214454724874
 21
267.1466735064284
 31
0.0
  0
LWPOLYLINE
  5
17A
330
A
100
AcDbEntity
  8
TEMPLATE
390
1D
100
AcDbPolyline
 90
        5
 70
   128
 43
0.0
 10
2022.202144547248
 20
2897.146673506426
 10
72.20214454724874
 20
2897.146673506426
 10
72.20214454724874
 20
97.14667350642826
 10
2022.202144547248
 20
97.14667350642826
 10
2022.202144547248
 20
2897.146673506426
  0
LINE
  5
17B
330
A
100
AcDbEntity
  8
TEMPLATE
390
1D
100
AcDbLine
 10
2022.202144547248
 20
352.1466735064282
 30
0.0
 11
72.20214454724874
 21
352.1466735064282
 31
0.0
  0
LINE
  5
17C
330
A
100
AcDbEntity
  8
TEMPLATE
390
1D
100
AcDbLine
 10
2022.202144547732
 20
182.1466735064282
 30
0.0
 11
1269.20214454773
 21
182.1466735064282
 31
0.0
  0
MTEXT
  5
17E
330
A
100
AcDbEntity
  8
TEMPLATE
390
1D
100
AcDbMText
 10
1299.073550799991
 20
152.2362790331201
 30
0.0
 40
24.4326171875
 41
0.0
 46
0.0
 71
     1
 72
     1
  1
大洋金物株式会社 ティーフォルム事業部
  7
ＭＳ ゴシック
 73
     1
 44
0.7828267384257843
  0
MTEXT
  5
180
330
A
100
AcDbEntity
  8
TEMPLATE
390
1D
100
AcDbMText
 10
1831.20214454799
 20
230.1492906939282
 30
0.0
 40
24.4326171875
 41
0.0
 46
24.4326171875
 71
     1
 72
     1
  1
{1:10}
  7
ＭＳ ゴシック
 73
     1
 44
0.7828267384257843
1001
ACAD
1000
ACAD_MTEXT_DEFINED_HEIGHT_BEGIN
1070
    46
1040
24.4326171875
1000
ACAD_MTEXT_DEFINED_HEIGHT_END
  0
MTEXT
  5
181
330
A
100
AcDbEntity
  8
TEMPLATE
390
1D
100
AcDbMText
 10
1778.20214454799
 20
258.731751631428
 30
0.0
 40
16.28841145833333
 41
0.0
 46
0.0
 71
     1
 72
     1
  1
縮尺
  7
ＭＳ ゴシック
 73
     1
 44
0.7828267384257843
  0
LINE
  5
182
330
A
100
AcDbEntity
  8
TEMPLATE
390
1D
100
AcDbLine
 10
1771.20214454799
 20
182.1466735064282
 30
0.0
 11
1771.20214454799
 21
267.1466735064284
 31
0.0
  0
MTEXT
  5
183
330
A
100
AcDbEntity
  8
TEMPLATE
390
1D
100
AcDbMText
 10
1527.20214454799
 20
258.731751631428
 30
0.0
 40
16.28841145833333
 41
0.0
 46
0.0
 71
     1
 72
     1
  1
容量
  7
ＭＳ ゴシック
 73
     1
 44
0.7828267384257843
  0
LINE
  5
184
330
A
100
AcDbEntity
  8
TEMPLATE
390
1D
100
AcDbLine
 10
1520.20214454799
 20
182.1466735064282
 30
0.0
 11
1520.20214454799
 21
267.1466735064284
 31
0.0
  0
MTEXT
  5
185
330
A
100
AcDbEntity
  8
TEMPLATE
390
1D
100
AcDbMText
 10
1276.20214454799
 20
343.7317516314282
 30
0.0
 40
16.28841145833333
 41
0.0
 46
0.0
 71
     1
 72
     1
  1
品番
  7
ＭＳ ゴシック
 73
     1
 44
0.7828267384257843
  0
MTEXT
  5
186
330
A
100
AcDbEntity
  8
TEMPLATE
390
1D
100
AcDbMText
 10
1276.20214454799
 20
258.731751631428
 30
0.0
 40
16.28841145833333
 41
0.0
 46
0.0
 71
     1
 72
     1
  1
重量
  7
ＭＳ ゴシック
 73
     1
 44
0.7828267384257843
  0
MTEXT
  5
187
330
A
100
AcDbEntity
  8
TEMPLATE
390
1D
100
AcDbMText
 10
1329.20214454799
 20
315.1492906939282
 30
0.0
 40
24.4326171875
 41
0.0
 46
24.4326171875
 71
     1
 72
     1
  1
{GAR70-1004-001}
  7
ＭＳ ゴシック
 73
     1
 44
0.7828267384257843
1001
ACAD
1000
ACAD_MTEXT_DEFINED_HEIGHT_BEGIN
1070
    46
1040
24.4326171875
1000
ACAD_MTEXT_DEFINED_HEIGHT_END
  0
LINE
  5
188
330
A
100
AcDbEntity
  8
TEMPLATE
390
1D
100
AcDbLine
 10
1269.20214454799
 20
97.14667350642826
 30
0.0
 11
1269.20214454799
 21
352.1466735064282
 31
0.0
  0
MTEXT
  5
189
330
A
100
AcDbEntity
  8
TEMPLATE
390
1D
100
AcDbMText
 10
132.2021445477307
 20
315.1492906939282
 30
0.0
 40
24.4326171875
 41
0.0
 46
27.53672361022102
 71
     1
 72
     1
  1
{洗面器　-LAUFEN, MEDA-}
  7
ＭＳ ゴシック
 73
     1
 44
0.7828267384257843
1001
ACAD
1000
ACAD_MTEXT_DEFINED_HEIGHT_BEGIN
1070
    46
1040
27.53672361022102
1000
ACAD_MTEXT_DEFINED_HEIGHT_END
  0
INSERT
  5
68C
330
A
100
AcDbEntity
  8
TEMPLATE
100
AcDbBlockReference
  2
block 2
 10
919.2743017702577
 20
8.373076514336368
 30
0.0
 41
0.3809999999999999
 42
0.3809999999999999
 43
0.3809999999999999
  0
LWPOLYLINE
  5
DAC
330
A
100
AcDbEntity
  8
BORDER
100
AcDbPolyline
 90
        4
 70
     1
 43
0.0
 10
0.0
 20
0.0
 10
0.0
 20
2970.0
 10
2100.0
 20
2970.0
 10
2100.0
 20
0.0
  0
MTEXT
  5
121B
330
A
100
AcDbEntity
  8
TEMPLATE
390
1D
100
AcDbMText
 10
1329.20214454799
 20
227.1688729773101
 30
0.0
 40
24.4326171875
 41
0.0
 46
28.40135167875453
 71
     1
 72
     1
  1
{20kg}
  7
ＭＳ ゴシック
 73
     1
 44
0.7828267384257843
1001
ACAD
1000
ACAD_MTEXT_DEFINED_HEIGHT_BEGIN
1070
    46
1040
28.40135167875453
1000
ACAD_MTEXT_DEFINED_HEIGHT_END
  0
MTEXT
  5
1466
102
{ACAD_XDICTIONARY
360
1468
102
}
330
A
100
AcDbEntity
  8
TEMPLATE
 48
0.05
100
AcDbMText
 10
74.728656548571
 20
83.86172105142839
 30
0.0
 40
22.0
 41
0.0
 46
22.0
 71
     1
 72
     1
  1
{20240416M}
  7
ＭＳ ゴシック
 73
     1
 44
1.0
1001
ACAD
1000
ACAD_MTEXT_DEFINED_HEIGHT_BEGIN
1070
    46
1040
22.0
1000
ACAD_MTEXT_DEFINED_HEIGHT_END
  0
MTEXT
  5
146D
330
A
100
AcDbEntity
  8
TEMPLATE
390
1D
100
AcDbMText
 10
1583.904999862276
 20
227.1688729773101
 30
0.0
 40
24.4326171875
 41
0.0
 46
24.4326171875
 71
     1
 72
     1
  1
{6.7L}
  7
ＭＳ ゴシック
 73
     1
 44
0.7828267384257843
1001
ACAD
1000
ACAD_MTEXT_DEFINED_HEIGHT_BEGIN
1070
    46
1040
24.4326171875
1000
ACAD_MTEXT_DEFINED_HEIGHT_END
  0
POINT
  5
262A
330
A
100
AcDbEntity
  8
Layer9
  6
Continuous
 62
     7
100
AcDbPoint
 10
1037.460145007193
 20
1010.220672371878
 30
0.0
  0
POINT
  5
262B
330
A
100
AcDbEntity
  8
Layer9
  6
Continuous
 62
     7
100
AcDbPoint
 10
1037.460146257193
 20
1010.220672788578
 30
0.0
  0
POINT
  5
262C
330
A
100
AcDbEntity
  8
Layer9
  6
Continuous
 62
     7
100
AcDbPoint
 10
1037.853693340493
 20
1015.267975288578
 30
0.0
  0
POINT
  5
2812
330
A
100
AcDbEntity
  8
Layer9
  6
Continuous
 62
     7
100
AcDbPoint
 10
925.7934783404928
 20
1010.220672371878
 30
0.0
  0
POINT
  5
2813
330
A
100
AcDbEntity
  8
Layer9
  6
Continuous
 62
     7
100
AcDbPoint
 10
925.7934795904928
 20
1010.220672788578
 30
0.0
  0
POINT
  5
2814
330
A
100
AcDbEntity
  8
Layer9
  6
Continuous
 62
     7
100
AcDbPoint
 10
926.1870266737928
 20
1015.267975288578
 30
0.0
  0
INSERT
  5
28CA
330
A
100
AcDbEntity
  8
Layer3
100
AcDbBlockReference
  2
SEANNOT_GROUP
 10
859.7083018867928
 20
826.1905269541776
 30
0.0
  0
POINT
  5
2A52
330
A
100
AcDbEntity
  8
Standard
  6
Continuous
 62
     7
100
AcDbPoint
 10
1036.111241014893
 20
1018.794321538578
 30
0.0
  0
INSERT
  5
2B9B
330
A
100
AcDbEntity
  8
Layer3
100
AcDbBlockReference
  2
SEANNOT_GROUP1
 10
859.7083018867928
 20
826.1905269541776
 30
0.0
  0
HATCH
  5
369B
102
{ACAD_REACTORS
330
36AC
102
}
330
A
100
AcDbEntity
  8
TEMPLATE
100
AcDbHatch
 10
0.0
 20
0.0
 30
0.0
210
0.0
220
0.0
230
1.0
  2
SOLID
 70
     1
 71
     1
 91
        6
 92
        1
 93
        8
 72
     1
 10
1934.476782902687
 20
153.1053194253001
 11
1934.476782902687
 21
147.1959117946397
 72
     1
 10
1934.476782902687
 20
147.1959117946397
 11
1925.116191352377
 21
147.1959117946397
 72
     1
 10
1925.116191352377
 20
147.1959117946397
 11
1925.116191352377
 21
123.105319426746
 72
     1
 10
1925.116191352377
 20
123.105319426746
 11
1916.883578199102
 21
123.105319426746
 72
     1
 10
1916.883578199102
 20
123.105319426746
 11
1916.883578199102
 21
147.1959117946397
 72
     1
 10
1916.883578199102
 20
147.1959117946397
 11
1907.688876764557
 21
147.1959117946397
 72
     1
 10
1907.688876764557
 20
147.1959117946397
 11
1907.688876764557
 21
153.1053194253001
 72
     1
 10
1907.688876764557
 20
153.1053194253001
 11
1934.476782902687
 21
153.1053194253001
 97
        1
330
369C
 92
        1
 93
        1
 72
     4
 94
        3
 73
     0
 74
     1
 95
       56
 96
       52
 40
0.0
 40
0.0
 40
0.0
 40
0.0
 40
1.0
 40
1.0
 40
1.0
 40
2.0
 40
2.0
 40
2.0
 40
3.0
 40
3.0
 40
3.0
 40
4.0
 40
4.0
 40
4.0
 40
5.0
 40
5.0
 40
5.0
 40
6.0
 40
6.0
 40
6.0
 40
7.0
 40
7.0
 40
7.0
 40
8.0
 40
8.0
 40
8.0
 40
9.0
 40
9.0
 40
9.0
 40
10.0
 40
10.0
 40
10.0
 40
11.0
 40
11.0
 40
11.0
 40
12.0
 40
12.0
 40
12.0
 40
13.0
 40
13.0
 40
13.0
 40
14.0
 40
14.0
 40
14.0
 40
15.0
 40
15.0
 40
15.0
 40
16.0
 40
16.0
 40
16.0
 40
17.0
 40
17.0
 40
17.0
 40
17.0
 10
1947.01896833698
 20
152.3909504648878
 10
1948.1728345189
 20
152.715738018898
 10
1949.662423612235
 20
152.4440650580081
 10
1949.662423612235
 20
152.4440650580081
 10
1949.662423612235
 20
152.4440650580081
 10
1948.946790018651
 20
150.2964947655846
 10
1948.946790018651
 20
150.2964947655846
 10
1948.946790018651
 20
150.2964947655846
 10
1947.484427733556
 20
150.6348957237139
 10
1946.356523726704
 20
149.7454866546012
 10
1945.480058550036
 20
149.0499384113589
 10
1944.912238256914
 20
147.2017886193686
 10
1944.69442379101
 20
146.4990989182278
 10
1944.69442379101
 20
146.4990989182278
 10
1943.723334297183
 20
143.518432927829
 10
1943.723334297183
 20
143.518432927829
 10
1943.723334297183
 20
143.518432927829
 10
1946.907457447503
 20
143.518432927829
 10
1946.907457447503
 20
143.518432927829
 10
1946.907457447503
 20
143.518432927829
 10
1946.412241976351
 20
141.642461206109
 10
1946.412241976351
 20
141.642461206109
 10
1946.412241976351
 20
141.642461206109
 10
1943.202156650962
 20
141.642461206109
 10
1943.202156650962
 20
141.642461206109
 10
1943.202156650962
 20
141.642461206109
 10
1937.458713526257
 20
123.105319426746
 10
1937.458713526257
 20
123.105319426746
 10
1937.458713526257
 20
123.105319426746
 10
1935.660479549369
 20
123.105319426746
 10
1935.660479549369
 20
123.105319426746
 10
1935.660479549369
 20
123.105319426746
 10
1941.409129987127
 20
141.642461206109
 10
1941.409129987127
 20
141.642461206109
 10
1941.409129987127
 20
141.642461206109
 10
1939.040397670409
 20
141.642461206109
 10
1939.040397670409
 20
141.642461206109
 10
1939.040397670409
 20
141.642461206109
 10
1939.536952164915
 20
143.518432927829
 10
1939.536952164915
 20
143.518432927829
 10
1939.536952164915
 20
143.518432927829
 10
1941.930307633347
 20
143.518432927829
 10
1941.930307633347
 20
143.518432927829
 10
1941.930307633347
 20
143.518432927829
 10
1942.77686795507
 20
146.1179236028939
 10
1942.77686795507
 20
146.1179236028939
 10
1943.461406450716
 20
148.2973328951149
 10
1944.042245026465
 20
149.4674161376772
 10
1944.540138544327
 20
150.3496093587049
 10
1945.032750358952
 20
151.232546481597
 10
1946.007708142475
 20
152.0998616653363
 10
1947.01896833698
 20
152.3909504648878
 97
        1
330
36A7
 92
        1
 93
        1
 72
     4
 94
        3
 73
     0
 74
     1
 95
       32
 96
       28
 40
0.0
 40
0.0
 40
0.0
 40
0.0
 40
1.0
 40
1.0
 40
1.0
 40
2.0
 40
2.0
 40
2.0
 40
3.0
 40
3.0
 40
3.0
 40
4.0
 40
4.0
 40
4.0
 40
5.0
 40
5.0
 40
5.0
 40
6.0
 40
6.0
 40
6.0
 40
7.0
 40
7.0
 40
7.0
 40
8.0
 40
8.0
 40
8.0
 40
9.0
 40
9.0
 40
9.0
 40
9.0
 10
1951.394524713372
 20
142.3847264864374
 10
1950.311998720255
 20
140.9844800070205
 10
1949.478382290974
 20
139.7243102486757
 10
1948.128795528524
 20
135.7635535518901
 10
1946.888041608841
 20
132.1406026917421
 10
1946.098464169936
 20
129.5048096056932
 10
1945.979216701069
 20
126.2947242803041
 10
1945.888460673606
 20
123.9059066132458
 10
1947.343086379314
 20
123.105319426746
 10
1949.475853024634
 20
123.105319426746
 10
1950.395018168326
 20
123.105319426746
 10
1952.714504181618
 20
123.1637901132903
 10
1954.3662638814
 20
125.2056519507783
 10
1955.522584939468
 20
126.6401923061455
 10
1956.588298750451
 20
128.1272521331414
 10
1958.017036671275
 20
133.0053142189559
 10
1959.205940631009
 20
137.0833842397621
 10
1960.029142434186
 20
139.7191029356247
 10
1959.968291261677
 20
141.2197761667398
 10
1959.968291261677
 20
141.2197761667398
 10
1959.968291261677
 20
141.2197761667398
 10
1959.968291261677
 20
141.2197761667398
 10
1959.580569609936
 20
143.7233035012931
 10
1957.762919794387
 20
144.2522921170894
 10
1956.724432791643
 20
144.2522921170894
 10
1955.70156772805
 20
144.2522921170894
 10
1952.960735698745
 20
144.4292663706373
 10
1951.394524713372
 20
142.3847264864374
 97
        1
330
36AA
 92
        1
 93
        1
 72
     4
 94
        3
 73
     0
 74
     1
 95
       38
 96
       34
 40
0.0
 40
0.0
 40
0.0
 40
0.0
 40
1.0
 40
1.0
 40
1.0
 40
2.0
 40
2.0
 40
2.0
 40
3.0
 40
3.0
 40
3.0
 40
4.0
 40
4.0
 40
4.0
 40
5.0
 40
5.0
 40
5.0
 40
6.0
 40
6.0
 40
6.0
 40
7.0
 40
7.0
 40
7.0
 40
8.0
 40
8.0
 40
8.0
 40
9.0
 40
9.0
 40
9.0
 40
10.0
 40
10.0
 40
10.0
 40
11.0
 40
11.0
 40
11.0
 40
11.0
 10
1966.542747159137
 20
143.4464976175386
 10
1966.542747159137
 20
143.4464976175386
 10
1968.39149207262
 20
143.4464976175386
 10
1968.39149207262
 20
143.4464976175386
 10
1968.39149207262
 20
143.4464976175386
 10
1967.56561222273
 20
140.8022984404216
 10
1967.56561222273
 20
140.8022984404216
 10
1968.193167835563
 20
141.54456372075
 10
1969.183598777865
 20
142.5331349083912
 10
1970.034176169654
 20
143.0316235477459
 10
1971.304760554101
 20
143.7738888280742
 10
1972.030808773784
 20
143.8717863134333
 10
1972.829313035064
 20
143.8522960845852
 10
1972.829313035064
 20
143.8522960845852
 10
1972.048959979278
 20
141.3520419182353
 10
1972.048959979278
 20
141.3520419182353
 10
1971.540726225497
 20
141.5672527276151
 10
1969.974515240128
 20
141.1575859708734
 10
1969.076030568268
 20
140.5112840310564
 10
1968.265772657532
 20
139.9285113104618
 10
1967.705614553615
 20
139.4326263276327
 10
1967.04190531017
 20
138.1859955832205
 10
1966.383254599404
 20
136.9375050841474
 10
1965.86341597654
 20
134.9467493047458
 10
1964.968799594376
 20
132.058773486655
 10
1964.968799594376
 20
132.058773486655
 10
1962.174852971949
 20
123.105319426746
 10
1962.174852971949
 20
123.105319426746
 10
1962.174852971949
 20
123.105319426746
 10
1960.380561674943
 20
123.105319426746
 10
1960.380561674943
 20
123.105319426746
 10
1960.380561674943
 20
123.105319426746
 10
1966.542747159137
 20
143.4464976175386
 10
1966.542747159137
 20
143.4464976175386
 97
        1
330
36A8
 92
        1
 93
        1
 72
     4
 94
        3
 73
     0
 74
     1
 95
      104
 96
      100
 40
0.0
 40
0.0
 40
0.0
 40
0.0
 40
1.0
 40
1.0
 40
1.0
 40
2.0
 40
2.0
 40
2.0
 40
3.0
 40
3.0
 40
3.0
 40
4.0
 40
4.0
 40
4.0
 40
5.0
 40
5.0
 40
5.0
 40
6.0
 40
6.0
 40
6.0
 40
7.0
 40
7.0
 40
7.0
 40
8.0
 40
8.0
 40
8.0
 40
9.0
 40
9.0
 40
9.0
 40
10.0
 40
10.0
 40
10.0
 40
11.0
 40
11.0
 40
11.0
 40
12.0
 40
12.0
 40
12.0
 40
13.0
 40
13.0
 40
13.0
 40
14.0
 40
14.0
 40
14.0
 40
15.0
 40
15.0
 40
15.0
 40
16.0
 40
16.0
 40
16.0
 40
17.0
 40
17.0
 40
17.0
 40
18.0
 40
18.0
 40
18.0
 40
19.0
 40
19.0
 40
19.0
 40
20.0
 40
20.0
 40
20.0
 40
21.0
 40
21.0
 40
21.0
 40
22.0
 40
22.0
 40
22.0
 40
23.0
 40
23.0
 40
23.0
 40
24.0
 40
24.0
 40
24.0
 40
25.0
 40
25.0
 40
25.0
 40
26.0
 40
26.0
 40
26.0
 40
27.0
 40
27.0
 40
27.0
 40
28.0
 40
28.0
 40
28.0
 40
29.0
 40
29.0
 40
29.0
 40
30.0
 40
30.0
 40
30.0
 40
31.0
 40
31.0
 40
31.0
 40
32.0
 40
32.0
 40
32.0
 40
33.0
 40
33.0
 40
33.0
 40
33.0
 10
1976.718878323425
 20
143.4575073651321
 10
1976.718878323425
 20
143.4575073651321
 10
1978.332996588864
 20
143.4575073651321
 10
1978.332996588864
 20
143.4575073651321
 10
1978.332996588864
 20
143.4575073651321
 10
1977.517531365076
 20
140.810778921676
 10
1977.517531365076
 20
140.810778921676
 10
1978.225279598895
 20
141.920531723033
 10
1978.860571791119
 20
142.4151520726926
 10
1979.704602846502
 20
143.054312554611
 10
1980.551163168223
 20
143.6843974337833
 10
1981.556025806694
 20
143.812794895584
 10
1982.253508194784
 20
143.812794895584
 10
1983.117029479015
 20
143.812794895584
 10
1983.950645908296
 20
143.6422925882567
 10
1984.388804106443
 20
142.6958262461422
 10
1984.72460140805
 20
141.9536353560001
 10
1984.740223347202
 20
141.8660781065566
 10
1984.644260006691
 20
140.4010377747479
 10
1985.521915426345
 20
141.9030500292188
 10
1986.170151511008
 20
142.5500214807137
 10
1987.272167732975
 20
143.1716258786317
 10
1988.42863757142
 20
143.812794895584
 10
1989.102761440966
 20
143.8607765658398
 10
1989.885941323838
 20
143.7453229964802
 10
1991.039733115569
 20
143.5748950793392
 10
1991.776195961356
 20
143.1632197875635
 10
1992.161239566385
 20
141.9121256319649
 10
1992.54762219477
 20
140.6648997660613
 10
1992.338883331611
 20
139.9959088193793
 10
1991.861744675765
 20
138.0103603530286
 10
1991.64393020986
 20
137.1060732466272
 10
1991.328813380087
 20
136.0111240923725
 10
1990.916542966819
 20
134.7082543670094
 10
1990.916542966819
 20
134.7082543670094
 10
1987.272167732975
 20
123.105319426746
 10
1987.272167732975
 20
123.105319426746
 10
1987.272167732975
 20
123.105319426746
 10
1985.376705782409
 20
123.105319426746
 10
1985.376705782409
 20
123.105319426746
 10
1985.376705782409
 20
123.105319426746
 10
1988.567449659321
 20
133.2490164697431
 10
1988.567449659321
 20
133.2490164697431
 10
1989.233836949479
 20
135.3713684889626
 10
1989.684939040069
 20
136.9212880235028
 10
1989.918375445127
 20
137.893047029008
 10
1990.211323999339
 20
139.1052351170969
 10
1990.327967811683
 20
139.505231149601
 10
1990.189304504152
 20
140.3874987608153
 10
1990.062246065708
 20
141.2087664191461
 10
1989.647297605728
 20
141.7435574694851
 10
1988.936871325198
 20
141.7435574694851
 10
1988.17972800758
 20
141.7435574694851
 10
1987.566455310545
 20
141.659273388245
 10
1986.708290119737
 20
140.7971655175569
 10
1985.84997614856
 20
139.9285113104618
 10
1985.140740111011
 20
138.9088450248874
 10
1984.584599077163
 20
137.7361581257997
 10
1984.029648286297
 20
136.5563297688134
 10
1983.466960916042
 20
135.0608638507494
 10
1982.896536966398
 20
133.2490164697431
 10
1982.896536966398
 20
133.2490164697431
 10
1979.704602846502
 20
123.105319426746
 10
1979.704602846502
 20
123.105319426746
 10
1979.704602846502
 20
123.105319426746
 10
1977.921916418581
 20
123.105319426746
 10
1977.921916418581
 20
123.105319426746
 10
1977.921916418581
 20
123.105319426746
 10
1981.571498965475
 20
134.7030470539584
 10
1981.571498965475
 20
134.7030470539584
 10
1981.956542570504
 20
135.9373290274211
 10
1982.245771615394
 20
136.9433819088763
 10
1982.436359273062
 20
137.729686179579
 10
1982.760402925207
 20
139.0832156219098
 10
1982.851158952669
 20
139.9985124759046
 10
1982.606117678524
 20
140.810778921676
 10
1982.364944694076
 20
141.6204417109219
 10
1981.941069411725
 20
141.8272464292334
 10
1981.233172397533
 20
141.8272464292334
 10
1980.639389929345
 20
141.8272464292334
 10
1980.059890376953
 20
141.5724600406662
 10
1979.398710399847
 20
141.0654909200569
 10
1978.566284213549
 20
140.4276694614944
 10
1978.233164958657
 20
139.9038881587491
 10
1977.824762835085
 20
139.2815398589669
 10
1977.273680333915
 20
138.458263665602
 10
1977.015695167332
 20
137.9040567766015
 10
1976.550310160944
 20
136.687926008631
 10
1976.084776374184
 20
135.4646537827621
 10
1975.644088909695
 20
134.0411231749885
 10
1975.336708659311
 20
133.0564946672286
 10
1975.336708659311
 20
133.0564946672286
 10
1972.205774492298
 20
123.105319426746
 10
1972.205774492298
 20
123.105319426746
 10
1972.205774492298
 20
123.105319426746
 10
1970.338878373326
 20
123.105319426746
 10
1970.338878373326
 20
123.105319426746
 10
1970.338878373326
 20
123.105319426746
 10
1976.718878323425
 20
143.4575073651321
 10
1976.718878323425
 20
143.4575073651321
 97
        1
330
36A9
 92
       16
 93
        1
 72
     4
 94
        3
 73
     0
 74
     1
 95
       29
 96
       25
 40
0.0
 40
0.0
 40
0.0
 40
0.0
 40
1.0
 40
1.0
 40
1.0
 40
2.0
 40
2.0
 40
2.0
 40
3.0
 40
3.0
 40
3.0
 40
4.0
 40
4.0
 40
4.0
 40
5.0
 40
5.0
 40
5.0
 40
6.0
 40
6.0
 40
6.0
 40
7.0
 40
7.0
 40
7.0
 40
8.0
 40
8.0
 40
8.0
 40
8.0
 10
1947.916188375669
 20
126.8949043045264
 10
1947.908303015907
 20
128.3120373562658
 10
1948.355685597176
 20
130.8298476066162
 10
1949.501740809517
 20
134.1986815898748
 10
1951.062744481836
 20
138.7603622127471
 10
1951.998870588036
 20
140.4276694614944
 10
1952.818055321147
 20
141.2392663955878
 10
1954.014844640642
 20
142.4210288974216
 10
1955.623755593032
 20
142.4799459250845
 10
1956.098364982539
 20
142.4210288974216
 10
1956.77382787544
 20
142.3399435941987
 10
1957.727956406759
 20
141.8978427161679
 10
1957.784939289575
 20
140.4095182560024
 10
1957.830466083678
 20
139.1357350935386
 10
1957.463424903768
 20
136.7501905946838
 10
1956.178706383896
 20
133.0053142189559
 10
1954.698044112936
 20
128.6536370924121
 10
1953.808635043822
 20
126.9429603649685
 10
1953.095679496951
 20
126.1974219164366
 10
1951.752490290537
 20
124.7997790935452
 10
1950.311998720255
 20
124.9339789898883
 10
1950.0993915674
 20
124.9339789898883
 10
1949.823255195324
 20
124.9339789898883
 10
1947.920056665365
 20
125.2336226608809
 10
1947.916188375669
 20
126.8949043045264
 97
        1
330
36AB
 75
     0
 76
     1
 98
        1
 10
1859.334883625664
 20
72.26751235270598
1001
ACAD
1010
0.0
1020
0.0
1030
0.0
  0
POLYLINE
  5
369C
102
{ACAD_REACTORS
330
369B
330
36AC
102
}
330
A
100
AcDbEntity
  8
TEMPLATE
100
AcDb2dPolyline
 66
     1
 10
0.0
 20
0.0
 30
0.0
  0
VERTEX
  5
369D
330
369C
100
AcDbEntity
  8
TEMPLATE
100
AcDbVertex
100
AcDb2dVertex
 10
1934.476782902687
 20
153.1053194253001
 30
0.0
  0
VERTEX
  5
369E
330
369C
100
AcDbEntity
  8
TEMPLATE
100
AcDbVertex
100
AcDb2dVertex
 10
1934.476782902687
 20
147.1959117946397
 30
0.0
  0
VERTEX
  5
369F
330
369C
100
AcDbEntity
  8
TEMPLATE
100
AcDbVertex
100
AcDb2dVertex
 10
1925.116191352377
 20
147.1959117946397
 30
0.0
  0
VERTEX
  5
36A0
330
369C
100
AcDbEntity
  8
TEMPLATE
100
AcDbVertex
100
AcDb2dVertex
 10
1925.116191352377
 20
123.105319426746
 30
0.0
  0
VERTEX
  5
36A1
330
369C
100
AcDbEntity
  8
TEMPLATE
100
AcDbVertex
100
AcDb2dVertex
 10
1916.883578199102
 20
123.105319426746
 30
0.0
  0
VERTEX
  5
36A2
330
369C
100
AcDbEntity
  8
TEMPLATE
100
AcDbVertex
100
AcDb2dVertex
 10
1916.883578199102
 20
147.1959117946397
 30
0.0
  0
VERTEX
  5
36A3
330
369C
100
AcDbEntity
  8
TEMPLATE
100
AcDbVertex
100
AcDb2dVertex
 10
1907.688876764557
 20
147.1959117946397
 30
0.0
  0
VERTEX
  5
36A4
330
369C
100
AcDbEntity
  8
TEMPLATE
100
AcDbVertex
100
AcDb2dVertex
 10
1907.688876764557
 20
153.1053194253001
 30
0.0
  0
VERTEX
  5
36A5
330
369C
100
AcDbEntity
  8
TEMPLATE
100
AcDbVertex
100
AcDb2dVertex
 10
1934.476782902687
 20
153.1053194253001
 30
0.0
  0
SEQEND
  5
36A6
330
369C
100
AcDbEntity
  8
TEMPLATE
  0
SPLINE
  5
36A7
102
{ACAD_REACTORS
330
369B
330
36AC
102
}
330
A
100
AcDbEntity
  8
TEMPLATE
100
AcDbSpline
210
0.0
220
0.0
230
1.0
 70
    11
 71
     3
 72
    56
 73
    52
 74
     0
 42
0.000000001
 43
0.0000000001
 40
0.0
 40
0.0
 40
0.0
 40
0.0
 40
1.0
 40
1.0
 40
1.0
 40
2.0
 40
2.0
 40
2.0
 40
3.0
 40
3.0
 40
3.0
 40
4.0
 40
4.0
 40
4.0
 40
5.0
 40
5.0
 40
5.0
 40
6.0
 40
6.0
 40
6.0
 40
7.0
 40
7.0
 40
7.0
 40
8.0
 40
8.0
 40
8.0
 40
9.0
 40
9.0
 40
9.0
 40
10.0
 40
10.0
 40
10.0
 40
11.0
 40
11.0
 40
11.0
 40
12.0
 40
12.0
 40
12.0
 40
13.0
 40
13.0
 40
13.0
 40
14.0
 40
14.0
 40
14.0
 40
15.0
 40
15.0
 40
15.0
 40
16.0
 40
16.0
 40
16.0
 40
17.0
 40
17.0
 40
17.0
 40
17.0
 10
1947.01896833698
 20
152.3909504648878
 30
0.0
 10
1948.1728345189
 20
152.715738018898
 30
0.0
 10
1949.662423612235
 20
152.4440650580081
 30
0.0
 10
1949.662423612235
 20
152.4440650580081
 30
0.0
 10
1949.662423612235
 20
152.4440650580081
 30
0.0
 10
1948.946790018651
 20
150.2964947655846
 30
0.0
 10
1948.946790018651
 20
150.2964947655846
 30
0.0
 10
1948.946790018651
 20
150.2964947655846
 30
0.0
 10
1947.484427733556
 20
150.6348957237139
 30
0.0
 10
1946.356523726704
 20
149.7454866546012
 30
0.0
 10
1945.480058550036
 20
149.0499384113589
 30
0.0
 10
1944.912238256914
 20
147.2017886193686
 30
0.0
 10
1944.69442379101
 20
146.4990989182278
 30
0.0
 10
1944.69442379101
 20
146.4990989182278
 30
0.0
 10
1943.723334297183
 20
143.518432927829
 30
0.0
 10
1943.723334297183
 20
143.518432927829
 30
0.0
 10
1943.723334297183
 20
143.518432927829
 30
0.0
 10
1946.907457447503
 20
143.518432927829
 30
0.0
 10
1946.907457447503
 20
143.518432927829
 30
0.0
 10
1946.907457447503
 20
143.518432927829
 30
0.0
 10
1946.412241976351
 20
141.642461206109
 30
0.0
 10
1946.412241976351
 20
141.642461206109
 30
0.0
 10
1946.412241976351
 20
141.642461206109
 30
0.0
 10
1943.202156650962
 20
141.642461206109
 30
0.0
 10
1943.202156650962
 20
141.642461206109
 30
0.0
 10
1943.202156650962
 20
141.642461206109
 30
0.0
 10
1937.458713526257
 20
123.105319426746
 30
0.0
 10
1937.458713526257
 20
123.105319426746
 30
0.0
 10
1937.458713526257
 20
123.105319426746
 30
0.0
 10
1935.660479549369
 20
123.105319426746
 30
0.0
 10
1935.660479549369
 20
123.105319426746
 30
0.0
 10
1935.660479549369
 20
123.105319426746
 30
0.0
 10
1941.409129987127
 20
141.642461206109
 30
0.0
 10
1941.409129987127
 20
141.642461206109
 30
0.0
 10
1941.409129987127
 20
141.642461206109
 30
0.0
 10
1939.040397670409
 20
141.642461206109
 30
0.0
 10
1939.040397670409
 20
141.642461206109
 30
0.0
 10
1939.040397670409
 20
141.642461206109
 30
0.0
 10
1939.536952164915
 20
143.518432927829
 30
0.0
 10
1939.536952164915
 20
143.518432927829
 30
0.0
 10
1939.536952164915
 20
143.518432927829
 30
0.0
 10
1941.930307633347
 20
143.518432927829
 30
0.0
 10
1941.930307633347
 20
143.518432927829
 30
0.0
 10
1941.930307633347
 20
143.518432927829
 30
0.0
 10
1942.77686795507
 20
146.1179236028939
 30
0.0
 10
1942.77686795507
 20
146.1179236028939
 30
0.0
 10
1943.461406450716
 20
148.2973328951149
 30
0.0
 10
1944.042245026465
 20
149.4674161376772
 30
0.0
 10
1944.540138544327
 20
150.3496093587049
 30
0.0
 10
1945.032750358952
 20
151.232546481597
 30
0.0
 10
1946.007708142475
 20
152.0998616653363
 30
0.0
 10
1947.01896833698
 20
152.3909504648878
 30
0.0
  0
SPLINE
  5
36A8
102
{ACAD_REACTORS
330
369B
330
36AC
102
}
330
A
100
AcDbEntity
  8
TEMPLATE
100
AcDbSpline
210
0.0
220
0.0
230
1.0
 70
    11
 71
     3
 72
    38
 73
    34
 74
     0
 42
0.000000001
 43
0.0000000001
 40
0.0
 40
0.0
 40
0.0
 40
0.0
 40
1.0
 40
1.0
 40
1.0
 40
2.0
 40
2.0
 40
2.0
 40
3.0
 40
3.0
 40
3.0
 40
4.0
 40
4.0
 40
4.0
 40
5.0
 40
5.0
 40
5.0
 40
6.0
 40
6.0
 40
6.0
 40
7.0
 40
7.0
 40
7.0
 40
8.0
 40
8.0
 40
8.0
 40
9.0
 40
9.0
 40
9.0
 40
10.0
 40
10.0
 40
10.0
 40
11.0
 40
11.0
 40
11.0
 40
11.0
 10
1966.542747159137
 20
143.4464976175386
 30
0.0
 10
1966.542747159137
 20
143.4464976175386
 30
0.0
 10
1968.39149207262
 20
143.4464976175386
 30
0.0
 10
1968.39149207262
 20
143.4464976175386
 30
0.0
 10
1968.39149207262
 20
143.4464976175386
 30
0.0
 10
1967.56561222273
 20
140.8022984404216
 30
0.0
 10
1967.56561222273
 20
140.8022984404216
 30
0.0
 10
1968.193167835563
 20
141.54456372075
 30
0.0
 10
1969.183598777865
 20
142.5331349083912
 30
0.0
 10
1970.034176169654
 20
143.0316235477459
 30
0.0
 10
1971.304760554101
 20
143.7738888280742
 30
0.0
 10
1972.030808773784
 20
143.8717863134333
 30
0.0
 10
1972.829313035064
 20
143.8522960845852
 30
0.0
 10
1972.829313035064
 20
143.8522960845852
 30
0.0
 10
1972.048959979278
 20
141.3520419182353
 30
0.0
 10
1972.048959979278
 20
141.3520419182353
 30
0.0
 10
1971.540726225497
 20
141.5672527276151
 30
0.0
 10
1969.974515240128
 20
141.1575859708734
 30
0.0
 10
1969.076030568268
 20
140.5112840310564
 30
0.0
 10
1968.265772657532
 20
139.9285113104618
 30
0.0
 10
1967.705614553615
 20
139.4326263276327
 30
0.0
 10
1967.04190531017
 20
138.1859955832205
 30
0.0
 10
1966.383254599404
 20
136.9375050841474
 30
0.0
 10
1965.86341597654
 20
134.9467493047458
 30
0.0
 10
1964.968799594376
 20
132.058773486655
 30
0.0
 10
1964.968799594376
 20
132.058773486655
 30
0.0
 10
1962.174852971949
 20
123.105319426746
 30
0.0
 10
1962.174852971949
 20
123.105319426746
 30
0.0
 10
1962.174852971949
 20
123.105319426746
 30
0.0
 10
1960.380561674943
 20
123.105319426746
 30
0.0
 10
1960.380561674943
 20
123.105319426746
 30
0.0
 10
1960.380561674943
 20
123.105319426746
 30
0.0
 10
1966.542747159137
 20
143.4464976175386
 30
0.0
 10
1966.542747159137
 20
143.4464976175386
 30
0.0
  0
SPLINE
  5
36A9
102
{ACAD_REACTORS
330
369B
330
36AC
102
}
330
A
100
AcDbEntity
  8
TEMPLATE
100
AcDbSpline
210
0.0
220
0.0
230
1.0
 70
    11
 71
     3
 72
   104
 73
   100
 74
     0
 42
0.000000001
 43
0.0000000001
 40
0.0
 40
0.0
 40
0.0
 40
0.0
 40
1.0
 40
1.0
 40
1.0
 40
2.0
 40
2.0
 40
2.0
 40
3.0
 40
3.0
 40
3.0
 40
4.0
 40
4.0
 40
4.0
 40
5.0
 40
5.0
 40
5.0
 40
6.0
 40
6.0
 40
6.0
 40
7.0
 40
7.0
 40
7.0
 40
8.0
 40
8.0
 40
8.0
 40
9.0
 40
9.0
 40
9.0
 40
10.0
 40
10.0
 40
10.0
 40
11.0
 40
11.0
 40
11.0
 40
12.0
 40
12.0
 40
12.0
 40
13.0
 40
13.0
 40
13.0
 40
14.0
 40
14.0
 40
14.0
 40
15.0
 40
15.0
 40
15.0
 40
16.0
 40
16.0
 40
16.0
 40
17.0
 40
17.0
 40
17.0
 40
18.0
 40
18.0
 40
18.0
 40
19.0
 40
19.0
 40
19.0
 40
20.0
 40
20.0
 40
20.0
 40
21.0
 40
21.0
 40
21.0
 40
22.0
 40
22.0
 40
22.0
 40
23.0
 40
23.0
 40
23.0
 40
24.0
 40
24.0
 40
24.0
 40
25.0
 40
25.0
 40
25.0
 40
26.0
 40
26.0
 40
26.0
 40
27.0
 40
27.0
 40
27.0
 40
28.0
 40
28.0
 40
28.0
 40
29.0
 40
29.0
 40
29.0
 40
30.0
 40
30.0
 40
30.0
 40
31.0
 40
31.0
 40
31.0
 40
32.0
 40
32.0
 40
32.0
 40
33.0
 40
33.0
 40
33.0
 40
33.0
 10
1976.718878323425
 20
143.4575073651321
 30
0.0
 10
1976.718878323425
 20
143.4575073651321
 30
0.0
 10
1978.332996588864
 20
143.4575073651321
 30
0.0
 10
1978.332996588864
 20
143.4575073651321
 30
0.0
 10
1978.332996588864
 20
143.4575073651321
 30
0.0
 10
1977.517531365076
 20
140.810778921676
 30
0.0
 10
1977.517531365076
 20
140.810778921676
 30
0.0
 10
1978.225279598895
 20
141.920531723033
 30
0.0
 10
1978.860571791119
 20
142.4151520726926
 30
0.0
 10
1979.704602846502
 20
143.054312554611
 30
0.0
 10
1980.551163168223
 20
143.6843974337833
 30
0.0
 10
1981.556025806694
 20
143.812794895584
 30
0.0
 10
1982.253508194784
 20
143.812794895584
 30
0.0
 10
1983.117029479015
 20
143.812794895584
 30
0.0
 10
1983.950645908296
 20
143.6422925882567
 30
0.0
 10
1984.388804106443
 20
142.6958262461422
 30
0.0
 10
1984.72460140805
 20
141.9536353560001
 30
0.0
 10
1984.740223347202
 20
141.8660781065566
 30
0.0
 10
1984.644260006691
 20
140.4010377747479
 30
0.0
 10
1985.521915426345
 20
141.9030500292188
 30
0.0
 10
1986.170151511008
 20
142.5500214807137
 30
0.0
 10
1987.272167732975
 20
143.1716258786317
 30
0.0
 10
1988.42863757142
 20
143.812794895584
 30
0.0
 10
1989.102761440966
 20
143.8607765658398
 30
0.0
 10
1989.885941323838
 20
143.7453229964802
 30
0.0
 10
1991.039733115569
 20
143.5748950793392
 30
0.0
 10
1991.776195961356
 20
143.1632197875635
 30
0.0
 10
1992.161239566385
 20
141.9121256319649
 30
0.0
 10
1992.54762219477
 20
140.6648997660613
 30
0.0
 10
1992.338883331611
 20
139.9959088193793
 30
0.0
 10
1991.861744675765
 20
138.0103603530286
 30
0.0
 10
1991.64393020986
 20
137.1060732466272
 30
0.0
 10
1991.328813380087
 20
136.0111240923725
 30
0.0
 10
1990.916542966819
 20
134.7082543670094
 30
0.0
 10
1990.916542966819
 20
134.7082543670094
 30
0.0
 10
1987.272167732975
 20
123.105319426746
 30
0.0
 10
1987.272167732975
 20
123.105319426746
 30
0.0
 10
1987.272167732975
 20
123.105319426746
 30
0.0
 10
1985.376705782409
 20
123.105319426746
 30
0.0
 10
1985.376705782409
 20
123.105319426746
 30
0.0
 10
1985.376705782409
 20
123.105319426746
 30
0.0
 10
1988.567449659321
 20
133.2490164697431
 30
0.0
 10
1988.567449659321
 20
133.2490164697431
 30
0.0
 10
1989.233836949479
 20
135.3713684889626
 30
0.0
 10
1989.684939040069
 20
136.9212880235028
 30
0.0
 10
1989.918375445127
 20
137.893047029008
 30
0.0
 10
1990.211323999339
 20
139.1052351170969
 30
0.0
 10
1990.327967811683
 20
139.505231149601
 30
0.0
 10
1990.189304504152
 20
140.3874987608153
 30
0.0
 10
1990.062246065708
 20
141.2087664191461
 30
0.0
 10
1989.647297605728
 20
141.7435574694851
 30
0.0
 10
1988.936871325198
 20
141.7435574694851
 30
0.0
 10
1988.17972800758
 20
141.7435574694851
 30
0.0
 10
1987.566455310545
 20
141.659273388245
 30
0.0
 10
1986.708290119737
 20
140.7971655175569
 30
0.0
 10
1985.84997614856
 20
139.9285113104618
 30
0.0
 10
1985.140740111011
 20
138.9088450248874
 30
0.0
 10
1984.584599077163
 20
137.7361581257997
 30
0.0
 10
1984.029648286297
 20
136.5563297688134
 30
0.0
 10
1983.466960916042
 20
135.0608638507494
 30
0.0
 10
1982.896536966398
 20
133.2490164697431
 30
0.0
 10
1982.896536966398
 20
133.2490164697431
 30
0.0
 10
1979.704602846502
 20
123.105319426746
 30
0.0
 10
1979.704602846502
 20
123.105319426746
 30
0.0
 10
1979.704602846502
 20
123.105319426746
 30
0.0
 10
1977.921916418581
 20
123.105319426746
 30
0.0
 10
1977.921916418581
 20
123.105319426746
 30
0.0
 10
1977.921916418581
 20
123.105319426746
 30
0.0
 10
1981.571498965475
 20
134.7030470539584
 30
0.0
 10
1981.571498965475
 20
134.7030470539584
 30
0.0
 10
1981.956542570504
 20
135.9373290274211
 30
0.0
 10
1982.245771615394
 20
136.9433819088763
 30
0.0
 10
1982.436359273062
 20
137.729686179579
 30
0.0
 10
1982.760402925207
 20
139.0832156219098
 30
0.0
 10
1982.851158952669
 20
139.9985124759046
 30
0.0
 10
1982.606117678524
 20
140.810778921676
 30
0.0
 10
1982.364944694076
 20
141.6204417109219
 30
0.0
 10
1981.941069411725
 20
141.8272464292334
 30
0.0
 10
1981.233172397533
 20
141.8272464292334
 30
0.0
 10
1980.639389929345
 20
141.8272464292334
 30
0.0
 10
1980.059890376953
 20
141.5724600406662
 30
0.0
 10
1979.398710399847
 20
141.0654909200569
 30
0.0
 10
1978.566284213549
 20
140.4276694614944
 30
0.0
 10
1978.233164958657
 20
139.9038881587491
 30
0.0
 10
1977.824762835085
 20
139.2815398589669
 30
0.0
 10
1977.273680333915
 20
138.458263665602
 30
0.0
 10
1977.015695167332
 20
137.9040567766015
 30
0.0
 10
1976.550310160944
 20
136.687926008631
 30
0.0
 10
1976.084776374184
 20
135.4646537827621
 30
0.0
 10
1975.644088909695
 20
134.0411231749885
 30
0.0
 10
1975.336708659311
 20
133.0564946672286
 30
0.0
 10
1975.336708659311
 20
133.0564946672286
 30
0.0
 10
1972.205774492298
 20
123.105319426746
 30
0.0
 10
1972.205774492298
 20
123.105319426746
 30
0.0
 10
1972.205774492298
 20
123.105319426746
 30
0.0
 10
1970.338878373326
 20
123.105319426746
 30
0.0
 10
1970.338878373326
 20
123.105319426746
 30
0.0
 10
1970.338878373326
 20
123.105319426746
 30
0.0
 10
1976.718878323425
 20
143.4575073651321
 30
0.0
 10
1976.718878323425
 20
143.4575073651321
 30
0.0
  0
SPLINE
  5
36AA
102
{ACAD_REACTORS
330
369B
330
36AC
102
}
330
A
100
AcDbEntity
  8
TEMPLATE
100
AcDbSpline
210
0.0
220
0.0
230
1.0
 70
    11
 71
     3
 72
    32
 73
    28
 74
     0
 42
0.000000001
 43
0.0000000001
 40
0.0
 40
0.0
 40
0.0
 40
0.0
 40
1.0
 40
1.0
 40
1.0
 40
2.0
 40
2.0
 40
2.0
 40
3.0
 40
3.0
 40
3.0
 40
4.0
 40
4.0
 40
4.0
 40
5.0
 40
5.0
 40
5.0
 40
6.0
 40
6.0
 40
6.0
 40
7.0
 40
7.0
 40
7.0
 40
8.0
 40
8.0
 40
8.0
 40
9.0
 40
9.0
 40
9.0
 40
9.0
 10
1951.394524713372
 20
142.3847264864374
 30
0.0
 10
1950.311998720255
 20
140.9844800070205
 30
0.0
 10
1949.478382290974
 20
139.7243102486757
 30
0.0
 10
1948.128795528524
 20
135.7635535518901
 30
0.0
 10
1946.888041608841
 20
132.1406026917421
 30
0.0
 10
1946.098464169936
 20
129.5048096056932
 30
0.0
 10
1945.979216701069
 20
126.2947242803041
 30
0.0
 10
1945.888460673606
 20
123.9059066132458
 30
0.0
 10
1947.343086379314
 20
123.105319426746
 30
0.0
 10
1949.475853024634
 20
123.105319426746
 30
0.0
 10
1950.395018168326
 20
123.105319426746
 30
0.0
 10
1952.714504181618
 20
123.1637901132903
 30
0.0
 10
1954.3662638814
 20
125.2056519507783
 30
0.0
 10
1955.522584939468
 20
126.6401923061455
 30
0.0
 10
1956.588298750451
 20
128.1272521331414
 30
0.0
 10
1958.017036671275
 20
133.0053142189559
 30
0.0
 10
1959.205940631009
 20
137.0833842397621
 30
0.0
 10
1960.029142434186
 20
139.7191029356247
 30
0.0
 10
1959.968291261677
 20
141.2197761667398
 30
0.0
 10
1959.968291261677
 20
141.2197761667398
 30
0.0
 10
1959.968291261677
 20
141.2197761667398
 30
0.0
 10
1959.968291261677
 20
141.2197761667398
 30
0.0
 10
1959.580569609936
 20
143.7233035012931
 30
0.0
 10
1957.762919794387
 20
144.2522921170894
 30
0.0
 10
1956.724432791643
 20
144.2522921170894
 30
0.0
 10
1955.70156772805
 20
144.2522921170894
 30
0.0
 10
1952.960735698745
 20
144.4292663706373
 30
0.0
 10
1951.394524713372
 20
142.3847264864374
 30
0.0
  0
SPLINE
  5
36AB
102
{ACAD_REACTORS
330
369B
330
36AC
102
}
330
A
100
AcDbEntity
  8
TEMPLATE
100
AcDbSpline
210
0.0
220
0.0
230
1.0
 70
    11
 71
     3
 72
    29
 73
    25
 74
     0
 42
0.000000001
 43
0.0000000001
 40
0.0
 40
0.0
 40
0.0
 40
0.0
 40
1.0
 40
1.0
 40
1.0
 40
2.0
 40
2.0
 40
2.0
 40
3.0
 40
3.0
 40
3.0
 40
4.0
 40
4.0
 40
4.0
 40
5.0
 40
5.0
 40
5.0
 40
6.0
 40
6.0
 40
6.0
 40
7.0
 40
7.0
 40
7.0
 40
8.0
 40
8.0
 40
8.0
 40
8.0
 10
1947.916188375669
 20
126.8949043045264
 30
0.0
 10
1947.908303015907
 20
128.3120373562658
 30
0.0
 10
1948.355685597176
 20
130.8298476066162
 30
0.0
 10
1949.501740809517
 20
134.1986815898748
 30
0.0
 10
1951.062744481836
 20
138.7603622127471
 30
0.0
 10
1951.998870588036
 20
140.4276694614944
 30
0.0
 10
1952.818055321147
 20
141.2392663955878
 30
0.0
 10
1954.014844640642
 20
142.4210288974216
 30
0.0
 10
1955.623755593032
 20
142.4799459250845
 30
0.0
 10
1956.098364982539
 20
142.4210288974216
 30
0.0
 10
1956.77382787544
 20
142.3399435941987
 30
0.0
 10
1957.727956406759
 20
141.8978427161679
 30
0.0
 10
1957.784939289575
 20
140.4095182560024
 30
0.0
 10
1957.830466083678
 20
139.1357350935386
 30
0.0
 10
1957.463424903768
 20
136.7501905946838
 30
0.0
 10
1956.178706383896
 20
133.0053142189559
 30
0.0
 10
1954.698044112936
 20
128.6536370924121
 30
0.0
 10
1953.808635043822
 20
126.9429603649685
 30
0.0
 10
1953.095679496951
 20
126.1974219164366
 30
0.0
 10
1951.752490290537
 20
124.7997790935452
 30
0.0
 10
1950.311998720255
 20
124.9339789898883
 30
0.0
 10
1950.0993915674
 20
124.9339789898883
 30
0.0
 10
1949.823255195324
 20
124.9339789898883
 30
0.0
 10
1947.920056665365
 20
125.2336226608809
 30
0.0
 10
1947.916188375669
 20
126.8949043045264
 30
0.0
  0
POLYLINE
  5
3BDE
102
{ACAD_REACTORS
330
3CCF
102
}
330
A
100
AcDbEntity
  8
MODEL
100
AcDb2dPolyline
 66
     1
 10
0.0
 20
0.0
 30
0.0
  0
VERTEX
  5
3BDF
330
3BDE
100
AcDbEntity
  8
MODEL
100
AcDbVertex
100
AcDb2dVertex
 10
1669.758283823296
 20
2262.621445113038
 30
0.0
  0
VERTEX
  5
3BE0
330
3BDE
100
AcDbEntity
  8
MODEL
100
AcDbVertex
100
AcDb2dVertex
 10
1594.06259588536
 20
2262.621445113038
 30
0.0
  0
SEQEND
  5
3BE1
330
3BDE
100
AcDbEntity
  8
MODEL
  0
SPLINE
  5
3BE2
102
{ACAD_REACTORS
330
3CCF
330
3CEF
102
}
330
A
100
AcDbEntity
  8
MODEL
100
AcDbSpline
210
0.0
220
0.0
230
1.0
 70
    11
 71
     3
 72
    26
 73
    22
 74
     0
 42
0.000000001
 43
0.0000000001
 40
0.0
 40
0.0
 40
0.0
 40
0.0
 40
1.0
 40
1.0
 40
1.0
 40
2.0
 40
2.0
 40
2.0
 40
3.0
 40
3.0
 40
3.0
 40
4.0
 40
4.0
 40
4.0
 40
5.0
 40
5.0
 40
5.0
 40
6.0
 40
6.0
 40
6.0
 40
7.0
 40
7.0
 40
7.0
 40
7.0
 10
1492.087702249697
 20
2017.619872957835
 30
0.0
 10
1489.717474992216
 20
2017.516520025096
 30
0.0
 10
1487.705537901569
 20
2019.356202227847
 30
0.0
 10
1487.609075164346
 20
2021.726429485325
 30
0.0
 10
1487.60218496883
 20
2021.802221635999
 30
0.0
 10
1487.60218496883
 20
2021.864233395643
 30
0.0
 10
1487.60218496883
 20
2021.926245155288
 30
0.0
 10
1487.60218496883
 20
2021.926245155288
 30
0.0
 10
1487.60218496883
 20
2477.616215796395
 30
0.0
 10
1487.60218496883
 20
2477.616215796395
 30
0.0
 10
1487.60218496883
 20
2477.616215796395
 30
0.0
 10
1567.604245104212
 20
2477.616215796395
 30
0.0
 10
1567.604245104212
 20
2477.616215796395
 30
0.0
 10
1567.604245104212
 20
2477.616215796395
 30
0.0
 10
1567.604245104212
 20
2025.702072298014
 30
0.0
 10
1567.604245104212
 20
2025.702072298014
 30
0.0
 10
1567.604245104212
 20
2023.035566633349
 30
0.0
 10
1565.495845276342
 20
2020.823813872741
 30
0.0
 10
1562.822449416166
 20
2020.713570744485
 30
0.0
 10
1562.822449416166
 20
2020.713570744485
 30
0.0
 10
1492.087702249697
 20
2017.619872957835
 30
0.0
 10
1492.087702249697
 20
2017.619872957835
 30
0.0
  0
SPLINE
  5
3BE3
102
{ACAD_REACTORS
330
3C97
330
3CFE
330
3D0E
102
}
330
A
100
AcDbEntity
  8
MODEL
100
AcDbSpline
210
0.0
220
0.0
230
1.0
 70
     8
 71
     3
 72
    20
 73
    16
 74
     0
 42
0.000000001
 43
0.0000000001
 40
0.0
 40
0.0
 40
0.0
 40
0.0
 40
1.0
 40
1.0
 40
1.0
 40
2.0
 40
2.0
 40
2.0
 40
3.0
 40
3.0
 40
3.0
 40
4.0
 40
4.0
 40
4.0
 40
5.0
 40
5.0
 40
5.0
 40
5.0
 10
1567.604245104212
 20
2477.616215796395
 30
0.0
 10
1567.604245104212
 20
2477.616215796395
 30
0.0
 10
1627.604067656877
 20
2477.616215796395
 30
0.0
 10
1627.604067656877
 20
2477.616215796395
 30
0.0
 10
1627.604067656877
 20
2477.616215796395
 30
0.0
 10
1627.604067656877
 20
2131.501024445015
 30
0.0
 10
1627.604067656877
 20
2131.501024445015
 30
0.0
 10
1627.604067656877
 20
2127.215322834112
 30
0.0
 10
1625.778165845153
 20
2123.143217284201
 30
0.0
 10
1622.581115125769
 20
2120.297566536124
 30
0.0
 10
1622.581115125769
 20
2120.297566536124
 30
0.0
 10
1601.455775673949
 20
2101.487332777653
 30
0.0
 10
1601.455775673949
 20
2101.487332777653
 30
0.0
 10
1591.775050974076
 20
2092.860807991717
 30
0.0
 10
1580.151291138707
 20
2086.735424178061
 30
0.0
 10
1567.604245104212
 20
2083.607275413835
 30
0.0
  0
SPLINE
  5
3BE4
330
A
100
AcDbEntity
  8
HIDDEN
 48
0.7
100
AcDbSpline
210
0.0
220
0.0
230
1.0
 70
     8
 71
     3
 72
    11
 73
     7
 74
     0
 42
0.000000001
 43
0.0000000001
 40
0.0
 40
0.0
 40
0.0
 40
0.0
 40
1.0
 40
1.0
 40
1.0
 40
2.0
 40
2.0
 40
2.0
 40
2.0
 10
1487.60218496883
 20
2470.719130084953
 30
0.0
 10
1487.677977119503
 20
2468.80365573153
 30
0.0
 10
1488.739067228959
 20
2467.274032326994
 30
0.0
 10
1490.489176890002
 20
2466.516110820245
 30
0.0
 10
1490.489176890002
 20
2466.516110820245
 30
0.0
 10
1498.461133101922
 20
2463.463754206687
 30
0.0
 10
1498.461133101922
 20
2463.463754206687
 30
0.0
  0
SPLINE
  5
3BE5
330
A
100
AcDbEntity
  8
HIDDEN
 48
0.7
100
AcDbSpline
210
0.0
220
0.0
230
1.0
 70
     8
 71
     3
 72
   104
 73
   100
 74
     0
 42
0.000000001
 43
0.0000000001
 40
0.0
 40
0.0
 40
0.0
 40
0.0
 40
1.0
 40
1.0
 40
1.0
 40
2.0
 40
2.0
 40
2.0
 40
3.0
 40
3.0
 40
3.0
 40
4.0
 40
4.0
 40
4.0
 40
5.0
 40
5.0
 40
5.0
 40
6.0
 40
6.0
 40
6.0
 40
7.0
 40
7.0
 40
7.0
 40
8.0
 40
8.0
 40
8.0
 40
9.0
 40
9.0
 40
9.0
 40
10.0
 40
10.0
 40
10.0
 40
11.0
 40
11.0
 40
11.0
 40
12.0
 40
12.0
 40
12.0
 40
13.0
 40
13.0
 40
13.0
 40
14.0
 40
14.0
 40
14.0
 40
15.0
 40
15.0
 40
15.0
 40
16.0
 40
16.0
 40
16.0
 40
17.0
 40
17.0
 40
17.0
 40
18.0
 40
18.0
 40
18.0
 40
19.0
 40
19.0
 40
19.0
 40
20.0
 40
20.0
 40
20.0
 40
21.0
 40
21.0
 40
21.0
 40
22.0
 40
22.0
 40
22.0
 40
23.0
 40
23.0
 40
23.0
 40
24.0
 40
24.0
 40
24.0
 40
25.0
 40
25.0
 40
25.0
 40
26.0
 40
26.0
 40
26.0
 40
27.0
 40
27.0
 40
27.0
 40
28.0
 40
28.0
 40
28.0
 40
29.0
 40
29.0
 40
29.0
 40
30.0
 40
30.0
 40
30.0
 40
31.0
 40
31.0
 40
31.0
 40
32.0
 40
32.0
 40
32.0
 40
33.0
 40
33.0
 40
33.0
 40
33.0
 10
1498.461133101922
 20
2463.463754206687
 30
0.0
 10
1498.750521313592
 20
2463.319060100854
 30
0.0
 10
1499.060580111811
 20
2463.188146386052
 30
0.0
 10
1499.294846759349
 20
2462.974550325058
 30
0.0
 10
1499.673807512732
 20
2462.636930744778
 30
0.0
 10
1499.997646701977
 20
2462.36132292414
 30
0.0
 10
1500.287034913647
 20
2461.954801388701
 30
0.0
 10
1500.583313320825
 20
2461.520719071197
 30
0.0
 10
1500.748678013213
 20
2461.148648513337
 30
0.0
 10
1500.94160348766
 20
2460.65255443619
 30
0.0
 10
1501.093187789007
 20
2460.273593682816
 30
0.0
 10
1501.100077984524
 20
2459.839511365313
 30
0.0
 10
1501.148309353139
 20
2459.432989829873
 30
0.0
 10
1501.148309353139
 20
2459.432989829873
 30
0.0
 10
1502.94665038279
 20
2356.720845274003
 30
0.0
 10
1502.94665038279
 20
2356.720845274003
 30
0.0
 10
1502.981101360372
 20
2354.412629776168
 30
0.0
 10
1504.76566199899
 20
2352.510935813774
 30
0.0
 10
1507.060097105797
 20
2352.318010339328
 30
0.0
 10
1510.043551764193
 20
2352.042402518693
 30
0.0
 10
1513.027006422588
 20
2351.773684893569
 30
0.0
 10
1516.003570885467
 20
2351.394724140196
 30
0.0
 10
1518.987025543855
 20
2351.001982995787
 30
0.0
 10
1521.970480202257
 20
2350.58857126483
 30
0.0
 10
1524.947044665136
 20
2350.140708556297
 30
0.0
 10
1527.220809185386
 20
2349.775528193953
 30
0.0
 10
1529.501463901161
 20
2349.396567440577
 30
0.0
 10
1531.775228421411
 20
2348.990045905137
 30
0.0
 10
1532.161079370304
 20
2348.914253754461
 30
0.0
 10
1532.553820514713
 20
2348.838461603787
 30
0.0
 10
1532.939671463606
 20
2348.776449844143
 30
0.0
 10
1535.888675144419
 20
2348.211453811838
 30
0.0
 10
1538.837678825239
 20
2347.653347975049
 30
0.0
 10
1541.779792310535
 20
2347.026340183098
 30
0.0
 10
1544.901050879253
 20
2346.36488141357
 30
0.0
 10
1548.015419252446
 20
2345.675861861977
 30
0.0
 10
1551.122897430123
 20
2344.959281528321
 30
0.0
 10
1554.1408030661
 20
2344.249591390182
 30
0.0
 10
1557.151818506562
 20
2343.539901252041
 30
0.0
 10
1560.155943751506
 20
2342.781979745292
 30
0.0
 10
1562.822449416166
 20
2342.113630780246
 30
0.0
 10
1565.488955080826
 20
2341.452172010719
 30
0.0
 10
1568.148570549969
 20
2340.770042654642
 30
0.0
 10
1571.070013448723
 20
2340.01212114789
 30
0.0
 10
1574.032797520576
 20
2339.329991791814
 30
0.0
 10
1576.87844826865
 20
2338.303352659941
 30
0.0
 10
1577.60191879782
 20
2338.041525230335
 30
0.0
 10
1578.34605991354
 20
2337.821038973825
 30
0.0
 10
1579.055750051684
 20
2337.517870371126
 30
0.0
 10
1579.903244100136
 20
2337.138909617748
 30
0.0
 10
1580.743847953079
 20
2336.773729255406
 30
0.0
 10
1581.584451806022
 20
2336.415439088576
 30
0.0
 10
1582.321702726225
 20
2336.084709703813
 30
0.0
 10
1583.017612473337
 20
2335.636846995278
 30
0.0
 10
1583.727302611474
 20
2335.264776437418
 30
0.0
 10
1584.388761381004
 20
2334.913376466105
 30
0.0
 10
1585.015769172951
 20
2334.499964735152
 30
0.0
 10
1585.649667160422
 20
2334.100333395227
 30
0.0
 10
1586.945023917415
 20
2333.2666197378
 30
0.0
 10
1588.116357155119
 20
2332.288211974539
 30
0.0
 10
1589.301470783856
 20
2331.302914015761
 30
0.0
 10
1589.866466816162
 20
2330.834380720678
 30
0.0
 10
1590.376341284344
 20
2330.276274883889
 30
0.0
 10
1590.906886339068
 20
2329.759510220196
 30
0.0
 10
1591.437431393791
 20
2329.249635752018
 30
0.0
 10
1591.974866644039
 20
2328.663969133164
 30
0.0
 10
1592.422729352573
 20
2328.085192709826
 30
0.0
 10
1592.905043038689
 20
2327.485745699943
 30
0.0
 10
1593.435588093413
 20
2326.900079081086
 30
0.0
 10
1593.869670410913
 20
2326.26618109362
 30
0.0
 10
1594.324423314971
 20
2325.604722324093
 30
0.0
 10
1594.772286023504
 20
2324.950153750082
 30
0.0
 10
1595.233929123064
 20
2324.288694980552
 30
0.0
 10
1596.143434931171
 20
2322.951997050464
 30
0.0
 10
1596.846234873792
 20
2321.463714819023
 30
0.0
 10
1597.576595598479
 20
2320.023663956195
 30
0.0
 10
1598.238054368008
 20
2318.728307199202
 30
0.0
 10
1598.754819031699
 20
2317.350268096017
 30
0.0
 10
1599.250913108848
 20
2315.979119188347
 30
0.0
 10
1599.76078757703
 20
2314.580409498616
 30
0.0
 10
1600.263771849695
 20
2313.147248831303
 30
0.0
 10
1600.622062016522
 20
2311.693417577442
 30
0.0
 10
1600.994132574382
 20
2310.177574563941
 30
0.0
 10
1601.400654109817
 20
2308.647951159406
 30
0.0
 10
1601.655591343904
 20
2307.111437559355
 30
0.0
 10
1601.931199164548
 20
2305.478461222081
 30
0.0
 10
1602.165465812086
 20
2303.845484884807
 30
0.0
 10
1602.379061873082
 20
2302.191837960985
 30
0.0
 10
1602.385952068598
 20
2302.164277178921
 30
0.0
 10
1602.392842264115
 20
2302.136716396859
 30
0.0
 10
1602.392842264115
 20
2302.109155614795
 30
0.0
 10
1602.461744219272
 20
2301.45458704078
 30
0.0
 10
1602.530646174429
 20
2300.786238075738
 30
0.0
 10
1602.599548129587
 20
2300.110998915177
 30
0.0
 10
1602.599548129587
 20
2300.110998915177
 30
0.0
 10
1602.620218716136
 20
2299.835391094539
 30
0.0
 10
1602.620218716136
 20
2299.835391094539
 30
0.0
 10
1602.620218716136
 20
2299.835391094539
 30
0.0
 10
1608.111704542327
 20
2293.537752392987
 30
0.0
 10
1608.111704542327
 20
2293.537752392987
 30
0.0
  0
POLYLINE
  5
3BE6
330
A
100
AcDbEntity
  8
HIDDEN
100
AcDb2dPolyline
 66
     1
 10
0.0
 20
0.0
 30
0.0
  0
VERTEX
  5
3BE7
330
3BE6
100
AcDbEntity
  8
HIDDEN
100
AcDbVertex
100
AcDb2dVertex
 10
1610.351018085003
 20
2290.940148683483
 30
0.0
  0
VERTEX
  5
3BE8
330
3BE6
100
AcDbEntity
  8
HIDDEN
100
AcDbVertex
100
AcDb2dVertex
 10
1614.981229471709
 20
2285.620917745189
 30
0.0
  0
VERTEX
  5
3BE9
330
3BE6
100
AcDbEntity
  8
HIDDEN
100
AcDbVertex
100
AcDb2dVertex
 10
1622.036789680013
 20
2285.620917745189
 30
0.0
  0
SEQEND
  5
3BEA
330
3BE6
100
AcDbEntity
  8
HIDDEN
  0
POLYLINE
  5
3BEB
330
A
100
AcDbEntity
  8
HIDDEN
100
AcDb2dPolyline
 66
     1
 10
0.0
 20
0.0
 30
0.0
  0
VERTEX
  5
3BEC
330
3BEB
100
AcDbEntity
  8
HIDDEN
100
AcDbVertex
100
AcDb2dVertex
 10
1627.211326512468
 20
2285.620917745189
 30
0.0
  0
VERTEX
  5
3BED
330
3BEB
100
AcDbEntity
  8
HIDDEN
100
AcDbVertex
100
AcDb2dVertex
 10
1640.123552909306
 20
2285.620917745189
 30
0.0
  0
SEQEND
  5
3BEE
330
3BEB
100
AcDbEntity
  8
HIDDEN
  0
POLYLINE
  5
3BEF
330
A
100
AcDbEntity
  8
HIDDEN
100
AcDb2dPolyline
 66
     1
 10
0.0
 20
0.0
 30
0.0
  0
VERTEX
  5
3BF0
330
3BEF
100
AcDbEntity
  8
HIDDEN
100
AcDbVertex
100
AcDb2dVertex
 10
1642.707376227776
 20
2285.620917745189
 30
0.0
  0
VERTEX
  5
3BF1
330
3BEF
100
AcDbEntity
  8
HIDDEN
100
AcDbVertex
100
AcDb2dVertex
 10
1649.762936436087
 20
2285.620917745189
 30
0.0
  0
SEQEND
  5
3BF2
330
3BEF
100
AcDbEntity
  8
HIDDEN
  0
POLYLINE
  5
3BF3
330
A
100
AcDbEntity
  8
HIDDEN
100
AcDb2dPolyline
 66
     1
 10
0.0
 20
0.0
 30
0.0
  0
VERTEX
  5
3BF4
330
3BF3
100
AcDbEntity
  8
HIDDEN
100
AcDbVertex
100
AcDb2dVertex
 10
1649.762936436087
 20
2239.615082285369
 30
0.0
  0
VERTEX
  5
3BF5
330
3BF3
100
AcDbEntity
  8
HIDDEN
100
AcDbVertex
100
AcDb2dVertex
 10
1642.707376227776
 20
2239.615082285369
 30
0.0
  0
SEQEND
  5
3BF6
330
3BF3
100
AcDbEntity
  8
HIDDEN
  0
POLYLINE
  5
3BF7
330
A
100
AcDbEntity
  8
HIDDEN
100
AcDb2dPolyline
 66
     1
 10
0.0
 20
0.0
 30
0.0
  0
VERTEX
  5
3BF8
330
3BF7
100
AcDbEntity
  8
HIDDEN
100
AcDbVertex
100
AcDb2dVertex
 10
1637.539729590837
 20
2239.615082285369
 30
0.0
  0
VERTEX
  5
3BF9
330
3BF7
100
AcDbEntity
  8
HIDDEN
100
AcDbVertex
100
AcDb2dVertex
 10
1624.627503193999
 20
2239.615082285369
 30
0.0
  0
SEQEND
  5
3BFA
330
3BF7
100
AcDbEntity
  8
HIDDEN
  0
POLYLINE
  5
3BFB
330
A
100
AcDbEntity
  8
HIDDEN
100
AcDb2dPolyline
 66
     1
 10
0.0
 20
0.0
 30
0.0
  0
VERTEX
  5
3BFC
330
3BFB
100
AcDbEntity
  8
HIDDEN
100
AcDbVertex
100
AcDb2dVertex
 10
1622.043679875522
 20
2239.615082285369
 30
0.0
  0
VERTEX
  5
3BFD
330
3BFB
100
AcDbEntity
  8
HIDDEN
100
AcDbVertex
100
AcDb2dVertex
 10
1614.988119667218
 20
2239.615082285369
 30
0.0
  0
VERTEX
  5
3BFE
330
3BFB
100
AcDbEntity
  8
HIDDEN
100
AcDbVertex
100
AcDb2dVertex
 10
1610.357908280519
 20
2234.288961151562
 30
0.0
  0
SEQEND
  5
3BFF
330
3BFB
100
AcDbEntity
  8
HIDDEN
  0
SPLINE
  5
3C00
330
A
100
AcDbEntity
  8
HIDDEN
 48
0.7
100
AcDbSpline
210
0.0
220
0.0
230
1.0
 70
     8
 71
     3
 72
    86
 73
    82
 74
     0
 42
0.000000001
 43
0.0000000001
 40
0.0
 40
0.0
 40
0.0
 40
0.0
 40
1.0
 40
1.0
 40
1.0
 40
2.0
 40
2.0
 40
2.0
 40
3.0
 40
3.0
 40
3.0
 40
4.0
 40
4.0
 40
4.0
 40
5.0
 40
5.0
 40
5.0
 40
6.0
 40
6.0
 40
6.0
 40
7.0
 40
7.0
 40
7.0
 40
8.0
 40
8.0
 40
8.0
 40
9.0
 40
9.0
 40
9.0
 40
10.0
 40
10.0
 40
10.0
 40
11.0
 40
11.0
 40
11.0
 40
12.0
 40
12.0
 40
12.0
 40
13.0
 40
13.0
 40
13.0
 40
14.0
 40
14.0
 40
14.0
 40
15.0
 40
15.0
 40
15.0
 40
16.0
 40
16.0
 40
16.0
 40
17.0
 40
17.0
 40
17.0
 40
18.0
 40
18.0
 40
18.0
 40
19.0
 40
19.0
 40
19.0
 40
20.0
 40
20.0
 40
20.0
 40
21.0
 40
21.0
 40
21.0
 40
22.0
 40
22.0
 40
22.0
 40
23.0
 40
23.0
 40
23.0
 40
24.0
 40
24.0
 40
24.0
 40
25.0
 40
25.0
 40
25.0
 40
26.0
 40
26.0
 40
26.0
 40
27.0
 40
27.0
 40
27.0
 40
27.0
 10
1605.624343961081
 20
2228.852596889497
 30
0.0
 10
1605.624343961081
 20
2228.852596889497
 30
0.0
 10
1602.654669693718
 20
2225.435059913599
 30
0.0
 10
1602.654669693718
 20
2225.435059913599
 30
0.0
 10
1602.654669693718
 20
2225.435059913599
 30
0.0
 10
1602.599548129587
 20
2225.118110919868
 30
0.0
 10
1602.599548129587
 20
2225.118110919868
 30
0.0
 10
1602.027661901764
 20
2222.120875870438
 30
0.0
 10
1601.462665869465
 20
2219.116750625497
 30
0.0
 10
1600.849438468544
 20
2216.112625380554
 30
0.0
 10
1600.174199307989
 20
2212.812221728427
 30
0.0
 10
1599.457618974335
 20
2209.518708271817
 30
0.0
 10
1598.727258249641
 20
2206.238975206237
 30
0.0
 10
1598.134701435269
 20
2203.544908759511
 30
0.0
 10
1597.466352470223
 20
2200.8577325083
 30
0.0
 10
1596.777332918635
 20
2198.191226843637
 30
0.0
 10
1595.8953878926
 20
2194.78747025877
 30
0.0
 10
1594.978991888984
 20
2191.41127445597
 30
0.0
 10
1594.035035103301
 20
2188.021298262134
 30
0.0
 10
1593.270223401032
 20
2185.29278083783
 30
0.0
 10
1592.450290134639
 20
2182.564263413522
 30
0.0
 10
1591.595905890663
 20
2179.849526380252
 30
0.0
 10
1590.665729496013
 20
2176.893632503919
 30
0.0
 10
1589.721772710331
 20
2173.937738627588
 30
0.0
 10
1588.715804165007
 20
2171.016295728837
 30
0.0
 10
1587.682274837618
 20
2168.03284107044
 30
0.0
 10
1586.655635705745
 20
2165.042496216532
 30
0.0
 10
1585.539424032166
 20
2162.086602340199
 30
0.0
 10
1584.423212358586
 20
2159.165159441449
 30
0.0
 10
1583.32078107604
 20
2156.250606738215
 30
0.0
 10
1582.156338033845
 20
2153.342944230493
 30
0.0
 10
1580.916102840984
 20
2150.235466052809
 30
0.0
 10
1579.6276362795
 20
2147.162438852709
 30
0.0
 10
1578.332279522507
 20
2144.089411652607
 30
0.0
 10
1577.264299217542
 20
2141.560709898264
 30
0.0
 10
1576.141197348446
 20
2139.038898339435
 30
0.0
 10
1574.990534697285
 20
2136.544647562672
 30
0.0
 10
1573.536703443428
 20
2133.38893801638
 30
0.0
 10
1572.06909179853
 20
2130.253899056633
 30
0.0
 10
1570.560138980549
 20
2127.13264048792
 30
0.0
 10
1569.230331245974
 20
2124.369672086035
 30
0.0
 10
1567.859182338307
 20
2121.627374270698
 30
0.0
 10
1566.4742530396
 20
2118.905747041906
 30
0.0
 10
1565.220237455706
 20
2116.41838646066
 30
0.0
 10
1563.931770894229
 20
2113.958586661474
 30
0.0
 10
1562.601963159654
 20
2111.526347644354
 30
0.0
 10
1561.044778973057
 20
2108.666916505246
 30
0.0
 10
1559.494484981977
 20
2105.807485366136
 30
0.0
 10
1557.889069426765
 20
2102.989395400125
 30
0.0
 10
1556.228532307428
 20
2100.074842696889
 30
0.0
 10
1554.547324601543
 20
2097.174070384686
 30
0.0
 10
1552.838556113591
 20
2094.280188267998
 30
0.0
 10
1551.178018994255
 20
2091.482768888532
 30
0.0
 10
1549.455470115277
 20
2088.712910291131
 30
0.0
 10
1547.739811431809
 20
2085.949941889246
 30
0.0
 10
1546.16884685418
 20
2083.400569548354
 30
0.0
 10
1544.522090125869
 20
2080.899428576074
 30
0.0
 10
1542.882223593082
 20
2078.384507212764
 30
0.0
 10
1541.235466864771
 20
2075.890256435998
 30
0.0
 10
1539.554259158893
 20
2073.409786050266
 30
0.0
 10
1537.845490670948
 20
2070.970656837629
 30
0.0
 10
1536.12983198748
 20
2068.51774723396
 30
0.0
 10
1534.393502717463
 20
2066.078618021323
 30
0.0
 10
1532.595161687812
 20
2063.694610372813
 30
0.0
 10
1530.686577529897
 20
2061.152128227437
 30
0.0
 10
1528.764212980957
 20
2058.63031666861
 30
0.0
 10
1526.766056281336
 20
2056.149846282877
 30
0.0
 10
1524.726558408624
 20
2053.634924919566
 30
0.0
 10
1522.631938971779
 20
2051.147564338318
 30
0.0
 10
1520.489088166327
 20
2048.715325321196
 30
0.0
 10
1518.360017751915
 20
2046.324427477171
 30
0.0
 10
1516.148264991298
 20
2044.016211979338
 30
0.0
 10
1513.88828086208
 20
2041.749337654597
 30
0.0
 10
1511.745430056621
 20
2039.592706458112
 30
0.0
 10
1509.457885145337
 20
2037.566988976434
 30
0.0
 10
1507.128999060955
 20
2035.623953840941
 30
0.0
 10
1504.77944239003
 20
2033.660248118902
 30
0.0
 10
1502.278301417751
 20
2031.917028653375
 30
0.0
 10
1499.701368294791
 20
2030.263381729552
 30
0.0
 10
1498.323329191608
 20
2029.381436703517
 30
0.0
 10
1496.87638813326
 20
2028.589064219184
 30
0.0
 10
1495.388105901821
 20
2027.872483885527
 30
0.0
  0
SPLINE
  5
3C01
330
A
100
AcDbEntity
  8
HIDDEN
 48
0.7
100
AcDbSpline
210
0.0
220
0.0
230
1.0
 70
     8
 71
     3
 72
    14
 73
    10
 74
     0
 42
0.000000001
 43
0.0000000001
 40
0.0
 40
0.0
 40
0.0
 40
0.0
 40
1.0
 40
1.0
 40
1.0
 40
2.0
 40
2.0
 40
2.0
 40
3.0
 40
3.0
 40
3.0
 40
3.0
 10
1492.073921858664
 20
2026.453103609247
 30
0.0
 10
1491.812094429061
 20
2026.356640872025
 30
0.0
 10
1491.557157194966
 20
2026.26706833032
 30
0.0
 10
1491.295329765362
 20
2026.170605593095
 30
0.0
 10
1491.102404290923
 20
2026.101703637936
 30
0.0
 10
1490.895698425444
 20
2026.039691878293
 30
0.0
 10
1490.688992559965
 20
2025.970789923134
 30
0.0
 10
1488.828639770665
 20
2025.267989980508
 30
0.0
 10
1487.677977119503
 20
2023.683245011847
 30
0.0
 10
1487.60218496883
 20
2021.691978507746
 30
0.0
  0
POLYLINE
  5
3C02
330
A
100
AcDbEntity
  8
HIDDEN
 48
0.7
100
AcDb2dPolyline
 66
     1
 10
0.0
 20
0.0
 30
0.0
  0
VERTEX
  5
3C03
330
3C02
100
AcDbEntity
  8
HIDDEN
 48
0.7
100
AcDbVertex
100
AcDb2dVertex
 10
1602.620218716136
 20
2299.835391094539
 30
0.0
  0
VERTEX
  5
3C04
330
3C02
100
AcDbEntity
  8
HIDDEN
 48
0.7
100
AcDbVertex
100
AcDb2dVertex
 10
1602.620218716136
 20
2292.779830886233
 30
0.0
  0
SEQEND
  5
3C05
330
3C02
100
AcDbEntity
  8
HIDDEN
 48
0.7
  0
POLYLINE
  5
3C06
102
{ACAD_REACTORS
330
3CCF
102
}
330
A
100
AcDbEntity
  8
HIDDEN
 48
0.7
100
AcDb2dPolyline
 66
     1
 10
0.0
 20
0.0
 30
0.0
  0
VERTEX
  5
3C07
330
3C06
100
AcDbEntity
  8
HIDDEN
 48
0.7
100
AcDbVertex
100
AcDb2dVertex
 10
1602.620218716136
 20
2286.757800005316
 30
0.0
  0
VERTEX
  5
3C08
330
3C06
100
AcDbEntity
  8
HIDDEN
 48
0.7
100
AcDbVertex
100
AcDb2dVertex
 10
1602.620218716136
 20
2235.515415953394
 30
0.0
  0
SEQEND
  5
3C09
330
3C06
100
AcDbEntity
  8
HIDDEN
 48
0.7
  0
POLYLINE
  5
3C0A
330
A
100
AcDbEntity
  8
HIDDEN
 48
0.7
100
AcDb2dPolyline
 66
     1
 10
0.0
 20
0.0
 30
0.0
  0
VERTEX
  5
3C0B
330
3C0A
100
AcDbEntity
  8
HIDDEN
 48
0.7
100
AcDbVertex
100
AcDb2dVertex
 10
1602.620218716136
 20
2232.490620121905
 30
0.0
  0
VERTEX
  5
3C0C
330
3C0A
100
AcDbEntity
  8
HIDDEN
 48
0.7
100
AcDbVertex
100
AcDb2dVertex
 10
1602.620218716136
 20
2225.435059913599
 30
0.0
  0
SEQEND
  5
3C0D
330
3C0A
100
AcDbEntity
  8
HIDDEN
 48
0.7
  0
SPLINE
  5
3C0E
102
{ACAD_REACTORS
330
3C97
102
}
330
A
100
AcDbEntity
  8
MODEL
100
AcDbSpline
210
0.0
220
0.0
230
1.0
 70
     8
 71
     3
 72
    29
 73
    25
 74
     0
 42
0.000000001
 43
0.0000000001
 40
0.0
 40
0.0
 40
0.0
 40
0.0
 40
1.0
 40
1.0
 40
1.0
 40
2.0
 40
2.0
 40
2.0
 40
3.0
 40
3.0
 40
3.0
 40
4.0
 40
4.0
 40
4.0
 40
5.0
 40
5.0
 40
5.0
 40
6.0
 40
6.0
 40
6.0
 40
7.0
 40
7.0
 40
7.0
 40
8.0
 40
8.0
 40
8.0
 40
8.0
 10
1627.597177461361
 20
2226.117189269676
 30
0.0
 10
1627.597177461361
 20
2226.117189269676
 30
0.0
 10
1646.317838678126
 20
2227.419436222186
 30
0.0
 10
1646.317838678126
 20
2227.419436222186
 30
0.0
 10
1648.295324791197
 20
2227.708824433854
 30
0.0
 10
1649.762936436087
 20
2229.390032139739
 30
0.0
 10
1649.762936436087
 20
2231.388188839357
 30
0.0
 10
1649.762936436087
 20
2231.388188839357
 30
0.0
 10
1649.762936436087
 20
2293.944273928424
 30
0.0
 10
1649.762936436087
 20
2293.944273928424
 30
0.0
 10
1649.762936436087
 20
2295.935540432527
 30
0.0
 10
1648.295324791197
 20
2297.630528529442
 30
0.0
 10
1646.317838678126
 20
2297.90613635008
 30
0.0
 10
1646.317838678126
 20
2297.90613635008
 30
0.0
 10
1644.609070190174
 20
2298.732959811992
 30
0.0
 10
1644.609070190174
 20
2298.732959811992
 30
0.0
 10
1642.672925250201
 20
2300.000755786923
 30
0.0
 10
1641.322446929084
 20
2302.067814441698
 30
0.0
 10
1641.026168521897
 20
2304.465602481241
 30
0.0
 10
1641.026168521897
 20
2304.465602481241
 30
0.0
 10
1635.706937583604
 20
2347.301948003736
 30
0.0
 10
1635.706937583604
 20
2347.301948003736
 30
0.0
 10
1634.955906272367
 20
2353.448002403938
 30
0.0
 10
1631.979341809489
 20
2361.502640962053
 30
0.0
 10
1627.610957852394
 20
2365.443832797162
 30
0.0
  0
DIMENSION
  5
3C95
102
{ACAD_REACTORS
330
3C97
102
}
102
{ACAD_XDICTIONARY
360
3C96
102
}
330
A
100
AcDbEntity
  8
DIM
100
AcDbDimension
  2
*D16
 10
1768.537927222516
 20
2477.616215796395
 30
0.0
 11
1736.533425534383
 21
2370.437946341644
 31
0.0
 70
    32
  1
215
 71
     5
 42
214.3565389095029
 73
     0
 74
     0
 75
     0
  3
tfrom線あり
100
AcDbAlignedDimension
 13
1649.762936436087
 23
2263.259676886892
 33
0.0
 14
1626.805724764688
 24
2477.616215796395
 34
0.0
 50
90.0
100
AcDbRotatedDimension
  0
LINE
  5
3CBA
330
A
100
AcDbEntity
  8
DIM
100
AcDbLine
 10
1508.875196391828
 20
2430.116215796395
 30
0.0
 11
1496.318699418709
 21
2430.116215796395
 31
0.0
  0
LINE
  5
3CBB
330
A
100
AcDbEntity
  8
DIM
100
AcDbLine
 10
1508.875196391828
 20
2395.116215796396
 30
0.0
 11
1496.318699418709
 21
2395.116215796396
 31
0.0
  0
DIMENSION
  5
3CBD
330
A
100
AcDbEntity
  8
DIM
100
AcDbDimension
  2
*D18
 10
1421.047797197678
 20
2412.616215796396
 30
0.0
 11
1389.043295509545
 21
2445.17564896468
 31
0.0
 70
    32
 71
     5
 42
65.11886633656832
 73
     0
 74
     1
 75
     1
  3
tfrom線あり
100
AcDbAlignedDimension
 13
1487.60218496883
 23
2477.735082132964
 33
0.0
 14
1496.318699418709
 24
2412.616215796396
 34
0.0
 50
90.0
100
AcDbRotatedDimension
1001
ACAD
1000
DSTYLE
1002
{
1070
   172
1070
     1
1002
}
  0
DIMENSION
  5
3CCD
102
{ACAD_REACTORS
330
3CCF
102
}
102
{ACAD_XDICTIONARY
360
3CCE
102
}
330
A
100
AcDbEntity
  8
DIM
100
AcDbDimension
  2
*D19
 10
1487.60218496883
 20
2262.788086938248
 30
0.0
 11
1382.561794822525
 21
2262.788086938248
 31
0.0
 70
   160
 71
     5
 42
115.0180337473057
 73
     0
 74
     1
 75
     1
 52
-270.0
  3
tfrom線あり
100
AcDbAlignedDimension
 13
1602.620218716136
 23
2262.621445113038
 33
0.0
 14
1487.60218496883
 24
2262.92960740432
 34
0.0
 50
180.0
100
AcDbRotatedDimension
1001
ACAD
1000
DSTYLE
1002
{
1070
     3
1000
<>(深さ)
1070
    75
1070
     1
1070
    76
1070
     1
1070
   172
1070
     1
1002
}
  0
DIMENSION
  5
3CED
102
{ACAD_REACTORS
330
3CEF
102
}
102
{ACAD_XDICTIONARY
360
3CEE
102
}
330
A
100
AcDbEntity
  8
DIM
100
AcDbDimension
  2
*D21
 10
1567.604245104212
 20
1967.949239661085
 30
0.0
 11
1527.603215036521
 21
1999.949239661085
 31
0.0
 70
    32
 71
     5
 42
80.00206013538173
 73
     0
 74
     0
 75
     0
 52
-270.0
  3
tfrom線あり
100
AcDbAlignedDimension
 13
1487.60218496883
 23
2028.911901967315
 33
0.0
 14
1567.604245104212
 24
2029.782797143124
 34
0.0
 50
180.0
100
AcDbRotatedDimension
  0
DIMENSION
  5
3CFC
102
{ACAD_REACTORS
330
3CFE
102
}
102
{ACAD_XDICTIONARY
360
3CFD
102
}
330
A
100
AcDbEntity
  8
DIM
100
AcDbDimension
  2
*D22
 10
1627.604067656877
 20
1967.949239661085
 30
0.0
 11
1597.604156380545
 21
1999.949239661085
 31
0.0
 70
    32
 71
     5
 42
59.99982255266512
 73
     0
 74
     1
 75
     1
 52
-270.0
  3
tfrom線あり
100
AcDbAlignedDimension
 13
1567.604245104212
 23
2029.768100787033
 33
0.0
 14
1627.604067656877
 24
2132.959381548515
 34
0.0
 50
180.0
100
AcDbRotatedDimension
1001
ACAD
1000
DSTYLE
1002
{
1070
   172
1070
     1
1002
}
  0
LINE
  5
3D99
330
A
100
AcDbEntity
  8
HIDDEN
100
AcDbLine
 10
365.3857352570462
 20
1915.764945844138
 30
0.0
 11
365.3485912693841
 21
2215.767503705204
 31
0.0
  0
LINE
  5
3D9A
330
A
100
AcDbEntity
  8
HIDDEN
100
AcDbLine
 10
365.3857352570462
 20
2515.770061566261
 30
0.0
 11
365.3485912693841
 21
2215.767503705204
 31
0.0
  0
LINE
  5
3DB0
330
A
100
AcDbEntity
  8
DIM
100
AcDbLine
 10
365.3485912693841
 20
1953.267503705204
 30
0.0
 11
365.3485912693841
 21
2065.767503705204
 31
0.0
  0
LINE
  5
3DB4
102
{ACAD_REACTORS
330
3DB9
330
3DEB
102
}
330
A
100
AcDbEntity
  8
DIM
100
AcDbLine
 10
365.3485912693841
 20
2365.767503705204
 30
0.0
 11
365.3485912693841
 21
2478.267503705204
 31
0.0
  0
LINE
  5
3DB5
102
{ACAD_REACTORS
330
3DB9
330
4A51
330
4A7E
102
}
330
A
100
AcDbEntity
  8
DIM
100
AcDbLine
 10
365.3485912693841
 20
2575.767503705204
 30
0.0
 11
775.3485912693841
 21
2575.767503705204
 31
0.0
  0
LINE
  5
3DB6
102
{ACAD_REACTORS
330
3DB9
330
4A51
330
4A7E
102
}
330
A
100
AcDbEntity
  8
DIM
100
AcDbLine
 10
775.3485912693843
 20
2575.767503705204
 30
0.0
 11
775.348591269383
 21
1855.767503705204
 31
0.0
  0
LINE
  5
3DB7
102
{ACAD_REACTORS
330
3DB9
330
3DBE
330
4A51
330
4A7E
102
}
330
A
100
AcDbEntity
  8
DIM
100
AcDbLine
 10
775.3485912693832
 20
1855.767503705204
 30
0.0
 11
365.3485912693832
 21
1855.767503705204
 31
0.0
  0
LINE
  5
3DB8
102
{ACAD_REACTORS
330
3DB9
102
}
330
A
100
AcDbEntity
  8
DIM
100
AcDbLine
 10
365.3485912693841
 20
1953.267503705204
 30
0.0
 11
365.3485912693841
 21
2065.767503705204
 31
0.0
  0
DIMENSION
  5
3DBC
102
{ACAD_REACTORS
330
3DBE
102
}
102
{ACAD_XDICTIONARY
360
3DBD
102
}
330
A
100
AcDbEntity
  8
DIM
100
AcDbDimension
  2
*D26
 10
952.9571344391672
 20
2575.767503705204
 30
0.0
 11
952.9571344391672
 21
2215.767503705204
 31
0.0
 70
   160
 71
     5
 42
720.0
 73
     0
 74
     0
 75
     0
  3
tfrom線あり
100
AcDbAlignedDimension
 13
775.3485912693832
 23
1855.767503705204
 33
0.0
 14
775.3485912693841
 24
2575.767503705204
 34
0.0
 50
90.0
100
AcDbRotatedDimension
  0
DIMENSION
  5
3DDA
102
{ACAD_XDICTIONARY
360
3DDB
102
}
330
A
100
AcDbEntity
  8
DIM
100
AcDbDimension
  2
*D28
 10
775.348591269384
 20
2751.981866024097
 30
0.0
 11
570.3485912693842
 21
2751.981866024097
 31
0.0
 70
   160
 71
     5
 42
409.9999999999999
 73
     0
 74
     0
 75
     0
 52
-270.0
  3
tfrom線あり
100
AcDbAlignedDimension
 13
365.3485912693841
 23
2613.029685922237
 33
0.0
 14
775.348591269384
 24
2610.998790956416
 34
0.0
 50
180.0
100
AcDbRotatedDimension
  0
MTEXT
  5
3E30
330
A
100
AcDbEntity
  8
DIM
390
1D
100
AcDbMText
 10
221.5260144578306
 20
2096.343357913173
 30
0.0
 40
24.4326171875
 41
0.0
 46
27.16112215023749
 71
     1
 72
     1
  1
{カウンター切込寸法}
  7
ＭＳ ゴシック
 11
6.123233995736766E-17
 21
1.0
 31
0.0
 73
     1
 44
0.7828267384257843
1001
ACAD
1000
ACAD_MTEXT_DEFINED_HEIGHT_BEGIN
1070
    46
1040
27.16112215023749
1000
ACAD_MTEXT_DEFINED_HEIGHT_END
  0
MTEXT
  5
3E56
330
A
100
AcDbEntity
  8
DIM
390
1D
100
AcDbMText
 10
1065.011618804714
 20
690.1662502159797
 30
34.99521132346015
 40
24.4326171875
 41
833.929798641839
 46
0.0
 71
     1
 72
     1
  1
＝φ30もしくはφ35の水栓取付用穴あけ加工を承ります。\P  必要な場合、ご注文の際にご指示ください。
  7
ＭＳ ゴシック
 11
6.123233995736766E-17
 21
1.0
 31
0.0
 73
     1
 44
0.9822934569727008
  0
CIRCLE
  5
3E7D
330
A
100
AcDbEntity
  8
HIDDEN
 48
0.5
100
AcDbCircle
 10
1079.757755928393
 20
660.6669625436912
 30
0.0
 40
17.5
  0
LINE
  5
3E84
330
A
100
AcDbEntity
  8
DIM
100
AcDbLine
 10
365.3485912693841
 20
2608.235054625885
 30
0.0
 11
365.3485912693832
 21
1741.035065504124
 31
0.0
  0
LINE
  5
3E85
330
A
100
AcDbEntity
  8
DIM
100
AcDbLine
 10
365.3485912693841
 20
1772.209705197451
 30
0.0
 11
365.3485912693841
 21
1810.481465852873
 31
0.0
  0
LINE
  5
3E86
330
A
100
AcDbEntity
  8
DIM
100
AcDbLine
 10
365.3485912693841
 20
1810.481465852873
 30
0.0
 11
330.133268266452
 21
1833.444522246127
 31
0.0
  0
LINE
  5
3E87
330
A
100
AcDbEntity
  8
DIM
100
AcDbLine
 10
365.3485912693841
 20
1823.188370777328
 30
0.0
 11
330.133268266452
 21
1846.151427170582
 31
0.0
  0
LINE
  5
3E88
330
A
100
AcDbEntity
  8
DIM
100
AcDbLine
 10
365.3485912693841
 20
1837.471051660504
 30
0.0
 11
330.133268266452
 21
1860.434108053757
 31
0.0
  0
SPLINE
  5
4338
330
A
100
AcDbEntity
  8
0
100
AcDbSpline
210
0.0
220
0.0
230
1.0
 70
    24
 71
     3
 72
     8
 73
     4
 74
     0
 42
0.000000001
 43
0.0000000001
 40
3.0
 40
3.0
 40
3.0
 40
3.0
 40
4.0
 40
4.0
 40
4.0
 40
4.0
 10
667.7864810215801
 20
2082.462382082474
 30
0.0
 10
667.7864810215801
 20
2082.462382082474
 30
0.0
 10
667.8146877386521
 20
2082.476593100235
 30
0.0
 10
667.8146877386521
 20
2082.476593100235
 30
0.0
  0
SPLINE
  5
434A
330
A
100
AcDbEntity
  8
0
100
AcDbSpline
210
0.0
220
0.0
230
1.0
 70
    24
 71
     3
 72
     8
 73
     4
 74
     0
 42
0.000000001
 43
0.0000000001
 40
21.0
 40
21.0
 40
21.0
 40
21.0
 40
22.0
 40
22.0
 40
22.0
 40
22.0
 10
667.8146877386521
 20
2614.627747148551
 30
0.0
 10
667.8146877386521
 20
2614.627747148551
 30
0.0
 10
667.7864810215801
 20
2614.641742847861
 30
0.0
 10
667.7864810215801
 20
2614.641742847861
 30
0.0
  0
SPLINE
  5
47DE
330
A
100
AcDbEntity
  8
0
100
AcDbSpline
210
0.0
220
0.0
230
1.0
 70
    11
 71
     3
 72
    17
 73
    13
 74
     0
 42
0.000000001
 43
0.0000000001
 40
0.0
 40
0.0
 40
0.0
 40
0.0
 40
1.0
 40
1.0
 40
1.0
 40
2.0
 40
2.0
 40
2.0
 40
3.0
 40
3.0
 40
3.0
 40
4.0
 40
4.0
 40
4.0
 40
4.0
 10
580.3172726075875
 20
998.5637765686713
 30
0.0
 10
567.6102533255882
 20
998.5637765686713
 30
0.0
 10
557.3092025847593
 20
1008.871932818883
 30
0.0
 10
557.3092025847593
 20
1021.593055460418
 30
0.0
 10
557.3092025847593
 20
1034.314178101951
 30
0.0
 10
567.6102533255882
 20
1044.622442011397
 30
0.0
 10
580.3172726075875
 20
1044.622442011397
 30
0.0
 10
593.0172940394343
 20
1044.622442011397
 30
0.0
 10
603.3184524394976
 20
1034.314178101951
 30
0.0
 10
603.3184524394976
 20
1021.593055460418
 30
0.0
 10
603.3184524394976
 20
1008.871932818883
 30
0.0
 10
593.0172940394343
 20
998.5637765686713
 30
0.0
 10
580.3172726075875
 20
998.5637765686713
 30
0.0
  0
SPLINE
  5
47DF
330
A
100
AcDbEntity
  8
0
100
AcDbSpline
210
0.0
220
0.0
230
1.0
 70
    11
 71
     3
 72
    17
 73
    13
 74
     0
 42
0.000000001
 43
0.0000000001
 40
0.0
 40
0.0
 40
0.0
 40
0.0
 40
1.0
 40
1.0
 40
1.0
 40
2.0
 40
2.0
 40
2.0
 40
3.0
 40
3.0
 40
3.0
 40
4.0
 40
4.0
 40
4.0
 40
4.0
 10
580.3172726075875
 20
984.0786573929051
 30
0.0
 10
559.6233378000991
 20
984.0786573929051
 30
0.0
 10
542.8522901280642
 20
1000.870806274628
 30
0.0
 10
542.8522901280642
 20
1021.585949951035
 30
0.0
 10
542.8522901280642
 20
1042.301093627442
 30
0.0
 10
559.6233378000991
 20
1059.093242509163
 30
0.0
 10
580.3172726075875
 20
1059.093242509163
 30
0.0
 10
601.0042095649235
 20
1059.093242509163
 30
0.0
 10
617.7752572369584
 20
1042.301093627442
 30
0.0
 10
617.7752572369584
 20
1021.585949951035
 30
0.0
 10
617.7752572369584
 20
1000.870806274628
 30
0.0
 10
601.0042095649235
 20
984.0786573929051
 30
0.0
 10
580.3172726075875
 20
984.0786573929051
 30
0.0
  0
LINE
  5
47EC
330
A
100
AcDbEntity
  8
0
100
AcDbLine
 10
1537.597840906544
 20
1133.578062772689
 30
0.0
 11
1537.597840906544
 21
1189.592085158781
 31
0.0
  0
SPLINE
  5
4850
330
A
100
AcDbEntity
  8
0
100
AcDbSpline
210
0.0
220
0.0
230
1.0
 70
     8
 71
     3
 72
     8
 73
     4
 74
     0
 42
0.000000001
 43
0.0000000001
 40
0.0
 40
0.0
 40
0.0
 40
0.0
 40
1.0
 40
1.0
 40
1.0
 40
1.0
 10
555.3899614364063
 20
1406.939255700394
 30
0.0
 10
554.2611543774228
 20
1406.932150191009
 30
0.0
 10
553.1322396592086
 20
1406.918046831473
 30
0.0
 10
552.0033249409908
 20
1406.861633393333
 30
0.0
  0
SPLINE
  5
4851
330
A
100
AcDbEntity
  8
0
100
AcDbSpline
210
0.0
220
0.0
230
1.0
 70
     8
 71
     3
 72
     8
 73
     4
 74
     0
 42
0.000000001
 43
0.0000000001
 40
1.0
 40
1.0
 40
1.0
 40
1.0
 40
2.0
 40
2.0
 40
2.0
 40
2.0
 10
552.0033249409908
 20
1406.861633393333
 30
0.0
 10
546.0484774401384
 20
1406.565247524628
 30
0.0
 10
540.0442143512928
 20
1405.436332806412
 30
0.0
 10
534.4279551385162
 20
1403.397266931624
 30
0.0
  0
SPLINE
  5
4852
330
A
100
AcDbEntity
  8
0
100
AcDbSpline
210
0.0
220
0.0
230
1.0
 70
     8
 71
     3
 72
     8
 73
     4
 74
     0
 42
0.000000001
 43
0.0000000001
 40
2.0
 40
2.0
 40
2.0
 40
2.0
 40
3.0
 40
3.0
 40
3.0
 40
3.0
 10
534.4279551385162
 20
1403.397266931624
 30
0.0
 10
528.6847656899236
 20
1401.308893128082
 30
0.0
 10
523.2660611698748
 20
1398.521918560996
 30
0.0
 10
518.3130904921863
 20
1394.923624013321
 30
0.0
  0
SPLINE
  5
4853
330
A
100
AcDbEntity
  8
0
100
AcDbSpline
210
0.0
220
0.0
230
1.0
 70
     8
 71
     3
 72
     8
 73
     4
 74
     0
 42
0.000000001
 43
0.0000000001
 40
3.0
 40
3.0
 40
3.0
 40
3.0
 40
4.0
 40
4.0
 40
4.0
 40
4.0
 10
518.3130904921863
 20
1394.923624013321
 30
0.0
 10
513.3742231740334
 20
1391.339325165947
 30
0.0
 10
508.9856021962196
 20
1387.049643023345
 30
0.0
 10
505.2602697534905
 20
1382.230600431623
 30
0.0
  0
SPLINE
  5
4854
330
A
100
AcDbEntity
  8
0
100
AcDbSpline
210
0.0
220
0.0
230
1.0
 70
     8
 71
     3
 72
     8
 73
     4
 74
     0
 42
0.000000001
 43
0.0000000001
 40
4.0
 40
4.0
 40
4.0
 40
4.0
 40
5.0
 40
5.0
 40
5.0
 40
5.0
 10
505.2602697534905
 20
1382.230600431623
 30
0.0
 10
501.591350748907
 20
1377.489287806198
 30
0.0
 10
498.5575135603406
 20
1372.169414462127
 30
0.0
 10
496.3773064309655
 20
1366.588467477804
 30
0.0
  0
SPLINE
  5
4855
330
A
100
AcDbEntity
  8
0
100
AcDbSpline
210
0.0
220
0.0
230
1.0
 70
     8
 71
     3
 72
     8
 73
     4
 74
     0
 42
0.000000001
 43
0.0000000001
 40
5.0
 40
5.0
 40
5.0
 40
5.0
 40
6.0
 40
6.0
 40
6.0
 40
6.0
 10
496.3773064309655
 20
1366.588467477804
 30
0.0
 10
494.211310320364
 20
1361.028729362402
 30
0.0
 10
492.7225984451518
 20
1355.250227685355
 30
0.0
 10
491.8970674457898
 20
1349.337690263108
 30
0.0
  0
SPLINE
  5
4856
330
A
100
AcDbEntity
  8
0
100
AcDbSpline
210
0.0
220
0.0
230
1.0
 70
     8
 71
     3
 72
     8
 73
     4
 74
     0
 42
0.000000001
 43
0.0000000001
 40
6.0
 40
6.0
 40
6.0
 40
6.0
 40
7.0
 40
7.0
 40
7.0
 40
7.0
 10
491.8970674457898
 20
1349.337690263108
 30
0.0
 10
491.057433086896
 20
1343.291009436423
 30
0.0
 10
490.8528805440194
 20
1337.188022830831
 30
0.0
 10
490.9021884727747
 20
1331.099031925545
 30
0.0
  0
SPLINE
  5
4857
330
A
100
AcDbEntity
  8
0
100
AcDbSpline
210
0.0
220
0.0
230
1.0
 70
    24
 71
     3
 72
     8
 73
     4
 74
     0
 42
0.000000001
 43
0.0000000001
 40
7.0
 40
7.0
 40
7.0
 40
7.0
 40
8.0
 40
8.0
 40
8.0
 40
8.0
 10
490.9021884727747
 20
1331.099031925545
 30
0.0
 10
490.9021884727747
 20
1331.099031925545
 30
0.0
 10
490.9021884727749
 20
712.0869713360587
 30
0.0
 10
490.9021884727749
 20
712.0869713360587
 30
0.0
  0
SPLINE
  5
4858
330
A
100
AcDbEntity
  8
0
100
AcDbSpline
210
0.0
220
0.0
230
1.0
 70
     8
 71
     3
 72
     8
 73
     4
 74
     0
 42
0.000000001
 43
0.0000000001
 40
8.0
 40
8.0
 40
8.0
 40
8.0
 40
9.0
 40
9.0
 40
9.0
 40
9.0
 10
490.9021884727749
 20
712.0869713360587
 30
0.0
 10
490.8528805440196
 20
705.9909825806205
 30
0.0
 10
491.0574330868963
 20
699.8879421454128
 30
0.0
 10
491.8970674457901
 20
693.8413151483453
 30
0.0
  0
SPLINE
  5
4859
330
A
100
AcDbEntity
  8
0
100
AcDbSpline
210
0.0
220
0.0
230
1.0
 70
     8
 71
     3
 72
     8
 73
     4
 74
     0
 42
0.000000001
 43
0.0000000001
 40
9.0
 40
9.0
 40
9.0
 40
9.0
 40
10.0
 40
10.0
 40
10.0
 40
10.0
 10
491.8970674457901
 20
693.8413151483453
 30
0.0
 10
492.722598445152
 20
687.9287777260977
 30
0.0
 10
494.2113103203642
 20
682.1502760490491
 30
0.0
 10
496.3773064309657
 20
676.5904841040299
 30
0.0
  0
SPLINE
  5
485A
330
A
100
AcDbEntity
  8
0
100
AcDbSpline
210
0.0
220
0.0
230
1.0
 70
     8
 71
     3
 72
     8
 73
     4
 74
     0
 42
0.000000001
 43
0.0000000001
 40
10.0
 40
10.0
 40
10.0
 40
10.0
 40
11.0
 40
11.0
 40
11.0
 40
11.0
 10
496.3773064309657
 20
676.5904841040299
 30
0.0
 10
498.5575135603408
 20
671.0095371197092
 30
0.0
 10
501.5913507489072
 20
665.6967154554056
 30
0.0
 10
505.2602697534908
 20
660.9553490003616
 30
0.0
  0
SPLINE
  5
485B
330
A
100
AcDbEntity
  8
0
100
AcDbSpline
210
0.0
220
0.0
230
1.0
 70
     8
 71
     3
 72
     8
 73
     4
 74
     0
 42
0.000000001
 43
0.0000000001
 40
11.0
 40
11.0
 40
11.0
 40
11.0
 40
12.0
 40
12.0
 40
12.0
 40
12.0
 10
505.2602697534908
 20
660.9553490003616
 30
0.0
 10
508.98560219622
 20
656.1364140678741
 30
0.0
 10
513.3742231740339
 20
651.8395725862736
 30
0.0
 10
518.3130904921868
 20
648.2553813981319
 30
0.0
  0
SPLINE
  5
485C
330
A
100
AcDbEntity
  8
0
100
AcDbSpline
210
0.0
220
0.0
230
1.0
 70
     8
 71
     3
 72
     8
 73
     4
 74
     0
 42
0.000000001
 43
0.0000000001
 40
12.0
 40
12.0
 40
12.0
 40
12.0
 40
13.0
 40
13.0
 40
13.0
 40
13.0
 10
518.3130904921868
 20
648.2553813981319
 30
0.0
 10
523.2660611698752
 20
644.6570330208394
 30
0.0
 10
528.684765689924
 20
641.8701122833717
 30
0.0
 10
534.4279551385166
 20
639.7816308205946
 30
0.0
  0
SPLINE
  5
485D
330
A
100
AcDbEntity
  8
0
100
AcDbSpline
210
0.0
220
0.0
230
1.0
 70
     8
 71
     3
 72
     8
 73
     4
 74
     0
 42
0.000000001
 43
0.0000000001
 40
13.0
 40
13.0
 40
13.0
 40
13.0
 40
14.0
 40
14.0
 40
14.0
 40
14.0
 10
534.4279551385166
 20
639.7816308205946
 30
0.0
 10
540.0442143512932
 20
637.7426187754244
 30
0.0
 10
546.0484774401389
 20
636.6137040572083
 30
0.0
 10
552.0033249409912
 20
636.3173720181202
 30
0.0
  0
SPLINE
  5
485E
330
A
100
AcDbEntity
  8
0
100
AcDbSpline
210
0.0
220
0.0
230
1.0
 70
     8
 71
     3
 72
     8
 73
     4
 74
     0
 42
0.000000001
 43
0.0000000001
 40
14.0
 40
14.0
 40
14.0
 40
14.0
 40
15.0
 40
15.0
 40
15.0
 40
15.0
 10
552.0033249409912
 20
636.3173720181202
 30
0.0
 10
553.1322396592091
 20
636.2680102597459
 30
0.0
 10
554.2611543774233
 20
636.2468013908273
 30
0.0
 10
555.3899614364068
 20
636.2397497110595
 30
0.0
  0
SPLINE
  5
485F
330
A
100
AcDbEntity
  8
0
100
AcDbSpline
210
0.0
220
0.0
230
1.0
 70
    24
 71
     3
 72
     8
 73
     4
 74
     0
 42
0.000000001
 43
0.0000000001
 40
0.0
 40
0.0
 40
0.0
 40
0.0
 40
1.0
 40
1.0
 40
1.0
 40
1.0
 10
816.8617255315378
 20
1021.585949951035
 30
0.0
 10
816.8617255315378
 20
1021.585949951035
 30
0.0
 10
816.861725531538
 20
696.9880330428132
 30
0.0
 10
816.861725531538
 20
696.9880330428132
 30
0.0
  0
SPLINE
  5
4860
330
A
100
AcDbEntity
  8
0
100
AcDbSpline
210
0.0
220
0.0
230
1.0
 70
     8
 71
     3
 72
     8
 73
     4
 74
     0
 42
0.000000001
 43
0.0000000001
 40
1.0
 40
1.0
 40
1.0
 40
1.0
 40
2.0
 40
2.0
 40
2.0
 40
2.0
 10
816.861725531538
 20
696.9880330428132
 30
0.0
 10
816.7912087338641
 20
691.1883763264614
 30
0.0
 10
816.572552831452
 20
685.4380813684838
 30
0.0
 10
815.1966678325202
 20
679.7654625471841
 30
0.0
  0
SPLINE
  5
4861
330
A
100
AcDbEntity
  8
0
100
AcDbSpline
210
0.0
220
0.0
230
1.0
 70
     8
 71
     3
 72
     8
 73
     4
 74
     0
 42
0.000000001
 43
0.0000000001
 40
2.0
 40
2.0
 40
2.0
 40
2.0
 40
3.0
 40
3.0
 40
3.0
 40
3.0
 10
815.1966678325202
 20
679.7654625471841
 30
0.0
 10
813.7361626763754
 20
673.7964578571773
 30
0.0
 10
811.6406833634478
 20
667.9262305135344
 30
0.0
 10
808.5291162085864
 20
662.59925166008
 30
0.0
  0
SPLINE
  5
4862
330
A
100
AcDbEntity
  8
0
100
AcDbSpline
210
0.0
220
0.0
230
1.0
 70
     8
 71
     3
 72
     8
 73
     4
 74
     0
 42
0.000000001
 43
0.0000000001
 40
3.0
 40
3.0
 40
3.0
 40
3.0
 40
4.0
 40
4.0
 40
4.0
 40
4.0
 10
808.5291162085864
 20
662.59925166008
 30
0.0
 10
805.3964478440407
 20
657.237068237404
 30
0.0
 10
801.6923242702337
 20
652.4674950632889
 30
0.0
 10
797.3038109516506
 20
648.0718762353245
 30
0.0
  0
SPLINE
  5
4863
330
A
100
AcDbEntity
  8
0
100
AcDbSpline
210
0.0
220
0.0
230
1.0
 70
     8
 71
     3
 72
     8
 73
     4
 74
     0
 42
0.000000001
 43
0.0000000001
 40
4.0
 40
4.0
 40
4.0
 40
4.0
 40
5.0
 40
5.0
 40
5.0
 40
5.0
 10
797.3038109516506
 20
648.0718762353245
 30
0.0
 10
793.0845379474936
 20
643.8315020214814
 30
0.0
 10
788.0045293747548
 20
640.2119986048856
 30
0.0
 10
782.7128627497564
 20
637.4391812269514
 30
0.0
  0
SPLINE
  5
4864
330
A
100
AcDbEntity
  8
0
100
AcDbSpline
210
0.0
220
0.0
230
1.0
 70
     8
 71
     3
 72
     8
 73
     4
 74
     0
 42
0.000000001
 43
0.0000000001
 40
5.0
 40
5.0
 40
5.0
 40
5.0
 40
6.0
 40
6.0
 40
6.0
 40
6.0
 10
782.7128627497564
 20
637.4391812269514
 30
0.0
 10
777.2730570200197
 20
634.5887415419584
 30
0.0
 10
771.4522452643664
 20
632.4438466410411
 30
0.0
 10
765.4338788159853
 20
631.2091028966952
 30
0.0
  0
SPLINE
  5
4865
330
A
100
AcDbEntity
  8
0
100
AcDbSpline
210
0.0
220
0.0
230
1.0
 70
     8
 71
     3
 72
     8
 73
     4
 74
     0
 42
0.000000001
 43
0.0000000001
 40
6.0
 40
6.0
 40
6.0
 40
6.0
 40
7.0
 40
7.0
 40
7.0
 40
7.0
 10
765.4338788159853
 20
631.2091028966952
 30
0.0
 10
759.7753095246057
 20
630.0590331391759
 30
0.0
 10
754.123738083375
 20
629.8473750869143
 30
0.0
 10
748.3664452752432
 20
629.7839099690063
 30
0.0
  0
SPLINE
  5
4866
330
A
100
AcDbEntity
  8
0
100
AcDbSpline
210
0.0
220
0.0
230
1.0
 70
    24
 71
     3
 72
     8
 73
     4
 74
     0
 42
0.000000001
 43
0.0000000001
 40
7.0
 40
7.0
 40
7.0
 40
7.0
 40
8.0
 40
8.0
 40
8.0
 40
8.0
 10
748.3664452752432
 20
629.7839099690063
 30
0.0
 10
748.3664452752432
 20
629.7839099690063
 30
0.0
 10
441.1605006659315
 20
632.2039280400929
 30
0.0
 10
441.1605006659315
 20
632.2039280400929
 30
0.0
  0
SPLINE
  5
4867
330
A
100
AcDbEntity
  8
0
100
AcDbSpline
210
0.0
220
0.0
230
1.0
 70
     8
 71
     3
 72
     8
 73
     4
 74
     0
 42
0.000000001
 43
0.0000000001
 40
8.0
 40
8.0
 40
8.0
 40
8.0
 40
9.0
 40
9.0
 40
9.0
 40
9.0
 10
441.1605006659315
 20
632.2039280400929
 30
0.0
 10
435.374893479498
 20
632.3097570662228
 30
0.0
 10
429.624706180753
 20
632.9588884121583
 30
0.0
 10
424.0366536870474
 20
634.5111192348975
 30
0.0
  0
SPLINE
  5
4868
330
A
100
AcDbEntity
  8
0
100
AcDbSpline
210
0.0
220
0.0
230
1.0
 70
     8
 71
     3
 72
     8
 73
     4
 74
     0
 42
0.000000001
 43
0.0000000001
 40
9.0
 40
9.0
 40
9.0
 40
9.0
 40
10.0
 40
10.0
 40
10.0
 40
10.0
 10
424.0366536870474
 20
634.5111192348975
 30
0.0
 10
418.4274999836575
 20
636.0633500576366
 30
0.0
 10
413.1358333586554
 20
638.4269546905814
 30
0.0
 10
408.1757571715839
 20
641.4608457087668
 30
0.0
  0
SPLINE
  5
4869
330
A
100
AcDbEntity
  8
0
100
AcDbSpline
210
0.0
220
0.0
230
1.0
 70
     8
 71
     3
 72
     8
 73
     4
 74
     0
 42
0.000000001
 43
0.0000000001
 40
10.0
 40
10.0
 40
10.0
 40
10.0
 40
11.0
 40
11.0
 40
11.0
 40
11.0
 10
408.1757571715839
 20
641.4608457087668
 30
0.0
 10
403.2863054414206
 20
644.4453211389625
 30
0.0
 10
398.7283364899499
 20
648.2271208494456
 30
0.0
 10
394.9465906090823
 20
652.523962331046
 30
0.0
  0
SPLINE
  5
486A
330
A
100
AcDbEntity
  8
0
100
AcDbSpline
210
0.0
220
0.0
230
1.0
 70
     8
 71
     3
 72
     8
 73
     4
 74
     0
 42
0.000000001
 43
0.0000000001
 40
11.0
 40
11.0
 40
11.0
 40
11.0
 40
12.0
 40
12.0
 40
12.0
 40
12.0
 10
394.9465906090823
 20
652.523962331046
 30
0.0
 10
391.0308089830155
 20
656.961891237617
 30
0.0
 10
387.7782082328026
 20
661.8090328891756
 30
0.0
 10
385.1887883584436
 20
667.1289600628622
 30
0.0
  0
SPLINE
  5
486B
330
A
100
AcDbEntity
  8
0
100
AcDbSpline
210
0.0
220
0.0
230
1.0
 70
     8
 71
     3
 72
     8
 73
     4
 74
     0
 42
0.000000001
 43
0.0000000001
 40
12.0
 40
12.0
 40
12.0
 40
12.0
 40
13.0
 40
13.0
 40
13.0
 40
13.0
 10
385.1887883584436
 20
667.1289600628622
 30
0.0
 10
382.7123030195994
 20
672.2301236749042
 30
0.0
 10
380.9131019161446
 20
677.8533807378315
 30
0.0
 10
380.0734675572508
 20
683.4695861209909
 30
0.0
  0
SPLINE
  5
486C
330
A
100
AcDbEntity
  8
0
100
AcDbSpline
210
0.0
220
0.0
230
1.0
 70
     8
 71
     3
 72
     8
 73
     4
 74
     0
 42
0.000000001
 43
0.0000000001
 40
13.0
 40
13.0
 40
13.0
 40
13.0
 40
14.0
 40
14.0
 40
14.0
 40
14.0
 10
380.0734675572508
 20
683.4695861209909
 30
0.0
 10
379.544322426596
 20
687.0115210601432
 30
0.0
 10
379.2973521458784
 20
690.5251416209901
 30
0.0
 10
379.2832487863429
 20
694.1023349589811
 30
0.0
  0
SPLINE
  5
486D
330
A
100
AcDbEntity
  8
0
100
AcDbSpline
210
0.0
220
0.0
230
1.0
 70
    24
 71
     3
 72
     8
 73
     4
 74
     0
 42
0.000000001
 43
0.0000000001
 40
14.0
 40
14.0
 40
14.0
 40
14.0
 40
15.0
 40
15.0
 40
15.0
 40
15.0
 10
379.2832487863429
 20
694.1023349589811
 30
0.0
 10
379.2832487863429
 20
694.1023349589811
 30
0.0
 10
379.2832487863427
 20
1349.069511113472
 30
0.0
 10
379.2832487863427
 20
1349.069511113472
 30
0.0
  0
SPLINE
  5
486E
330
A
100
AcDbEntity
  8
0
100
AcDbSpline
210
0.0
220
0.0
230
1.0
 70
     8
 71
     3
 72
     8
 73
     4
 74
     0
 42
0.000000001
 43
0.0000000001
 40
15.0
 40
15.0
 40
15.0
 40
15.0
 40
16.0
 40
16.0
 40
16.0
 40
16.0
 10
379.2832487863427
 20
1349.069511113472
 30
0.0
 10
379.2973521458782
 20
1352.646704451461
 30
0.0
 10
379.5443224265957
 20
1356.167376692076
 30
0.0
 10
380.0734675572505
 20
1359.70225995146
 30
0.0
  0
SPLINE
  5
486F
330
A
100
AcDbEntity
  8
0
100
AcDbSpline
210
0.0
220
0.0
230
1.0
 70
     8
 71
     3
 72
     8
 73
     4
 74
     0
 42
0.000000001
 43
0.0000000001
 40
16.0
 40
16.0
 40
16.0
 40
16.0
 40
17.0
 40
17.0
 40
17.0
 40
17.0
 10
380.0734675572505
 20
1359.70225995146
 30
0.0
 10
380.9131019161443
 20
1365.325517014389
 30
0.0
 10
382.7123030195992
 20
1370.941776227166
 30
0.0
 10
385.1887883584434
 20
1376.049991518974
 30
0.0
  0
SPLINE
  5
4870
330
A
100
AcDbEntity
  8
0
100
AcDbSpline
210
0.0
220
0.0
230
1.0
 70
     8
 71
     3
 72
     8
 73
     4
 74
     0
 42
0.000000001
 43
0.0000000001
 40
17.0
 40
17.0
 40
17.0
 40
17.0
 40
18.0
 40
18.0
 40
18.0
 40
18.0
 10
385.1887883584434
 20
1376.049991518974
 30
0.0
 10
387.7782082328024
 20
1381.369864863045
 30
0.0
 10
391.0308089830153
 20
1386.210008664449
 30
0.0
 10
394.9465906090818
 20
1390.64793757102
 30
0.0
  0
SPLINE
  5
4871
330
A
100
AcDbEntity
  8
0
100
AcDbSpline
210
0.0
220
0.0
230
1.0
 70
     8
 71
     3
 72
     8
 73
     4
 74
     0
 42
0.000000001
 43
0.0000000001
 40
18.0
 40
18.0
 40
18.0
 40
18.0
 40
19.0
 40
19.0
 40
19.0
 40
19.0
 10
394.9465906090818
 20
1390.64793757102
 30
0.0
 10
398.7283364899495
 20
1394.95183073239
 30
0.0
 10
403.2863054414202
 20
1398.733576613258
 30
0.0
 10
408.1757571715834
 20
1401.718105873067
 30
0.0
  0
SPLINE
  5
4872
330
A
100
AcDbEntity
  8
0
100
AcDbSpline
210
0.0
220
0.0
230
1.0
 70
     8
 71
     3
 72
     8
 73
     4
 74
     0
 42
0.000000001
 43
0.0000000001
 40
19.0
 40
19.0
 40
19.0
 40
19.0
 40
20.0
 40
20.0
 40
20.0
 40
20.0
 10
408.1757571715834
 20
1401.718105873067
 30
0.0
 10
413.135833358655
 20
1404.751943061637
 30
0.0
 10
418.4274999836571
 20
1407.108496014814
 30
0.0
 10
424.036653687047
 20
1408.667832346938
 30
0.0
  0
SPLINE
  5
4873
330
A
100
AcDbEntity
  8
0
100
AcDbSpline
210
0.0
220
0.0
230
1.0
 70
     8
 71
     3
 72
     8
 73
     4
 74
     0
 42
0.000000001
 43
0.0000000001
 40
20.0
 40
20.0
 40
20.0
 40
20.0
 40
21.0
 40
21.0
 40
21.0
 40
21.0
 10
424.036653687047
 20
1408.667832346938
 30
0.0
 10
429.6247061807526
 20
1410.220063169676
 30
0.0
 10
435.3748934794976
 20
1410.876138536148
 30
0.0
 10
441.1605006659311
 20
1410.974969712128
 30
0.0
  0
SPLINE
  5
4874
330
A
100
AcDbEntity
  8
0
100
AcDbSpline
210
0.0
220
0.0
230
1.0
 70
    24
 71
     3
 72
     8
 73
     4
 74
     0
 42
0.000000001
 43
0.0000000001
 40
21.0
 40
21.0
 40
21.0
 40
21.0
 40
22.0
 40
22.0
 40
22.0
 40
22.0
 10
441.1605006659311
 20
1410.974969712128
 30
0.0
 10
441.1605006659311
 20
1410.974969712128
 30
0.0
 10
748.3664452752428
 20
1413.387936103447
 30
0.0
 10
748.3664452752428
 20
1413.387936103447
 30
0.0
  0
SPLINE
  5
4875
330
A
100
AcDbEntity
  8
0
100
AcDbSpline
210
0.0
220
0.0
230
1.0
 70
     8
 71
     3
 72
     8
 73
     4
 74
     0
 42
0.000000001
 43
0.0000000001
 40
22.0
 40
22.0
 40
22.0
 40
22.0
 40
23.0
 40
23.0
 40
23.0
 40
23.0
 10
748.3664452752428
 20
1413.387936103447
 30
0.0
 10
754.1237380833745
 20
1413.324417155922
 30
0.0
 10
759.7753095246053
 20
1413.119864613045
 30
0.0
 10
765.4338788159848
 20
1411.962743175756
 30
0.0
  0
SPLINE
  5
4876
330
A
100
AcDbEntity
  8
0
100
AcDbSpline
210
0.0
220
0.0
230
1.0
 70
     8
 71
     3
 72
     8
 73
     4
 74
     0
 42
0.000000001
 43
0.0000000001
 40
23.0
 40
23.0
 40
23.0
 40
23.0
 40
24.0
 40
24.0
 40
24.0
 40
24.0
 10
765.4338788159848
 20
1411.962743175756
 30
0.0
 10
771.452245264366
 20
1410.735104940793
 30
0.0
 10
777.2730570200192
 20
1408.583104530493
 30
0.0
 10
782.7128627497559
 20
1405.732718675117
 30
0.0
  0
SPLINE
  5
4877
330
A
100
AcDbEntity
  8
0
100
AcDbSpline
210
0.0
220
0.0
230
1.0
 70
     8
 71
     3
 72
     8
 73
     4
 74
     0
 42
0.000000001
 43
0.0000000001
 40
24.0
 40
24.0
 40
24.0
 40
24.0
 40
25.0
 40
25.0
 40
25.0
 40
25.0
 10
782.7128627497559
 20
1405.732718675117
 30
0.0
 10
788.0045293747544
 20
1402.966952976951
 30
0.0
 10
793.0845379474931
 20
1399.347449560357
 30
0.0
 10
797.3038109516501
 20
1395.106967687278
 30
0.0
  0
SPLINE
  5
4878
330
A
100
AcDbEntity
  8
0
100
AcDbSpline
210
0.0
220
0.0
230
1.0
 70
     8
 71
     3
 72
     8
 73
     4
 74
     0
 42
0.000000001
 43
0.0000000001
 40
25.0
 40
25.0
 40
25.0
 40
25.0
 40
26.0
 40
26.0
 40
26.0
 40
26.0
 10
797.3038109516501
 20
1395.106967687278
 30
0.0
 10
801.6923242702333
 20
1390.711456518547
 30
0.0
 10
805.3964478440403
 20
1385.934831664665
 30
0.0
 10
808.529116208586
 20
1380.572540582756
 30
0.0
  0
SPLINE
  5
4879
330
A
100
AcDbEntity
  8
0
100
AcDbSpline
210
0.0
220
0.0
230
1.0
 70
     8
 71
     3
 72
     8
 73
     4
 74
     0
 42
0.000000001
 43
0.0000000001
 40
26.0
 40
26.0
 40
26.0
 40
26.0
 40
27.0
 40
27.0
 40
27.0
 40
27.0
 10
808.529116208586
 20
1380.572540582756
 30
0.0
 10
811.6406833634474
 20
1375.252667238685
 30
0.0
 10
813.736162676375
 20
1369.382439895042
 30
0.0
 10
815.1966678325198
 20
1363.413489034652
 30
0.0
  0
SPLINE
  5
487A
330
A
100
AcDbEntity
  8
0
100
AcDbSpline
210
0.0
220
0.0
230
1.0
 70
     8
 71
     3
 72
     8
 73
     4
 74
     0
 42
0.000000001
 43
0.0000000001
 40
27.0
 40
27.0
 40
27.0
 40
27.0
 40
28.0
 40
28.0
 40
28.0
 40
28.0
 10
815.1966678325198
 20
1363.413489034652
 30
0.0
 10
816.5725528314515
 20
1357.740816383735
 30
0.0
 10
816.7912087338636
 20
1351.990521425756
 30
0.0
 10
816.8617255315376
 20
1346.183813029638
 30
0.0
  0
SPLINE
  5
487B
330
A
100
AcDbEntity
  8
0
100
AcDbSpline
210
0.0
220
0.0
230
1.0
 70
    24
 71
     3
 72
     8
 73
     4
 74
     0
 42
0.000000001
 43
0.0000000001
 40
28.0
 40
28.0
 40
28.0
 40
28.0
 40
29.0
 40
29.0
 40
29.0
 40
29.0
 10
816.8617255315376
 20
1346.183813029638
 30
0.0
 10
816.8617255315376
 20
1346.183813029638
 30
0.0
 10
816.8617255315378
 20
1021.585949951035
 30
0.0
 10
816.8617255315378
 20
1021.585949951035
 30
0.0
  0
SPLINE
  5
487C
330
A
100
AcDbEntity
  8
0
100
AcDbSpline
210
0.0
220
0.0
230
1.0
 70
    24
 71
     3
 72
     8
 73
     4
 74
     0
 42
0.000000001
 43
0.0000000001
 40
0.0
 40
0.0
 40
0.0
 40
0.0
 40
1.0
 40
1.0
 40
1.0
 40
1.0
 10
825.3636828281462
 20
1021.585949951035
 30
0.0
 10
825.3636828281462
 20
1021.585949951035
 30
0.0
 10
825.3636828281465
 20
626.5877226569337
 30
0.0
 10
825.3636828281465
 20
626.5877226569337
 30
0.0
  0
SPLINE
  5
487D
330
A
100
AcDbEntity
  8
0
100
AcDbSpline
210
0.0
220
0.0
230
1.0
 70
     8
 71
     3
 72
     8
 73
     4
 74
     0
 42
0.000000001
 43
0.0000000001
 40
1.0
 40
1.0
 40
1.0
 40
1.0
 40
2.0
 40
2.0
 40
2.0
 40
2.0
 10
825.3636828281465
 20
626.5877226569337
 30
0.0
 10
825.1873370043409
 20
625.2612532459916
 30
0.0
 10
824.883953285485
 20
624.0406666907966
 30
0.0
 10
823.903285331236
 20
623.0599449069323
 30
0.0
  0
SPLINE
  5
487E
330
A
100
AcDbEntity
  8
0
100
AcDbSpline
210
0.0
220
0.0
230
1.0
 70
     8
 71
     3
 72
     8
 73
     4
 74
     0
 42
0.000000001
 43
0.0000000001
 40
2.0
 40
2.0
 40
2.0
 40
2.0
 40
3.0
 40
3.0
 40
3.0
 40
3.0
 10
823.903285331236
 20
623.0599449069323
 30
0.0
 10
822.9084063582209
 20
622.0651197635343
 30
0.0
 10
821.6948714827936
 20
621.7687877244462
 30
0.0
 10
820.3612965624684
 20
621.5923880710216
 30
0.0
  0
SPLINE
  5
487F
102
{ACAD_REACTORS
330
4A15
102
}
330
A
100
AcDbEntity
  8
0
100
AcDbSpline
210
0.0
220
0.0
230
1.0
 70
    24
 71
     3
 72
     8
 73
     4
 74
     0
 42
0.000000001
 43
0.0000000001
 40
3.0
 40
3.0
 40
3.0
 40
3.0
 40
4.0
 40
4.0
 40
4.0
 40
4.0
 10
820.3612965624684
 20
621.5923880710216
 30
0.0
 10
820.3612965624684
 20
621.5923880710216
 30
0.0
 10
367.3452394063329
 20
621.5853363912536
 30
0.0
 10
367.3452394063329
 20
621.5853363912536
 30
0.0
  0
SPLINE
  5
4880
330
A
100
AcDbEntity
  8
0
100
AcDbSpline
210
0.0
220
0.0
230
1.0
 70
    24
 71
     3
 72
     8
 73
     4
 74
     0
 42
0.000000001
 43
0.0000000001
 40
4.0
 40
4.0
 40
4.0
 40
4.0
 40
5.0
 40
5.0
 40
5.0
 40
5.0
 10
367.3452394063329
 20
621.5853363912536
 30
0.0
 10
367.3452394063329
 20
621.5853363912536
 30
0.0
 10
365.3485912693845
 20
625.5858458337677
 30
0.0
 10
365.3485912693845
 20
625.5858458337677
 30
0.0
  0
SPLINE
  5
4881
102
{ACAD_REACTORS
330
4A42
102
}
330
A
100
AcDbEntity
  8
0
100
AcDbSpline
210
0.0
220
0.0
230
1.0
 70
    24
 71
     3
 72
     8
 73
     4
 74
     0
 42
0.000000001
 43
0.0000000001
 40
5.0
 40
5.0
 40
5.0
 40
5.0
 40
6.0
 40
6.0
 40
6.0
 40
6.0
 10
365.3485912693845
 20
625.5858458337677
 30
0.0
 10
365.3485912693845
 20
625.5858458337677
 30
0.0
 10
365.3485912693841
 20
1417.593105748068
 30
0.0
 10
365.3485912693841
 20
1417.593105748068
 30
0.0
  0
SPLINE
  5
4882
330
A
100
AcDbEntity
  8
0
100
AcDbSpline
210
0.0
220
0.0
230
1.0
 70
    24
 71
     3
 72
     8
 73
     4
 74
     0
 42
0.000000001
 43
0.0000000001
 40
6.0
 40
6.0
 40
6.0
 40
6.0
 40
7.0
 40
7.0
 40
7.0
 40
7.0
 10
365.3485912693841
 20
1417.593105748068
 30
0.0
 10
365.3485912693841
 20
1417.593105748068
 30
0.0
 10
367.3452394063324
 20
1421.586509681197
 30
0.0
 10
367.3452394063324
 20
1421.586509681197
 30
0.0
  0
SPLINE
  5
4883
102
{ACAD_REACTORS
330
4A15
102
}
330
A
100
AcDbEntity
  8
0
100
AcDbSpline
210
0.0
220
0.0
230
1.0
 70
    24
 71
     3
 72
     8
 73
     4
 74
     0
 42
0.000000001
 43
0.0000000001
 40
7.0
 40
7.0
 40
7.0
 40
7.0
 40
8.0
 40
8.0
 40
8.0
 40
8.0
 10
367.3452394063324
 20
1421.586509681197
 30
0.0
 10
367.3452394063324
 20
1421.586509681197
 30
0.0
 10
820.3612965624679
 20
1421.586509681198
 30
0.0
 10
820.3612965624679
 20
1421.586509681198
 30
0.0
  0
SPLINE
  5
4884
330
A
100
AcDbEntity
  8
0
100
AcDbSpline
210
0.0
220
0.0
230
1.0
 70
     8
 71
     3
 72
     8
 73
     4
 74
     0
 42
0.000000001
 43
0.0000000001
 40
8.0
 40
8.0
 40
8.0
 40
8.0
 40
9.0
 40
9.0
 40
9.0
 40
9.0
 10
820.3612965624679
 20
1421.586509681198
 30
0.0
 10
821.6948714827931
 20
1421.410163857392
 30
0.0
 10
822.9084063582204
 20
1421.113777988685
 30
0.0
 10
823.9032853312356
 20
1420.119006674904
 30
0.0
  0
SPLINE
  5
4885
330
A
100
AcDbEntity
  8
0
100
AcDbSpline
210
0.0
220
0.0
230
1.0
 70
     8
 71
     3
 72
     8
 73
     4
 74
     0
 42
0.000000001
 43
0.0000000001
 40
9.0
 40
9.0
 40
9.0
 40
9.0
 40
10.0
 40
10.0
 40
10.0
 40
10.0
 10
823.9032853312356
 20
1420.119006674904
 30
0.0
 10
824.8839532854845
 20
1419.138231061423
 30
0.0
 10
825.1873370043404
 20
1417.924696185995
 30
0.0
 10
825.363682828146
 20
1416.591228924904
 30
0.0
  0
SPLINE
  5
4886
102
{ACAD_REACTORS
330
4A42
102
}
330
A
100
AcDbEntity
  8
0
100
AcDbSpline
210
0.0
220
0.0
230
1.0
 70
    24
 71
     3
 72
     8
 73
     4
 74
     0
 42
0.000000001
 43
0.0000000001
 40
10.0
 40
10.0
 40
10.0
 40
10.0
 40
11.0
 40
11.0
 40
11.0
 40
11.0
 10
825.363682828146
 20
1416.591228924904
 30
0.0
 10
825.363682828146
 20
1416.591228924904
 30
0.0
 10
825.3636828281462
 20
1021.585949951035
 30
0.0
 10
825.3636828281462
 20
1021.585949951035
 30
0.0
  0
SPLINE
  5
4887
330
A
100
AcDbEntity
  8
0
100
AcDbSpline
210
0.0
220
0.0
230
1.0
 70
    24
 71
     3
 72
     8
 73
     4
 74
     0
 42
0.000000001
 43
0.0000000001
 40
0.0
 40
0.0
 40
0.0
 40
0.0
 40
1.0
 40
1.0
 40
1.0
 40
1.0
 10
1567.598055141081
 20
1021.599325929259
 30
0.0
 10
1567.598055141081
 20
1021.599325929259
 30
0.0
 10
1567.598055141081
 20
1414.480811211896
 30
0.0
 10
1567.598055141081
 20
1414.480811211896
 30
0.0
  0
SPLINE
  5
4888
330
A
100
AcDbEntity
  8
0
100
AcDbSpline
210
0.0
220
0.0
230
1.0
 70
     8
 71
     3
 72
     8
 73
     4
 74
     0
 42
0.000000001
 43
0.0000000001
 40
1.0
 40
1.0
 40
1.0
 40
1.0
 40
2.0
 40
2.0
 40
2.0
 40
2.0
 10
1567.598055141081
 20
1414.480811211896
 30
0.0
 10
1567.598055141081
 20
1416.61160275328
 30
0.0
 10
1565.911788573141
 20
1418.375491628279
 30
0.0
 10
1563.773999181607
 20
1418.474322804259
 30
0.0
  0
SPLINE
  5
4889
330
A
100
AcDbEntity
  8
0
100
AcDbSpline
210
0.0
220
0.0
230
1.0
 70
    24
 71
     3
 72
     8
 73
     4
 74
     0
 42
0.000000001
 43
0.0000000001
 40
2.0
 40
2.0
 40
2.0
 40
2.0
 40
3.0
 40
3.0
 40
3.0
 40
3.0
 10
1563.773999181607
 20
1418.474322804259
 30
0.0
 10
1563.773999181607
 20
1418.474322804259
 30
0.0
 10
1491.772042385002
 20
1421.613881359725
 30
0.0
 10
1491.772042385002
 20
1421.613881359725
 30
0.0
  0
SPLINE
  5
488A
330
A
100
AcDbEntity
  8
0
100
AcDbSpline
210
0.0
220
0.0
230
1.0
 70
     8
 71
     3
 72
    11
 73
     7
 74
     0
 42
0.000000001
 43
0.0000000001
 40
3.0
 40
3.0
 40
3.0
 40
3.0
 40
4.0
 40
4.0
 40
4.0
 40
5.0
 40
5.0
 40
5.0
 40
5.0
 10
1491.772042385002
 20
1421.613881359725
 30
0.0
 10
1491.71562894686
 20
1421.613881359725
 30
0.0
 10
1491.659215508718
 20
1421.613881359725
 30
0.0
 10
1491.602694411345
 20
1421.613881359725
 30
0.0
 10
1489.394280562903
 20
1421.613881359725
 30
0.0
 10
1487.602184968831
 20
1419.835996784422
 30
0.0
 10
1487.602184968831
 20
1417.620585085829
 30
0.0
  0
SPLINE
  5
488B
102
{ACAD_REACTORS
330
49AB
102
}
330
A
100
AcDbEntity
  8
0
100
AcDbSpline
210
0.0
220
0.0
230
1.0
 70
    24
 71
     3
 72
     8
 73
     4
 74
     0
 42
0.000000001
 43
0.0000000001
 40
5.0
 40
5.0
 40
5.0
 40
5.0
 40
6.0
 40
6.0
 40
6.0
 40
6.0
 10
1487.602184968831
 20
1417.620585085829
 30
0.0
 10
1487.602184968831
 20
1417.620585085829
 30
0.0
 10
1487.60218496883
 20
625.5849569636
 30
0.0
 10
1487.60218496883
 20
625.5849569636
 30
0.0
  0
SPLINE
  5
488C
330
A
100
AcDbEntity
  8
0
100
AcDbSpline
210
0.0
220
0.0
230
1.0
 70
     8
 71
     3
 72
    11
 73
     7
 74
     0
 42
0.000000001
 43
0.0000000001
 40
6.0
 40
6.0
 40
6.0
 40
6.0
 40
7.0
 40
7.0
 40
7.0
 40
8.0
 40
8.0
 40
8.0
 40
8.0
 10
1487.60218496883
 20
625.5849569636
 30
0.0
 10
1487.60218496883
 20
623.376650774391
 30
0.0
 10
1489.394280562902
 20
621.5845551803211
 30
0.0
 10
1491.602694411344
 20
621.5845551803211
 30
0.0
 10
1491.659215508717
 20
621.5845551803211
 30
0.0
 10
1491.715628946859
 20
621.5845551803211
 30
0.0
 10
1491.772042385001
 20
621.5916606897051
 30
0.0
  0
SPLINE
  5
488D
330
A
100
AcDbEntity
  8
0
100
AcDbSpline
210
0.0
220
0.0
230
1.0
 70
    24
 71
     3
 72
     8
 73
     4
 74
     0
 42
0.000000001
 43
0.0000000001
 40
8.0
 40
8.0
 40
8.0
 40
8.0
 40
9.0
 40
9.0
 40
9.0
 40
9.0
 10
1491.772042385001
 20
621.5916606897051
 30
0.0
 10
1491.772042385001
 20
621.5916606897051
 30
0.0
 10
1563.773999181606
 20
624.7383247545547
 30
0.0
 10
1563.773999181606
 20
624.7383247545547
 30
0.0
  0
SPLINE
  5
488E
330
A
100
AcDbEntity
  8
0
100
AcDbSpline
210
0.0
220
0.0
230
1.0
 70
     8
 71
     3
 72
     8
 73
     4
 74
     0
 42
0.000000001
 43
0.0000000001
 40
9.0
 40
9.0
 40
9.0
 40
9.0
 40
10.0
 40
10.0
 40
10.0
 40
10.0
 10
1563.773999181606
 20
624.7383247545547
 30
0.0
 10
1565.91178857314
 20
624.83005042115
 30
0.0
 10
1567.59805514108
 20
626.5868337867666
 30
0.0
 10
1567.59805514108
 20
628.7318363469165
 30
0.0
  0
SPLINE
  5
488F
330
A
100
AcDbEntity
  8
0
100
AcDbSpline
210
0.0
220
0.0
230
1.0
 70
    24
 71
     3
 72
     8
 73
     4
 74
     0
 42
0.000000001
 43
0.0000000001
 40
10.0
 40
10.0
 40
10.0
 40
10.0
 40
11.0
 40
11.0
 40
11.0
 40
11.0
 10
1567.59805514108
 20
628.7318363469165
 30
0.0
 10
1567.59805514108
 20
628.7318363469165
 30
0.0
 10
1567.598055141081
 20
1021.599325929259
 30
0.0
 10
1567.598055141081
 20
1021.599325929259
 30
0.0
  0
SPLINE
  5
4890
330
A
100
AcDbEntity
  8
0
100
AcDbSpline
210
0.0
220
0.0
230
1.0
 70
     8
 71
     3
 72
     8
 73
     4
 74
     0
 42
0.000000001
 43
0.0000000001
 40
0.0
 40
0.0
 40
0.0
 40
0.0
 40
1.0
 40
1.0
 40
1.0
 40
1.0
 10
1567.59805514108
 20
672.5045732933729
 30
0.0
 10
1574.597197202941
 20
673.4005134311753
 30
0.0
 10
1581.173023160275
 20
676.3850426909864
 30
0.0
 10
1586.45758427589
 20
681.0910430879592
 30
0.0
  0
SPLINE
  5
4891
330
A
100
AcDbEntity
  8
0
100
AcDbSpline
210
0.0
220
0.0
230
1.0
 70
    24
 71
     3
 72
     8
 73
     4
 74
     0
 42
0.000000001
 43
0.0000000001
 40
1.0
 40
1.0
 40
1.0
 40
1.0
 40
2.0
 40
2.0
 40
2.0
 40
2.0
 10
1586.45758427589
 20
681.0910430879592
 30
0.0
 10
1586.45758427589
 20
681.0910430879592
 30
0.0
 10
1615.879237791782
 20
707.288410231941
 30
0.0
 10
1615.879237791782
 20
707.288410231941
 30
0.0
  0
SPLINE
  5
4892
330
A
100
AcDbEntity
  8
0
100
AcDbSpline
210
0.0
220
0.0
230
1.0
 70
     8
 71
     3
 72
     8
 73
     4
 74
     0
 42
0.000000001
 43
0.0000000001
 40
2.0
 40
2.0
 40
2.0
 40
2.0
 40
3.0
 40
3.0
 40
3.0
 40
3.0
 10
1615.879237791782
 20
707.288410231941
 30
0.0
 10
1623.337008186621
 20
713.927539818337
 30
0.0
 10
1627.598591269384
 20
723.4385871067277
 30
0.0
 10
1627.598591269384
 20
733.4291486193158
 30
0.0
  0
SPLINE
  5
4893
102
{ACAD_REACTORS
330
499C
102
}
330
A
100
AcDbEntity
  8
0
100
AcDbSpline
210
0.0
220
0.0
230
1.0
 70
    24
 71
     3
 72
     8
 73
     4
 74
     0
 42
0.000000001
 43
0.0000000001
 40
3.0
 40
3.0
 40
3.0
 40
3.0
 40
4.0
 40
4.0
 40
4.0
 40
4.0
 10
1627.598591269384
 20
733.4291486193158
 30
0.0
 10
1627.598591269384
 20
733.4291486193158
 30
0.0
 10
1627.598591269385
 20
1309.783498939496
 30
0.0
 10
1627.598591269385
 20
1309.783498939496
 30
0.0
  0
SPLINE
  5
4894
102
{ACAD_REACTORS
330
499C
102
}
330
A
100
AcDbEntity
  8
0
100
AcDbSpline
210
0.0
220
0.0
230
1.0
 70
     8
 71
     3
 72
     8
 73
     4
 74
     0
 42
0.000000001
 43
0.0000000001
 40
4.0
 40
4.0
 40
4.0
 40
4.0
 40
5.0
 40
5.0
 40
5.0
 40
5.0
 10
1627.598591269385
 20
1309.783498939496
 30
0.0
 10
1627.598591269385
 20
1319.766954942702
 30
0.0
 10
1623.337008186621
 20
1329.278002231093
 30
0.0
 10
1615.879237791783
 20
1335.917131817488
 30
0.0
  0
SPLINE
  5
4895
330
A
100
AcDbEntity
  8
0
100
AcDbSpline
210
0.0
220
0.0
230
1.0
 70
    24
 71
     3
 72
     8
 73
     4
 74
     0
 42
0.000000001
 43
0.0000000001
 40
5.0
 40
5.0
 40
5.0
 40
5.0
 40
6.0
 40
6.0
 40
6.0
 40
6.0
 10
1615.879237791783
 20
1335.917131817488
 30
0.0
 10
1615.879237791783
 20
1335.917131817488
 30
0.0
 10
1586.457584275891
 20
1362.121604470854
 30
0.0
 10
1586.457584275891
 20
1362.121604470854
 30
0.0
  0
SPLINE
  5
4896
330
A
100
AcDbEntity
  8
0
100
AcDbSpline
210
0.0
220
0.0
230
1.0
 70
     8
 71
     3
 72
     8
 73
     4
 74
     0
 42
0.000000001
 43
0.0000000001
 40
6.0
 40
6.0
 40
6.0
 40
6.0
 40
7.0
 40
7.0
 40
7.0
 40
7.0
 10
1586.457584275891
 20
1362.121604470854
 30
0.0
 10
1581.173023160276
 20
1366.820499358443
 30
0.0
 10
1574.597197202942
 20
1369.812134127639
 30
0.0
 10
1567.598055141081
 20
1370.701184074522
 30
0.0
  0
SPLINE
  5
48B8
330
A
100
AcDbEntity
  8
HIDDEN
100
AcDbSpline
210
0.0
220
0.0
230
1.0
 70
    24
 71
     3
 72
     8
 73
     4
 74
     0
 42
0.000000001
 43
0.0000000001
 40
23.0
 40
23.0
 40
23.0
 40
23.0
 40
24.0
 40
24.0
 40
24.0
 40
24.0
 10
1603.609637973846
 20
986.8365902003777
 30
0.0
 10
1603.609637973846
 20
986.8365902003777
 30
0.0
 10
1606.601165083806
 20
990.1034019693595
 30
0.0
 10
1606.601165083806
 20
990.1034019693595
 30
0.0
  0
SPLINE
  5
48B9
330
A
100
AcDbEntity
  8
HIDDEN
100
AcDbSpline
210
0.0
220
0.0
230
1.0
 70
     8
 71
     3
 72
     8
 73
     4
 74
     0
 42
0.000000001
 43
0.0000000001
 40
24.0
 40
24.0
 40
24.0
 40
24.0
 40
25.0
 40
25.0
 40
25.0
 40
25.0
 10
1606.601165083806
 20
990.1034019693595
 30
0.0
 10
1609.550382115163
 20
993.3135849817343
 30
0.0
 10
1612.866501812901
 20
996.171076346495
 30
0.0
 10
1616.486005229498
 20
998.5981460973496
 30
0.0
  0
SPLINE
  5
48BA
330
A
100
AcDbEntity
  8
HIDDEN
100
AcDbSpline
210
0.0
220
0.0
230
1.0
 70
    24
 71
     3
 72
     8
 73
     4
 74
     0
 42
0.000000001
 43
0.0000000001
 40
25.0
 40
25.0
 40
25.0
 40
25.0
 40
26.0
 40
26.0
 40
26.0
 40
26.0
 10
1616.486005229498
 20
998.5981460973496
 30
0.0
 10
1616.486005229498
 20
998.5981460973496
 30
0.0
 10
1636.989490853642
 20
998.5981460973494
 30
0.0
 10
1636.989490853642
 20
998.5981460973494
 30
0.0
  0
LINE
  5
48BB
330
A
100
AcDbEntity
  8
HIDDEN
100
AcDbLine
 10
1640.545475322714
 20
998.5981460973494
 30
0.0
 11
1647.601030822713
 21
998.5981460973494
 31
0.0
  0
LINE
  5
48BC
330
A
100
AcDbEntity
  8
HIDDEN
100
AcDbLine
 10
1647.601030822713
 20
1044.600290442702
 30
0.0
 11
1640.545475322714
 21
1044.600290442702
 31
0.0
  0
SPLINE
  5
48BD
330
A
100
AcDbEntity
  8
HIDDEN
100
AcDbSpline
210
0.0
220
0.0
230
1.0
 70
    24
 71
     3
 72
     8
 73
     4
 74
     0
 42
0.000000001
 43
0.0000000001
 40
0.0
 40
0.0
 40
0.0
 40
0.0
 40
1.0
 40
1.0
 40
1.0
 40
1.0
 10
1633.454607594257
 20
1044.600505761168
 30
0.0
 10
1633.454607594257
 20
1044.600505761168
 30
0.0
 10
1616.486005229498
 20
1044.600505761168
 30
0.0
 10
1616.486005229498
 20
1044.600505761168
 30
0.0
  0
SPLINE
  5
48BE
330
A
100
AcDbEntity
  8
HIDDEN
100
AcDbSpline
210
0.0
220
0.0
230
1.0
 70
     8
 71
     3
 72
     8
 73
     4
 74
     0
 42
0.000000001
 43
0.0000000001
 40
1.0
 40
1.0
 40
1.0
 40
1.0
 40
2.0
 40
2.0
 40
2.0
 40
2.0
 10
1616.486005229498
 20
1044.600505761168
 30
0.0
 10
1612.866501812901
 20
1047.034681021407
 30
0.0
 10
1609.550382115163
 20
1049.892172386168
 30
0.0
 10
1606.601165083806
 20
1053.102355398541
 30
0.0
  0
SPLINE
  5
48BF
330
A
100
AcDbEntity
  8
HIDDEN
100
AcDbSpline
210
0.0
220
0.0
230
1.0
 70
    24
 71
     3
 72
     8
 73
     4
 74
     0
 42
0.000000001
 43
0.0000000001
 40
2.0
 40
2.0
 40
2.0
 40
2.0
 40
3.0
 40
3.0
 40
3.0
 40
3.0
 10
1606.601165083806
 20
1053.102355398541
 30
0.0
 10
1606.601165083806
 20
1053.102355398541
 30
0.0
 10
1603.609637973846
 20
1056.369167167525
 30
0.0
 10
1603.609637973846
 20
1056.369167167525
 30
0.0
  0
SPLINE
  5
48D9
330
A
100
AcDbEntity
  8
0
100
AcDbSpline
210
0.0
220
0.0
230
1.0
 70
    24
 71
     3
 72
     8
 73
     4
 74
     0
 42
0.000000001
 43
0.0000000001
 40
0.0
 40
0.0
 40
0.0
 40
0.0
 40
1.0
 40
1.0
 40
1.0
 40
1.0
 10
1627.59848361015
 20
985.4113972726889
 30
0.0
 10
1627.59848361015
 20
985.4113972726889
 30
0.0
 10
1644.757642817488
 20
986.3144429198751
 30
0.0
 10
1644.757642817488
 20
986.3144429198751
 30
0.0
  0
SPLINE
  5
48DA
330
A
100
AcDbEntity
  8
0
100
AcDbSpline
210
0.0
220
0.0
230
1.0
 70
     8
 71
     3
 72
     8
 73
     4
 74
     0
 42
0.000000001
 43
0.0000000001
 40
1.0
 40
1.0
 40
1.0
 40
1.0
 40
2.0
 40
2.0
 40
2.0
 40
2.0
 10
1644.757642817488
 20
986.3144429198751
 30
0.0
 10
1646.352183718832
 20
986.3990630770863
 30
0.0
 10
1647.601030822713
 20
987.7043236191089
 30
0.0
 10
1647.601030822713
 20
989.3058623706042
 30
0.0
  0
SPLINE
  5
48DB
102
{ACAD_REACTORS
330
49C4
102
}
330
A
100
AcDbEntity
  8
0
100
AcDbSpline
210
0.0
220
0.0
230
1.0
 70
    24
 71
     3
 72
     8
 73
     4
 74
     0
 42
0.000000001
 43
0.0000000001
 40
2.0
 40
2.0
 40
2.0
 40
2.0
 40
3.0
 40
3.0
 40
3.0
 40
3.0
 10
1647.601030822713
 20
989.3058623706042
 30
0.0
 10
1647.601030822713
 20
989.3058623706042
 30
0.0
 10
1647.601030822713
 20
1053.899464360365
 30
0.0
 10
1647.601030822713
 20
1053.899464360365
 30
0.0
  0
SPLINE
  5
48DC
330
A
100
AcDbEntity
  8
0
100
AcDbSpline
210
0.0
220
0.0
230
1.0
 70
     8
 71
     3
 72
     8
 73
     4
 74
     0
 42
0.000000001
 43
0.0000000001
 40
3.0
 40
3.0
 40
3.0
 40
3.0
 40
4.0
 40
4.0
 40
4.0
 40
4.0
 10
1647.601030822713
 20
1053.899464360365
 30
0.0
 10
1647.601030822713
 20
1055.494112920943
 30
0.0
 10
1646.352183718832
 20
1056.80647897235
 30
0.0
 10
1644.757642817488
 20
1056.891099129561
 30
0.0
  0
SPLINE
  5
48DD
330
A
100
AcDbEntity
  8
0
100
AcDbSpline
210
0.0
220
0.0
230
1.0
 70
    24
 71
     3
 72
     8
 73
     4
 74
     0
 42
0.000000001
 43
0.0000000001
 40
4.0
 40
4.0
 40
4.0
 40
4.0
 40
5.0
 40
5.0
 40
5.0
 40
5.0
 10
1644.757642817488
 20
1056.891099129561
 30
0.0
 10
1644.757642817488
 20
1056.891099129561
 30
0.0
 10
1627.59848361015
 20
1057.78725458583
 30
0.0
 10
1627.59848361015
 20
1057.78725458583
 30
0.0
  0
POLYLINE
  5
4968
330
A
100
AcDbEntity
  8
HIDDEN
 48
0.5
100
AcDb2dPolyline
 66
     1
 10
0.0
 20
0.0
 30
0.0
  0
VERTEX
  5
4969
330
4968
100
AcDbEntity
  8
HIDDEN
 48
0.5
100
AcDbVertex
100
AcDb2dVertex
 10
1537.597840906544
 20
853.6026722915981
 30
0.0
  0
VERTEX
  5
496A
330
4968
100
AcDbEntity
  8
HIDDEN
 48
0.5
100
AcDbVertex
100
AcDb2dVertex
 10
1537.597840906544
 20
909.5751755651982
 30
0.0
  0
SEQEND
  5
496B
330
4968
100
AcDbEntity
  8
HIDDEN
 48
0.5
  0
DIMENSION
  5
496C
102
{ACAD_REACTORS
330
496E
102
}
102
{ACAD_XDICTIONARY
360
496D
102
}
330
A
100
AcDbEntity
  8
DIM
100
AcDbDimension
  2
*D39
 10
1414.270131038672
 20
1161.56997589073
 30
0.0
 11
1382.265629350539
 21
1021.588923928398
 31
0.0
 70
    32
 71
     5
 42
279.9621039246651
 73
     0
 74
     0
 75
     0
 52
-270.0
  3
tfrom線あり
100
AcDbAlignedDimension
 13
1520.840885411818
 23
881.6078719660654
 33
0.0
 14
1520.840885411817
 24
1161.569975890731
 34
0.0
 50
90.00000000000016
100
AcDbRotatedDimension
  0
POLYLINE
  5
496F
102
{ACAD_REACTORS
330
496E
102
}
330
A
100
AcDbEntity
  8
HIDDEN
 48
0.5
100
AcDb2dPolyline
 66
     1
 10
0.0
 20
0.0
 30
0.0
  0
VERTEX
  5
4970
330
496F
100
AcDbEntity
  8
HIDDEN
 48
0.5
100
AcDbVertex
100
AcDb2dVertex
 10
1520.840885411818
 20
881.6078719660654
 30
0.0
  0
VERTEX
  5
4971
330
496F
100
AcDbEntity
  8
HIDDEN
 48
0.5
100
AcDbVertex
100
AcDb2dVertex
 10
1554.368576792303
 20
881.6078719660654
 30
0.0
  0
SEQEND
  5
4972
330
496F
100
AcDbEntity
  8
HIDDEN
 48
0.5
  0
SPLINE
  5
4973
330
A
100
AcDbEntity
  8
HIDDEN
 48
0.5
100
AcDbSpline
210
0.0
220
0.0
230
1.0
 70
  1064
 71
     3
 72
    22
 73
    18
 74
    16
 42
0.000000001
 43
0.0000000001
 44
0.0
 40
0.0
 40
0.0
 40
0.0
 40
0.0
 40
1.298862838070836
 40
2.257202063181242
 40
3.60218253178219
 40
4.883495218012378
 40
6.099542425468112
 40
7.340568645545539
 40
8.25075272846886
 40
9.305417217386665
 40
10.46616364178211
 40
11.3221852487234
 40
12.23844686005639
 40
13.12432346282623
 40
14.13279722048537
 40
14.93797134988764
 40
15.67043281211808
 40
15.67043281211808
 40
15.67043281211808
 40
15.67043281211808
 10
1547.602320393432
 20
876.5639949223619
 30
0.0
 10
1547.584947676574
 20
876.1307485760537
 30
0.0
 10
1547.554756857972
 20
875.3778403257843
 30
0.0
 10
1547.332110257182
 20
874.1950139089859
 30
0.0
 10
1546.984447648459
 20
873.0484386435605
 30
0.0
 10
1546.449995480777
 20
871.8803475995807
 30
0.0
 10
1545.793121663626
 20
870.8179592419142
 30
0.0
 10
1545.088452991344
 20
869.9403964827677
 30
0.0
 10
1544.333289178002
 20
869.1824162661123
 30
0.0
 10
1543.527974613318
 20
868.5183604829782
 30
0.0
 10
1542.669009571195
 20
867.9567953866731
 30
0.0
 10
1541.799924201475
 20
867.5065489750882
 30
0.0
 10
1540.978808351626
 20
867.1701932039167
 30
0.0
 10
1540.082091267156
 20
866.8944821650933
 30
0.0
 10
1539.199025289153
 20
866.7143758213183
 30
0.0
 10
1538.354717594283
 20
866.6163202238026
 30
0.0
 10
1537.84205205359
 20
866.6059624433649
 30
0.0
 10
1537.597840906544
 20
866.6010284557242
 30
0.0
 11
1547.602320393432
 21
876.5639949223619
 31
0.0
 11
1547.514002807447
 21
875.2681381879474
 31
0.0
 11
1547.341981329818
 21
874.325364258726
 31
0.0
 11
1546.949268651732
 21
873.0389937003765
 31
0.0
 11
1546.416846642474
 21
871.8735371357839
 31
0.0
 11
1545.77731274999
 21
870.8392416213755
 31
0.0
 11
1545.000398489535
 21
869.8714863264681
 31
0.0
 11
1544.358006416478
 21
869.2266859780807
 31
0.0
 11
1543.544255438004
 21
868.5557712821492
 31
0.0
 11
1542.572668064879
 21
867.9206726771035
 31
0.0
 11
1541.812566718739
 21
867.5269482364774
 31
0.0
 11
1540.964697113391
 21
867.1795975883861
 31
0.0
 11
1540.117861434298
 21
866.9195078193634
 31
0.0
 11
1539.130005459167
 21
866.7166288103822
 31
0.0
 11
1538.329844702864
 21
866.6269173689088
 31
0.0
 11
1537.597840906544
 21
866.6010284557242
 31
0.0
  0
SPLINE
  5
4974
330
A
100
AcDbEntity
  8
HIDDEN
 48
0.5
100
AcDbSpline
210
0.0
220
0.0
230
1.0
 70
  1080
 71
     3
 72
     8
 73
     4
 74
     2
 42
0.000000001
 43
0.0000000001
 44
0.0
 40
0.0
 40
0.0
 40
0.0
 40
0.0
 40
5.043877044409737
 40
5.043877044409737
 40
5.043877044409737
 40
5.043877044409737
 10
1527.593277017423
 20
881.6078719660654
 30
0.0
 10
1527.593305151501
 20
879.9265796181642
 30
0.0
 10
1527.593333285578
 20
878.245287270263
 30
0.0
 10
1527.593361419656
 20
876.5639949223619
 30
0.0
 11
1527.593277017423
 21
881.6078719660654
 31
0.0
 11
1527.593361419656
 21
876.5639949223619
 31
0.0
  0
SPLINE
  5
4975
330
A
100
AcDbEntity
  8
HIDDEN
 48
0.5
100
AcDbSpline
210
0.0
220
0.0
230
1.0
 70
  1080
 71
     3
 72
     8
 73
     4
 74
     2
 42
0.000000001
 43
0.0000000001
 44
0.0
 40
0.0
 40
0.0
 40
0.0
 40
0.0
 40
5.043877044410191
 40
5.043877044410191
 40
5.043877044410191
 40
5.043877044410191
 10
1547.602404795664
 20
881.6078719660654
 30
0.0
 10
1547.602376661587
 20
883.2891643139669
 30
0.0
 10
1547.602348527509
 20
884.9704566618682
 30
0.0
 10
1547.602320393432
 20
886.6517490097694
 30
0.0
 11
1547.602404795664
 21
881.6078719660654
 31
0.0
 11
1547.602320393432
 21
886.6517490097694
 31
0.0
  0
SPLINE
  5
4976
330
A
100
AcDbEntity
  8
HIDDEN
 48
0.5
100
AcDbSpline
210
0.0
220
0.0
230
1.0
 70
  1064
 71
     3
 72
    22
 73
    18
 74
    16
 42
0.000000001
 43
0.0000000001
 44
0.0
 40
0.0
 40
0.0
 40
0.0
 40
0.0
 40
1.298862838070774
 40
2.257202063181343
 40
3.602182531782292
 40
4.883495218012479
 40
6.099542425468213
 40
7.34056864554564
 40
8.250752728468319
 40
9.305417217385834
 40
10.46616364178229
 40
11.32218524872358
 40
12.23844686005657
 40
13.12432346282627
 40
14.13279722048551
 40
14.93797134988778
 40
15.67043281211824
 40
15.67043281211824
 40
15.67043281211824
 40
15.67043281211824
 10
1527.593361419656
 20
886.6517490097694
 30
0.0
 10
1527.610734136513
 20
887.0849953560773
 30
0.0
 10
1527.640924955114
 20
887.837903606347
 30
0.0
 10
1527.863571555906
 20
889.0207300231453
 30
0.0
 10
1528.211234164629
 20
890.1673052885706
 30
0.0
 10
1528.745686332311
 20
891.3353963325505
 30
0.0
 10
1529.402560149462
 20
892.397784690217
 30
0.0
 10
1530.107228821744
 20
893.275347449363
 30
0.0
 10
1530.862392635085
 20
894.0333276660199
 30
0.0
 10
1531.667707199769
 20
894.6973834491523
 30
0.0
 10
1532.526672241893
 20
895.2589485454582
 30
0.0
 10
1533.395757611613
 20
895.709194957043
 30
0.0
 10
1534.216873461462
 20
896.0455507282151
 30
0.0
 10
1535.113590545932
 20
896.3212617670372
 30
0.0
 10
1535.996656523936
 20
896.5013681108131
 30
0.0
 10
1536.840964218805
 20
896.5994237083287
 30
0.0
 10
1537.353629759498
 20
896.6097814887669
 30
0.0
 10
1537.597840906544
 20
896.6147154764076
 30
0.0
 11
1527.593361419656
 21
886.6517490097694
 31
0.0
 11
1527.68167900564
 21
887.9476057441839
 31
0.0
 11
1527.85370048327
 21
888.8903796734053
 31
0.0
 11
1528.246413161356
 21
890.1767502317548
 31
0.0
 11
1528.778835170614
 21
891.3422067963475
 31
0.0
 11
1529.418369063098
 21
892.3765023107558
 31
0.0
 11
1530.195283323553
 21
893.3442576056632
 31
0.0
 11
1530.837675396609
 21
893.9890579540506
 31
0.0
 11
1531.651426375083
 21
894.6599726499817
 31
0.0
 11
1532.623013748209
 21
895.2950712550278
 31
0.0
 11
1533.383115094349
 21
895.6887956956539
 31
0.0
 11
1534.230984699697
 21
896.0361463437453
 31
0.0
 11
1535.07782037879
 21
896.2962361127675
 31
0.0
 11
1536.065676353921
 21
896.4991151217491
 31
0.0
 11
1536.865837110224
 21
896.5888265632225
 31
0.0
 11
1537.597840906544
 21
896.6147154764076
 31
0.0
  0
SPLINE
  5
4977
330
A
100
AcDbEntity
  8
HIDDEN
 48
0.5
100
AcDbSpline
210
0.0
220
0.0
230
1.0
 70
  1080
 71
     3
 72
     8
 73
     4
 74
     2
 42
0.000000001
 43
0.0000000001
 44
0.0
 40
0.0
 40
0.0
 40
0.0
 40
0.0
 40
5.043877044410191
 40
5.043877044410191
 40
5.043877044410191
 40
5.043877044410191
 10
1527.593277017423
 20
881.6078719660654
 30
0.0
 10
1527.593305151501
 20
883.2891643139669
 30
0.0
 10
1527.593333285578
 20
884.9704566618682
 30
0.0
 10
1527.593361419656
 20
886.6517490097694
 30
0.0
 11
1527.593277017423
 21
881.6078719660654
 31
0.0
 11
1527.593361419656
 21
886.6517490097694
 31
0.0
  0
SPLINE
  5
4978
330
A
100
AcDbEntity
  8
HIDDEN
 48
0.5
100
AcDbSpline
210
0.0
220
0.0
230
1.0
 70
  1080
 71
     3
 72
     8
 73
     4
 74
     2
 42
0.000000001
 43
0.0000000001
 44
0.0
 40
0.0
 40
0.0
 40
0.0
 40
0.0
 40
5.043877044409737
 40
5.043877044409737
 40
5.043877044409737
 40
5.043877044409737
 10
1547.602404795664
 20
881.6078719660654
 30
0.0
 10
1547.602376661586
 20
879.9265796181642
 30
0.0
 10
1547.602348527509
 20
878.245287270263
 30
0.0
 10
1547.602320393432
 20
876.5639949223619
 30
0.0
 11
1547.602404795664
 21
881.6078719660654
 31
0.0
 11
1547.602320393432
 21
876.5639949223619
 31
0.0
  0
SPLINE
  5
4979
330
A
100
AcDbEntity
  8
HIDDEN
 48
0.5
100
AcDbSpline
210
0.0
220
0.0
230
1.0
 70
  1064
 71
     3
 72
    22
 73
    18
 74
    16
 42
0.000000001
 43
0.0000000001
 44
0.0
 40
0.0
 40
0.0
 40
0.0
 40
0.0
 40
1.298862838070774
 40
2.257202063181343
 40
3.602182531782292
 40
4.883495218012479
 40
6.099542425468213
 40
7.34056864554564
 40
8.250752728468319
 40
9.305417217386124
 40
10.46616364178233
 40
11.32218524872362
 40
12.23844686005661
 40
13.12432346282645
 40
14.13279722048559
 40
14.93797134988786
 40
15.6704328121183
 40
15.6704328121183
 40
15.6704328121183
 40
15.6704328121183
 10
1527.593361419656
 20
876.5639949223619
 30
0.0
 10
1527.610734136513
 20
876.1307485760537
 30
0.0
 10
1527.640924955114
 20
875.3778403257838
 30
0.0
 10
1527.863571555906
 20
874.1950139089863
 30
0.0
 10
1528.211234164629
 20
873.0484386435601
 30
0.0
 10
1528.745686332311
 20
871.8803475995812
 30
0.0
 10
1529.402560149462
 20
870.8179592419137
 30
0.0
 10
1530.107228821744
 20
869.9403964827688
 30
0.0
 10
1530.862392635085
 20
869.1824162661112
 30
0.0
 10
1531.667707199769
 20
868.5183604829786
 30
0.0
 10
1532.526672241893
 20
867.9567953866726
 30
0.0
 10
1533.395757611613
 20
867.5065489750883
 30
0.0
 10
1534.216873461462
 20
867.1701932039166
 30
0.0
 10
1535.113590545931
 20
866.8944821650935
 30
0.0
 10
1535.996656523936
 20
866.7143758213183
 30
0.0
 10
1536.840964218805
 20
866.6163202238026
 30
0.0
 10
1537.353629759498
 20
866.6059624433649
 30
0.0
 10
1537.597840906544
 20
866.6010284557242
 30
0.0
 11
1527.593361419656
 21
876.5639949223619
 31
0.0
 11
1527.68167900564
 21
875.2681381879474
 31
0.0
 11
1527.85370048327
 21
874.325364258726
 31
0.0
 11
1528.246413161356
 21
873.0389937003765
 31
0.0
 11
1528.778835170614
 21
871.8735371357839
 31
0.0
 11
1529.418369063098
 21
870.8392416213755
 31
0.0
 11
1530.195283323553
 21
869.8714863264681
 31
0.0
 11
1530.837675396609
 21
869.2266859780807
 31
0.0
 11
1531.651426375083
 21
868.5557712821492
 31
0.0
 11
1532.623013748209
 21
867.9206726771035
 31
0.0
 11
1533.383115094349
 21
867.5269482364774
 31
0.0
 11
1534.230984699697
 21
867.1795975883861
 31
0.0
 11
1535.07782037879
 21
866.9195078193634
 31
0.0
 11
1536.065676353921
 21
866.7166288103822
 31
0.0
 11
1536.865837110224
 21
866.6269173689088
 31
0.0
 11
1537.597840906544
 21
866.6010284557242
 31
0.0
  0
SPLINE
  5
497A
330
A
100
AcDbEntity
  8
HIDDEN
 48
0.5
100
AcDbSpline
210
0.0
220
0.0
230
1.0
 70
  1064
 71
     3
 72
    22
 73
    18
 74
    16
 42
0.000000001
 43
0.0000000001
 44
0.0
 40
0.0
 40
0.0
 40
0.0
 40
0.0
 40
1.298862838070836
 40
2.257202063181242
 40
3.60218253178219
 40
4.883495218012378
 40
6.099542425468112
 40
7.340568645545539
 40
8.25075272846886
 40
9.305417217386376
 40
10.46616364178207
 40
11.32218524872336
 40
12.23844686005635
 40
13.12432346282605
 40
14.13279722048529
 40
14.93797134988756
 40
15.67043281211802
 40
15.67043281211802
 40
15.67043281211802
 40
15.67043281211802
 10
1547.602320393432
 20
886.6517490097694
 30
0.0
 10
1547.584947676574
 20
887.0849953560773
 30
0.0
 10
1547.554756857972
 20
887.8379036063473
 30
0.0
 10
1547.332110257182
 20
889.020730023145
 30
0.0
 10
1546.984447648459
 20
890.1673052885708
 30
0.0
 10
1546.449995480777
 20
891.3353963325503
 30
0.0
 10
1545.793121663626
 20
892.3977846902171
 30
0.0
 10
1545.088452991344
 20
893.2753474493634
 30
0.0
 10
1544.333289178002
 20
894.0333276660192
 30
0.0
 10
1543.527974613318
 20
894.6973834491521
 30
0.0
 10
1542.669009571196
 20
895.2589485454587
 30
0.0
 10
1541.799924201474
 20
895.7091949570431
 30
0.0
 10
1540.978808351626
 20
896.0455507282147
 30
0.0
 10
1540.082091267156
 20
896.3212617670372
 30
0.0
 10
1539.199025289153
 20
896.5013681108131
 30
0.0
 10
1538.354717594283
 20
896.5994237083287
 30
0.0
 10
1537.84205205359
 20
896.6097814887669
 30
0.0
 10
1537.597840906544
 20
896.6147154764076
 30
0.0
 11
1547.602320393432
 21
886.6517490097694
 31
0.0
 11
1547.514002807447
 21
887.9476057441839
 31
0.0
 11
1547.341981329818
 21
888.8903796734053
 31
0.0
 11
1546.949268651732
 21
890.1767502317548
 31
0.0
 11
1546.416846642474
 21
891.3422067963475
 31
0.0
 11
1545.77731274999
 21
892.3765023107558
 31
0.0
 11
1545.000398489535
 21
893.3442576056632
 31
0.0
 11
1544.358006416478
 21
893.9890579540506
 31
0.0
 11
1543.544255438004
 21
894.6599726499817
 31
0.0
 11
1542.572668064879
 21
895.2950712550278
 31
0.0
 11
1541.812566718739
 21
895.6887956956539
 31
0.0
 11
1540.964697113391
 21
896.0361463437453
 31
0.0
 11
1540.117861434298
 21
896.2962361127675
 31
0.0
 11
1539.130005459167
 21
896.4991151217491
 31
0.0
 11
1538.329844702864
 21
896.5888265632225
 31
0.0
 11
1537.597840906544
 21
896.6147154764076
 31
0.0
  0
LINE
  5
497B
330
A
100
AcDbEntity
  8
DIM
100
AcDbLine
 10
1354.419322047376
 20
1222.057217911028
 30
0.0
 11
1537.597840906543
 21
1161.588923928398
 31
0.0
  0
POLYLINE
  5
497C
330
A
100
AcDbEntity
  8
HIDDEN
 48
0.5
100
AcDb2dPolyline
 66
     1
 10
0.0
 20
0.0
 30
0.0
  0
VERTEX
  5
497D
330
497C
100
AcDbEntity
  8
HIDDEN
 48
0.5
100
AcDbVertex
100
AcDb2dVertex
 10
1537.597840906543
 20
1189.575175565198
 30
0.0
  0
VERTEX
  5
497E
330
497C
100
AcDbEntity
  8
HIDDEN
 48
0.5
100
AcDbVertex
100
AcDb2dVertex
 10
1537.597840906543
 20
1133.602672291598
 30
0.0
  0
SEQEND
  5
497F
330
497C
100
AcDbEntity
  8
HIDDEN
 48
0.5
  0
POLYLINE
  5
4980
102
{ACAD_REACTORS
330
496E
102
}
330
A
100
AcDbEntity
  8
HIDDEN
 48
0.5
100
AcDb2dPolyline
 66
     1
 10
0.0
 20
0.0
 30
0.0
  0
VERTEX
  5
4981
330
4980
100
AcDbEntity
  8
HIDDEN
 48
0.5
100
AcDbVertex
100
AcDb2dVertex
 10
1520.840885411817
 20
1161.569975890731
 30
0.0
  0
VERTEX
  5
4982
330
4980
100
AcDbEntity
  8
HIDDEN
 48
0.5
100
AcDbVertex
100
AcDb2dVertex
 10
1554.368576792302
 20
1161.569975890731
 30
0.0
  0
SEQEND
  5
4983
330
4980
100
AcDbEntity
  8
HIDDEN
 48
0.5
  0
SPLINE
  5
4984
330
A
100
AcDbEntity
  8
HIDDEN
 48
0.5
100
AcDbSpline
210
0.0
220
0.0
230
1.0
 70
  1064
 71
     3
 72
    22
 73
    18
 74
    16
 42
0.000000001
 43
0.0000000001
 44
0.0
 40
0.0
 40
0.0
 40
0.0
 40
0.0
 40
1.298862838070397
 40
2.257202063181475
 40
3.602182531781922
 40
4.883495218012411
 40
6.09954242546843
 40
7.340568645545642
 40
8.25075272846864
 40
9.305417217386735
 40
10.46616364178193
 40
11.32218524872312
 40
12.23844686005615
 40
13.12432346282601
 40
14.1327972204851
 40
14.93797134988745
 40
15.6704328121179
 40
15.6704328121179
 40
15.6704328121179
 40
15.6704328121179
 10
1527.593361419655
 20
1156.526098847027
 30
0.0
 10
1527.610734136513
 20
1156.092852500719
 30
0.0
 10
1527.640924955115
 20
1155.33994425045
 30
0.0
 10
1527.863571555905
 20
1154.157117833651
 30
0.0
 10
1528.211234164628
 20
1153.010542568226
 30
0.0
 10
1528.74568633231
 20
1151.842451524246
 30
0.0
 10
1529.402560149463
 20
1150.78006316658
 30
0.0
 10
1530.107228821742
 20
1149.902500407433
 30
0.0
 10
1530.862392635085
 20
1149.144520190777
 30
0.0
 10
1531.667707199768
 20
1148.480464407643
 30
0.0
 10
1532.526672241892
 20
1147.918899311338
 30
0.0
 10
1533.395757611613
 20
1147.468652899754
 30
0.0
 10
1534.21687346146
 20
1147.132297128581
 30
0.0
 10
1535.113590545931
 20
1146.856586089759
 30
0.0
 10
1535.996656523934
 20
1146.676479745984
 30
0.0
 10
1536.840964218805
 20
1146.578424148468
 30
0.0
 10
1537.353629759497
 20
1146.56806636803
 30
0.0
 10
1537.597840906543
 20
1146.563132380389
 30
0.0
 11
1527.593361419655
 21
1156.526098847027
 31
0.0
 11
1527.68167900564
 21
1155.230242112613
 31
0.0
 11
1527.853700483269
 21
1154.287468183391
 31
0.0
 11
1528.246413161355
 21
1153.001097625042
 31
0.0
 11
1528.778835170613
 21
1151.835641060449
 31
0.0
 11
1529.418369063098
 21
1150.801345546041
 31
0.0
 11
1530.195283323552
 21
1149.833590251133
 31
0.0
 11
1530.837675396609
 21
1149.188789902746
 31
0.0
 11
1531.651426375083
 21
1148.517875206814
 31
0.0
 11
1532.623013748208
 21
1147.882776601769
 31
0.0
 11
1533.383115094348
 21
1147.489052161143
 31
0.0
 11
1534.230984699696
 21
1147.141701513051
 31
0.0
 11
1535.077820378789
 21
1146.881611744029
 31
0.0
 11
1536.06567635392
 21
1146.678732735048
 31
0.0
 11
1536.865837110223
 21
1146.589021293574
 31
0.0
 11
1537.597840906543
 21
1146.563132380389
 31
0.0
  0
SPLINE
  5
4985
330
A
100
AcDbEntity
  8
HIDDEN
 48
0.5
100
AcDbSpline
210
0.0
220
0.0
230
1.0
 70
  1064
 71
     3
 72
    22
 73
    18
 74
    16
 42
0.000000001
 43
0.0000000001
 44
0.0
 40
0.0
 40
0.0
 40
0.0
 40
0.0
 40
1.29886283807032
 40
2.257202063180483
 40
3.6021825317818
 40
4.883495218012401
 40
6.099542425467749
 40
7.340568645544998
 40
8.250752728468
 40
9.305417217385514
 40
10.46616364178154
 40
11.32218524872305
 40
12.23844686005586
 40
13.12432346282583
 40
14.13279722048515
 40
14.93797134988728
 40
15.67043281211772
 40
15.67043281211772
 40
15.67043281211772
 40
15.67043281211772
 10
1547.602320393431
 20
1166.613852934435
 30
0.0
 10
1547.584947676574
 20
1167.047099280743
 30
0.0
 10
1547.554756857973
 20
1167.800007531012
 30
0.0
 10
1547.33211025718
 20
1168.98283394781
 30
0.0
 10
1546.984447648458
 20
1170.129409213236
 30
0.0
 10
1546.449995480777
 20
1171.297500257216
 30
0.0
 10
1545.793121663624
 20
1172.359888614882
 30
0.0
 10
1545.088452991343
 20
1173.237451374028
 30
0.0
 10
1544.333289178002
 20
1173.995431590685
 30
0.0
 10
1543.527974613318
 20
1174.659487373818
 30
0.0
 10
1542.669009571194
 20
1175.221052470122
 30
0.0
 10
1541.799924201473
 20
1175.671298881708
 30
0.0
 10
1540.978808351626
 20
1176.007654652879
 30
0.0
 10
1540.082091267156
 20
1176.283365691703
 30
0.0
 10
1539.199025289151
 20
1176.463472035477
 30
0.0
 10
1538.354717594281
 20
1176.561527632995
 30
0.0
 10
1537.842052053589
 20
1176.571885413432
 30
0.0
 10
1537.597840906543
 20
1176.576819401073
 30
0.0
 11
1547.602320393431
 21
1166.613852934435
 31
0.0
 11
1547.514002807447
 21
1167.909709668849
 31
0.0
 11
1547.341981329817
 21
1168.85248359807
 31
0.0
 11
1546.949268651731
 21
1170.13885415642
 31
0.0
 11
1546.416846642473
 21
1171.304310721013
 31
0.0
 11
1545.777312749989
 21
1172.338606235421
 31
0.0
 11
1545.000398489534
 21
1173.306361530328
 31
0.0
 11
1544.358006416478
 21
1173.951161878716
 31
0.0
 11
1543.544255438004
 21
1174.622076574647
 31
0.0
 11
1542.572668064878
 21
1175.257175179692
 31
0.0
 11
1541.812566718738
 21
1175.650899620319
 31
0.0
 11
1540.96469711339
 21
1175.99825026841
 31
0.0
 11
1540.117861434297
 21
1176.258340037433
 31
0.0
 11
1539.130005459166
 21
1176.461219046414
 31
0.0
 11
1538.329844702863
 21
1176.550930487888
 31
0.0
 11
1537.597840906543
 21
1176.576819401073
 31
0.0
  0
SPLINE
  5
4986
330
A
100
AcDbEntity
  8
HIDDEN
 48
0.5
100
AcDbSpline
210
0.0
220
0.0
230
1.0
 70
  1080
 71
     3
 72
     8
 73
     4
 74
     2
 42
0.000000001
 43
0.0000000001
 44
0.0
 40
0.0
 40
0.0
 40
0.0
 40
0.0
 40
5.043877044410191
 40
5.043877044410191
 40
5.043877044410191
 40
5.043877044410191
 10
1527.593277017422
 20
1161.569975890731
 30
0.0
 10
1527.5933051515
 20
1163.251268238632
 30
0.0
 10
1527.593333285578
 20
1164.932560586534
 30
0.0
 10
1527.593361419655
 20
1166.613852934435
 30
0.0
 11
1527.593277017422
 21
1161.569975890731
 31
0.0
 11
1527.593361419655
 21
1166.613852934435
 31
0.0
  0
SPLINE
  5
4987
330
A
100
AcDbEntity
  8
HIDDEN
 48
0.5
100
AcDbSpline
210
0.0
220
0.0
230
1.0
 70
  1080
 71
     3
 72
     8
 73
     4
 74
     2
 42
0.000000001
 43
0.0000000001
 44
0.0
 40
0.0
 40
0.0
 40
0.0
 40
0.0
 40
5.043877044410191
 40
5.043877044410191
 40
5.043877044410191
 40
5.043877044410191
 10
1527.593277017422
 20
1161.569975890731
 30
0.0
 10
1527.5933051515
 20
1159.88868354283
 30
0.0
 10
1527.593333285578
 20
1158.207391194928
 30
0.0
 10
1527.593361419655
 20
1156.526098847027
 30
0.0
 11
1527.593277017422
 21
1161.569975890731
 31
0.0
 11
1527.593361419655
 21
1156.526098847027
 31
0.0
  0
SPLINE
  5
4988
330
A
100
AcDbEntity
  8
HIDDEN
 48
0.5
100
AcDbSpline
210
0.0
220
0.0
230
1.0
 70
  1064
 71
     3
 72
    22
 73
    18
 74
    16
 42
0.000000001
 43
0.0000000001
 44
0.0
 40
0.0
 40
0.0
 40
0.0
 40
0.0
 40
1.29886283807032
 40
2.257202063181601
 40
3.602182531782049
 40
4.883495218012443
 40
6.099542425467984
 40
7.340568645545765
 40
8.250752728468122
 40
9.305417217386216
 40
10.46616364178236
 40
11.32218524872335
 40
12.23844686005659
 40
13.12432346282623
 40
14.13279722048555
 40
14.93797134988768
 40
15.67043281211812
 40
15.67043281211812
 40
15.67043281211812
 40
15.67043281211812
 10
1547.602320393431
 20
1156.526098847027
 30
0.0
 10
1547.584947676574
 20
1156.092852500719
 30
0.0
 10
1547.554756857973
 20
1155.33994425045
 30
0.0
 10
1547.33211025718
 20
1154.157117833651
 30
0.0
 10
1546.984447648458
 20
1153.010542568226
 30
0.0
 10
1546.449995480776
 20
1151.842451524246
 30
0.0
 10
1545.793121663625
 20
1150.78006316658
 30
0.0
 10
1545.088452991344
 20
1149.902500407434
 30
0.0
 10
1544.333289178002
 20
1149.144520190777
 30
0.0
 10
1543.527974613318
 20
1148.480464407643
 30
0.0
 10
1542.669009571194
 20
1147.918899311338
 30
0.0
 10
1541.799924201473
 20
1147.468652899754
 30
0.0
 10
1540.978808351626
 20
1147.132297128581
 30
0.0
 10
1540.082091267155
 20
1146.856586089759
 30
0.0
 10
1539.199025289152
 20
1146.676479745985
 30
0.0
 10
1538.354717594282
 20
1146.578424148467
 30
0.0
 10
1537.842052053589
 20
1146.56806636803
 30
0.0
 10
1537.597840906543
 20
1146.563132380389
 30
0.0
 11
1547.602320393431
 21
1156.526098847027
 31
0.0
 11
1547.514002807447
 21
1155.230242112613
 31
0.0
 11
1547.341981329817
 21
1154.287468183391
 31
0.0
 11
1546.949268651731
 21
1153.001097625042
 31
0.0
 11
1546.416846642473
 21
1151.835641060449
 31
0.0
 11
1545.777312749989
 21
1150.801345546041
 31
0.0
 11
1545.000398489534
 21
1149.833590251133
 31
0.0
 11
1544.358006416478
 21
1149.188789902746
 31
0.0
 11
1543.544255438004
 21
1148.517875206814
 31
0.0
 11
1542.572668064878
 21
1147.882776601769
 31
0.0
 11
1541.812566718738
 21
1147.489052161143
 31
0.0
 11
1540.96469711339
 21
1147.141701513051
 31
0.0
 11
1540.117861434297
 21
1146.881611744029
 31
0.0
 11
1539.130005459166
 21
1146.678732735048
 31
0.0
 11
1538.329844702863
 21
1146.589021293574
 31
0.0
 11
1537.597840906543
 21
1146.563132380389
 31
0.0
  0
SPLINE
  5
4989
330
A
100
AcDbEntity
  8
HIDDEN
 48
0.5
100
AcDbSpline
210
0.0
220
0.0
230
1.0
 70
  1064
 71
     3
 72
    22
 73
    18
 74
    16
 42
0.000000001
 43
0.0000000001
 44
0.0
 40
0.0
 40
0.0
 40
0.0
 40
0.0
 40
1.298862838070397
 40
2.257202063180356
 40
3.602182531781673
 40
4.883495218012369
 40
6.099542425468194
 40
7.340568645544875
 40
8.250752728468518
 40
9.305417217386033
 40
10.4661636417811
 40
11.32218524872282
 40
12.23844686005542
 40
13.12432346282561
 40
14.1327972204847
 40
14.93797134988705
 40
15.6704328121175
 40
15.6704328121175
 40
15.6704328121175
 40
15.6704328121175
 10
1527.593361419655
 20
1166.613852934435
 30
0.0
 10
1527.610734136512
 20
1167.047099280743
 30
0.0
 10
1527.640924955115
 20
1167.800007531012
 30
0.0
 10
1527.863571555905
 20
1168.98283394781
 30
0.0
 10
1528.211234164628
 20
1170.129409213236
 30
0.0
 10
1528.74568633231
 20
1171.297500257216
 30
0.0
 10
1529.402560149462
 20
1172.359888614882
 30
0.0
 10
1530.107228821743
 20
1173.237451374028
 30
0.0
 10
1530.862392635085
 20
1173.995431590685
 30
0.0
 10
1531.667707199768
 20
1174.659487373817
 30
0.0
 10
1532.526672241893
 20
1175.221052470122
 30
0.0
 10
1533.395757611612
 20
1175.671298881708
 30
0.0
 10
1534.216873461461
 20
1176.007654652879
 30
0.0
 10
1535.113590545931
 20
1176.283365691703
 30
0.0
 10
1535.996656523934
 20
1176.463472035477
 30
0.0
 10
1536.840964218805
 20
1176.561527632995
 30
0.0
 10
1537.353629759497
 20
1176.571885413432
 30
0.0
 10
1537.597840906543
 20
1176.576819401073
 30
0.0
 11
1527.593361419655
 21
1166.613852934435
 31
0.0
 11
1527.68167900564
 21
1167.909709668849
 31
0.0
 11
1527.853700483269
 21
1168.85248359807
 31
0.0
 11
1528.246413161355
 21
1170.13885415642
 31
0.0
 11
1528.778835170613
 21
1171.304310721013
 31
0.0
 11
1529.418369063098
 21
1172.338606235421
 31
0.0
 11
1530.195283323552
 21
1173.306361530328
 31
0.0
 11
1530.837675396609
 21
1173.951161878716
 31
0.0
 11
1531.651426375083
 21
1174.622076574647
 31
0.0
 11
1532.623013748208
 21
1175.257175179692
 31
0.0
 11
1533.383115094348
 21
1175.650899620319
 31
0.0
 11
1534.230984699696
 21
1175.99825026841
 31
0.0
 11
1535.077820378789
 21
1176.258340037433
 31
0.0
 11
1536.06567635392
 21
1176.461219046414
 31
0.0
 11
1536.865837110223
 21
1176.550930487888
 31
0.0
 11
1537.597840906543
 21
1176.576819401073
 31
0.0
  0
SPLINE
  5
498A
330
A
100
AcDbEntity
  8
HIDDEN
 48
0.5
100
AcDbSpline
210
0.0
220
0.0
230
1.0
 70
  1080
 71
     3
 72
     8
 73
     4
 74
     2
 42
0.000000001
 43
0.0000000001
 44
0.0
 40
0.0
 40
0.0
 40
0.0
 40
0.0
 40
5.043877044410191
 40
5.043877044410191
 40
5.043877044410191
 40
5.043877044410191
 10
1547.602404795664
 20
1161.569975890731
 30
0.0
 10
1547.602376661587
 20
1163.251268238632
 30
0.0
 10
1547.602348527509
 20
1164.932560586534
 30
0.0
 10
1547.602320393431
 20
1166.613852934435
 30
0.0
 11
1547.602404795664
 21
1161.569975890731
 31
0.0
 11
1547.602320393431
 21
1166.613852934435
 31
0.0
  0
SPLINE
  5
498B
330
A
100
AcDbEntity
  8
HIDDEN
 48
0.5
100
AcDbSpline
210
0.0
220
0.0
230
1.0
 70
  1080
 71
     3
 72
     8
 73
     4
 74
     2
 42
0.000000001
 43
0.0000000001
 44
0.0
 40
0.0
 40
0.0
 40
0.0
 40
0.0
 40
5.043877044410191
 40
5.043877044410191
 40
5.043877044410191
 40
5.043877044410191
 10
1547.602404795664
 20
1161.569975890731
 30
0.0
 10
1547.602376661587
 20
1159.88868354283
 30
0.0
 10
1547.602348527509
 20
1158.207391194928
 30
0.0
 10
1547.602320393431
 20
1156.526098847027
 30
0.0
 11
1547.602404795664
 21
1161.569975890731
 31
0.0
 11
1547.602320393431
 21
1156.526098847027
 31
0.0
  0
MTEXT
  5
498C
330
A
100
AcDbEntity
  8
DIM
390
1D
100
AcDbMText
 10
1314.279350061039
 20
1166.907922896449
 30
34.99521132346014
 40
24.0
 41
1169.771715461011
 46
26.80905339502313
 71
     1
 72
     1
  1
{壁取付ボルト穴(2ヶ所)}
  7
ＭＳ ゴシック
 11
-2.825347524068039E-15
 21
1.0
 31
0.0
 73
     1
 44
1.174240107638677
1001
ACAD
1000
ACAD_MTEXT_DEFINED_HEIGHT_BEGIN
1070
    46
1040
26.80905339502313
1000
ACAD_MTEXT_DEFINED_HEIGHT_END
  0
DIMENSION
  5
49A9
102
{ACAD_REACTORS
330
49AB
102
}
102
{ACAD_XDICTIONARY
360
49AA
102
}
330
A
100
AcDbEntity
  8
DIM
100
AcDbDimension
  2
*D41
 10
1487.602184968831
 20
1509.90265090365
 30
0.0
 11
1512.600012937687
 21
1509.90265090365
 31
0.0
 70
   160
 71
     5
 42
49.99565593771263
 73
     0
 74
     0
 75
     0
  3
tfrom線あり
100
AcDbAlignedDimension
 13
1537.597840906544
 23
1240.821892167124
 33
0.0
 14
1487.602184968831
 24
1417.620585085829
 34
0.0
100
AcDbRotatedDimension
1001
ACAD
1000
DSTYLE
1002
{
1070
   172
1070
     1
1002
}
  0
SPLINE
  5
49BA
330
A
100
AcDbEntity
  8
HIDDEN
100
AcDbSpline
210
0.0
220
0.0
230
1.0
 70
  1064
 71
     3
 72
    57
 73
    53
 74
    51
 42
0.000000001
 43
0.0000000001
 44
0.0
 40
0.0
 40
0.0
 40
0.0
 40
0.0
 40
1.572475354376838
 40
4.203994203378567
 40
6.428842167615919
 40
6.987781816216988
 40
10.5317073539199
 40
12.78350094702245
 40
17.48767092759138
 40
23.61145467756117
 40
27.92438958847734
 40
31.98485117194527
 40
36.20975307298162
 40
40.17977458890373
 40
44.08810528806684
 40
48.44222469857114
 40
52.36479379958733
 40
55.876393804405
 40
59.15216482825999
 40
62.28696346742016
 40
64.38354852618893
 40
69.28745399563216
 40
73.40092236591923
 40
78.84764078153661
 40
85.40731919523445
 40
91.04211026537466
 40
96.02957831552102
 40
100.9001956054028
 40
107.6909829517652
 40
115.1870985060209
 40
121.253878732713
 40
127.4742382100879
 40
134.4222956485326
 40
142.2417972724611
 40
151.2220003281589
 40
161.1457709127854
 40
168.3385599955933
 40
180.4585192799175
 40
193.5825170966074
 40
208.6950835050713
 40
222.3242176595373
 40
244.2405763656772
 40
259.4037177644777
 40
277.5325512571716
 40
308.1650151861419
 40
331.6846973064338
 40
351.904792468104
 40
372.3640461176602
 40
386.2072373900685
 40
394.539924928672
 40
402.6422234442603
 40
414.0414567333103
 40
414.0414567333103
 40
414.0414567333103
 40
414.0414567333103
 10
1487.602184968831
 20
1416.999606629348
 30
0.0
 10
1487.680086595348
 20
1416.471595999763
 30
0.0
 10
1487.888355669581
 20
1415.059965846119
 30
0.0
 10
1489.750948072948
 20
1413.523407541602
 30
0.0
 10
1491.545353731458
 20
1413.293729043973
 30
0.0
 10
1493.577467335649
 20
1412.723825888581
 30
0.0
 10
1495.603265108981
 20
1412.104076458396
 30
0.0
 10
1498.902685421701
 20
1410.93450786858
 30
0.0
 10
1502.949108636458
 20
1409.303489715612
 30
0.0
 10
1507.491107820578
 20
1407.094996858288
 30
0.0
 10
1511.760623216577
 20
1404.831359353312
 30
0.0
 10
1515.423845326537
 20
1402.77683654114
 30
0.0
 10
1518.917871663902
 20
1400.658354198325
 30
0.0
 10
1522.282670510788
 20
1398.43017578207
 30
0.0
 10
1525.577714501734
 20
1396.026158422912
 30
0.0
 10
1528.746591102866
 20
1393.482574787844
 30
0.0
 10
1531.683011146167
 20
1390.868989055956
 30
0.0
 10
1534.23214623149
 20
1388.3678082811
 30
0.0
 10
1536.48542739493
 20
1385.945249679437
 30
0.0
 10
1538.31846714234
 20
1383.780011926217
 30
0.0
 10
1540.389647220695
 20
1381.110319312064
 30
0.0
 10
1542.505278260399
 20
1378.064988493923
 30
0.0
 10
1545.005411549615
 20
1373.9394204714
 30
0.0
 10
1547.46686630276
 20
1369.158241446943
 30
0.0
 10
1549.855238068594
 20
1363.781939220891
 30
0.0
 10
1551.942304212563
 20
1358.446421352078
 30
0.0
 10
1553.613099410988
 20
1353.558683313104
 30
0.0
 10
1555.271404585377
 20
1348.262495135128
 30
0.0
 10
1557.144228696247
 20
1342.157378328509
 30
0.0
 10
1559.046258115315
 20
1335.644638833038
 30
0.0
 10
1560.8318875687
 20
1329.296562594766
 30
0.0
 10
1562.541980002109
 20
1323.117015726312
 30
0.0
 10
1564.338833458325
 20
1316.355660324068
 30
0.0
 10
1566.342510705893
 20
1308.69746596654
 30
0.0
 10
1568.492150134642
 20
1300.052567762687
 30
0.0
 10
1570.474901017229
 20
1291.582485240482
 30
0.0
 10
1572.676001610672
 20
1282.088870627462
 30
0.0
 10
1575.053449033281
 20
1271.540750582585
 30
0.0
 10
1577.75138591467
 20
1258.361303715669
 30
0.0
 10
1580.438631134623
 20
1244.667257978633
 30
0.0
 10
1583.552777337564
 20
1228.070410386942
 30
0.0
 10
1586.343732434886
 20
1211.398211311776
 30
0.0
 10
1589.169454644824
 20
1193.213714026128
 30
0.0
 10
1592.259692096662
 20
1172.129985943793
 30
0.0
 10
1595.207794384821
 20
1148.215173028719
 30
0.0
 10
1597.880101423805
 20
1123.567532123328
 30
0.0
 10
1599.733820733281
 20
1102.247682964412
 30
0.0
 10
1601.146804026528
 20
1084.127178063366
 30
0.0
 10
1602.005477378893
 20
1069.942613144945
 30
0.0
 10
1602.616563806457
 20
1059.865382040003
 30
0.0
 10
1602.623811693901
 20
1050.5845479795
 30
0.0
 10
1602.622582822561
 20
1044.084505493325
 30
0.0
 10
1602.621864510214
 20
1040.285034691189
 30
0.0
 11
1487.602184968831
 21
1416.999606629348
 31
0.0
 11
1487.977159539514
 21
1415.47249405607
 31
0.0
 11
1489.928137746777
 21
1413.706545164557
 31
0.0
 11
1492.079205727702
 21
1413.138341851111
 31
0.0
 11
1492.618674594044
 21
1412.992099336684
 31
0.0
 11
1496.00531108946
 21
1411.948020094146
 31
0.0
 11
1498.128517063663
 21
1411.197972910932
 31
0.0
 11
1502.490752466177
 21
1409.437257857569
 31
0.0
 11
1508.014655356117
 21
1406.793922033481
 31
0.0
 11
1511.826680069116
 21
1404.776528880602
 31
0.0
 11
1515.364748139147
 21
1402.784187895066
 31
0.0
 11
1518.975087606824
 21
1400.589821243498
 31
0.0
 11
1522.2825379218
 21
1398.393951654736
 31
0.0
 11
1525.440430023432
 21
1396.091178038318
 31
0.0
 11
1528.833700938393
 21
1393.362796038192
 31
0.0
 11
1531.762448527533
 21
1390.753392675093
 31
0.0
 11
1534.268437372139
 21
1388.293442573049
 31
0.0
 11
1536.497982069219
 21
1385.893482939128
 31
0.0
 11
1538.521288454802
 21
1383.499074081364
 31
0.0
 11
1539.807174164427
 21
1381.84312515388
 31
0.0
 11
1542.609055229337
 21
1377.818482144701
 31
0.0
 11
1544.739287145404
 21
1374.299571231205
 31
0.0
 11
1547.254147038226
 21
1369.468192419882
 31
0.0
 11
1549.93134572644
 21
1363.479704457553
 31
0.0
 11
1551.980204885745
 21
1358.230604863388
 31
0.0
 11
1553.604913659689
 21
1353.515187707812
 31
0.0
 11
1555.076392520469
 21
1348.872164689694
 31
0.0
 11
1557.061363696089
 21
1342.377960949783
 31
0.0
 11
1559.16661464215
 21
1335.18354180319
 31
0.0
 11
1560.813965788905
 21
1329.344701462997
 31
0.0
 11
1562.467615606746
 21
1323.348176276881
 31
0.0
 11
1564.260171007604
 21
1316.635334307731
 31
0.0
 11
1566.230263144193
 21
1309.068079678741
 31
0.0
 11
1568.397209409077
 21
1300.35324228458
 31
0.0
 11
1570.678417422579
 21
1290.695224236583
 31
0.0
 11
1572.29972072948
 21
1283.68754342359
 31
0.0
 11
1574.942370584133
 21
1271.859195491635
 31
0.0
 11
1577.602187150308
 21
1259.007553786126
 31
0.0
 11
1580.51228699034
 21
1244.177820734878
 31
0.0
 11
1583.009702755269
 21
1230.779454703995
 31
0.0
 11
1586.665470542951
 21
1209.170147893763
 31
0.0
 11
1588.998042428599
 21
1194.187492405556
 31
0.0
 11
1591.604317632984
 21
1176.246981449487
 31
0.0
 11
1595.413770672489
 21
1145.85231228038
 31
0.0
 11
1597.909411655897
 21
1122.465409468731
 31
0.0
 11
1599.697175506486
 21
1102.324502121704
 31
0.0
 11
1601.247786189713
 21
1081.924093635452
 31
0.0
 11
1602.116825235095
 21
1068.108207281617
 31
0.0
 11
1602.537048131136
 21
1059.78612254679
 31
0.0
 11
1602.621864510214
 21
1051.684267980239
 31
0.0
 11
1602.621864510214
 21
1040.285034691189
 31
0.0
  0
SPLINE
  5
49BD
330
A
100
AcDbEntity
  8
HIDDEN
100
AcDbSpline
210
0.0
220
0.0
230
1.0
 70
  1064
 71
     3
 72
    57
 73
    53
 74
    51
 42
0.000000001
 43
0.0000000001
 44
0.0
 40
0.0
 40
0.0
 40
0.0
 40
0.0
 40
1.572475354377004
 40
4.203994203378123
 40
6.428842167615811
 40
6.98778181621672
 40
10.53170735391956
 40
12.78350094702248
 40
17.48767092759056
 40
23.61145467756016
 40
27.92438958847672
 40
31.98485117194408
 40
36.20975307298043
 40
40.17977458890349
 40
44.08810528806555
 40
48.44222469857088
 40
52.36479379958591
 40
55.87639380440439
 40
59.15216482825843
 40
62.28696346741953
 40
64.38354852618862
 40
69.2874539956313
 40
73.40092236591835
 40
78.84764078153634
 40
85.40731919523418
 40
91.04211026537388
 40
96.02957831552075
 40
100.900195605402
 40
107.6909829517651
 40
115.1870985060201
 40
121.2538787327127
 40
127.4742382100876
 40
134.4222956485324
 40
142.2417972724606
 40
151.2220003281579
 40
161.1457709127844
 40
168.3385599955926
 40
180.458519279917
 40
193.5825170966068
 40
208.6950835050703
 40
222.3242176595369
 40
244.2405763656765
 40
259.4037177644776
 40
277.532551257171
 40
308.1650151861414
 40
331.6846973064332
 40
351.9047924681038
 40
372.3640461176599
 40
386.2072373900681
 40
394.539924928671
 40
402.6422234442595
 40
414.0414567333098
 40
414.0414567333098
 40
414.0414567333098
 40
414.0414567333098
 10
1487.60218496883
 20
626.1488447237407
 30
0.0
 10
1487.680086595347
 20
626.6768553533261
 30
0.0
 10
1487.88835566958
 20
628.0884855069693
 30
0.0
 10
1489.750948072947
 20
629.6250438114862
 30
0.0
 10
1491.545353731457
 20
629.8547223091143
 30
0.0
 10
1493.577467335647
 20
630.4246254645084
 30
0.0
 10
1495.60326510898
 20
631.0443748946925
 30
0.0
 10
1498.902685421699
 20
632.213943484509
 30
0.0
 10
1502.949108636457
 20
633.8449616374767
 30
0.0
 10
1507.491107820577
 20
636.0534544948011
 30
0.0
 10
1511.760623216576
 20
638.3170919997759
 30
0.0
 10
1515.423845326535
 20
640.3716148119479
 30
0.0
 10
1518.9178716639
 20
642.4900971547638
 30
0.0
 10
1522.282670510787
 20
644.718275571017
 30
0.0
 10
1525.577714501733
 20
647.1222929301774
 30
0.0
 10
1528.746591102864
 20
649.6658765652429
 30
0.0
 10
1531.683011146165
 20
652.2794622971336
 30
0.0
 10
1534.232146231488
 20
654.7806430719875
 30
0.0
 10
1536.485427394929
 20
657.203201673651
 30
0.0
 10
1538.318467142338
 20
659.3684394268712
 30
0.0
 10
1540.389647220694
 20
662.0381320410243
 30
0.0
 10
1542.505278260398
 20
665.0834628591649
 30
0.0
 10
1545.005411549614
 20
669.2090308816876
 30
0.0
 10
1547.46686630276
 20
673.990209906146
 30
0.0
 10
1549.855238068593
 20
679.3665121321967
 30
0.0
 10
1551.942304212561
 20
684.70203000101
 30
0.0
 10
1553.613099410988
 20
689.5897680399842
 30
0.0
 10
1555.271404585374
 20
694.8859562179604
 30
0.0
 10
1557.144228696247
 20
700.9910730245791
 30
0.0
 10
1559.046258115314
 20
707.5038125200506
 30
0.0
 10
1560.831887568699
 20
713.8518887583218
 30
0.0
 10
1562.541980002109
 20
720.0314356267761
 30
0.0
 10
1564.338833458325
 20
726.7927910290198
 30
0.0
 10
1566.342510705889
 20
734.4509853865495
 30
0.0
 10
1568.492150134642
 20
743.0958835904008
 30
0.0
 10
1570.474901017228
 20
751.565966112606
 30
0.0
 10
1572.676001610671
 20
761.0595807256254
 30
0.0
 10
1575.053449033281
 20
771.6077007705026
 30
0.0
 10
1577.751385914668
 20
784.7871476374189
 30
0.0
 10
1580.438631134622
 20
798.4811933744552
 30
0.0
 10
1583.552777337562
 20
815.0780409661459
 30
0.0
 10
1586.343732434887
 20
831.7502400413124
 30
0.0
 10
1589.169454644823
 20
849.9347373269595
 30
0.0
 10
1592.259692096663
 20
871.018465409296
 30
0.0
 10
1595.207794384819
 20
894.9332783243685
 30
0.0
 10
1597.880101423806
 20
919.5809192297606
 30
0.0
 10
1599.733820733278
 20
940.900768388676
 30
0.0
 10
1601.14680402653
 20
959.0212732897221
 30
0.0
 10
1602.005477378891
 20
973.205838208143
 30
0.0
 10
1602.616563806457
 20
983.2830693130848
 30
0.0
 10
1602.623811693901
 20
992.5639033735877
 30
0.0
 10
1602.622582822561
 20
999.063945859763
 30
0.0
 10
1602.621864510214
 20
1002.863416661899
 30
0.0
 11
1487.60218496883
 21
626.1488447237407
 31
0.0
 11
1487.977159539513
 21
627.6759572970188
 31
0.0
 11
1489.928137746776
 21
629.441906188531
 31
0.0
 11
1492.079205727701
 21
630.0101095019775
 31
0.0
 11
1492.618674594043
 21
630.1563520164045
 31
0.0
 11
1496.005311089459
 21
631.2004312589424
 31
0.0
 11
1498.128517063662
 21
631.9504784421567
 31
0.0
 11
1502.490752466175
 21
633.7111934955199
 31
0.0
 11
1508.014655356115
 21
636.3545293196073
 31
0.0
 11
1511.826680069115
 21
638.371922472486
 31
0.0
 11
1515.364748139145
 21
640.3642634580224
 31
0.0
 11
1518.975087606822
 21
642.5586301095905
 31
0.0
 11
1522.282537921799
 21
644.7544996983524
 31
0.0
 11
1525.44043002343
 21
647.0572733147701
 31
0.0
 11
1528.833700938392
 21
649.7856553148963
 31
0.0
 11
1531.762448527531
 21
652.3950586779949
 31
0.0
 11
1534.268437372138
 21
654.855008780039
 31
0.0
 11
1536.497982069217
 21
657.2549684139597
 31
0.0
 11
1538.521288454801
 21
659.6493772717242
 31
0.0
 11
1539.807174164426
 21
661.3053261992084
 31
0.0
 11
1542.609055229336
 21
665.3299692083867
 31
0.0
 11
1544.739287145403
 21
668.8488801218828
 31
0.0
 11
1547.254147038225
 21
673.6802589332065
 31
0.0
 11
1549.931345726439
 21
679.6687468955354
 31
0.0
 11
1551.980204885744
 21
684.9178464897
 31
0.0
 11
1553.604913659688
 21
689.6332636452764
 31
0.0
 11
1555.076392520467
 21
694.2762866633941
 31
0.0
 11
1557.061363696088
 21
700.7704904033055
 31
0.0
 11
1559.166614642149
 21
707.9649095498978
 31
0.0
 11
1560.813965788904
 21
713.8037498900915
 31
0.0
 11
1562.467615606745
 21
719.8002750762073
 31
0.0
 11
1564.260171007603
 21
726.5131170453574
 31
0.0
 11
1566.230263144191
 21
734.0803716743474
 31
0.0
 11
1568.397209409076
 21
742.7952090685078
 31
0.0
 11
1570.678417422578
 21
752.4532271165046
 31
0.0
 11
1572.299720729479
 21
759.460907929498
 31
0.0
 11
1574.942370584132
 21
771.2892558614531
 31
0.0
 11
1577.602187150307
 21
784.1408975669622
 31
0.0
 11
1580.512286990339
 21
798.9706306182097
 31
0.0
 11
1583.009702755268
 21
812.3689966490931
 31
0.0
 11
1586.665470542951
 21
833.9783034593247
 31
0.0
 11
1588.998042428598
 21
848.9609589475326
 31
0.0
 11
1591.604317632984
 21
866.9014699036009
 31
0.0
 11
1595.413770672488
 21
897.2961390727082
 31
0.0
 11
1597.909411655897
 21
920.683041884357
 31
0.0
 11
1599.697175506485
 21
940.8239492313844
 31
0.0
 11
1601.247786189713
 21
961.2243577176362
 31
0.0
 11
1602.116825235094
 21
975.0402440714711
 31
0.0
 11
1602.537048131136
 21
983.3623288062975
 31
0.0
 11
1602.621864510214
 21
991.4641833728488
 31
0.0
 11
1602.621864510214
 21
1002.863416661899
 31
0.0
  0
LINE
  5
49BE
330
A
100
AcDbEntity
  8
HIDDEN
100
AcDbLine
 10
1602.788377933987
 20
1028.068189150649
 30
0.0
 11
1602.788377933987
 21
1015.137137580321
 31
0.0
  0
DIMENSION
  5
49C2
102
{ACAD_REACTORS
330
49C4
102
}
102
{ACAD_XDICTIONARY
360
49C3
102
}
330
A
100
AcDbEntity
  8
DIM
100
AcDbDimension
  2
*D42
 10
1647.601030822713
 20
521.9843135361522
 30
0.0
 11
1567.601607895772
 21
553.9888152242852
 31
0.0
 70
    32
 71
     5
 42
159.998845853883
 73
     0
 74
     0
 75
     0
  3
tfrom線あり
100
AcDbAlignedDimension
 13
1487.60218496883
 23
624.3144966930486
 33
0.0
 14
1647.601030822713
 24
993.3563274396959
 34
0.0
100
AcDbRotatedDimension
  0
CIRCLE
  5
49D4
102
{ACAD_REACTORS
330
4A5B
330
4A6A
102
}
330
A
100
AcDbEntity
  8
HIDDEN
 48
0.5
100
AcDbCircle
 10
430.3549587588252
 20
1021.586057610266
 30
0.0
 40
17.5
  0
CIRCLE
  5
49D5
102
{ACAD_REACTORS
330
4A6A
102
}
330
A
100
AcDbEntity
  8
HIDDEN
 48
0.5
100
AcDbCircle
 10
430.3549587588253
 20
1121.586057610266
 30
0.0
 40
17.5
  0
CIRCLE
  5
49D6
102
{ACAD_REACTORS
330
4A5B
102
}
330
A
100
AcDbEntity
  8
HIDDEN
 48
0.5
100
AcDbCircle
 10
430.3549587588251
 20
921.5860576102657
 30
0.0
 40
17.5
  0
SPLINE
  5
49D7
330
A
100
AcDbEntity
  8
HIDDEN
100
AcDbSpline
210
0.0
220
0.0
230
1.0
 70
    11
 71
     3
 72
    17
 73
    13
 74
     0
 42
0.000000001
 43
0.0000000001
 40
0.0
 40
0.0
 40
0.0
 40
0.0
 40
1.0
 40
1.0
 40
1.0
 40
2.0
 40
2.0
 40
2.0
 40
3.0
 40
3.0
 40
3.0
 40
4.0
 40
4.0
 40
4.0
 40
4.0
 10
580.3172726075873
 20
2192.741804482957
 30
0.0
 10
567.610253325588
 20
2192.741804482957
 30
0.0
 10
557.3092025847591
 20
2203.049960733169
 30
0.0
 10
557.3092025847591
 20
2215.771083374704
 30
0.0
 10
557.3092025847591
 20
2228.492206016237
 30
0.0
 10
567.610253325588
 20
2238.800469925683
 30
0.0
 10
580.3172726075873
 20
2238.800469925683
 30
0.0
 10
593.0172940394341
 20
2238.800469925683
 30
0.0
 10
603.3184524394974
 20
2228.492206016237
 30
0.0
 10
603.3184524394974
 20
2215.771083374704
 30
0.0
 10
603.3184524394974
 20
2203.049960733169
 30
0.0
 10
593.0172940394341
 20
2192.741804482957
 30
0.0
 10
580.3172726075873
 20
2192.741804482957
 30
0.0
  0
SPLINE
  5
49D8
330
A
100
AcDbEntity
  8
HIDDEN
100
AcDbSpline
210
0.0
220
0.0
230
1.0
 70
    11
 71
     3
 72
    17
 73
    13
 74
     0
 42
0.000000001
 43
0.0000000001
 40
0.0
 40
0.0
 40
0.0
 40
0.0
 40
1.0
 40
1.0
 40
1.0
 40
2.0
 40
2.0
 40
2.0
 40
3.0
 40
3.0
 40
3.0
 40
4.0
 40
4.0
 40
4.0
 40
4.0
 10
580.3172726075873
 20
2178.256685307191
 30
0.0
 10
559.6233378000989
 20
2178.256685307191
 30
0.0
 10
542.8522901280639
 20
2195.048834188914
 30
0.0
 10
542.8522901280639
 20
2215.763977865321
 30
0.0
 10
542.8522901280639
 20
2236.479121541728
 30
0.0
 10
559.6233378000989
 20
2253.271270423449
 30
0.0
 10
580.3172726075873
 20
2253.271270423449
 30
0.0
 10
601.0042095649233
 20
2253.271270423449
 30
0.0
 10
617.7752572369582
 20
2236.479121541728
 30
0.0
 10
617.7752572369582
 20
2215.763977865321
 30
0.0
 10
617.7752572369582
 20
2195.048834188914
 30
0.0
 10
601.0042095649233
 20
2178.256685307191
 30
0.0
 10
580.3172726075873
 20
2178.256685307191
 30
0.0
  0
SPLINE
  5
49D9
330
A
100
AcDbEntity
  8
HIDDEN
100
AcDbSpline
210
0.0
220
0.0
230
1.0
 70
     8
 71
     3
 72
     8
 73
     4
 74
     0
 42
0.000000001
 43
0.0000000001
 40
0.0
 40
0.0
 40
0.0
 40
0.0
 40
1.0
 40
1.0
 40
1.0
 40
1.0
 10
555.3899614364061
 20
2601.117283614679
 30
0.0
 10
554.2611543774226
 20
2601.110178105294
 30
0.0
 10
553.1322396592084
 20
2601.096074745759
 30
0.0
 10
552.0033249409905
 20
2601.039661307619
 30
0.0
  0
SPLINE
  5
49DA
330
A
100
AcDbEntity
  8
HIDDEN
100
AcDbSpline
210
0.0
220
0.0
230
1.0
 70
     8
 71
     3
 72
     8
 73
     4
 74
     0
 42
0.000000001
 43
0.0000000001
 40
1.0
 40
1.0
 40
1.0
 40
1.0
 40
2.0
 40
2.0
 40
2.0
 40
2.0
 10
552.0033249409905
 20
2601.039661307619
 30
0.0
 10
546.0484774401382
 20
2600.743275438913
 30
0.0
 10
540.0442143512926
 20
2599.614360720697
 30
0.0
 10
534.4279551385159
 20
2597.57529484591
 30
0.0
  0
SPLINE
  5
49DC
330
A
100
AcDbEntity
  8
HIDDEN
100
AcDbSpline
210
0.0
220
0.0
230
1.0
 70
     8
 71
     3
 72
     8
 73
     4
 74
     0
 42
0.000000001
 43
0.0000000001
 40
3.0
 40
3.0
 40
3.0
 40
3.0
 40
4.0
 40
4.0
 40
4.0
 40
4.0
 10
518.3130904921861
 20
2589.101651927607
 30
0.0
 10
513.3742231740332
 20
2585.517353080233
 30
0.0
 10
508.9856021962194
 20
2581.227670937631
 30
0.0
 10
505.2602697534903
 20
2576.408628345909
 30
0.0
  0
SPLINE
  5
49DE
330
A
100
AcDbEntity
  8
HIDDEN
100
AcDbSpline
210
0.0
220
0.0
230
1.0
 70
     8
 71
     3
 72
     8
 73
     4
 74
     0
 42
0.000000001
 43
0.0000000001
 40
5.0
 40
5.0
 40
5.0
 40
5.0
 40
6.0
 40
6.0
 40
6.0
 40
6.0
 10
496.3773064309653
 20
2560.76649539209
 30
0.0
 10
494.2113103203637
 20
2555.206757276688
 30
0.0
 10
492.7225984451516
 20
2549.428255599641
 30
0.0
 10
491.8970674457896
 20
2543.515718177393
 30
0.0
  0
SPLINE
  5
49E0
330
A
100
AcDbEntity
  8
HIDDEN
100
AcDbSpline
210
0.0
220
0.0
230
1.0
 70
    24
 71
     3
 72
     8
 73
     4
 74
     0
 42
0.000000001
 43
0.0000000001
 40
7.0
 40
7.0
 40
7.0
 40
7.0
 40
8.0
 40
8.0
 40
8.0
 40
8.0
 10
490.9021884727745
 20
2525.277059839831
 30
0.0
 10
490.9021884727745
 20
2525.277059839831
 30
0.0
 10
490.9021884727747
 20
1906.264999250344
 30
0.0
 10
490.9021884727747
 20
1906.264999250344
 30
0.0
  0
SPLINE
  5
49E2
330
A
100
AcDbEntity
  8
HIDDEN
100
AcDbSpline
210
0.0
220
0.0
230
1.0
 70
     8
 71
     3
 72
     8
 73
     4
 74
     0
 42
0.000000001
 43
0.0000000001
 40
9.0
 40
9.0
 40
9.0
 40
9.0
 40
10.0
 40
10.0
 40
10.0
 40
10.0
 10
491.8970674457898
 20
1888.019343062631
 30
0.0
 10
492.7225984451518
 20
1882.106805640383
 30
0.0
 10
494.211310320364
 20
1876.328303963335
 30
0.0
 10
496.3773064309655
 20
1870.768512018316
 30
0.0
  0
SPLINE
  5
49E4
330
A
100
AcDbEntity
  8
HIDDEN
100
AcDbSpline
210
0.0
220
0.0
230
1.0
 70
     8
 71
     3
 72
     8
 73
     4
 74
     0
 42
0.000000001
 43
0.0000000001
 40
11.0
 40
11.0
 40
11.0
 40
11.0
 40
12.0
 40
12.0
 40
12.0
 40
12.0
 10
505.2602697534905
 20
1855.133376914647
 30
0.0
 10
508.9856021962198
 20
1850.31444198216
 30
0.0
 10
513.3742231740337
 20
1846.017600500559
 30
0.0
 10
518.3130904921866
 20
1842.433409312418
 30
0.0
  0
SPLINE
  5
49E6
330
A
100
AcDbEntity
  8
HIDDEN
100
AcDbSpline
210
0.0
220
0.0
230
1.0
 70
     8
 71
     3
 72
     8
 73
     4
 74
     0
 42
0.000000001
 43
0.0000000001
 40
13.0
 40
13.0
 40
13.0
 40
13.0
 40
14.0
 40
14.0
 40
14.0
 40
14.0
 10
534.4279551385164
 20
1833.95965873488
 30
0.0
 10
540.044214351293
 20
1831.92064668971
 30
0.0
 10
546.0484774401386
 20
1830.791731971494
 30
0.0
 10
552.003324940991
 20
1830.495399932406
 30
0.0
  0
SPLINE
  5
49E7
330
A
100
AcDbEntity
  8
HIDDEN
100
AcDbSpline
210
0.0
220
0.0
230
1.0
 70
     8
 71
     3
 72
     8
 73
     4
 74
     0
 42
0.000000001
 43
0.0000000001
 40
14.0
 40
14.0
 40
14.0
 40
14.0
 40
15.0
 40
15.0
 40
15.0
 40
15.0
 10
552.003324940991
 20
1830.495399932406
 30
0.0
 10
553.1322396592088
 20
1830.446038174031
 30
0.0
 10
554.261154377423
 20
1830.424829305113
 30
0.0
 10
555.3899614364066
 20
1830.417777625345
 30
0.0
  0
SPLINE
  5
49E8
330
A
100
AcDbEntity
  8
HIDDEN
100
AcDbSpline
210
0.0
220
0.0
230
1.0
 70
    24
 71
     3
 72
     8
 73
     4
 74
     0
 42
0.000000001
 43
0.0000000001
 40
0.0
 40
0.0
 40
0.0
 40
0.0
 40
1.0
 40
1.0
 40
1.0
 40
1.0
 10
816.8617255315376
 20
2201.080038853669
 30
0.0
 10
816.8617255315376
 20
2201.080038853669
 30
0.0
 10
816.8617255315378
 20
1891.166060957099
 30
0.0
 10
816.8617255315378
 20
1891.166060957099
 30
0.0
  0
SPLINE
  5
49E9
330
A
100
AcDbEntity
  8
HIDDEN
100
AcDbSpline
210
0.0
220
0.0
230
1.0
 70
     8
 71
     3
 72
     8
 73
     4
 74
     0
 42
0.000000001
 43
0.0000000001
 40
1.0
 40
1.0
 40
1.0
 40
1.0
 40
2.0
 40
2.0
 40
2.0
 40
2.0
 10
816.8617255315378
 20
1891.166060957099
 30
0.0
 10
816.7912087338639
 20
1885.366404240747
 30
0.0
 10
816.5725528314517
 20
1879.616109282769
 30
0.0
 10
815.19666783252
 20
1873.94349046147
 30
0.0
  0
SPLINE
  5
49EB
330
A
100
AcDbEntity
  8
HIDDEN
100
AcDbSpline
210
0.0
220
0.0
230
1.0
 70
     8
 71
     3
 72
     8
 73
     4
 74
     0
 42
0.000000001
 43
0.0000000001
 40
3.0
 40
3.0
 40
3.0
 40
3.0
 40
4.0
 40
4.0
 40
4.0
 40
4.0
 10
808.5291162085862
 20
1856.777279574366
 30
0.0
 10
805.3964478440405
 20
1851.41509615169
 30
0.0
 10
801.6923242702335
 20
1846.645522977575
 30
0.0
 10
797.3038109516503
 20
1842.24990414961
 30
0.0
  0
SPLINE
  5
49ED
330
A
100
AcDbEntity
  8
HIDDEN
100
AcDbSpline
210
0.0
220
0.0
230
1.0
 70
     8
 71
     3
 72
     8
 73
     4
 74
     0
 42
0.000000001
 43
0.0000000001
 40
5.0
 40
5.0
 40
5.0
 40
5.0
 40
6.0
 40
6.0
 40
6.0
 40
6.0
 10
782.7128627497561
 20
1831.617209141237
 30
0.0
 10
777.2730570200195
 20
1828.766769456244
 30
0.0
 10
771.4522452643662
 20
1826.621874555327
 30
0.0
 10
765.433878815985
 20
1825.387130810981
 30
0.0
  0
SPLINE
  5
49EF
330
A
100
AcDbEntity
  8
HIDDEN
100
AcDbSpline
210
0.0
220
0.0
230
1.0
 70
    24
 71
     3
 72
     8
 73
     4
 74
     0
 42
0.000000001
 43
0.0000000001
 40
7.0
 40
7.0
 40
7.0
 40
7.0
 40
8.0
 40
8.0
 40
8.0
 40
8.0
 10
748.366445275243
 20
1823.961937883292
 30
0.0
 10
748.366445275243
 20
1823.961937883292
 30
0.0
 10
441.1605006659313
 20
1826.381955954379
 30
0.0
 10
441.1605006659313
 20
1826.381955954379
 30
0.0
  0
SPLINE
  5
49F1
330
A
100
AcDbEntity
  8
HIDDEN
100
AcDbSpline
210
0.0
220
0.0
230
1.0
 70
     8
 71
     3
 72
     8
 73
     4
 74
     0
 42
0.000000001
 43
0.0000000001
 40
9.0
 40
9.0
 40
9.0
 40
9.0
 40
10.0
 40
10.0
 40
10.0
 40
10.0
 10
424.0366536870472
 20
1828.689147149183
 30
0.0
 10
418.4274999836573
 20
1830.241377971922
 30
0.0
 10
413.1358333586552
 20
1832.604982604867
 30
0.0
 10
408.1757571715837
 20
1835.638873623052
 30
0.0
  0
SPLINE
  5
49F3
330
A
100
AcDbEntity
  8
HIDDEN
100
AcDbSpline
210
0.0
220
0.0
230
1.0
 70
     8
 71
     3
 72
     8
 73
     4
 74
     0
 42
0.000000001
 43
0.0000000001
 40
11.0
 40
11.0
 40
11.0
 40
11.0
 40
12.0
 40
12.0
 40
12.0
 40
12.0
 10
394.946590609082
 20
1846.701990245332
 30
0.0
 10
391.0308089830153
 20
1851.139919151903
 30
0.0
 10
387.7782082328024
 20
1855.987060803461
 30
0.0
 10
385.1887883584434
 20
1861.306987977148
 30
0.0
  0
SPLINE
  5
49F5
330
A
100
AcDbEntity
  8
HIDDEN
100
AcDbSpline
210
0.0
220
0.0
230
1.0
 70
     8
 71
     3
 72
     8
 73
     4
 74
     0
 42
0.000000001
 43
0.0000000001
 40
13.0
 40
13.0
 40
13.0
 40
13.0
 40
14.0
 40
14.0
 40
14.0
 40
14.0
 10
380.0734675572505
 20
1877.647614035277
 30
0.0
 10
379.5443224265957
 20
1881.189548974429
 30
0.0
 10
379.2973521458782
 20
1884.703169535276
 30
0.0
 10
379.2832487863427
 20
1888.280362873267
 30
0.0
  0
SPLINE
  5
49F6
330
A
100
AcDbEntity
  8
HIDDEN
100
AcDbSpline
210
0.0
220
0.0
230
1.0
 70
    24
 71
     3
 72
     8
 73
     4
 74
     0
 42
0.000000001
 43
0.0000000001
 40
14.0
 40
14.0
 40
14.0
 40
14.0
 40
15.0
 40
15.0
 40
15.0
 40
15.0
 10
379.2832487863427
 20
1888.280362873267
 30
0.0
 10
379.2832487863427
 20
1888.280362873267
 30
0.0
 10
379.2832487863425
 20
2543.247539027757
 30
0.0
 10
379.2832487863425
 20
2543.247539027757
 30
0.0
  0
SPLINE
  5
49F7
330
A
100
AcDbEntity
  8
HIDDEN
100
AcDbSpline
210
0.0
220
0.0
230
1.0
 70
     8
 71
     3
 72
     8
 73
     4
 74
     0
 42
0.000000001
 43
0.0000000001
 40
15.0
 40
15.0
 40
15.0
 40
15.0
 40
16.0
 40
16.0
 40
16.0
 40
16.0
 10
379.2832487863425
 20
2543.247539027757
 30
0.0
 10
379.297352145878
 20
2546.824732365747
 30
0.0
 10
379.5443224265955
 20
2550.345404606361
 30
0.0
 10
380.0734675572503
 20
2553.880287865746
 30
0.0
  0
SPLINE
  5
49F9
330
A
100
AcDbEntity
  8
HIDDEN
100
AcDbSpline
210
0.0
220
0.0
230
1.0
 70
     8
 71
     3
 72
     8
 73
     4
 74
     0
 42
0.000000001
 43
0.0000000001
 40
17.0
 40
17.0
 40
17.0
 40
17.0
 40
18.0
 40
18.0
 40
18.0
 40
18.0
 10
385.1887883584432
 20
2570.228019433259
 30
0.0
 10
387.7782082328022
 20
2575.547892777331
 30
0.0
 10
391.030808983015
 20
2580.388036578735
 30
0.0
 10
394.9465906090816
 20
2584.825965485306
 30
0.0
  0
SPLINE
  5
49FB
330
A
100
AcDbEntity
  8
HIDDEN
100
AcDbSpline
210
0.0
220
0.0
230
1.0
 70
     8
 71
     3
 72
     8
 73
     4
 74
     0
 42
0.000000001
 43
0.0000000001
 40
19.0
 40
19.0
 40
19.0
 40
19.0
 40
20.0
 40
20.0
 40
20.0
 40
20.0
 10
408.1757571715832
 20
2595.896133787353
 30
0.0
 10
413.1358333586547
 20
2598.929970975923
 30
0.0
 10
418.4274999836568
 20
2601.2865239291
 30
0.0
 10
424.0366536870467
 20
2602.845860261224
 30
0.0
  0
SPLINE
  5
49FD
330
A
100
AcDbEntity
  8
HIDDEN
100
AcDbSpline
210
0.0
220
0.0
230
1.0
 70
    24
 71
     3
 72
     8
 73
     4
 74
     0
 42
0.000000001
 43
0.0000000001
 40
21.0
 40
21.0
 40
21.0
 40
21.0
 40
22.0
 40
22.0
 40
22.0
 40
22.0
 10
441.1605006659308
 20
2605.152997626413
 30
0.0
 10
441.1605006659308
 20
2605.152997626413
 30
0.0
 10
748.3664452752425
 20
2607.565964017732
 30
0.0
 10
748.3664452752425
 20
2607.565964017732
 30
0.0
  0
SPLINE
  5
49FE
330
A
100
AcDbEntity
  8
HIDDEN
100
AcDbSpline
210
0.0
220
0.0
230
1.0
 70
     8
 71
     3
 72
     8
 73
     4
 74
     0
 42
0.000000001
 43
0.0000000001
 40
22.0
 40
22.0
 40
22.0
 40
22.0
 40
23.0
 40
23.0
 40
23.0
 40
23.0
 10
748.3664452752425
 20
2607.565964017732
 30
0.0
 10
754.1237380833743
 20
2607.502445070207
 30
0.0
 10
759.7753095246051
 20
2607.297892527331
 30
0.0
 10
765.4338788159846
 20
2606.140771090042
 30
0.0
  0
SPLINE
  5
4A00
330
A
100
AcDbEntity
  8
HIDDEN
100
AcDbSpline
210
0.0
220
0.0
230
1.0
 70
     8
 71
     3
 72
     8
 73
     4
 74
     0
 42
0.000000001
 43
0.0000000001
 40
24.0
 40
24.0
 40
24.0
 40
24.0
 40
25.0
 40
25.0
 40
25.0
 40
25.0
 10
782.7128627497557
 20
2599.910746589403
 30
0.0
 10
788.0045293747542
 20
2597.144980891237
 30
0.0
 10
793.0845379474929
 20
2593.525477474643
 30
0.0
 10
797.3038109516499
 20
2589.284995601563
 30
0.0
  0
SPLINE
  5
4A02
330
A
100
AcDbEntity
  8
HIDDEN
100
AcDbSpline
210
0.0
220
0.0
230
1.0
 70
     8
 71
     3
 72
     8
 73
     4
 74
     0
 42
0.000000001
 43
0.0000000001
 40
26.0
 40
26.0
 40
26.0
 40
26.0
 40
27.0
 40
27.0
 40
27.0
 40
27.0
 10
808.5291162085857
 20
2574.750568497042
 30
0.0
 10
811.6406833634471
 20
2569.430695152971
 30
0.0
 10
813.7361626763748
 20
2563.560467809328
 30
0.0
 10
815.1966678325196
 20
2557.591516948938
 30
0.0
  0
SPLINE
  5
4A04
330
A
100
AcDbEntity
  8
HIDDEN
100
AcDbSpline
210
0.0
220
0.0
230
1.0
 70
    24
 71
     3
 72
     8
 73
     4
 74
     0
 42
0.000000001
 43
0.0000000001
 40
28.0
 40
28.0
 40
28.0
 40
28.0
 40
29.0
 40
29.0
 40
29.0
 40
29.0
 10
816.8617255315373
 20
2540.361840943924
 30
0.0
 10
816.8617255315373
 20
2540.361840943924
 30
0.0
 10
816.8617255315376
 20
2226.254352529257
 30
0.0
 10
816.8617255315376
 20
2226.254352529257
 30
0.0
  0
SPLINE
  5
4A05
330
A
100
AcDbEntity
  8
HIDDEN
100
AcDbSpline
210
0.0
220
0.0
230
1.0
 70
    24
 71
     3
 72
     8
 73
     4
 74
     0
 42
0.000000001
 43
0.0000000001
 40
0.0
 40
0.0
 40
0.0
 40
0.0
 40
1.0
 40
1.0
 40
1.0
 40
1.0
 10
825.363682828146
 20
2215.763977865321
 30
0.0
 10
825.363682828146
 20
2215.763977865321
 30
0.0
 10
825.3636828281462
 20
1820.765750571219
 30
0.0
 10
825.3636828281462
 20
1820.765750571219
 30
0.0
  0
SPLINE
  5
4A06
330
A
100
AcDbEntity
  8
HIDDEN
100
AcDbSpline
210
0.0
220
0.0
230
1.0
 70
     8
 71
     3
 72
     8
 73
     4
 74
     0
 42
0.000000001
 43
0.0000000001
 40
1.0
 40
1.0
 40
1.0
 40
1.0
 40
2.0
 40
2.0
 40
2.0
 40
2.0
 10
825.3636828281462
 20
1820.765750571219
 30
0.0
 10
825.1873370043406
 20
1819.439281160277
 30
0.0
 10
824.8839532854847
 20
1818.218694605082
 30
0.0
 10
823.9032853312358
 20
1817.237972821218
 30
0.0
  0
SPLINE
  5
4A07
330
A
100
AcDbEntity
  8
HIDDEN
100
AcDbSpline
210
0.0
220
0.0
230
1.0
 70
     8
 71
     3
 72
     8
 73
     4
 74
     0
 42
0.000000001
 43
0.0000000001
 40
2.0
 40
2.0
 40
2.0
 40
2.0
 40
3.0
 40
3.0
 40
3.0
 40
3.0
 10
823.9032853312358
 20
1817.237972821218
 30
0.0
 10
822.9084063582206
 20
1816.24314767782
 30
0.0
 10
821.6948714827934
 20
1815.946815638732
 30
0.0
 10
820.3612965624682
 20
1815.770415985307
 30
0.0
  0
SPLINE
  5
4A08
330
A
100
AcDbEntity
  8
HIDDEN
100
AcDbSpline
210
0.0
220
0.0
230
1.0
 70
    24
 71
     3
 72
     8
 73
     4
 74
     0
 42
0.000000001
 43
0.0000000001
 40
3.0
 40
3.0
 40
3.0
 40
3.0
 40
4.0
 40
4.0
 40
4.0
 40
4.0
 10
820.3612965624682
 20
1815.770415985307
 30
0.0
 10
820.3612965624682
 20
1815.770415985307
 30
0.0
 10
367.3452394063327
 20
1815.763364305539
 30
0.0
 10
367.3452394063327
 20
1815.763364305539
 30
0.0
  0
SPLINE
  5
4A09
330
A
100
AcDbEntity
  8
HIDDEN
100
AcDbSpline
210
0.0
220
0.0
230
1.0
 70
    24
 71
     3
 72
     8
 73
     4
 74
     0
 42
0.000000001
 43
0.0000000001
 40
4.0
 40
4.0
 40
4.0
 40
4.0
 40
5.0
 40
5.0
 40
5.0
 40
5.0
 10
367.3452394063327
 20
1815.763364305539
 30
0.0
 10
367.3452394063327
 20
1815.763364305539
 30
0.0
 10
365.3485912693843
 20
1819.763873748053
 30
0.0
 10
365.3485912693843
 20
1819.763873748053
 30
0.0
  0
SPLINE
  5
4A0B
330
A
100
AcDbEntity
  8
HIDDEN
100
AcDbSpline
210
0.0
220
0.0
230
1.0
 70
    24
 71
     3
 72
     8
 73
     4
 74
     0
 42
0.000000001
 43
0.0000000001
 40
6.0
 40
6.0
 40
6.0
 40
6.0
 40
7.0
 40
7.0
 40
7.0
 40
7.0
 10
365.3485912693839
 20
2611.771133662354
 30
0.0
 10
365.3485912693839
 20
2611.771133662354
 30
0.0
 10
367.3452394063322
 20
2615.764537595483
 30
0.0
 10
367.3452394063322
 20
2615.764537595483
 30
0.0
  0
SPLINE
  5
4A0C
330
A
100
AcDbEntity
  8
HIDDEN
100
AcDbSpline
210
0.0
220
0.0
230
1.0
 70
    24
 71
     3
 72
     8
 73
     4
 74
     0
 42
0.000000001
 43
0.0000000001
 40
7.0
 40
7.0
 40
7.0
 40
7.0
 40
8.0
 40
8.0
 40
8.0
 40
8.0
 10
367.3452394063322
 20
2615.764537595483
 30
0.0
 10
367.3452394063322
 20
2615.764537595483
 30
0.0
 10
820.3612965624677
 20
2615.764537595483
 30
0.0
 10
820.3612965624677
 20
2615.764537595483
 30
0.0
  0
SPLINE
  5
4A0D
330
A
100
AcDbEntity
  8
HIDDEN
100
AcDbSpline
210
0.0
220
0.0
230
1.0
 70
     8
 71
     3
 72
     8
 73
     4
 74
     0
 42
0.000000001
 43
0.0000000001
 40
8.0
 40
8.0
 40
8.0
 40
8.0
 40
9.0
 40
9.0
 40
9.0
 40
9.0
 10
820.3612965624677
 20
2615.764537595483
 30
0.0
 10
821.6948714827929
 20
2615.588191771678
 30
0.0
 10
822.9084063582202
 20
2615.291805902971
 30
0.0
 10
823.9032853312353
 20
2614.29703458919
 30
0.0
  0
SPLINE
  5
4A0E
330
A
100
AcDbEntity
  8
HIDDEN
100
AcDbSpline
210
0.0
220
0.0
230
1.0
 70
     8
 71
     3
 72
     8
 73
     4
 74
     0
 42
0.000000001
 43
0.0000000001
 40
9.0
 40
9.0
 40
9.0
 40
9.0
 40
10.0
 40
10.0
 40
10.0
 40
10.0
 10
823.9032853312353
 20
2614.29703458919
 30
0.0
 10
824.8839532854843
 20
2613.316258975708
 30
0.0
 10
825.1873370043402
 20
2612.102724100281
 30
0.0
 10
825.3636828281458
 20
2610.76925683919
 30
0.0
  0
SPLINE
  5
4A0F
330
A
100
AcDbEntity
  8
HIDDEN
100
AcDbSpline
210
0.0
220
0.0
230
1.0
 70
    24
 71
     3
 72
     8
 73
     4
 74
     0
 42
0.000000001
 43
0.0000000001
 40
10.0
 40
10.0
 40
10.0
 40
10.0
 40
11.0
 40
11.0
 40
11.0
 40
11.0
 10
825.3636828281458
 20
2610.76925683919
 30
0.0
 10
825.3636828281458
 20
2610.76925683919
 30
0.0
 10
825.363682828146
 20
2215.763977865321
 30
0.0
 10
825.363682828146
 20
2215.763977865321
 30
0.0
  0
CIRCLE
  5
4A10
330
A
100
AcDbEntity
  8
HIDDEN
 48
0.5
100
AcDbCircle
 10
430.354958758825
 20
2215.764085524551
 30
0.0
 40
17.5
  0
CIRCLE
  5
4A11
330
A
100
AcDbEntity
  8
HIDDEN
 48
0.5
100
AcDbCircle
 10
430.3549587588251
 20
2315.764085524551
 30
0.0
 40
17.5
  0
CIRCLE
  5
4A12
330
A
100
AcDbEntity
  8
HIDDEN
 48
0.5
100
AcDbCircle
 10
430.3549587588249
 20
2115.764085524551
 30
0.0
 40
17.5
  0
DIMENSION
  5
4A13
102
{ACAD_REACTORS
330
4A15
102
}
102
{ACAD_XDICTIONARY
360
4A14
102
}
330
A
100
AcDbEntity
  8
DIM
100
AcDbDimension
  2
*D43
 10
211.8758080061942
 20
621.5855795939583
 30
0.0
 11
179.8758080061943
 21
1021.586044637578
 31
0.0
 70
    32
 71
     5
 42
800.0009300872391
 73
     0
 74
     0
 75
     0
  3
tfrom線あり
100
AcDbAlignedDimension
 13
381.2925089218607
 23
1421.586509681197
 33
0.0
 14
382.9691381046649
 24
621.5855795939583
 34
0.0
 50
90.0
100
AcDbRotatedDimension
  0
DIMENSION
  5
4A22
330
A
100
AcDbEntity
  8
DIM
100
AcDbDimension
  2
*D44
 10
816.7827987879963
 20
502.4824892751056
 30
0.0
 11
654.3399331168931
 21
502.4824892751056
 31
0.0
 70
   160
 71
     5
 42
324.8857313422062
 73
     0
 74
     0
 75
     0
  3
tfrom線あり
100
AcDbAlignedDimension
 13
491.8970674457901
 23
637.0927763359254
 33
0.0
 14
816.7827987879963
 24
637.9432599060456
 34
0.0
100
AcDbRotatedDimension
  0
DIMENSION
  5
4A31
330
A
100
AcDbEntity
  8
DIM
100
AcDbDimension
  2
*D45
 10
979.6963085974769
 20
629.7839099690063
 30
0.0
 11
979.6963085974769
 21
1021.569158821328
 31
0.0
 70
   160
  1
785
 71
     5
 42
783.5704977046435
 73
     0
 74
     0
 75
     0
  3
tfrom線あり
100
AcDbAlignedDimension
 13
815.9516437377183
 23
1413.35440767365
 33
0.0
 14
814.3187152830869
 24
629.7839099690063
 34
0.0
 50
90.0
100
AcDbRotatedDimension
  0
DIMENSION
  5
4A40
102
{ACAD_REACTORS
330
4A42
102
}
102
{ACAD_XDICTIONARY
360
4A41
102
}
330
A
100
AcDbEntity
  8
DIM
100
AcDbDimension
  2
*D46
 10
825.363682828146
 20
1573.852589122817
 30
0.0
 11
595.356137048765
 21
1605.852589122817
 31
0.0
 70
    32
 71
     5
 42
460.0150915587619
 73
     0
 74
     0
 75
     0
  3
tfrom線あり
100
AcDbAlignedDimension
 13
365.3485912693841
 23
1411.104053144564
 33
0.0
 14
825.363682828146
 24
1410.559743659682
 34
0.0
100
AcDbRotatedDimension
  0
LINE
  5
4A4F
102
{ACAD_REACTORS
330
4A51
102
}
330
A
100
AcDbEntity
  8
DIM
100
AcDbLine
 10
365.3485912693832
 20
1855.767503705204
 30
0.0
 11
365.3485912693841
 21
2065.767503705204
 31
0.0
  0
LINE
  5
4A50
102
{ACAD_REACTORS
330
4A51
102
}
330
A
100
AcDbEntity
  8
DIM
100
AcDbLine
 10
365.3485912693841
 20
2365.767503705204
 30
0.0
 11
365.3485912693841
 21
2575.767503705204
 31
0.0
  0
DIMENSION
  5
4A59
102
{ACAD_REACTORS
330
4A5B
102
}
102
{ACAD_XDICTIONARY
360
4A5A
102
}
330
A
100
AcDbEntity
  8
DIM
100
AcDbDimension
  2
*D47
 10
300.9668587951801
 20
1021.586057610266
 30
0.0
 11
268.9623571070471
 21
971.5860576102659
 31
0.0
 70
    32
 71
     5
 42
100.0000000000003
 73
     0
 74
     0
 75
     0
  3
tfrom線あり
100
AcDbAlignedDimension
 13
430.3549587588251
 23
921.5860576102657
 33
0.0
 14
430.3549587588252
 24
1021.586057610266
 34
0.0
 50
90.0
100
AcDbRotatedDimension
  0
DIMENSION
  5
4A68
102
{ACAD_REACTORS
330
4A6A
102
}
102
{ACAD_XDICTIONARY
360
4A69
102
}
330
A
100
AcDbEntity
  8
DIM
100
AcDbDimension
  2
*D48
 10
300.9668587951801
 20
1121.586057610266
 30
0.0
 11
268.962357107047
 21
1071.586057610266
 31
0.0
 70
    32
 71
     5
 42
99.99999999999989
 73
     0
 74
     0
 75
     0
  3
tfrom線あり
100
AcDbAlignedDimension
 13
430.3549587588252
 23
1021.586057610266
 33
0.0
 14
430.3549587588253
 24
1121.586057610266
 34
0.0
 50
90.0
100
AcDbRotatedDimension
  0
LINE
  5
4A7A
102
{ACAD_REACTORS
330
4A7E
102
}
330
A
100
AcDbEntity
  8
DIM
100
AcDbLine
 10
365.3485912693841
 20
2575.767503705204
 30
0.0
 11
365.3485912693832
 21
1855.767503705204
 31
0.0
  0
HATCH
  5
4A7E
330
A
100
AcDbEntity
  8
DIM
100
AcDbHatch
 10
0.0
 20
0.0
 30
0.0
210
0.0
220
0.0
230
1.0
  2
ANSI31
 70
     0
 71
     1
 91
        1
 92
        1
 93
        4
 72
     1
 10
365.3485912693841
 20
2575.767503705204
 11
775.3485912693841
 21
2575.767503705204
 72
     1
 10
775.3485912693843
 20
2575.767503705204
 11
775.348591269383
 21
1855.767503705204
 72
     1
 10
775.3485912693832
 20
1855.767503705204
 11
365.3485912693832
 21
1855.767503705204
 72
     1
 10
365.3485912693832
 20
1855.767503705204
 11
365.3485912693841
 21
2575.767503705204
 97
        4
330
3DB5
330
4A7A
330
3DB6
330
3DB7
 75
     0
 76
     1
 52
0.0
 41
6.0
 77
     0
 78
     1
 53
45.0
 43
0.0
 44
0.0
 45
-13.47038418160373
 46
13.47038418160373
 79
     0
 98
        1
 10
0.0
 20
0.0
1001
ACAD
1010
0.0
1020
0.0
1030
0.0
  0
MTEXT
  5
4AA2
330
A
100
AcDbEntity
  8
DIM
390
1D
100
AcDbMText
 10
1060.479645677495
 20
1996.041597046441
 30
0.0
 40
24.0
 41
1169.771715461011
 46
113.3803926472427
 71
     1
 72
     1
  1
{※陶器製品には寸法公差があります。\P　必ず現物を合わせてカウンターに\P  切込を行ってください。}
  7
ＭＳ ゴシック
 11
6.123233995736766E-17
 21
1.0
 31
0.0
 73
     1
 44
1.0
1001
ACAD
1000
ACAD_MTEXT_DEFINED_HEIGHT_BEGIN
1070
    46
1040
113.3803926472427
1000
ACAD_MTEXT_DEFINED_HEIGHT_END
  0
MTEXT
  5
4AC8
330
A
100
AcDbEntity
  8
TEMPLATE
 62
     1
390
1D
100
AcDbMText
 10
131.1989596591814
 20
235.545020936668
 30
0.0
 40
24.4326171875
 41
0.0
 46
111.8649296953154
 71
     1
 72
     1
  1
{\C256;壁掛け,半埋め込み/オーバーフロー付き/\Pカウンター固定金具,壁取付ボルト,型紙付属/\P陶器/ホワイト}
  7
ＭＳ ゴシック
 73
     1
 44
0.9822934569727008
1001
ACAD
1000
ACAD_MTEXT_DEFINED_HEIGHT_BEGIN
1070
    46
1040
111.8649296953154
1000
ACAD_MTEXT_DEFINED_HEIGHT_END
  0
VIEWPORT
  5
349
330
B
100
AcDbEntity
 67
     1
  8
0
100
AcDbViewport
 10
202.5
 20
128.5
 30
0.0
 40
486.0
 41
308.4
 68
     1
 69
     1
 12
202.5
 22
128.5
 13
0.0
 23
0.0
 14
0.5
 24
0.5
 15
0.0
 25
0.0
 16
0.0
 26
0.0
 36
1.0
 17
0.0
 27
0.0
 37
0.0
 42
50.0
 43
0.0
 44
0.0
 45
308.4
 50
0.0
 51
0.0
 72
   100
 90
   557152
  1

281
     0
 71
     1
 74
     0
110
0.0
120
0.0
130
0.0
111
1.0
121
0.0
131
0.0
112
0.0
122
1.0
132
0.0
 79
     0
146
0.0
170
     0
 61
     5
348
26C
292
     1
282
     1
141
0.0
142
0.0
 63
   256
  0
VIEWPORT
  5
34A
330
B
100
AcDbEntity
 67
     1
  8
0
100
AcDbViewport
 10
202.5
 20
128.5
 30
0.0
 40
324.0
 41
205.6
 68
     2
 69
     2
 12
986.6781359294573
 22
1427.077061889956
 13
0.0
 23
0.0
 14
0.5
 24
0.5
 15
0.0
 25
0.0
 16
0.0
 26
0.0
 36
1.0
 17
0.0
 27
0.0
 37
0.0
 42
50.0
 43
0.0
 44
0.0
 45
2890.021615685494
 50
0.0
 51
0.0
 72
   100
 90
   557152
  1

281
     0
 71
     1
 74
     0
110
0.0
120
0.0
130
0.0
111
1.0
121
0.0
131
0.0
112
0.0
122
1.0
132
0.0
 79
     0
146
0.0
170
     0
 61
     5
348
26C
292
     1
282
     1
141
0.0
142
0.0
 63
   256
  0
ENDSEC
  0
SECTION
  2
OBJECTS
  0
DICTIONARY
  5
19
330
0
100
AcDbDictionary
281
     1
  3
ACAD_COLOR
350
674
  3
ACAD_DETAILVIEWSTYLE
350
BBF
  3
ACAD_FIELDLIST
350
146A
  3
ACAD_GROUP
350
1A
  3
ACAD_IMAGE_VARS
350
27B
  3
ACAD_LAYOUT
350
1E
  3
ACAD_MATERIAL
350
263
  3
ACAD_MLEADERSTYLE
350
336
  3
ACAD_MLINESTYLE
350
1B
  3
ACAD_PLOTSETTINGS
350
22
  3
ACAD_PLOTSTYLENAME
350
1F
  3
ACAD_SCALELIST
350
241
  3
ACAD_SECTIONVIEWSTYLE
350
BC0
  3
ACAD_TABLESTYLE
350
278
  3
ACAD_VISUALSTYLE
350
267
  3
ACDB_RECOMPOSE_DATA
350
4ACF
  3
AcDbVariableDictionary
350
330
  3
APPDATA
350
27A
  3
DimOffsetDictionary
350
E3E
  0
SUN
  5
904
330
15
100
AcDbSun
 90
        1
290
     0
 63
     7
421
 16777215
 40
1.0
291
     1
 91
  2455826
 92
 54000000
292
     0
 70
     2
 71
   256
280
     1
  0
DICTIONARY
  5
2E1
330
2
100
AcDbDictionary
280
     1
281
     1
  3
ACAD_LAYERSTATES
360
2E2
  3
ACLYDICTIONARY
360
DF9
  0
DICTIONARY
  5
374D
330
A
100
AcDbDictionary
280
     1
281
     1
  3
ACAD_SORTENTS
360
374E
  0
DICTIONARY
  5
1468
330
1466
100
AcDbDictionary
280
     1
281
     1
  3
ACAD_FIELD
360
4AC9
  0
DICTIONARY
  5
3C96
330
3C95
100
AcDbDictionary
280
     1
281
     1
  3
ACAD_DIMASSOC
360
3C97
  0
DICTIONARY
  5
3CCE
330
3CCD
100
AcDbDictionary
280
     1
281
     1
  3
ACAD_DIMASSOC
360
3CCF
  0
DICTIONARY
  5
3CEE
330
3CED
100
AcDbDictionary
280
     1
281
     1
  3
ACAD_DIMASSOC
360
3CEF
  0
DICTIONARY
  5
3CFD
330
3CFC
100
AcDbDictionary
280
     1
281
     1
  3
ACAD_DIMASSOC
360
3CFE
  0
DICTIONARY
  5
3DBD
330
3DBC
100
AcDbDictionary
280
     1
281
     1
  3
ACAD_DIMASSOC
360
3DBE
  0
DICTIONARY
  5
3DDB
330
3DDA
100
AcDbDictionary
280
     1
281
     1
  0
DICTIONARY
  5
496D
330
496C
100
AcDbDictionary
280
     1
281
     1
  3
ACAD_DIMASSOC
360
496E
  0
DICTIONARY
  5
49AA
330
49A9
100
AcDbDictionary
280
     1
281
     1
  3
ACAD_DIMASSOC
360
49AB
  0
DICTIONARY
  5
49C3
330
49C2
100
AcDbDictionary
280
     1
281
     1
  3
ACAD_DIMASSOC
360
49C4
  0
DICTIONARY
  5
4A14
330
4A13
100
AcDbDictionary
280
     1
281
     1
  3
ACAD_DIMASSOC
360
4A15
  0
DICTIONARY
  5
4A41
330
4A40
100
AcDbDictionary
280
     1
281
     1
  3
ACAD_DIMASSOC
360
4A42
  0
DICTIONARY
  5
4A5A
330
4A59
100
AcDbDictionary
280
     1
281
     1
  3
ACAD_DIMASSOC
360
4A5B
  0
DICTIONARY
  5
4A69
330
4A68
100
AcDbDictionary
280
     1
281
     1
  3
ACAD_DIMASSOC
360
4A6A
  0
DICTIONARY
  5
674
102
{ACAD_REACTORS
330
19
102
}
330
19
100
AcDbDictionary
281
     1
  0
DICTIONARY
  5
BBF
102
{ACAD_REACTORS
330
19
102
}
330
19
100
AcDbDictionary
281
     1
  0
FIELDLIST
  5
146A
102
{ACAD_REACTORS
330
19
102
}
330
19
100
AcDbIdSet
 90
        2
330
146B
330
1467
100
AcDbFieldList
  0
DICTIONARY
  5
1A
102
{ACAD_REACTORS
330
19
102
}
330
19
100
AcDbDictionary
281
     1
  3
*A1
350
36AC
  3
*A2
350
3DB9
  3
*A3
350
4A51
  0
RASTERVARIABLES
  5
27B
102
{ACAD_REACTORS
330
19
102
}
330
19
100
AcDbRasterVariables
 90
        0
 70
     1
 71
     1
 72
     1
  0
DICTIONARY
  5
1E
102
{ACAD_REACTORS
330
19
102
}
330
19
100
AcDbDictionary
281
     1
  3
Layout1
350
21
  3
Model
350
20
  0
DICTIONARY
  5
263
102
{ACAD_REACTORS
330
19
102
}
330
19
100
AcDbDictionary
281
     1
  3
ByBlock
350
265
  3
ByLayer
350
264
  3
Global
350
266
  0
DICTIONARY
  5
336
102
{ACAD_REACTORS
330
19
102
}
330
19
100
AcDbDictionary
281
     1
  3
Standard
350
DAB
  0
DICTIONARY
  5
1B
102
{ACAD_REACTORS
330
19
102
}
330
19
100
AcDbDictionary
281
     1
  3
Standard
350
1C
  0
DICTIONARY
  5
22
102
{ACAD_REACTORS
330
19
102
}
330
19
100
AcDbDictionary
281
     1
  0
ACDBDICTIONARYWDFLT
  5
1F
102
{ACAD_REACTORS
330
19
102
}
330
19
100
AcDbDictionary
281
     1
  3
Normal
350
1D
100
AcDbDictionaryWithDefault
340
1D
  0
DICTIONARY
  5
241
102
{ACAD_REACTORS
330
19
102
}
330
19
100
AcDbDictionary
281
     1
  3
A0
350
242
  3
A1
350
243
  3
A2
350
244
  3
A3
350
245
  3
A4
350
246
  3
A5
350
247
  3
A6
350
248
  3
A7
350
249
  3
A8
350
24A
  3
A9
350
24B
  3
B0
350
24C
  3
B1
350
24D
  3
B2
350
24E
  3
B3
350
24F
  3
B4
350
250
  3
B5
350
251
  3
B6
350
252
  3
B7
350
253
  3
B8
350
254
  3
B9
350
255
  3
C0
350
256
  3
C1
350
257
  3
C2
350
258
  3
C3
350
259
  3
C4
350
25A
  3
C5
350
25B
  3
C6
350
25C
  3
C7
350
25D
  3
C8
350
25E
  3
C9
350
25F
  3
D0
350
260
  3
D1
350
261
  3
D2
350
262
  0
DICTIONARY
  5
BC0
102
{ACAD_REACTORS
330
19
102
}
330
19
100
AcDbDictionary
281
     1
  0
DICTIONARY
  5
278
102
{ACAD_REACTORS
330
19
102
}
330
19
100
AcDbDictionary
281
     1
  3
Standard
350
279
  0
DICTIONARY
  5
267
102
{ACAD_REACTORS
330
19
102
}
330
19
100
AcDbDictionary
281
     1
  3
2dWireframe
350
26C
  3
3D Hidden
350
26E
  3
3dWireframe
350
26D
  3
Basic
350
26F
  3
Brighten
350
273
  3
ColorChange
350
277
  3
Conceptual
350
271
  3
Dim
350
272
  3
EdgeColorOff
350
8FE
  3
Facepattern
350
276
  3
Flat
350
268
  3
FlatWithEdges
350
269
  3
Gouraud
350
26A
  3
GouraudWithEdges
350
26B
  3
Hidden
350
8FB
  3
JitterOff
350
8FC
  3
Linepattern
350
275
  3
OverhangOff
350
8FD
  3
Realistic
350
270
  3
Shaded
350
903
  3
Shaded with edges
350
902
  3
Shades of Gray
350
8FF
  3
Sketchy
350
900
  3
Thicken
350
274
  3
Wireframe
350
8FA
  3
X-Ray
350
901
  0
XRECORD
  5
4ACF
102
{ACAD_REACTORS
330
19
102
}
330
19
100
AcDbXrecord
280
     1
 90
        1
330
279
  0
DICTIONARY
  5
330
102
{ACAD_REACTORS
330
19
102
}
330
19
100
AcDbDictionary
281
     1
  3
CANNOSCALE
350
331
  3
CMLEADERSTYLE
350
DB1
  3
CTABLESTYLE
350
335
  3
HPTRANSPARENCY
350
D52
  3
XCLIPFRAME
350
896
  0
DICTIONARY
  5
27A
102
{ACAD_REACTORS
330
19
102
}
330
19
100
AcDbDictionary
281
     1
  0
DICTIONARY
  5
E3E
102
{ACAD_REACTORS
330
19
102
}
330
19
100
AcDbDictionary
281
     1
  3
DIMRAILANGLE
350
ECE
  3
DIMRAILFIRSTOFFSET
350
ECC
  3
DIMRAILOFFSET
350
ECD
  3
DIMRAILSENABLED
350
ECF
  0
DICTIONARY
  5
2E2
102
{ACAD_REACTORS
330
2E1
102
}
330
2E1
100
AcDbDictionary
281
     1
  0
DICTIONARY
  5
DF9
102
{ACAD_REACTORS
330
2E1
102
}
330
2E1
100
AcDbDictionary
281
     1
1001
ACAD
1000
<All
  0
SORTENTSTABLE
  5
374E
102
{ACAD_REACTORS
330
374D
102
}
330
374D
100
AcDbSortentsTable
330
A
331
17A
  5
180
331
17B
  5
181
331
17C
  5
182
331
17E
  5
183
331
180
  5
184
331
181
  5
185
331
182
  5
186
331
183
  5
187
331
184
  5
188
331
185
  5
189
331
186
  5
68C
331
187
  5
7D9
331
188
  5
DAC
331
189
  5
121B
331
68C
  5
1466
331
DAC
  5
262A
331
121B
  5
262B
331
1466
  5
262C
331
146D
  5
2812
331
262A
  5
2813
331
262B
  5
2814
331
262C
  5
28CA
331
2812
  5
2A52
331
2813
  5
2B9B
331
2814
  5
35AE
331
28CA
  5
369A
331
2A52
  5
369B
331
2B9B
  5
369C
331
369B
  5
36A7
331
369C
  5
36A8
331
36A7
  5
36A9
331
36A8
  5
38BF
331
36A9
  5
38C0
331
36AA
  5
38C1
331
36AB
  5
38C2
331
3BDE
  5
3BE6
331
3BE2
  5
3BEB
331
3BE3
  5
3BEF
331
3BE4
  5
3BF3
331
3BE5
  5
3BF7
331
3BE6
  5
3BFB
331
3BEB
  5
3C00
331
3BEF
  5
3C01
331
3BF3
  5
3C02
331
3BF7
  5
3C06
331
3BFB
  5
3C0A
331
3C00
  5
3C0E
331
3C01
  5
3C0F
331
3C02
  5
3C10
331
3C06
  5
3C11
331
3C0A
  5
3C12
331
3C0E
  5
3C13
331
3C95
  5
3CB9
331
3CBA
  5
3CDE
331
3CBB
  5
3CED
331
3CBD
  5
3D0C
331
3CCD
  5
3D1B
331
3CED
  5
3D1D
331
3CFC
  5
3D54
331
0
  5
3D55
331
3D99
  5
3D9E
331
3D9A
  5
3D9F
331
0
  5
3DAD
331
0
  5
3DAC
331
0
  5
3DB5
331
0
  5
3DB6
331
0
  5
3DB7
331
3DB4
  5
3DB8
331
3DB5
  5
3DDA
331
3DB6
  5
3DE9
331
3DB7
  5
3DF8
331
3DB8
  5
3E13
331
3DBC
  5
3E14
331
0
  5
3E15
331
3DDA
  5
3E30
331
0
  5
3E55
331
0
  5
3E56
331
0
  5
3E7D
331
0
  5
3E7E
331
0
  5
3E84
331
3E30
  5
3E86
331
3E56
  5
3E87
331
0
  5
3E88
331
3E7D
  5
3EAF
331
3E84
  5
425B
331
3E85
  5
425C
331
3E86
  5
433A
331
3E87
  5
434C
331
3E88
  5
47E0
331
0
  5
47E1
331
4338
  5
47EE
331
434A
  5
4852
331
47DE
  5
4853
331
47DF
  5
4854
331
47EC
  5
4855
331
4850
  5
4856
331
4851
  5
4857
331
4852
  5
4858
331
4853
  5
4859
331
4854
  5
485A
331
4855
  5
485B
331
4856
  5
485C
331
4857
  5
485D
331
4858
  5
485E
331
4859
  5
485F
331
485A
  5
4860
331
485B
  5
4861
331
485C
  5
4862
331
485D
  5
4863
331
485E
  5
4864
331
485F
  5
4865
331
4860
  5
4866
331
4861
  5
4867
331
4862
  5
4868
331
4863
  5
4869
331
4864
  5
486A
331
4865
  5
486B
331
4866
  5
486C
331
4867
  5
486D
331
4868
  5
486E
331
4869
  5
486F
331
486A
  5
4870
331
486B
  5
4871
331
486C
  5
4872
331
486D
  5
4873
331
486E
  5
4874
331
486F
  5
4875
331
4870
  5
4876
331
4871
  5
4877
331
4872
  5
4878
331
4873
  5
4879
331
4874
  5
487A
331
4875
  5
487B
331
4876
  5
487C
331
4877
  5
487D
331
4878
  5
487E
331
4879
  5
487F
331
487A
  5
4880
331
487B
  5
4881
331
487C
  5
4882
331
487D
  5
4883
331
487E
  5
4884
331
487F
  5
4885
331
4880
  5
4886
331
4881
  5
4887
331
4882
  5
4888
331
4883
  5
4889
331
4884
  5
488A
331
4885
  5
488B
331
4886
  5
488C
331
4887
  5
488D
331
4888
  5
488E
331
4889
  5
488F
331
488A
  5
4890
331
488B
  5
4891
331
488C
  5
4892
331
488D
  5
4893
331
488E
  5
4894
331
488F
  5
4895
331
4890
  5
4896
331
4891
  5
4897
331
4892
  5
4898
331
4893
  5
48BA
331
4894
  5
48BB
331
4895
  5
48BC
331
4896
  5
48BD
331
48B8
  5
48BE
331
48B9
  5
48BF
331
48BA
  5
48C0
331
48BB
  5
48C1
331
48BC
  5
48DB
331
48BD
  5
48DC
331
48BE
  5
48DD
331
48BF
  5
48DE
331
48D9
  5
48DF
331
48DA
  5
496F
331
48DB
  5
4973
331
48DC
  5
4974
331
48DD
  5
4975
331
4968
  5
4976
331
496C
  5
4977
331
496F
  5
4978
331
4973
  5
4979
331
4974
  5
497A
331
4975
  5
497B
331
4976
  5
497C
331
4977
  5
4980
331
4978
  5
4984
331
4979
  5
4985
331
497A
  5
4986
331
497B
  5
4987
331
497C
  5
4988
331
4980
  5
4989
331
4984
  5
498A
331
4985
  5
498B
331
4986
  5
498C
331
4987
  5
4999
331
4988
  5
499A
331
4989
  5
49BA
331
498A
  5
49BB
331
498B
  5
49BC
331
498C
  5
49BF
331
0
  5
49C0
331
49A9
  5
49D2
331
49BA
  5
49D6
331
49BD
  5
49D7
331
49BE
  5
49D8
331
49C2
  5
49D9
331
49D4
  5
49DA
331
49D5
  5
49DB
331
49D6
  5
49DC
331
49D7
  5
49DE
331
49D8
  5
49E0
331
49D9
  5
49E2
331
49DA
  5
49E4
331
49DC
  5
49E6
331
49DE
  5
49E8
331
49E0
  5
49E9
331
49E2
  5
49EA
331
49E4
  5
49EB
331
49E6
  5
49ED
331
49E7
  5
49EF
331
49E8
  5
49F1
331
49E9
  5
49F3
331
49EB
  5
49F5
331
49ED
  5
49F7
331
49EF
  5
49F8
331
49F1
  5
49F9
331
49F3
  5
49FB
331
49F5
  5
49FD
331
49F6
  5
49FF
331
49F7
  5
4A00
331
49F9
  5
4A02
331
49FB
  5
4A04
331
49FD
  5
4A06
331
49FE
  5
4A07
331
4A00
  5
4A08
331
4A02
  5
4A09
331
4A04
  5
4A0A
331
4A05
  5
4A0B
331
4A06
  5
4A0C
331
4A07
  5
4A0D
331
4A08
  5
4A0E
331
4A09
  5
4A0F
331
0
  5
4A10
331
4A0B
  5
4A11
331
4A0C
  5
4A12
331
4A0D
  5
4A13
331
4A0E
  5
4A22
331
4A0F
  5
4A31
331
4A10
  5
4A40
331
4A11
  5
4A4F
331
4A12
  5
4A50
331
4A13
  5
4A52
331
4A22
  5
4A53
331
4A31
  5
4A59
331
4A40
  5
4A68
331
4A4F
  5
4A7A
331
4A50
  5
4A7B
331
0
  5
3DB4
331
4A59
  5
4A7C
331
4A68
  5
4A7D
331
4A7A
  5
4A7E
331
0
  5
3DBA
331
0
  5
3DBB
331
0
  5
3DBC
331
4A7E
  5
3DCB
  0
DICTIONARY
  5
4AC9
102
{ACAD_REACTORS
330
1468
102
}
330
1468
100
AcDbDictionary
280
     1
281
     1
  3
TEXT
360
1467
  0
DIMASSOC
  5
3C97
102
{ACAD_REACTORS
330
3C96
102
}
330
3C96
100
AcDbDimAssoc
330
3C95
 90
        3
 70
     0
 71
     1
  1
AcDbOsnapPointRef
 72
    10
331
3C0E
 73
     0
 91
        0
 40
2.506324747424061
 10
0.0
 20
0.0
 30
0.0
 75
     0
  1
AcDbOsnapPointRef
 72
    10
331
3BE3
 73
     0
 91
        0
 40
0.9318355105541373
 10
0.0
 20
0.0
 30
0.0
 75
     0
  0
DIMASSOC
  5
3CCF
102
{ACAD_REACTORS
330
3CCE
102
}
330
3CCE
100
AcDbDimAssoc
330
3CCD
 90
        3
 70
     0
 71
     1
  1
AcDbOsnapPointRef
 72
     6
331
3C06
 73
     2
 91
        1
 40
0.4710232620680095
 10
0.0
 20
0.0
 30
0.0
332
3BDE
 74
     2
 92
        1
 75
     0
  1
AcDbOsnapPointRef
 72
    10
331
3BE2
 73
     0
 91
        0
 40
2.519260007304959
 10
0.0
 20
0.0
 30
0.0
 75
     0
  0
DIMASSOC
  5
3CEF
102
{ACAD_REACTORS
330
3CEE
102
}
330
3CEE
100
AcDbDimAssoc
330
3CED
 90
        3
 70
     0
 71
     1
  1
AcDbOsnapPointRef
 72
    10
331
3BE2
 73
     0
 91
        0
 40
2.073297156459593
 10
0.0
 20
0.0
 30
0.0
 75
     0
  1
AcDbOsnapPointRef
 72
    10
331
3BE2
 73
     0
 91
        0
 40
4.944084870840252
 10
0.0
 20
0.0
 30
0.0
 75
     0
  0
DIMASSOC
  5
3CFE
102
{ACAD_REACTORS
330
3CFD
102
}
330
3CFD
100
AcDbDimAssoc
330
3CFC
 90
        2
 70
     0
 71
     1
  1
AcDbOsnapPointRef
 72
    10
331
3BE3
 73
     0
 91
        0
 40
1.962039930828902
 10
0.0
 20
0.0
 30
0.0
 75
     0
  0
DIMASSOC
  5
3DBE
102
{ACAD_REACTORS
330
3DBD
102
}
330
3DBD
100
AcDbDimAssoc
330
3DBC
 90
        1
 70
     0
 71
     1
  1
AcDbOsnapPointRef
 72
    13
331
3DB7
 73
     0
 91
        0
 40
0.0
 10
0.0
 20
0.0
 30
0.0
 75
     0
  0
DIMASSOC
  5
496E
102
{ACAD_REACTORS
330
496D
102
}
330
496D
100
AcDbDimAssoc
330
496C
 90
        3
 70
     0
 71
     1
  1
AcDbOsnapPointRef
 72
    13
331
496F
 73
     2
 91
        1
 40
0.0
 10
0.0
 20
0.0
 30
0.0
 75
     0
  1
AcDbOsnapPointRef
 72
    13
331
4980
 73
     2
 91
        1
 40
0.0
 10
0.0
 20
0.0
 30
0.0
 75
     0
  0
DIMASSOC
  5
49AB
102
{ACAD_REACTORS
330
49AA
102
}
330
49AA
100
AcDbDimAssoc
330
49A9
 90
        2
 70
     0
 71
     1
  1
AcDbOsnapPointRef
 72
    13
331
488B
 73
     0
 91
        0
 40
0.0
 10
0.0
 20
0.0
 30
0.0
 75
     0
  0
DIMASSOC
  5
49C4
102
{ACAD_REACTORS
330
49C3
102
}
330
49C3
100
AcDbDimAssoc
330
49C2
 90
        2
 70
     0
 71
     1
  1
AcDbOsnapPointRef
 72
    10
331
48DB
 73
     0
 91
        0
 40
2.152540377234831
 10
0.0
 20
0.0
 30
0.0
 75
     0
  0
DIMASSOC
  5
4A15
102
{ACAD_REACTORS
330
4A14
102
}
330
4A14
100
AcDbDimAssoc
330
4A13
 90
        3
 70
     0
 71
     1
  1
AcDbOsnapPointRef
 72
    10
331
4883
 73
     0
 91
        0
 40
7.105049352399099
 10
0.0
 20
0.0
 30
0.0
 75
     0
  1
AcDbOsnapPointRef
 72
    10
331
487F
 73
     0
 91
        0
 40
3.888560138259258
 10
0.0
 20
0.0
 30
0.0
 75
     0
  0
DIMASSOC
  5
4A42
102
{ACAD_REACTORS
330
4A41
102
}
330
4A41
100
AcDbDimAssoc
330
4A40
 90
        3
 70
     0
 71
     1
  1
AcDbOsnapPointRef
 72
    10
331
4881
 73
     0
 91
        0
 40
5.946788120216009
 10
0.0
 20
0.0
 30
0.0
 75
     0
  1
AcDbOsnapPointRef
 72
    10
331
4886
 73
     0
 91
        0
 40
10.07314865125881
 10
0.0
 20
0.0
 30
0.0
 75
     0
  0
DIMASSOC
  5
4A5B
102
{ACAD_REACTORS
330
4A5A
102
}
330
4A5A
100
AcDbDimAssoc
330
4A59
 90
        3
 70
     0
 71
     1
  1
AcDbOsnapPointRef
 72
     3
331
49D6
 73
     0
 91
        0
 40
0.0
 10
0.0
 20
0.0
 30
0.0
 75
     0
  1
AcDbOsnapPointRef
 72
     3
331
49D4
 73
     0
 91
        0
 40
0.0
 10
0.0
 20
0.0
 30
0.0
 75
     0
  0
DIMASSOC
  5
4A6A
102
{ACAD_REACTORS
330
4A69
102
}
330
4A69
100
AcDbDimAssoc
330
4A68
 90
        3
 70
     0
 71
     1
  1
AcDbOsnapPointRef
 72
     3
331
49D4
 73
     0
 91
        0
 40
0.0
 10
0.0
 20
0.0
 30
0.0
 75
     0
  1
AcDbOsnapPointRef
 72
     3
331
49D5
 73
     0
 91
        0
 40
0.0
 10
0.0
 20
0.0
 30
0.0
 75
     0
  0
GROUP
  5
36AC
102
{ACAD_REACTORS
330
1A
102
}
330
1A
100
AcDbGroup
300

 70
     1
 71
     1
340
369B
340
369C
340
36A7
340
36A8
340
36A9
340
36AA
340
36AB
  0
GROUP
  5
3DB9
102
{ACAD_REACTORS
330
1A
102
}
330
1A
100
AcDbGroup
300

 70
     1
 71
     1
340
3DB8
340
3DB7
340
3DB4
340
3DB5
340
3DB6
  0
GROUP
  5
4A51
102
{ACAD_REACTORS
330
1A
102
}
330
1A
100
AcDbGroup
300

 70
     1
 71
     1
340
4A50
340
4A4F
340
3DB7
340
3DB6
340
3DB5
  0
LAYOUT
  5
21
102
{ACAD_REACTORS
330
1E
102
}
330
1E
100
AcDbPlotSettings
  1

  2
none_device
  4
ISO_A3_(420.00_x_297.00_MM)
  6

 40
7.5
 41
20.0
 42
7.5
 43
20.0
 44
420.0
 45
297.0
 46
0.0
 47
0.0
 48
0.0
 49
0.0
140
0.0
141
0.0
142
1.0
143
1.0
 70
     0
 72
     1
 73
     0
 74
     0
  7

 75
     0
 76
     0
 77
     2
 78
   300
147
1.0
148
0.0
149
0.0
100
AcDbLayout
  1
Layout1
 70
     0
 71
     0
 10
-7.5
 20
-20.0
 11
412.5
 21
277.0
 12
0.0
 22
0.0
 32
0.0
 14
0.0
 24
0.0
 34
0.0
 15
0.0
 25
0.0
 35
0.0
146
0.0
 13
0.0
 23
0.0
 33
0.0
 16
0.0
 26
0.0
 36
0.0
 17
0.0
 27
0.0
 37
0.0
 76
     0
330
B
331
349
  0
LAYOUT
  5
20
102
{ACAD_REACTORS
330
1E
102
}
330
1E
100
AcDbPlotSettings
  1

  2
Adobe PDF
  4
A4
  6

 40
0.0
 41
0.0400000000000205
 42
0.0600000000000023
 43
0.0
 44
210.0
 45
297.0
 46
0.0
 47
0.0224285714285486
 48
0.0
 49
0.0
140
0.0
141
0.0
142
1.0
143
10.00285795941698
 70
  1712
 72
     1
 73
     0
 74
     1
  7
monochrome.ctb
 75
     0
 76
    61
 77
     2
 78
   300
147
0.0999714285714286
148
-91.02013567089534
149
73.59871453016603
100
AcDbLayout
  1
Model
 70
     0
 71
     1
 10
0.0
 20
0.0
 11
2100.0
 21
2970.0
 12
0.0
 22
0.0
 32
0.0
 14
0.0
 24
0.0
 34
-0.0000000000000142
 15
2100.0
 25
2970.0
 35
34.99521132346014
146
0.0
 13
0.0
 23
0.0
 33
0.0
 16
0.0
 26
0.0
 36
0.0
 17
0.0
 27
0.0
 37
0.0
 76
     0
330
A
331
15
1001
PLOTTRANSPARENCY
1071
        0
  0
MATERIAL
  5
265
102
{ACAD_REACTORS
330
263
102
}
330
263
100
AcDbMaterial
  1
ByBlock
 72
     1
 94
      127
  0
MATERIAL
  5
264
102
{ACAD_REACTORS
330
263
102
}
330
263
100
AcDbMaterial
  1
ByLayer
 72
     1
 94
      127
  0
MATERIAL
  5
266
102
{ACAD_REACTORS
330
263
102
}
330
263
100
AcDbMaterial
  1
Global
 72
     1
 94
      127
  0
MLEADERSTYLE
  5
DAB
102
{ACAD_REACTORS
330
336
102
}
330
336
100
AcDbMLeaderStyle
170
     2
171
     1
172
     0
 90
        2
 40
0.0
 41
0.0
173
     1
 91
-1056964608
340
11
 92
       -2
290
     1
 42
2.0
291
     1
 43
8.0
  3
Standard
341
0
 44
4.0
300

342
17
174
     1
178
     6
175
     1
176
     0
 93
-1056964608
 45
4.0
292
     0
297
     0
 46
4.0
343
0
 94
-1056964608
 47
1.0
 49
1.0
140
1.0
293
     1
141
0.0
294
     1
177
     0
142
1.0
295
     0
296
     0
143
3.75
1001
ACAD_MLEADERVER
1070
     2
  0
MLINESTYLE
  5
1C
102
{ACAD_REACTORS
330
1B
102
}
330
1B
100
AcDbMlineStyle
  2
Standard
 70
     0
  3

 62
     0
 51
90.0
 52
90.0
 71
     2
 49
0.5
 62
   256
  6
BYLAYER
 49
-0.5
 62
   256
  6
BYLAYER
  0
ACDBPLACEHOLDER
  5
1D
102
{ACAD_REACTORS
330
1F
102
}
330
1F
  0
SCALE
  5
242
102
{ACAD_REACTORS
330
241
102
}
330
241
100
AcDbScale
 70
     0
300
1:1
140
1.0
141
1.0
290
     1
  0
SCALE
  5
243
102
{ACAD_REACTORS
330
241
102
}
330
241
100
AcDbScale
 70
     0
300
1:2
140
1.0
141
2.0
290
     0
  0
SCALE
  5
244
102
{ACAD_REACTORS
330
241
102
}
330
241
100
AcDbScale
 70
     0
300
1:4
140
1.0
141
4.0
290
     0
  0
SCALE
  5
245
102
{ACAD_REACTORS
330
241
102
}
330
241
100
AcDbScale
 70
     0
300
1:5
140
1.0
141
5.0
290
     0
  0
SCALE
  5
246
102
{ACAD_REACTORS
330
241
102
}
330
241
100
AcDbScale
 70
     0
300
1:8
140
1.0
141
8.0
290
     0
  0
SCALE
  5
247
102
{ACAD_REACTORS
330
241
102
}
330
241
100
AcDbScale
 70
     0
300
1:10
140
1.0
141
10.0
290
     0
  0
SCALE
  5
248
102
{ACAD_REACTORS
330
241
102
}
330
241
100
AcDbScale
 70
     0
300
1:16
140
1.0
141
16.0
290
     0
  0
SCALE
  5
249
102
{ACAD_REACTORS
330
241
102
}
330
241
100
AcDbScale
 70
     0
300
1:20
140
1.0
141
20.0
290
     0
  0
SCALE
  5
24A
102
{ACAD_REACTORS
330
241
102
}
330
241
100
AcDbScale
 70
     0
300
1:30
140
1.0
141
30.0
290
     0
  0
SCALE
  5
24B
102
{ACAD_REACTORS
330
241
102
}
330
241
100
AcDbScale
 70
     0
300
1:40
140
1.0
141
40.0
290
     0
  0
SCALE
  5
24C
102
{ACAD_REACTORS
330
241
102
}
330
241
100
AcDbScale
 70
     0
300
1:50
140
1.0
141
50.0
290
     0
  0
SCALE
  5
24D
102
{ACAD_REACTORS
330
241
102
}
330
241
100
AcDbScale
 70
     0
300
1:100
140
1.0
141
100.0
290
     0
  0
SCALE
  5
24E
102
{ACAD_REACTORS
330
241
102
}
330
241
100
AcDbScale
 70
     0
300
2:1
140
2.0
141
1.0
290
     0
  0
SCALE
  5
24F
102
{ACAD_REACTORS
330
241
102
}
330
241
100
AcDbScale
 70
     0
300
4:1
140
4.0
141
1.0
290
     0
  0
SCALE
  5
250
102
{ACAD_REACTORS
330
241
102
}
330
241
100
AcDbScale
 70
     0
300
8:1
140
8.0
141
1.0
290
     0
  0
SCALE
  5
251
102
{ACAD_REACTORS
330
241
102
}
330
241
100
AcDbScale
 70
     0
300
10:1
140
10.0
141
1.0
290
     0
  0
SCALE
  5
252
102
{ACAD_REACTORS
330
241
102
}
330
241
100
AcDbScale
 70
     0
300
100:1
140
100.0
141
1.0
290
     0
  0
SCALE
  5
253
102
{ACAD_REACTORS
330
241
102
}
330
241
100
AcDbScale
 70
     0
300
1/128" = 1'-0"
140
0.0078125
141
12.0
290
     0
  0
SCALE
  5
254
102
{ACAD_REACTORS
330
241
102
}
330
241
100
AcDbScale
 70
     0
300
1/64" = 1'-0"
140
0.015625
141
12.0
290
     0
  0
SCALE
  5
255
102
{ACAD_REACTORS
330
241
102
}
330
241
100
AcDbScale
 70
     0
300
1/32" = 1'-0"
140
0.03125
141
12.0
290
     0
  0
SCALE
  5
256
102
{ACAD_REACTORS
330
241
102
}
330
241
100
AcDbScale
 70
     0
300
1/16" = 1'-0"
140
0.0625
141
12.0
290
     0
  0
SCALE
  5
257
102
{ACAD_REACTORS
330
241
102
}
330
241
100
AcDbScale
 70
     0
300
3/32" = 1'-0"
140
0.09375
141
12.0
290
     0
  0
SCALE
  5
258
102
{ACAD_REACTORS
330
241
102
}
330
241
100
AcDbScale
 70
     0
300
1/8" = 1'-0"
140
0.125
141
12.0
290
     0
  0
SCALE
  5
259
102
{ACAD_REACTORS
330
241
102
}
330
241
100
AcDbScale
 70
     0
300
3/16" = 1'-0"
140
0.1875
141
12.0
290
     0
  0
SCALE
  5
25A
102
{ACAD_REACTORS
330
241
102
}
330
241
100
AcDbScale
 70
     0
300
1/4" = 1'-0"
140
0.25
141
12.0
290
     0
  0
SCALE
  5
25B
102
{ACAD_REACTORS
330
241
102
}
330
241
100
AcDbScale
 70
     0
300
3/8" = 1'-0"
140
0.375
141
12.0
290
     0
  0
SCALE
  5
25C
102
{ACAD_REACTORS
330
241
102
}
330
241
100
AcDbScale
 70
     0
300
1/2" = 1'-0"
140
0.5
141
12.0
290
     0
  0
SCALE
  5
25D
102
{ACAD_REACTORS
330
241
102
}
330
241
100
AcDbScale
 70
     0
300
3/4" = 1'-0"
140
0.75
141
12.0
290
     0
  0
SCALE
  5
25E
102
{ACAD_REACTORS
330
241
102
}
330
241
100
AcDbScale
 70
     0
300
1" = 1'-0"
140
1.0
141
12.0
290
     0
  0
SCALE
  5
25F
102
{ACAD_REACTORS
330
241
102
}
330
241
100
AcDbScale
 70
     0
300
1-1/2" = 1'-0"
140
1.5
141
12.0
290
     0
  0
SCALE
  5
260
102
{ACAD_REACTORS
330
241
102
}
330
241
100
AcDbScale
 70
     0
300
3" = 1'-0"
140
3.0
141
12.0
290
     0
  0
SCALE
  5
261
102
{ACAD_REACTORS
330
241
102
}
330
241
100
AcDbScale
 70
     0
300
6" = 1'-0"
140
6.0
141
12.0
290
     0
  0
SCALE
  5
262
102
{ACAD_REACTORS
330
241
102
}
330
241
100
AcDbScale
 70
     0
300
1'-0" = 1'-0"
140
12.0
141
12.0
290
     0
  0
TABLESTYLE
  5
279
102
{ACAD_REACTORS
330
278
102
}
102
{ACAD_XDICTIONARY
360
4ACD
102
}
330
278
100
AcDbTableStyle
  3
Standard
 70
     0
 71
     0
 40
0.06
 41
0.06
280
     0
281
     0
  7
Standard
140
4.5
170
     2
 62
     0
 63
   257
283
     0
 90
        4
 91
        0
  1

274
    -2
284
     1
 64
     0
275
    -2
285
     1
 65
     0
276
    -2
286
     1
 66
     0
277
    -2
287
     1
 67
     0
278
    -2
288
     1
 68
     0
279
    -2
289
     1
 69
     0
  7
Standard
140
6.0
170
     5
 62
     0
 63
   257
283
     0
 90
        4
 91
        0
  1

274
    -2
284
     1
 64
     0
275
    -2
285
     1
 65
     0
276
    -2
286
     1
 66
     0
277
    -2
287
     1
 67
     0
278
    -2
288
     1
 68
     0
279
    -2
289
     1
 69
     0
  7
Standard
140
4.5
170
     5
 62
     0
 63
   257
283
     0
 90
        4
 91
        0
  1

274
    -2
284
     1
 64
     0
275
    -2
285
     1
 65
     0
276
    -2
286
     1
 66
     0
277
    -2
287
     1
 67
     0
278
    -2
288
     1
 68
     0
279
    -2
289
     1
 69
     0
  0
VISUALSTYLE
  5
26C
102
{ACAD_REACTORS
330
267
102
}
330
267
100
AcDbVisualStyle
  2
2dWireframe
 70
     4
 71
     0
 72
     2
 73
     0
 90
        0
 40
-0.6
 41
-30.0
 62
     5
 63
     7
421
 16777215
 74
     1
 91
        4
 64
     7
 65
   257
 75
     1
175
     1
 42
1.0
 92
        0
 66
   257
 43
1.0
 76
     1
 77
     6
 78
     2
 67
     7
 79
     5
170
     0
171
     0
290
     0
174
     0
 93
        1
 44
0.0
173
     0
291
     0
 45
0.0
  0
VISUALSTYLE
  5
26E
102
{ACAD_REACTORS
330
267
102
}
330
267
100
AcDbVisualStyle
  2
3D Hidden
 70
     6
 71
     1
 72
     2
 73
     2
 90
        0
 40
-0.6
 41
-30.0
 62
     5
 63
     7
421
 16777215
 74
     2
 91
        2
 64
     7
 65
   257
 75
     2
175
     1
 42
40.0
 92
        0
 66
   257
 43
1.0
 76
     1
 77
     6
 78
     2
 67
     7
 79
     3
170
     0
171
     0
290
     0
174
     0
 93
        1
 44
0.0
173
     0
291
     0
 45
0.0
  0
VISUALSTYLE
  5
26D
102
{ACAD_REACTORS
330
267
102
}
330
267
100
AcDbVisualStyle
  2
3dWireframe
 70
     5
 71
     0
 72
     2
 73
     0
 90
        0
 40
-0.6
 41
-30.0
 62
     5
 63
     7
421
 16777215
 74
     1
 91
        4
 64
     7
 65
   257
 75
     1
175
     1
 42
1.0
 92
        0
 66
   257
 43
1.0
 76
     1
 77
     6
 78
     2
 67
     7
 79
     5
170
     0
171
     0
290
     0
174
     0
 93
        1
 44
0.0
173
     0
291
     0
 45
0.0
  0
VISUALSTYLE
  5
26F
102
{ACAD_REACTORS
330
267
102
}
330
267
100
AcDbVisualStyle
  2
Basic
 70
     7
 71
     1
 72
     0
 73
     1
 90
        0
 40
-0.6
 41
-30.0
 62
     5
 63
     7
421
 16777215
 74
     0
 91
        4
 64
     7
 65
   257
 75
     1
175
     1
 42
1.0
 92
        8
 66
     7
 43
1.0
 76
     1
 77
     6
 78
     2
 67
     7
 79
     5
170
     0
171
     0
290
     0
174
     0
 93
        1
 44
0.0
173
     0
291
     1
 45
0.0
  0
VISUALSTYLE
  5
273
102
{ACAD_REACTORS
330
267
102
}
330
267
100
AcDbVisualStyle
  2
Brighten
 70
    12
 71
     2
 72
     2
 73
     0
 90
        0
 40
-0.6
 41
-30.0
 62
     5
 63
     7
421
 16777215
 74
     1
 91
        4
 64
     7
 65
   257
 75
     1
175
     1
 42
1.0
 92
        8
 66
     7
 43
1.0
 76
     1
 77
     6
 78
     2
 67
     7
 79
     5
170
     0
171
     0
290
     0
174
     0
 93
        1
 44
50.0
173
     0
291
     1
 45
0.0
  0
VISUALSTYLE
  5
277
102
{ACAD_REACTORS
330
267
102
}
330
267
100
AcDbVisualStyle
  2
ColorChange
 70
    16
 71
     2
 72
     2
 73
     3
 90
        0
 40
-0.6
 41
-30.0
 62
     5
 63
     8
421
  8421504
 74
     1
 91
        4
 64
     7
 65
   257
 75
     1
175
     1
 42
1.0
 92
        8
 66
     8
424
  8421504
 43
1.0
 76
     1
 77
     6
 78
     2
 67
     7
 79
     5
170
     0
171
     0
290
     0
174
     0
 93
        1
 44
0.0
173
     0
291
     1
 45
0.0
  0
VISUALSTYLE
  5
271
102
{ACAD_REACTORS
330
267
102
}
330
267
100
AcDbVisualStyle
  2
Conceptual
 70
     9
 71
     3
 72
     2
 73
     0
 90
        0
 40
-0.6
 41
-30.0
 62
     5
 63
     7
421
 16777215
 74
     2
 91
        2
 64
     7
 65
   257
 75
     1
175
     1
 42
40.0
 92
        8
 66
     7
 43
1.0
 76
     1
 77
     6
 78
     2
 67
     7
 79
     3
170
     0
171
     0
290
     0
174
     0
 93
        1
 44
0.0
173
     0
291
     0
 45
0.0
  0
VISUALSTYLE
  5
272
102
{ACAD_REACTORS
330
267
102
}
330
267
100
AcDbVisualStyle
  2
Dim
 70
    11
 71
     2
 72
     2
 73
     0
 90
        0
 40
-0.6
 41
-30.0
 62
     5
 63
     7
421
 16777215
 74
     1
 91
        4
 64
     7
 65
   257
 75
     1
175
     1
 42
1.0
 92
        8
 66
     7
 43
1.0
 76
     1
 77
     6
 78
     2
 67
     7
 79
     5
170
     0
171
     0
290
     0
174
     0
 93
        1
 44
-50.0
173
     0
291
     1
 45
0.0
  0
VISUALSTYLE
  5
8FE
102
{ACAD_REACTORS
330
267
102
}
330
267
100
AcDbVisualStyle
  2
EdgeColorOff
 70
    22
 71
     2
 72
     2
 73
     0
 90
        0
 40
0.6
 41
30.0
 62
     5
 63
     7
421
 16777215
 74
     1
 91
        4
 64
     7
 65
   257
 75
     1
175
     1
 42
1.0
 92
        8
 66
     7
 43
1.0
 76
     1
 77
     6
 78
     2
 67
     7
 79
     5
170
     0
171
     0
290
     0
174
     0
 93
        1
 44
0.0
173
     0
291
     1
 45
0.0
  0
VISUALSTYLE
  5
276
102
{ACAD_REACTORS
330
267
102
}
330
267
100
AcDbVisualStyle
  2
Facepattern
 70
    15
 71
     2
 72
     2
 73
     0
 90
        0
 40
-0.6
 41
-30.0
 62
     5
 63
     7
421
 16777215
 74
     1
 91
        4
 64
     7
 65
   257
 75
     1
175
     1
 42
1.0
 92
        8
 66
     7
 43
1.0
 76
     1
 77
     6
 78
     2
 67
     7
 79
     5
170
     0
171
     0
290
     0
174
     0
 93
        1
 44
0.0
173
     0
291
     1
 45
0.0
  0
VISUALSTYLE
  5
268
102
{ACAD_REACTORS
330
267
102
}
330
267
100
AcDbVisualStyle
  2
Flat
 70
     0
 71
     2
 72
     1
 73
     1
 90
        2
 40
-0.6
 41
30.0
 62
     5
 63
     7
421
 16777215
 74
     0
 91
        4
 64
     7
 65
   257
 75
     1
175
     1
 42
1.0
 92
        8
 66
     7
 43
1.0
 76
     1
 77
     6
 78
     2
 67
     7
 79
     5
170
     0
171
     0
290
     0
174
     0
 93
       13
 44
0.0
173
     0
291
     1
 45
0.0
  0
VISUALSTYLE
  5
269
102
{ACAD_REACTORS
330
267
102
}
330
267
100
AcDbVisualStyle
  2
FlatWithEdges
 70
     1
 71
     2
 72
     1
 73
     1
 90
        2
 40
-0.6
 41
30.0
 62
     5
 63
     7
421
 16777215
 74
     1
 91
        4
 64
     7
 65
   257
 75
     1
175
     1
 42
1.0
 92
        0
 66
   257
 43
1.0
 76
     1
 77
     6
 78
     2
 67
     7
 79
     5
170
     0
171
     0
290
     0
174
     0
 93
       13
 44
0.0
173
     0
291
     1
 45
0.0
  0
VISUALSTYLE
  5
26A
102
{ACAD_REACTORS
330
267
102
}
330
267
100
AcDbVisualStyle
  2
Gouraud
 70
     2
 71
     2
 72
     2
 73
     1
 90
        2
 40
-0.6
 41
30.0
 62
     5
 63
     7
421
 16777215
 74
     0
 91
        4
 64
     7
 65
   257
 75
     1
175
     1
 42
1.0
 92
        0
 66
     7
 43
1.0
 76
     1
 77
     6
 78
     2
 67
     7
 79
     5
170
     0
171
     0
290
     0
174
     0
 93
       13
 44
0.0
173
     0
291
     1
 45
0.0
  0
VISUALSTYLE
  5
26B
102
{ACAD_REACTORS
330
267
102
}
330
267
100
AcDbVisualStyle
  2
GouraudWithEdges
 70
     3
 71
     2
 72
     2
 73
     1
 90
        2
 40
-0.6
 41
30.0
 62
     5
 63
     7
421
 16777215
 74
     1
 91
        4
 64
     7
 65
   257
 75
     1
175
     1
 42
1.0
 92
        0
 66
   257
 43
1.0
 76
     1
 77
     6
 78
     2
 67
     7
 79
     5
170
     0
171
     0
290
     0
174
     0
 93
       13
 44
0.0
173
     0
291
     1
 45
0.0
  0
VISUALSTYLE
  5
8FB
102
{ACAD_REACTORS
330
267
102
}
330
267
100
AcDbVisualStyle
  2
Hidden
 70
     6
 71
     1
 72
     2
 73
     2
 90
        0
 40
0.6
 41
30.0
 62
     5
 63
     7
421
 16777215
 74
     2
 91
        2
 64
     7
 65
   257
 75
     2
175
     1
 42
40.0
 92
        0
 66
   257
 43
1.0
 76
     1
 77
     6
 78
     2
 67
     7
 79
     3
170
     0
171
     0
290
     0
174
     0
 93
        1
 44
0.0
173
     0
291
     0
 45
0.0
  0
VISUALSTYLE
  5
8FC
102
{ACAD_REACTORS
330
267
102
}
330
267
100
AcDbVisualStyle
  2
JitterOff
 70
    20
 71
     2
 72
     2
 73
     0
 90
        0
 40
0.6
 41
30.0
 62
     5
 63
     7
421
 16777215
 74
     1
 91
        4
 64
     7
 65
   257
 75
     1
175
     1
 42
1.0
 92
       10
 66
     7
 43
1.0
 76
     1
 77
     6
 78
     2
 67
     7
 79
     5
170
     0
171
     0
290
     0
174
     0
 93
        1
 44
0.0
173
     0
291
     1
 45
0.0
  0
VISUALSTYLE
  5
275
102
{ACAD_REACTORS
330
267
102
}
330
267
100
AcDbVisualStyle
  2
Linepattern
 70
    14
 71
     2
 72
     2
 73
     0
 90
        0
 40
-0.6
 41
-30.0
 62
     5
 63
     7
421
 16777215
 74
     1
 91
        4
 64
     7
 65
   257
 75
     7
175
     7
 42
1.0
 92
        8
 66
     7
 43
1.0
 76
     1
 77
     6
 78
     2
 67
     7
 79
     5
170
     0
171
     0
290
     0
174
     0
 93
        1
 44
0.0
173
     0
291
     1
 45
0.0
  0
VISUALSTYLE
  5
8FD
102
{ACAD_REACTORS
330
267
102
}
330
267
100
AcDbVisualStyle
  2
OverhangOff
 70
    21
 71
     2
 72
     2
 73
     0
 90
        0
 40
0.6
 41
30.0
 62
     5
 63
     7
421
 16777215
 74
     1
 91
        4
 64
     7
 65
   257
 75
     1
175
     1
 42
1.0
 92
        9
 66
     7
 43
1.0
 76
     1
 77
     6
 78
     2
 67
     7
 79
     5
170
     0
171
     0
290
     0
174
     0
 93
        1
 44
0.0
173
     0
291
     1
 45
0.0
  0
VISUALSTYLE
  5
270
102
{ACAD_REACTORS
330
267
102
}
330
267
100
AcDbVisualStyle
  2
Realistic
 70
     8
 71
     2
 72
     2
 73
     0
 90
        0
 40
-0.6
 41
-30.0
 62
     5
 63
     7
421
 16777215
 74
     1
 91
        0
 64
     7
 65
   257
 75
     1
175
     1
 42
1.0
 92
        8
 66
     8
424
  7895160
 43
1.0
 76
     1
 77
     6
 78
     2
 67
     7
 79
     5
170
     0
171
     0
290
     0
174
     0
 93
       13
 44
0.0
173
     0
291
     0
 45
0.0
  0
VISUALSTYLE
  5
903
102
{ACAD_REACTORS
330
267
102
}
330
267
100
AcDbVisualStyle
  2
Shaded
 70
    27
 71
     2
 72
     2
 73
     1
 90
        2
 40
0.6
 41
30.0
 62
     5
 63
     7
421
 16777215
 74
     0
 91
        4
 64
     7
 65
   257
 75
     1
175
     1
 42
1.0
 92
        8
 66
   257
 43
1.0
 76
     1
 77
     6
 78
     2
 67
     8
425
  7895160
 79
     3
170
     0
171
     0
290
     0
174
     0
 93
        5
 44
0.0
173
     0
291
     0
 45
0.0
  0
VISUALSTYLE
  5
902
102
{ACAD_REACTORS
330
267
102
}
330
267
100
AcDbVisualStyle
  2
Shaded with edges
 70
    26
 71
     2
 72
     2
 73
     1
 90
        2
 40
0.6
 41
30.0
 62
     5
 63
     7
421
 16777215
 74
     1
 91
       10
 64
     7
 65
   257
 75
     2
175
     1
 42
1.0
 92
        8
 66
   257
 43
1.0
 76
     1
 77
     6
 78
     2
 67
     7
 79
     3
170
     0
171
     0
290
     0
174
     0
 93
        5
 44
0.0
173
     0
291
     0
 45
0.0
  0
VISUALSTYLE
  5
8FF
102
{ACAD_REACTORS
330
267
102
}
330
267
100
AcDbVisualStyle
  2
Shades of Gray
 70
    23
 71
     2
 72
     2
 73
     3
 90
        0
 40
0.6
 41
30.0
 62
     5
 63
     7
421
 16777215
 74
     2
 91
        2
 64
     7
 65
     7
 75
     1
175
     1
 42
40.0
 92
        8
 66
     7
 43
1.0
 76
     1
 77
     6
 78
     2
 67
     7
 79
     3
170
     0
171
     0
290
     0
174
     0
 93
        1
 44
0.0
173
     0
291
     0
 45
0.0
  0
VISUALSTYLE
  5
900
102
{ACAD_REACTORS
330
267
102
}
330
267
100
AcDbVisualStyle
  2
Sketchy
 70
    24
 71
     1
 72
     2
 73
     2
 90
        0
 40
0.6
 41
30.0
 62
     5
 63
     7
421
 16777215
 74
     2
 91
        2
 64
     7
 65
     7
 75
     1
175
     1
 42
40.0
 92
       11
 66
     7
 43
1.0
 76
     1
 77
     6
 78
     2
 67
     7
 79
     6
170
     0
171
     0
290
     0
174
     0
 93
        1
 44
0.0
173
     0
291
     0
 45
0.0
  0
VISUALSTYLE
  5
274
102
{ACAD_REACTORS
330
267
102
}
330
267
100
AcDbVisualStyle
  2
Thicken
 70
    13
 71
     2
 72
     2
 73
     0
 90
        0
 40
-0.6
 41
-30.0
 62
     5
 63
     7
421
 16777215
 74
     1
 91
        4
 64
     7
 65
   257
 75
     1
175
     1
 42
1.0
 92
       12
 66
     7
 43
1.0
 76
     1
 77
     6
 78
     2
 67
     7
 79
     5
170
     0
171
     0
290
     0
174
     0
 93
        1
 44
0.0
173
     0
291
     1
 45
0.0
  0
VISUALSTYLE
  5
8FA
102
{ACAD_REACTORS
330
267
102
}
330
267
100
AcDbVisualStyle
  2
Wireframe
 70
     5
 71
     0
 72
     2
 73
     0
 90
        0
 40
0.6
 41
30.0
 62
     5
 63
     7
421
 16777215
 74
     1
 91
        4
 64
     7
 65
   257
 75
     1
175
     1
 42
1.0
 92
        0
 66
   257
 43
1.0
 76
     1
 77
     6
 78
     2
 67
     7
 79
     3
170
     0
171
     0
290
     0
174
     0
 93
        1
 44
0.0
173
     0
291
     0
 45
0.0
  0
VISUALSTYLE
  5
901
102
{ACAD_REACTORS
330
267
102
}
330
267
100
AcDbVisualStyle
  2
X-Ray
 70
    25
 71
     2
 72
     2
 73
     1
 90
        1
 40
0.5
 41
30.0
 62
     5
 63
     7
421
 16777215
 74
     1
 91
        0
 64
     7
 65
   257
 75
     1
175
     1
 42
1.0
 92
        8
 66
     7
 43
1.0
 76
     1
 77
     6
 78
     2
 67
     7
 79
     3
170
     0
171
     0
290
     0
174
     0
 93
       13
 44
0.0
173
     0
291
     0
 45
0.0
  0
DICTIONARYVAR
  5
331
102
{ACAD_REACTORS
330
330
102
}
330
330
100
DictionaryVariables
280
     0
  1
1:1
  0
DICTIONARYVAR
  5
DB1
102
{ACAD_REACTORS
330
330
102
}
330
330
100
DictionaryVariables
280
     0
  1
Standard
  0
DICTIONARYVAR
  5
335
102
{ACAD_REACTORS
330
330
102
}
330
330
100
DictionaryVariables
280
     0
  1
Standard
  0
DICTIONARYVAR
  5
D52
102
{ACAD_REACTORS
330
330
102
}
330
330
100
DictionaryVariables
280
     0
  1
ByLayer
  0
DICTIONARYVAR
  5
896
102
{ACAD_REACTORS
330
330
102
}
330
330
100
DictionaryVariables
280
     0
  1
0
  0
DICTIONARYVAR
  5
ECE
102
{ACAD_REACTORS
330
E3E
102
}
330
E3E
100
DictionaryVariables
280
     0
  1
0.261799
  0
DICTIONARYVAR
  5
ECC
102
{ACAD_REACTORS
330
E3E
102
}
330
E3E
100
DictionaryVariables
280
     0
  1
0.400000
  0
DICTIONARYVAR
  5
ECD
102
{ACAD_REACTORS
330
E3E
102
}
330
E3E
100
DictionaryVariables
280
     0
  1
0.250000
  0
DICTIONARYVAR
  5
ECF
102
{ACAD_REACTORS
330
E3E
102
}
330
E3E
100
DictionaryVariables
280
     0
  1
1
  0
FIELD
  5
1467
102
{ACAD_REACTORS
330
4A55
330
4AC9
102
}
330
4AC9
100
AcDbField
  1
_text
  2
{%<\_FldIdx 0>%M}
 90
        1
360
146B
 97
        0
 91
       63
 92
        0
 94
       11
 95
        2
 96
        0
300

 93
        1
  6
ACFD_FIELDTEXT_CHECKSUM
 93
        2
 90
        2
140
4502.0
 94
        0
300

302

304
ACVALUE_END
  7
ACFD_FIELD_VALUE
 93
        6
 90
        4
  1
{20240416M}
 94
        0
300

302

304
ACVALUE_END
301
{20240416M}
 98
       11
  0
DICTIONARY
  5
4ACD
330
279
100
AcDbDictionary
280
     1
281
     1
  3
ACAD_ROUNDTRIP_2008_TABLESTYLE_CELLSTYLEMAP
360
4ACE
  0
FIELD
  5
146B
330
1467
100
AcDbField
  1
AcVar
  2
\AcVar Date \f "yyyyMMdd"
 90
        0
 97
        0
 91
       63
 92
        0
 94
        8
 95
       64
 96
        0
300
Variable not supported
 93
        1
  6
Variable
 93
        2
 90
        4
  1
Date
 94
        0
300

302

304
ACVALUE_END
  7
ACFD_FIELD_VALUE
 93
        6
 90
        8
 92
       16
310
E807040000001000060039001B000000
 94
        0
300
yyyyMMdd
302

304
ACVALUE_END
301
20240416
 98
        8
  0
CELLSTYLEMAP
  5
4ACE
102
{ACAD_REACTORS
330
4ACD
102
}
330
4ACD
100
AcDbCellStyleMap
 90
        3
300
CELLSTYLE
  1
TABLEFORMAT_BEGIN
 90
        5
170
     1
 91
        0
 92
    32768
 62
   257
 93
        1
300
CONTENTFORMAT
  1
CONTENTFORMAT_BEGIN
 90
        0
 91
        0
 92
        4
 93
        0
300

 40
0.0
140
1.0
 94
        5
 62
     0
340
17
144
6.0
309
CONTENTFORMAT_END
171
     1
301
MARGIN
  1
CELLMARGIN_BEGIN
 40
0.06
 40
0.06
 40
0.06
 40
0.06
 40
0.18
 40
0.18
309
CELLMARGIN_END
 94
        6
 95
        1
302
GRIDFORMAT
  1
GRIDFORMAT_BEGIN
 90
        0
 91
        1
 62
     0
 92
       -2
340
0
 93
        0
 40
0.045
309
GRIDFORMAT_END
 95
        2
302
GRIDFORMAT
  1
GRIDFORMAT_BEGIN
 90
        0
 91
        1
 62
     0
 92
       -2
340
0
 93
        0
 40
0.045
309
GRIDFORMAT_END
 95
        4
302
GRIDFORMAT
  1
GRIDFORMAT_BEGIN
 90
        0
 91
        1
 62
     0
 92
       -2
340
0
 93
        0
 40
0.045
309
GRIDFORMAT_END
 95
        8
302
GRIDFORMAT
  1
GRIDFORMAT_BEGIN
 90
        0
 91
        1
 62
     0
 92
       -2
340
0
 93
        0
 40
0.045
309
GRIDFORMAT_END
 95
       16
302
GRIDFORMAT
  1
GRIDFORMAT_BEGIN
 90
        0
 91
        1
 62
     0
 92
       -2
340
0
 93
        0
 40
0.045
309
GRIDFORMAT_END
 95
       32
302
GRIDFORMAT
  1
GRIDFORMAT_BEGIN
 90
        0
 91
        1
 62
     0
 92
       -2
340
0
 93
        0
 40
0.045
309
GRIDFORMAT_END
309
TABLEFORMAT_END
  1
CELLSTYLE_BEGIN
 90
        1
 91
        1
300
_TITLE
309
CELLSTYLE_END
300
CELLSTYLE
  1
TABLEFORMAT_BEGIN
 90
        5
170
     1
 91
        0
 92
        0
 62
   257
 93
        1
300
CONTENTFORMAT
  1
CONTENTFORMAT_BEGIN
 90
        0
 91
        0
 92
        4
 93
        0
300

 40
0.0
140
1.0
 94
        5
 62
     0
340
17
144
4.5
309
CONTENTFORMAT_END
171
     1
301
MARGIN
  1
CELLMARGIN_BEGIN
 40
0.06
 40
0.06
 40
0.06
 40
0.06
 40
0.18
 40
0.18
309
CELLMARGIN_END
 94
        6
 95
        1
302
GRIDFORMAT
  1
GRIDFORMAT_BEGIN
 90
        0
 91
        1
 62
     0
 92
       -2
340
0
 93
        0
 40
0.045
309
GRIDFORMAT_END
 95
        2
302
GRIDFORMAT
  1
GRIDFORMAT_BEGIN
 90
        0
 91
        1
 62
     0
 92
       -2
340
0
 93
        0
 40
0.045
309
GRIDFORMAT_END
 95
        4
302
GRIDFORMAT
  1
GRIDFORMAT_BEGIN
 90
        0
 91
        1
 62
     0
 92
       -2
340
0
 93
        0
 40
0.045
309
GRIDFORMAT_END
 95
        8
302
GRIDFORMAT
  1
GRIDFORMAT_BEGIN
 90
        0
 91
        1
 62
     0
 92
       -2
340
0
 93
        0
 40
0.045
309
GRIDFORMAT_END
 95
       16
302
GRIDFORMAT
  1
GRIDFORMAT_BEGIN
 90
        0
 91
        1
 62
     0
 92
       -2
340
0
 93
        0
 40
0.045
309
GRIDFORMAT_END
 95
       32
302
GRIDFORMAT
  1
GRIDFORMAT_BEGIN
 90
        0
 91
        1
 62
     0
 92
       -2
340
0
 93
        0
 40
0.045
309
GRIDFORMAT_END
309
TABLEFORMAT_END
  1
CELLSTYLE_BEGIN
 90
        2
 91
        1
300
_HEADER
309
CELLSTYLE_END
300
CELLSTYLE
  1
TABLEFORMAT_BEGIN
 90
        5
170
     1
 91
        0
 92
        0
 62
   257
 93
        1
300
CONTENTFORMAT
  1
CONTENTFORMAT_BEGIN
 90
        0
 91
        0
 92
        4
 93
        0
300

 40
0.0
140
1.0
 94
        2
 62
     0
340
17
144
4.5
309
CONTENTFORMAT_END
171
     1
301
MARGIN
  1
CELLMARGIN_BEGIN
 40
0.06
 40
0.06
 40
0.06
 40
0.06
 40
0.18
 40
0.18
309
CELLMARGIN_END
 94
        6
 95
        1
302
GRIDFORMAT
  1
GRIDFORMAT_BEGIN
 90
        0
 91
        1
 62
     0
 92
       -2
340
0
 93
        0
 40
0.045
309
GRIDFORMAT_END
 95
        2
302
GRIDFORMAT
  1
GRIDFORMAT_BEGIN
 90
        0
 91
        1
 62
     0
 92
       -2
340
0
 93
        0
 40
0.045
309
GRIDFORMAT_END
 95
        4
302
GRIDFORMAT
  1
GRIDFORMAT_BEGIN
 90
        0
 91
        1
 62
     0
 92
       -2
340
0
 93
        0
 40
0.045
309
GRIDFORMAT_END
 95
        8
302
GRIDFORMAT
  1
GRIDFORMAT_BEGIN
 90
        0
 91
        1
 62
     0
 92
       -2
340
0
 93
        0
 40
0.045
309
GRIDFORMAT_END
 95
       16
302
GRIDFORMAT
  1
GRIDFORMAT_BEGIN
 90
        0
 91
        1
 62
     0
 92
       -2
340
0
 93
        0
 40
0.045
309
GRIDFORMAT_END
 95
       32
302
GRIDFORMAT
  1
GRIDFORMAT_BEGIN
 90
        0
 91
        1
 62
     0
 92
       -2
340
0
 93
        0
 40
0.045
309
GRIDFORMAT_END
309
TABLEFORMAT_END
  1
CELLSTYLE_BEGIN
 90
        3
 91
        2
300
_DATA
309
CELLSTYLE_END
  0
ENDSEC
  0
EOF
